  0
SECTION
  2
HEADER
  9
$ACADVER
  1
AC1018
  9
$ACADMAINTVER
 70
   104
  9
$DWGCODEPAGE
  3
ANSI_1252
  9
$LASTSAVEDBY
  1
EARL
  9
$INSBASE
 10
0.0
 20
0.0
 30
0.0
  9
$EXTMIN
 10
-8.348815078795343
 20
0.2741843227045991
 30
0.0
  9
$EXTMAX
 10
2.718686134049455
 20
7.724891662597656
 30
0.0
  9
$LIMMIN
 10
0.0
 20
0.0
  9
$LIMMAX
 10
0.0
 20
0.0
  9
$ORTHOMODE
 70
     0
  9
$REGENMODE
 70
     1
  9
$FILLMODE
 70
     1
  9
$QTEXTMODE
 70
     0
  9
$MIRRTEXT
 70
     1
  9
$LTSCALE
 40
1.0
  9
$ATTMODE
 70
     1
  9
$TEXTSIZE
 40
0.0
  9
$TRACEWID
 40
0.05
  9
$TEXTSTYLE
  7
Standard
  9
$CLAYER
  8
0
  9
$CELTYPE
  6
Continuous
  9
$CECOLOR
 62
   256
  9
$CELTSCALE
 40
1.0
  9
$DISPSILH
 70
     0
  9
$DIMSCALE
 40
1.0
  9
$DIMASZ
 40
0.18
  9
$DIMEXO
 40
0.0625
  9
$DIMDLI
 40
0.38
  9
$DIMRND
 40
0.0
  9
$DIMDLE
 40
0.0
  9
$DIMEXE
 40
0.18
  9
$DIMTP
 40
0.0
  9
$DIMTM
 40
0.0
  9
$DIMTXT
 40
0.18
  9
$DIMCEN
 40
0.09
  9
$DIMTSZ
 40
0.0
  9
$DIMTOL
 70
     0
  9
$DIMLIM
 70
     0
  9
$DIMTIH
 70
     1
  9
$DIMTOH
 70
     1
  9
$DIMSE1
 70
     0
  9
$DIMSE2
 70
     0
  9
$DIMTAD
 70
     0
  9
$DIMZIN
 70
     0
  9
$DIMBLK
  1

  9
$DIMASO
 70
     1
  9
$DIMSHO
 70
     1
  9
$DIMPOST
  1

  9
$DIMAPOST
  1

  9
$DIMALT
 70
     0
  9
$DIMALTD
 70
     2
  9
$DIMALTF
 40
25.4
  9
$DIMLFAC
 40
1.0
  9
$DIMTOFL
 70
     0
  9
$DIMTVP
 40
0.0
  9
$DIMTIX
 70
     0
  9
$DIMSOXD
 70
     0
  9
$DIMSAH
 70
     0
  9
$DIMBLK1
  1

  9
$DIMBLK2
  1

  9
$DIMSTYLE
  2
Standard
  9
$DIMCLRD
 70
     0
  9
$DIMCLRE
 70
     0
  9
$DIMCLRT
 70
     0
  9
$DIMTFAC
 40
1.0
  9
$DIMGAP
 40
0.09
  9
$DIMJUST
 70
     0
  9
$DIMSD1
 70
     0
  9
$DIMSD2
 70
     0
  9
$DIMTOLJ
 70
     1
  9
$DIMTZIN
 70
     0
  9
$DIMALTZ
 70
     0
  9
$DIMALTTZ
 70
     0
  9
$DIMUPT
 70
     0
  9
$DIMDEC
 70
     4
  9
$DIMTDEC
 70
     4
  9
$DIMALTU
 70
     2
  9
$DIMALTTD
 70
     2
  9
$DIMTXSTY
  7
Standard
  9
$DIMAUNIT
 70
     0
  9
$DIMADEC
 70
     0
  9
$DIMALTRND
 40
0.0
  9
$DIMAZIN
 70
     0
  9
$DIMDSEP
 70
    46
  9
$DIMATFIT
 70
     0
  9
$DIMFRAC
 70
     0
  9
$DIMLDRBLK
  1

  9
$DIMLUNIT
 70
     2
  9
$DIMLWD
 70
    -2
  9
$DIMLWE
 70
    -2
  9
$DIMTMOVE
 70
     0
  9
$LUNITS
 70
     2
  9
$LUPREC
 70
     4
  9
$SKETCHINC
 40
0.1
  9
$FILLETRAD
 40
0.0
  9
$AUNITS
 70
     0
  9
$AUPREC
 70
     0
  9
$MENU
  1
acad
  9
$ELEVATION
 40
0.0
  9
$PELEVATION
 40
0.0
  9
$THICKNESS
 40
0.0
  9
$LIMCHECK
 70
     0
  9
$CHAMFERA
 40
0.0
  9
$CHAMFERB
 40
0.0
  9
$CHAMFERC
 40
0.0
  9
$CHAMFERD
 40
0.0
  9
$SKPOLY
 70
     0
  9
$TDCREATE
 40
2454842.807083334
  9
$TDUCREATE
 40
2454842.973750000
  9
$TDUPDATE
 40
2455095.984242431
  9
$TDUUPDATE
 40
2455096.150909098
  9
$TDINDWG
 40
0.0010119792
  9
$TDUSRTIMER
 40
0.0010119792
  9
$USRTIMER
 70
     1
  9
$ANGBASE
 50
0.0
  9
$ANGDIR
 70
     0
  9
$PDMODE
 70
     0
  9
$PDSIZE
 40
0.0
  9
$PLINEWID
 40
0.0
  9
$SPLFRAME
 70
     0
  9
$SPLINETYPE
 70
     6
  9
$SPLINESEGS
 70
     8
  9
$HANDSEED
  5
164
  9
$SURFTAB1
 70
     6
  9
$SURFTAB2
 70
     6
  9
$SURFTYPE
 70
     6
  9
$SURFU
 70
     6
  9
$SURFV
 70
     6
  9
$UCSBASE
  2

  9
$UCSNAME
  2

  9
$UCSORG
 10
0.0
 20
0.0
 30
0.0
  9
$UCSXDIR
 10
1.0
 20
0.0
 30
0.0
  9
$UCSYDIR
 10
0.0
 20
1.0
 30
0.0
  9
$UCSORTHOREF
  2

  9
$UCSORTHOVIEW
 70
     0
  9
$UCSORGTOP
 10
0.0
 20
0.0
 30
0.0
  9
$UCSORGBOTTOM
 10
0.0
 20
0.0
 30
0.0
  9
$UCSORGLEFT
 10
0.0
 20
0.0
 30
0.0
  9
$UCSORGRIGHT
 10
0.0
 20
0.0
 30
0.0
  9
$UCSORGFRONT
 10
0.0
 20
0.0
 30
0.0
  9
$UCSORGBACK
 10
0.0
 20
0.0
 30
0.0
  9
$PUCSBASE
  2

  9
$PUCSNAME
  2

  9
$PUCSORG
 10
0.0
 20
0.0
 30
0.0
  9
$PUCSXDIR
 10
1.0
 20
0.0
 30
0.0
  9
$PUCSYDIR
 10
0.0
 20
1.0
 30
0.0
  9
$PUCSORTHOREF
  2

  9
$PUCSORTHOVIEW
 70
     0
  9
$PUCSORGTOP
 10
0.0
 20
0.0
 30
0.0
  9
$PUCSORGBOTTOM
 10
0.0
 20
0.0
 30
0.0
  9
$PUCSORGLEFT
 10
0.0
 20
0.0
 30
0.0
  9
$PUCSORGRIGHT
 10
0.0
 20
0.0
 30
0.0
  9
$PUCSORGFRONT
 10
0.0
 20
0.0
 30
0.0
  9
$PUCSORGBACK
 10
0.0
 20
0.0
 30
0.0
  9
$USERI1
 70
     0
  9
$USERI2
 70
     0
  9
$USERI3
 70
     0
  9
$USERI4
 70
     0
  9
$USERI5
 70
     0
  9
$USERR1
 40
0.0
  9
$USERR2
 40
0.0
  9
$USERR3
 40
0.0
  9
$USERR4
 40
0.0
  9
$USERR5
 40
0.0
  9
$WORLDVIEW
 70
     1
  9
$SHADEDGE
 70
     3
  9
$SHADEDIF
 70
    70
  9
$TILEMODE
 70
     0
  9
$MAXACTVP
 70
    16
  9
$PINSBASE
 10
0.0
 20
0.0
 30
0.0
  9
$PLIMCHECK
 70
     0
  9
$PEXTMIN
 10
-0.1261744205303614
 20
-0.078529332350616
 30
-0.0015258207003583
  9
$PEXTMAX
 10
10.42970303390548
 20
7.980361735696885
 30
0.0000000349246037
  9
$PLIMMIN
 10
-0.3306119115190196
 20
-0.2812499079328949
  9
$PLIMMAX
 10
10.66938784818509
 20
8.218749851771214
  9
$UNITMODE
 70
     0
  9
$VISRETAIN
 70
     0
  9
$PLINEGEN
 70
     1
  9
$PSLTSCALE
 70
     0
  9
$TREEDEPTH
 70
  3020
  9
$CMLSTYLE
  2
Standard
  9
$CMLJUST
 70
     0
  9
$CMLSCALE
 40
1.0
  9
$PROXYGRAPHICS
 70
     0
  9
$MEASUREMENT
 70
     0
  9
$CELWEIGHT
370
     0
  9
$ENDCAPS
280
     0
  9
$JOINSTYLE
280
     0
  9
$LWDISPLAY
290
     0
  9
$INSUNITS
 70
     0
  9
$HYPERLINKBASE
  1

  9
$STYLESHEET
  1

  9
$XEDIT
290
     1
  9
$CEPSNTYPE
380
     0
  9
$PSTYLEMODE
290
     1
  9
$FINGERPRINTGUID
  2

  9
$VERSIONGUID
  2
{1E35AD36-B100-4660-8DCF-3120F717AD82}
  9
$EXTNAMES
290
     1
  9
$PSVPSCALE
 40
0.0
  9
$OLESTARTUP
290
     0
  9
$SORTENTS
280
   127
  9
$INDEXCTL
280
     0
  9
$HIDETEXT
280
     0
  9
$XCLIPFRAME
290
     0
  9
$HALOGAP
280
     0
  9
$OBSCOLOR
 70
   257
  9
$OBSLTYPE
280
     0
  9
$INTERSECTIONDISPLAY
280
     0
  9
$INTERSECTIONCOLOR
 70
   257
  9
$DIMASSOC
280
     1
  9
$PROJECTNAME
  1

  0
ENDSEC
  0
SECTION
  2
CLASSES
  0
CLASS
  1
IMAGE
  2
AcDbRasterImage
  3
ISM
 90
     2175
 91
        0
280
     0
281
     1
  0
CLASS
  1
DICTIONARYVAR
  2
AcDbDictionaryVar
  3
ObjectDBX Classes
 90
        0
 91
        5
280
     0
281
     0
  0
CLASS
  1
RASTERVARIABLES
  2
AcDbRasterVariables
  3
ISM
 90
        0
 91
        0
280
     0
281
     0
  0
CLASS
  1
IMAGEDEF
  2
AcDbRasterImageDef
  3
ISM
 90
        0
 91
        0
280
     0
281
     0
  0
CLASS
  1
IMAGEDEF_REACTOR
  2
AcDbRasterImageDefReactor
  3
ISM
 90
        1
 91
        0
280
     0
281
     0
  0
CLASS
  1
IDBUFFER
  2
AcDbIdBuffer
  3
ObjectDBX Classes
 90
        0
 91
        0
280
     0
281
     0
  0
CLASS
  1
SPATIAL_FILTER
  2
AcDbSpatialFilter
  3
ObjectDBX Classes
 90
        0
 91
        0
280
     0
281
     0
  0
CLASS
  1
SORTENTSTABLE
  2
AcDbSortentsTable
  3
ObjectDBX Classes
 90
        0
 91
        0
280
     0
281
     0
  0
CLASS
  1
LAYER_INDEX
  2
AcDbLayerIndex
  3
ObjectDBX Classes
 90
        0
 91
        0
280
     0
281
     0
  0
CLASS
  1
SPATIAL_INDEX
  2
AcDbSpatialIndex
  3
ObjectDBX Classes
 90
        0
 91
        0
280
     0
281
     0
  0
CLASS
  1
OBJECT_PTR
  2
CAseDLPNTableRecord
  3
ASE-LPNTableRecord
 90
        1
 91
        0
280
     0
281
     0
  0
CLASS
  1
PLOTSETTINGS
  2
AcDbPlotSettings
  3
ObjectDBX Classes
 90
        0
 91
        0
280
     0
281
     0
  0
CLASS
  1
ACDBDICTIONARYWDFLT
  2
AcDbDictionaryWithDefault
  3
ObjectDBX Classes
 90
        0
 91
        1
280
     0
281
     0
  0
CLASS
  1
WIPEOUT
  2
AcDbWipeout
  3
"WipeOut|Product Desc: Object Enabler for WipeOut entity                        |Company: Autodesk, Inc.                        |WEB Address: www.autodesk.com"
 90
     2175
 91
        0
280
     0
281
     1
  0
CLASS
  1
WIPEOUTVARIABLES
  2
AcDbWipeoutVariables
  3
"WipeOut|Product Desc:     WipeOut Dbx Application|Company:          Autodesk, Inc.|WEB Address:      www.autodesk.com"
 90
        0
 91
        1
280
     0
281
     0
  0
CLASS
  1
RTEXT
  2
RText
  3
RText|AutoCAD Express Tool|expresstools@autodesk.com
 90
     3071
 91
        0
280
     0
281
     1
  0
CLASS
  1
ARCALIGNEDTEXT
  2
AcDbArcAlignedText
  3
ATEXT|AutoCAD Express Tool|expresstools@autodesk.com
 90
        0
 91
        0
280
     0
281
     1
  0
CLASS
  1
MATERIAL
  2
AcDbMaterial
  3
ObjectDBX Classes
 90
     1153
 91
        3
280
     0
281
     0
  0
CLASS
  1
VISUALSTYLE
  2
AcDbVisualStyle
  3
ObjectDBX Classes
 90
     4095
 91
       16
280
     0
281
     0
  0
CLASS
  1
TABLESTYLE
  2
AcDbTableStyle
  3
ObjectDBX Classes
 90
     4095
 91
        1
280
     0
281
     0
  0
CLASS
  1
SCALE
  2
AcDbScale
  3
ObjectDBX Classes
 90
     1153
 91
       33
280
     0
281
     0
  0
CLASS
  1
MLEADERSTYLE
  2
AcDbMLeaderStyle
  3
ACDB_MLEADERSTYLE_CLASS
 90
     4095
 91
        1
280
     0
281
     0
  0
CLASS
  1
CELLSTYLEMAP
  2
AcDbCellStyleMap
  3
ObjectDBX Classes
 90
     1152
 91
        2
280
     0
281
     0
  0
ENDSEC
  0
SECTION
  2
TABLES
  0
TABLE
  2
VPORT
  5
7
330
0
100
AcDbSymbolTable
 70
     1
  0
VPORT
  5
15
330
7
100
AcDbSymbolTableRecord
100
AcDbViewportTableRecord
  2
*ACTIVE
 70
     0
 10
0.0
 20
0.0
 11
1.0
 21
1.0
 12
13.89621157632295
 22
4.579183999999999
 13
0.0
 23
0.0
 14
1.0
 24
1.0
 15
0.0
 25
0.0
 16
0.0
 26
0.0
 36
1.0
 17
0.0
 27
0.0
 37
0.0
 40
9.158369
 41
2.283809523809523
 42
50.0
 43
0.0
 44
0.0
 50
0.0
 51
0.0
 71
     0
 72
   100
 73
     1
 74
     1
 75
     0
 76
     0
 77
     0
 78
     0
281
     0
 65
     0
110
0.0
120
0.0
130
0.0
111
1.0
121
0.0
131
0.0
112
0.0
122
1.0
132
0.0
 79
     0
146
0.0
  0
ENDTAB
  0
TABLE
  2
LTYPE
  5
4
330
0
100
AcDbSymbolTable
 70
     4
  0
LTYPE
  5
11
330
4
100
AcDbSymbolTableRecord
100
AcDbLinetypeTableRecord
  2
ByBlock
 70
     0
  3

 72
    65
 73
     0
 40
0.0
  0
LTYPE
  5
12
330
4
100
AcDbSymbolTableRecord
100
AcDbLinetypeTableRecord
  2
ByLayer
 70
     0
  3

 72
    65
 73
     0
 40
0.0
  0
LTYPE
  5
13
330
4
100
AcDbSymbolTableRecord
100
AcDbLinetypeTableRecord
  2
Continuous
 70
     0
  3
Solid line
 72
    65
 73
     0
 40
0.0
  0
LTYPE
  5
24
330
4
100
AcDbSymbolTableRecord
100
AcDbLinetypeTableRecord
  2
solid
 70
     0
  3

 72
    65
 73
     0
 40
0.0
  0
LTYPE
  5
25
330
4
100
AcDbSymbolTableRecord
100
AcDbLinetypeTableRecord
  2
dashed
 70
     0
  3

 72
    65
 73
     0
 40
0.0
  0
LTYPE
  5
26
330
4
100
AcDbSymbolTableRecord
100
AcDbLinetypeTableRecord
  2
center
 70
     0
  3

 72
    65
 73
     0
 40
0.0
  0
ENDTAB
  0
TABLE
  2
LAYER
  5
2
330
0
100
AcDbSymbolTable
 70
     3
  0
LAYER
  5
14
102
{ACAD_XDICTIONARY
360
130
102
}
330
2
100
AcDbSymbolTableRecord
100
AcDbLayerTableRecord
  2
0
 70
     0
 62
     7
  6
Continuous
370
    -3
390
1D
  0
LAYER
  5
27
102
{ACAD_XDICTIONARY
360
132
102
}
330
2
100
AcDbSymbolTableRecord
100
AcDbLayerTableRecord
  2
1
 70
     0
 62
     1
  6
solid
370
    -3
390
1D
  0
LAYER
  5
B0
102
{ACAD_XDICTIONARY
360
134
102
}
330
2
100
AcDbSymbolTableRecord
100
AcDbLayerTableRecord
  2
0
 70
     0
 62
     1
  6
solid
370
    -3
390
1D
  0
ENDTAB
  0
TABLE
  2
STYLE
  5
3
330
0
100
AcDbSymbolTable
 70
     3
  0
STYLE
  5
17
330
3
100
AcDbSymbolTableRecord
100
AcDbTextStyleTableRecord
  2
Standard
 70
     0
 40
0.0
 41
1.0
 50
0.0
 71
     0
 42
0.0
  3
txt
  4

  0
ENDTAB
  0
TABLE
  2
VIEW
  5
5
330
0
100
AcDbSymbolTable
 70
     0
  0
ENDTAB
  0
TABLE
  2
UCS
  5
6
330
0
100
AcDbSymbolTable
 70
     0
  0
ENDTAB
  0
TABLE
  2
APPID
  5
8
330
0
100
AcDbSymbolTable
 70
     4
  0
APPID
  5
16
330
8
100
AcDbSymbolTableRecord
100
AcDbRegAppTableRecord
  2
ACAD
 70
     0
  0
APPID
  5
FB
330
8
100
AcDbSymbolTableRecord
100
AcDbRegAppTableRecord
  2
ACAD_PSEXT
 70
     0
  0
APPID
  5
100
330
8
100
AcDbSymbolTableRecord
100
AcDbRegAppTableRecord
  2
DCO15
 70
     0
  0
APPID
  5
129
330
8
100
AcDbSymbolTableRecord
100
AcDbRegAppTableRecord
  2
ACAD_MLEADERVER
 70
     0
  0
ENDTAB
  0
TABLE
  2
DIMSTYLE
  5
9
330
0
100
AcDbSymbolTable
 70
     3
100
AcDbDimStyleTable
 71
     1
340
18
  0
DIMSTYLE
105
18
102
{ACAD_REACTORS
330
8D
330
98
330
D1
330
DC
102
}
330
9
100
AcDbSymbolTableRecord
100
AcDbDimStyleTableRecord
  2
Standard
 70
     0
289
     0
340
17
  0
ENDTAB
  0
TABLE
  2
BLOCK_RECORD
  5
1
330
0
100
AcDbSymbolTable
 70
     6
  0
BLOCK_RECORD
  5
A
330
1
100
AcDbSymbolTableRecord
100
AcDbBlockTableRecord
  2
*MODEL_SPACE
340
20
  0
BLOCK_RECORD
  5
B
330
1
100
AcDbSymbolTableRecord
100
AcDbBlockTableRecord
  2
*PAPER_SPACE
340
21
  0
BLOCK_RECORD
  5
83
330
1
100
AcDbSymbolTableRecord
100
AcDbBlockTableRecord
  2
*D0
340
0
  0
BLOCK_RECORD
  5
8E
330
1
100
AcDbSymbolTableRecord
100
AcDbBlockTableRecord
  2
*D1
340
0
  0
BLOCK_RECORD
  5
C7
330
1
100
AcDbSymbolTableRecord
100
AcDbBlockTableRecord
  2
*D2
340
0
  0
BLOCK_RECORD
  5
D2
330
1
100
AcDbSymbolTableRecord
100
AcDbBlockTableRecord
  2
*D3
340
0
  0
ENDTAB
  0
ENDSEC
  0
SECTION
  2
BLOCKS
  0
BLOCK
  5
D
330
A
100
AcDbEntity
  8
0
100
AcDbBlockBegin
  2
*MODEL_SPACE
 70
     0
 10
0.0
 20
0.0
 30
0.0
  3
*MODEL_SPACE
  1

  0
ENDBLK
  5
E
330
A
100
AcDbEntity
  8
0
100
AcDbBlockEnd
  0
BLOCK
  5
F
330
B
100
AcDbEntity
 67
     1
  8
0
100
AcDbBlockBegin
  2
*PAPER_SPACE
 70
     0
 10
0.0
 20
0.0
 30
0.0
  3
*PAPER_SPACE
  1

  0
ENDBLK
  5
10
330
B
100
AcDbEntity
 67
     1
  8
0
100
AcDbBlockEnd
  0
BLOCK
  5
84
330
83
100
AcDbEntity
  8
1
  6
solid
 62
     7
100
AcDbBlockBegin
  2
*D0
 70
     0
 10
0.0
 20
0.0
 30
0.0
  3
*D0
  1

  0
LINE
  5
85
330
83
100
AcDbEntity
  8
1
  6
solid
 62
     7
100
AcDbLine
 10
2.13269829750061
 20
0.5165423154830932
 30
0.0
 11
2.489519467382786
 21
0.5165423154830928
 31
0.0
  0
LINE
  5
86
330
83
100
AcDbEntity
  8
1
  6
solid
 62
     7
100
AcDbLine
 10
2.13269829750061
 20
7.266542434692382
 30
0.0
 11
2.489519467382792
 21
7.266542434692382
 31
0.0
  0
LINE
  5
87
330
83
100
AcDbEntity
  8
1
  6
solid
 62
     7
100
AcDbLine
 10
2.427019467382786
 20
0.5165423154830929
 30
0.0
 11
2.427019467382789
 21
3.731669778933891
 31
0.0
  0
LINE
  5
88
330
83
100
AcDbEntity
  8
1
  6
solid
 62
     7
100
AcDbLine
 10
2.427019467382792
 20
7.266542434692382
 30
0.0
 11
2.427019467382789
 21
4.051414971241583
 31
0.0
  0
MTEXT
  5
89
330
83
100
AcDbEntity
  8
1
  6
solid
 62
     7
100
AcDbMText
 10
2.427019467382788
 20
3.891542375087737
 30
0.0
 40
0.125
 41
0.0
 71
     5
 72
     1
  1
{\H0.125000;6 3/4}
 73
     1
 44
1.0
  0
SOLID
  5
8A
330
83
100
AcDbEntity
  8
1
  6
solid
 62
     7
100
AcDbTrace
 10
2.406206967382786
 20
0.6415423154830929
 30
0.0
 11
2.447831967382787
 21
0.6415423154830929
 31
0.0
 12
2.427019467382786
 22
0.5165423154830929
 32
0.0
 13
2.427019467382786
 23
0.5165423154830929
 33
0.0
  0
SOLID
  5
8B
330
83
100
AcDbEntity
  8
1
  6
solid
 62
     7
100
AcDbTrace
 10
2.447831967382791
 20
7.141542434692382
 30
0.0
 11
2.406206967382791
 21
7.141542434692382
 31
0.0
 12
2.427019467382792
 22
7.266542434692382
 32
0.0
 13
2.427019467382792
 23
7.266542434692382
 33
0.0
  0
ENDBLK
  5
8C
330
83
100
AcDbEntity
  8
1
  6
solid
 62
     7
100
AcDbBlockEnd
  0
BLOCK
  5
8F
330
8E
100
AcDbEntity
  8
1
  6
solid
 62
     7
100
AcDbBlockBegin
  2
*D1
 70
     0
 10
0.0
 20
0.0
 30
0.0
  3
*D1
  1

  0
LINE
  5
90
330
8E
100
AcDbEntity
  8
1
  6
solid
 62
     7
100
AcDbLine
 10
1.25769817829132
 20
0.3915423154830932
 30
0.0
 11
1.25769817829132
 21
0.2741843227045991
 31
0.0
  0
LINE
  5
91
330
8E
100
AcDbEntity
  8
1
  6
solid
 62
     7
100
AcDbLine
 10
2.00769829750061
 20
0.3915423154830932
 30
0.0
 11
2.00769829750061
 21
0.2741843227045991
 31
0.0
  0
LINE
  5
92
330
8E
100
AcDbEntity
  8
1
  6
solid
 62
     7
100
AcDbLine
 10
1.25769817829132
 20
0.3366843227045991
 30
0.0
 11
1.4406247084842
 21
0.3366843227045991
 31
0.0
  0
LINE
  5
93
330
8E
100
AcDbEntity
  8
1
  6
solid
 62
     7
100
AcDbLine
 10
2.00769829750061
 20
0.3366843227045991
 30
0.0
 11
1.82477176730773
 21
0.3366843227045991
 31
0.0
  0
MTEXT
  5
94
330
8E
100
AcDbEntity
  8
1
  6
solid
 62
     7
100
AcDbMText
 10
1.632698237895965
 20
0.3366843227045991
 30
0.0
 40
0.125
 41
0.0
 71
     5
 72
     1
  1
{\H0.125000;3/4}
 73
     1
 44
1.0
  0
SOLID
  5
95
330
8E
100
AcDbEntity
  8
1
  6
solid
 62
     7
100
AcDbTrace
 10
1.38269817829132
 20
0.3574968227045991
 30
0.0
 11
1.38269817829132
 21
0.3158718227045991
 31
0.0
 12
1.25769817829132
 22
0.3366843227045991
 32
0.0
 13
1.25769817829132
 23
0.3366843227045991
 33
0.0
  0
SOLID
  5
96
330
8E
100
AcDbEntity
  8
1
  6
solid
 62
     7
100
AcDbTrace
 10
1.88269829750061
 20
0.3158718227045991
 30
0.0
 11
1.88269829750061
 21
0.3574968227045991
 31
0.0
 12
2.00769829750061
 22
0.3366843227045991
 32
0.0
 13
2.00769829750061
 23
0.3366843227045991
 33
0.0
  0
ENDBLK
  5
97
330
8E
100
AcDbEntity
  8
1
  6
solid
 62
     7
100
AcDbBlockEnd
  0
BLOCK
  5
C8
330
C7
100
AcDbEntity
  8
0
  6
solid
 62
     7
100
AcDbBlockBegin
  2
*D2
 70
     0
 10
0.0
 20
0.0
 30
0.0
  3
*D2
  1

  0
LINE
  5
C9
330
C7
100
AcDbEntity
  8
0
  6
solid
 62
     7
100
AcDbLine
 10
-7.847963809967041
 20
3.739665031433105
 30
0.0
 11
-8.005185912128677
 21
3.739665031433106
 31
0.0
  0
LINE
  5
CA
330
C7
100
AcDbEntity
  8
0
  6
solid
 62
     7
100
AcDbLine
 10
-7.847963809967041
 20
4.489665031433105
 30
0.0
 11
-8.005185912128677
 21
4.489665031433105
 31
0.0
  0
LINE
  5
CB
330
C7
100
AcDbEntity
  8
0
  6
solid
 62
     7
100
AcDbLine
 10
-7.942685912128677
 20
3.739665031433106
 30
0.0
 11
-7.942685912128677
 21
4.114665031433106
 31
0.0
  0
LINE
  5
CC
330
C7
100
AcDbEntity
  8
0
  6
solid
 62
     7
100
AcDbLine
 10
-7.942685912128677
 20
4.489665031433105
 30
0.0
 11
-7.942685912128677
 21
4.114665031433106
 31
0.0
  0
MTEXT
  5
CD
330
C7
100
AcDbEntity
  8
0
  6
solid
 62
     7
100
AcDbMText
 10
-8.182148412128677
 20
4.114665031433106
 30
0.0
 40
0.125
 41
0.0
 71
     5
 72
     1
  1
{\H0.125000;3/4}
 73
     1
 44
1.0
  0
SOLID
  5
CE
330
C7
100
AcDbEntity
  8
0
  6
solid
 62
     7
100
AcDbTrace
 10
-7.963500912128677
 20
3.864665031433106
 30
0.0
 11
-7.921870912128677
 21
3.864665031433106
 31
0.0
 12
-7.942685912128677
 22
3.739665031433106
 32
0.0
 13
-7.942685912128677
 23
3.739665031433106
 33
0.0
  0
SOLID
  5
CF
330
C7
100
AcDbEntity
  8
0
  6
solid
 62
     7
100
AcDbTrace
 10
-7.921870912128677
 20
4.364665031433105
 30
0.0
 11
-7.963500912128677
 21
4.364665031433105
 31
0.0
 12
-7.942685912128677
 22
4.489665031433105
 32
0.0
 13
-7.942685912128677
 23
4.489665031433105
 33
0.0
  0
ENDBLK
  5
D0
330
C7
100
AcDbEntity
  8
0
  6
solid
 62
     7
100
AcDbBlockEnd
  0
BLOCK
  5
D3
330
D2
100
AcDbEntity
  8
0
  6
solid
 62
     7
100
AcDbBlockBegin
  2
*D3
 70
     0
 10
0.0
 20
0.0
 30
0.0
  3
*D3
  1

  0
LINE
  5
D4
330
D2
100
AcDbEntity
  8
0
  6
solid
 62
     7
100
AcDbLine
 10
-7.722963809967041
 20
3.614665031433105
 30
0.0
 11
-7.722963809967041
 21
3.182135077637564
 31
0.0
  0
LINE
  5
D5
330
D2
100
AcDbEntity
  8
0
  6
solid
 62
     7
100
AcDbLine
 10
-0.9729636311531066
 20
3.614665031433105
 30
0.0
 11
-0.9729636311531066
 21
3.182135077637564
 31
0.0
  0
LINE
  5
D6
330
D2
100
AcDbEntity
  8
0
  6
solid
 62
     7
100
AcDbLine
 10
-7.722963809967041
 20
3.244635077637564
 30
0.0
 11
-4.347963720560073
 21
3.244635077637564
 31
0.0
  0
LINE
  5
D7
330
D2
100
AcDbEntity
  8
0
  6
solid
 62
     7
100
AcDbLine
 10
-0.9729636311531066
 20
3.244635077637564
 30
0.0
 11
-4.347963720560073
 21
3.244635077637564
 31
0.0
  0
MTEXT
  5
D8
330
D2
100
AcDbEntity
  8
0
  6
solid
 62
     7
100
AcDbMText
 10
-4.347963720560073
 20
3.34822017379141
 30
0.0
 40
0.125
 41
0.0
 71
     5
 72
     1
  1
{\H0.125000;6 3/4}
 73
     1
 44
1.0
  0
SOLID
  5
D9
330
D2
100
AcDbEntity
  8
0
  6
solid
 62
     7
100
AcDbTrace
 10
-7.597963809967041
 20
3.265450077637564
 30
0.0
 11
-7.597963809967041
 21
3.223820077637564
 31
0.0
 12
-7.722963809967041
 22
3.244635077637564
 32
0.0
 13
-7.722963809967041
 23
3.244635077637564
 33
0.0
  0
SOLID
  5
DA
330
D2
100
AcDbEntity
  8
0
  6
solid
 62
     7
100
AcDbTrace
 10
-1.097963631153106
 20
3.223820077637564
 30
0.0
 11
-1.097963631153106
 21
3.265450077637564
 31
0.0
 12
-0.9729636311531066
 22
3.244635077637564
 32
0.0
 13
-0.9729636311531066
 23
3.244635077637564
 33
0.0
  0
ENDBLK
  5
DB
330
D2
100
AcDbEntity
  8
0
  6
solid
 62
     7
100
AcDbBlockEnd
  0
ENDSEC
  0
SECTION
  2
ENTITIES
  0
ARC
  5
28
330
A
100
AcDbEntity
  8
1
  6
solid
 62
     7
100
AcDbCircle
 10
1.797900391304755
 20
6.964481599020759
 30
0.0
 40
0.1641582554703617
100
AcDbArc
 50
116.5106890878629
 51
185.7204809884023
  0
ARC
  5
29
330
A
100
AcDbEntity
  8
1
  6
solid
 62
     7
100
AcDbCircle
 10
1.717581315750226
 20
6.808551987037215
 30
0.0
 40
0.1623932665564467
100
AcDbArc
 50
120.7463500490441
 51
189.3690256809242
  0
ARC
  5
2A
330
A
100
AcDbEntity
  8
1
  6
solid
 62
     7
100
AcDbCircle
 10
1.652343028083982
 20
4.012324627105285
 30
0.0
 40
0.1128360403679767
100
AcDbArc
 50
111.4092612571616
 51
197.2863834314937
  0
ARC
  5
2B
330
A
100
AcDbEntity
  8
1
  6
solid
 62
     7
100
AcDbCircle
 10
1.633527771745199
 20
3.749373028116
 30
0.0
 40
0.2460534095063251
100
AcDbArc
 50
111.1863064642015
 51
221.6415041048478
  0
ARC
  5
2C
330
A
100
AcDbEntity
  8
1
  6
solid
 62
     7
100
AcDbCircle
 10
1.586458759036053
 20
3.496988957989057
 30
0.0
 40
0.1631519149946739
100
AcDbArc
 50
146.987215529143
 51
223.4372544563586
  0
ARC
  5
2D
330
A
100
AcDbEntity
  8
1
  6
solid
 62
     7
100
AcDbCircle
 10
1.038953656857559
 20
3.161774252160348
 30
0.0
 40
0.4835471437889173
100
AcDbArc
 50
339.5480900895291
 51
387.4680545204926
  0
ARC
  5
2E
330
A
100
AcDbEntity
  8
1
  6
solid
 62
     7
100
AcDbCircle
 10
3.120162290504089
 20
2.142248170314549
 30
0.0
 40
1.83692805545982
100
AcDbArc
 50
152.4167857807109
 51
173.8768872282737
  0
ARC
  5
2F
330
A
100
AcDbEntity
  8
1
  6
solid
 62
     7
100
AcDbCircle
 10
2.067586136602316
 20
2.340913673821146
 30
0.0
 40
0.7738770106155181
100
AcDbArc
 50
180.2020631391712
 51
227.6099131972214
  0
LINE
  5
30
330
A
100
AcDbEntity
  8
1
  6
solid
 62
     7
100
AcDbLine
 10
1.6111547859423
 20
6.125024642032231
 30
0.0
 11
1.61115479965938
 21
4.117374558356202
 31
0.0
  0
ARC
  5
31
330
A
100
AcDbEntity
  8
1
  6
solid
 62
     7
100
AcDbCircle
 10
1.760229659174132
 20
6.467978274779447
 30
0.0
 40
0.3739525531983959
100
AcDbArc
 50
122.8550968661446
 51
246.5064086577426
  0
LINE
  5
32
330
A
100
AcDbEntity
  8
1
  6
solid
 62
     7
100
AcDbLine
 10
2.007698206005196
 20
0.5165423422939664
 30
0.0
 11
1.257698206005196
 21
0.5165423422939664
 31
0.0
  0
LINE
  5
33
330
A
100
AcDbEntity
  8
1
  6
solid
 62
     7
100
AcDbLine
 10
1.795908259435689
 20
7.266542342293966
 30
0.0
 11
2.007698206005196
 21
7.266542342293966
 31
0.0
  0
ARC
  5
34
330
A
100
AcDbEntity
  8
1
  6
solid
 62
     7
100
AcDbCircle
 10
1.63416148538547
 20
7.246893531213796
 30
0.0
 40
0.1629358606707469
100
AcDbArc
 50
303.7255418118886
 51
366.9262874315253
  0
LINE
  5
35
330
A
100
AcDbEntity
  8
1
  6
solid
 62
     7
100
AcDbLine
 10
2.007698206005196
 20
7.266542342293966
 30
0.0
 11
2.007698206005196
 21
5.516542342293966
 31
0.0
  0
LINE
  5
36
330
A
100
AcDbEntity
  8
1
  6
solid
 62
     7
100
AcDbLine
 10
2.007698206005196
 20
0.5165423422939664
 30
0.0
 11
2.007698206005196
 21
1.516542342293966
 31
0.0
  0
LINE
  5
37
330
A
100
AcDbEntity
  8
1
  6
solid
 62
     7
100
AcDbLine
 10
1.976448206005196
 20
5.516542342293966
 30
0.0
 11
2.007698206005196
 21
5.516542342293966
 31
0.0
  0
ARC
  5
38
330
A
100
AcDbEntity
  8
1
  6
solid
 62
     7
100
AcDbCircle
 10
1.976448206005196
 20
5.454042342293966
 30
0.0
 40
0.0625
100
AcDbArc
 50
90.0
 51
180.0
  0
LINE
  5
39
330
A
100
AcDbEntity
  8
1
  6
solid
 62
     7
100
AcDbLine
 10
2.007698206005196
 20
1.516542342293966
 30
0.0
 11
1.976448206005196
 21
1.516542342293966
 31
0.0
  0
LINE
  5
3A
330
A
100
AcDbEntity
  8
1
  6
solid
 62
     7
100
AcDbLine
 10
1.913948206005196
 20
1.579042342293966
 30
0.0
 11
1.913948206005196
 21
5.454042342293966
 31
0.0
  0
ARC
  5
3B
330
A
100
AcDbEntity
  8
1
  6
solid
 62
     7
100
AcDbCircle
 10
1.976448206005196
 20
1.579042342293966
 30
0.0
 40
0.0625
100
AcDbArc
 50
180.0
 51
269.9999999999999
  0
LINE
  5
3C
330
A
100
AcDbEntity
  8
1
  6
solid
 62
     7
100
AcDbLine
 10
1.545857877052557
 20
1.769349787833251
 30
0.0
 11
1.38148045002199
 21
1.767748339074536
 31
0.0
  0
LINE
  5
3D
330
A
100
AcDbEntity
  8
1
  6
solid
 62
     7
100
AcDbLine
 10
1.257698206005196
 20
0.5165423422939664
 30
0.0
 11
1.257698206005196
 21
1.642754270933823
 31
0.0
  0
ARC
  5
3E
330
A
100
AcDbEntity
  8
1
  6
solid
 62
     7
100
AcDbCircle
 10
1.382698206005196
 20
1.642754270933823
 30
0.0
 40
0.125
100
AcDbArc
 50
90.5581870561099
 51
180.0
  0
ARC
  5
3F
330
A
100
AcDbEntity
  8
1
  6
solid
 62
     7
100
AcDbCircle
 10
0.4526845661968433
 20
7.422830859803989
 30
0.0
 40
0.1641582554703617
100
AcDbArc
 50
116.5106890878629
 51
185.7204809884023
  0
ARC
  5
40
330
A
100
AcDbEntity
  8
1
  6
solid
 62
     7
100
AcDbCircle
 10
0.3723654906423139
 20
7.266901247820445
 30
0.0
 40
0.1623932665564467
100
AcDbArc
 50
120.7463500490441
 51
189.3690256809242
  0
ARC
  5
41
330
A
100
AcDbEntity
  8
1
  6
solid
 62
     7
100
AcDbCircle
 10
0.3071272029760701
 20
4.470673887888515
 30
0.0
 40
0.1128360403679767
100
AcDbArc
 50
111.4092612571616
 51
197.2863834314937
  0
ARC
  5
42
330
A
100
AcDbEntity
  8
1
  6
solid
 62
     7
100
AcDbCircle
 10
0.2883119466372868
 20
4.20772228889923
 30
0.0
 40
0.2460534095063251
100
AcDbArc
 50
111.1863064642015
 51
221.6415041048478
  0
ARC
  5
43
330
A
100
AcDbEntity
  8
1
  6
solid
 62
     7
100
AcDbCircle
 10
0.2412429339281406
 20
3.955338218772287
 30
0.0
 40
0.1631519149946739
100
AcDbArc
 50
146.987215529143
 51
223.4372544563586
  0
ARC
  5
44
330
A
100
AcDbEntity
  8
1
  6
solid
 62
     7
100
AcDbCircle
 10
-0.3062621682503532
 20
3.620123512943578
 30
0.0
 40
0.4835471437889173
100
AcDbArc
 50
339.5480900895291
 51
387.4680545204926
  0
ARC
  5
45
330
A
100
AcDbEntity
  8
1
  6
solid
 62
     7
100
AcDbCircle
 10
1.774946465396176
 20
2.600597431097779
 30
0.0
 40
1.83692805545982
100
AcDbArc
 50
152.4167857807109
 51
173.8768872282737
  0
ARC
  5
46
330
A
100
AcDbEntity
  8
1
  6
solid
 62
     7
100
AcDbCircle
 10
0.7223703114944044
 20
2.799262934604376
 30
0.0
 40
0.7738770106155181
100
AcDbArc
 50
180.2020631391712
 51
227.6099131972214
  0
LINE
  5
47
330
A
100
AcDbEntity
  8
1
  6
solid
 62
     7
100
AcDbLine
 10
0.2659389608343885
 20
6.583373902815461
 30
0.0
 11
0.2659389745514677
 21
4.575723819139431
 31
0.0
  0
ARC
  5
48
330
A
100
AcDbEntity
  8
1
  6
solid
 62
     7
100
AcDbCircle
 10
0.4150138340662198
 20
6.926327535562677
 30
0.0
 40
0.3739525531983959
100
AcDbArc
 50
122.8550968661446
 51
246.5064086577426
  0
LINE
  5
49
330
A
100
AcDbEntity
  8
1
  6
solid
 62
     7
100
AcDbLine
 10
0.4506924343277774
 20
7.724891603077196
 30
0.0
 11
0.6624823808972844
 21
7.724891603077196
 31
0.0
  0
ARC
  5
4A
330
A
100
AcDbEntity
  8
1
  6
solid
 62
     7
100
AcDbCircle
 10
0.2889456602775575
 20
7.705242791997026
 30
0.0
 40
0.1629358606707469
100
AcDbArc
 50
303.7255418118886
 51
366.9262874315253
  0
LINE
  5
4B
330
A
100
AcDbEntity
  8
1
  6
solid
 62
     7
100
AcDbLine
 10
0.2006420519446446
 20
2.227699048616481
 30
0.0
 11
0.0362646249140777
 21
2.226097599857766
 31
0.0
  0
LINE
  5
4C
330
A
100
AcDbEntity
  8
1
  6
solid
 62
     7
100
AcDbLine
 10
-0.0875176191027156
 20
0.9748916030771962
 30
0.0
 11
-0.0875176191027156
 21
2.101103531717053
 31
0.0
  0
ARC
  5
4D
330
A
100
AcDbEntity
  8
1
  6
solid
 62
     7
100
AcDbCircle
 10
0.0374823808972844
 20
2.101103531717053
 30
0.0
 40
0.125
100
AcDbArc
 50
90.5581870561099
 51
180.0
  0
LINE
  5
4E
330
A
100
AcDbEntity
  8
1
  6
solid
 62
     7
100
AcDbLine
 10
0.6624823808670044
 20
7.724891662597656
 30
0.0
 11
2.00769829750061
 21
7.266542434692382
 31
0.0
  0
LINE
  5
4F
330
A
100
AcDbEntity
  8
1
  6
solid
 62
     7
100
AcDbLine
 10
0.4506924450397492
 20
7.724891662597656
 30
0.0
 11
1.795908212661743
 21
7.266542434692382
 31
0.0
  0
LINE
  5
50
330
A
100
AcDbEntity
  8
1
  6
solid
 62
     7
100
AcDbLine
 10
0.2893438339233398
 20
7.406468391418457
 30
0.0
 11
1.634559631347656
 21
6.948119163513183
 31
0.0
  0
LINE
  5
51
330
A
100
AcDbEntity
  8
1
  6
solid
 62
     7
100
AcDbLine
 10
0.2121385037899017
 20
7.240464687347412
 30
0.0
 11
1.55735433101654
 21
6.782115459442138
 31
0.0
  0
LINE
  5
52
330
A
100
AcDbEntity
  8
1
  6
solid
 62
     7
100
AcDbLine
 10
0.2659389674663544
 20
6.5833740234375
 30
0.0
 11
1.61115312048012
 21
6.12502536597911
 31
0.0
  0
LINE
  5
53
330
A
100
AcDbEntity
  8
1
  6
solid
 62
     7
100
AcDbLine
 10
0.2659389674663544
 20
4.575723648071289
 30
0.0
 11
1.611154794692993
 21
4.117374420166015
 31
0.0
  0
LINE
  5
54
330
A
100
AcDbEntity
  8
1
  6
solid
 62
     7
100
AcDbLine
 10
0.1993878185749054
 20
4.437145233154296
 30
0.0
 11
1.544603586196899
 21
3.978795766830444
 31
0.0
  0
LINE
  5
55
330
A
100
AcDbEntity
  8
1
  6
solid
 62
     7
100
AcDbLine
 10
0.1044320613145828
 20
4.044227600097656
 30
0.0
 11
1.449647903442382
 21
3.585878372192382
 31
0.0
  0
LINE
  5
56
330
A
100
AcDbEntity
  8
1
  6
solid
 62
     7
100
AcDbLine
 10
0.2006420493125915
 20
2.227699041366577
 30
0.0
 11
1.545857906341552
 21
1.769349813461303
 31
0.0
  0
LINE
  5
57
330
A
100
AcDbEntity
  8
1
  6
solid
 62
     7
100
AcDbLine
 10
-0.0875176191329956
 20
0.9748916029930114
 30
0.0
 11
1.25769817829132
 21
0.5165423154830933
 31
0.0
  0
LINE
  5
58
330
A
100
AcDbEntity
  8
1
  6
solid
 62
     7
100
AcDbLine
 10
1.449107336316698
 20
1.16672361927975
 30
0.0
 11
1.479993964223675
 21
1.170357340209982
 31
0.0
  0
SPLINE
  5
59
330
A
100
AcDbEntity
  8
1
  6
solid
 62
     7
100
AcDbSpline
210
0.0
220
0.0
230
1.0
 70
     8
 71
     2
 72
     7
 73
     4
 74
     0
 42
0.0000000001
 43
0.0000000001
 40
0.0
 40
0.0
 40
0.0
 40
1.0
 40
2.0
 40
2.0
 40
2.0
 10
1.479993964223675
 20
1.170357340209982
 30
0.0
 10
1.480849778177164
 20
1.158457921605331
 30
0.0
 10
1.49278640608414
 20
1.146738154163471
 30
0.0
 10
1.500649196781815
 20
1.146738154163471
 30
0.0
  0
SPLINE
  5
5A
330
A
100
AcDbEntity
  8
1
  6
solid
 62
     7
100
AcDbSpline
210
0.0
220
0.0
230
1.0
 70
     8
 71
     2
 72
     7
 73
     4
 74
     0
 42
0.0000000001
 43
0.0000000001
 40
0.0
 40
0.0
 40
0.0
 40
1.0
 40
2.0
 40
2.0
 40
2.0
 10
1.500649196781815
 20
1.146738154163471
 30
0.0
 10
1.509528847944605
 20
1.146738154163471
 30
0.0
 10
1.52178175492135
 20
1.158792805326262
 30
0.0
 10
1.52178175492135
 20
1.169582340209982
 30
0.0
  0
SPLINE
  5
5B
330
A
100
AcDbEntity
  8
1
  6
solid
 62
     7
100
AcDbSpline
210
0.0
220
0.0
230
1.0
 70
     8
 71
     2
 72
     7
 73
     4
 74
     0
 42
0.0000000001
 43
0.0000000001
 40
0.0
 40
0.0
 40
0.0
 40
1.0
 40
2.0
 40
2.0
 40
2.0
 10
1.52178175492135
 20
1.169582340209982
 30
0.0
 10
1.52178175492135
 20
1.179981177419285
 30
0.0
 10
1.510917801432978
 20
1.192159665791378
 30
0.0
 10
1.502689313060884
 20
1.192159665791378
 30
0.0
  0
SPLINE
  5
5C
330
A
100
AcDbEntity
  8
1
  6
solid
 62
     7
100
AcDbSpline
210
0.0
220
0.0
230
1.0
 70
     8
 71
     2
 72
     6
 73
     3
 74
     0
 42
0.0000000001
 43
0.0000000001
 40
0.0
 40
0.0
 40
0.0
 40
1.0
 40
1.0
 40
1.0
 10
1.502689313060884
 20
1.192159665791378
 30
0.0
 10
1.497443382828326
 20
1.192159665791378
 30
0.0
 10
1.490895127014373
 20
1.189437572768122
 30
0.0
  0
LINE
  5
5D
330
A
100
AcDbEntity
  8
1
  6
solid
 62
     7
100
AcDbLine
 10
1.490895127014373
 20
1.189437572768122
 30
0.0
 11
1.493325940967861
 21
1.21577885183789
 31
0.0
  0
SPLINE
  5
5E
330
A
100
AcDbEntity
  8
1
  6
solid
 62
     7
100
AcDbSpline
210
0.0
220
0.0
230
1.0
 70
     8
 71
     2
 72
     7
 73
     4
 74
     0
 42
0.0000000001
 43
0.0000000001
 40
0.0
 40
0.0
 40
0.0
 40
1.0
 40
2.0
 40
2.0
 40
2.0
 10
1.493325940967861
 20
1.21577885183789
 30
0.0
 10
1.503743382828326
 20
1.214929433233238
 30
0.0
 10
1.514514313060884
 20
1.225477107651843
 30
0.0
 10
1.514514313060884
 20
1.234226526256494
 30
0.0
  0
SPLINE
  5
5F
330
A
100
AcDbEntity
  8
1
  6
solid
 62
     7
100
AcDbSpline
210
0.0
220
0.0
230
1.0
 70
     8
 71
     2
 72
     7
 73
     4
 74
     0
 42
0.0000000001
 43
0.0000000001
 40
0.0
 40
0.0
 40
0.0
 40
1.0
 40
2.0
 40
2.0
 40
2.0
 10
1.514514313060884
 20
1.234226526256494
 30
0.0
 10
1.514514313060884
 20
1.241493968116959
 30
0.0
 10
1.506230010735303
 20
1.250299200675099
 30
0.0
 10
1.500091057246931
 20
1.250299200675099
 30
0.0
  0
SPLINE
  5
60
330
A
100
AcDbEntity
  8
1
  6
solid
 62
     7
100
AcDbSpline
210
0.0
220
0.0
230
1.0
 70
     8
 71
     2
 72
     7
 73
     4
 74
     0
 42
0.0000000001
 43
0.0000000001
 40
0.0
 40
0.0
 40
0.0
 40
1.0
 40
2.0
 40
2.0
 40
2.0
 10
1.500091057246931
 20
1.250299200675099
 30
0.0
 10
1.493363150270187
 20
1.250299200675099
 30
0.0
 10
1.484278847944605
 20
1.239863154163471
 30
0.0
 10
1.483627685153908
 20
1.23031373555882
 30
0.0
  0
LINE
  5
61
330
A
100
AcDbEntity
  8
1
  6
solid
 62
     7
100
AcDbLine
 10
1.483627685153908
 20
1.23031373555882
 30
0.0
 11
1.452741057246931
 21
1.234505596023936
 31
0.0
  0
SPLINE
  5
62
330
A
100
AcDbEntity
  8
1
  6
solid
 62
     7
100
AcDbSpline
210
0.0
220
0.0
230
1.0
 70
     8
 71
     2
 72
     8
 73
     5
 74
     0
 42
0.0000000001
 43
0.0000000001
 40
0.0
 40
0.0
 40
0.0
 40
1.0
 40
2.0
 40
3.0
 40
3.0
 40
3.0
 10
1.452741057246931
 20
1.234505596023936
 30
0.0
 10
1.455209080502745
 20
1.249245130907657
 30
0.0
 10
1.46642652236321
 20
1.267134665791378
 30
0.0
 10
1.487298615386466
 20
1.277552107651843
 30
0.0
 10
1.499334661898094
 20
1.277552107651843
 30
0.0
  0
SPLINE
  5
63
330
A
100
AcDbEntity
  8
1
  6
solid
 62
     7
100
AcDbSpline
210
0.0
220
0.0
230
1.0
 70
     8
 71
     2
 72
     6
 73
     3
 74
     0
 42
0.0000000001
 43
0.0000000001
 40
0.0
 40
0.0
 40
0.0
 40
1.0
 40
1.0
 40
1.0
 10
1.499334661898094
 20
1.277552107651843
 30
0.0
 10
1.521025359572512
 20
1.277552107651843
 30
0.0
 10
1.534592801432977
 20
1.263259084396029
 30
0.0
  0
SPLINE
  5
64
330
A
100
AcDbEntity
  8
1
  6
solid
 62
     7
100
AcDbSpline
210
0.0
220
0.0
230
1.0
 70
     8
 71
     2
 72
     6
 73
     3
 74
     0
 42
0.0000000001
 43
0.0000000001
 40
0.0
 40
0.0
 40
0.0
 40
1.0
 40
1.0
 40
1.0
 10
1.534592801432977
 20
1.263259084396029
 30
0.0
 10
1.545400940967861
 20
1.251285247186727
 30
0.0
 10
1.545400940967861
 20
1.236731758814634
 30
0.0
  0
SPLINE
  5
65
330
A
100
AcDbEntity
  8
1
  6
solid
 62
     7
100
AcDbSpline
210
0.0
220
0.0
230
1.0
 70
     8
 71
     2
 72
     6
 73
     3
 74
     0
 42
0.0000000001
 43
0.0000000001
 40
0.0
 40
0.0
 40
0.0
 40
1.0
 40
1.0
 40
1.0
 10
1.545400940967861
 20
1.236731758814634
 30
0.0
 10
1.545400940967861
 20
1.216262572768122
 30
0.0
 10
1.52211663864228
 20
1.203805014628587
 30
0.0
  0
SPLINE
  5
66
330
A
100
AcDbEntity
  8
1
  6
solid
 62
     7
100
AcDbSpline
210
0.0
220
0.0
230
1.0
 70
     8
 71
     2
 72
     7
 73
     4
 74
     0
 42
0.0000000001
 43
0.0000000001
 40
0.0
 40
0.0
 40
0.0
 40
1.0
 40
2.0
 40
2.0
 40
2.0
 10
1.52211663864228
 20
1.203805014628587
 30
0.0
 10
1.535560243293443
 20
1.201336991372773
 30
0.0
 10
1.552668382828326
 20
1.181611991372773
 30
0.0
 10
1.552668382828326
 20
1.16752361927975
 30
0.0
  0
SPLINE
  5
67
330
A
100
AcDbEntity
  8
1
  6
solid
 62
     7
100
AcDbSpline
210
0.0
220
0.0
230
1.0
 70
     8
 71
     2
 72
     7
 73
     4
 74
     0
 42
0.0000000001
 43
0.0000000001
 40
0.0
 40
0.0
 40
0.0
 40
1.0
 40
2.0
 40
2.0
 40
2.0
 10
1.552668382828326
 20
1.16752361927975
 30
0.0
 10
1.552668382828326
 20
1.147445130907657
 30
0.0
 10
1.522377103758559
 20
1.119485247186727
 30
0.0
 10
1.500221289805071
 20
1.119485247186727
 30
0.0
  0
SPLINE
  5
68
330
A
100
AcDbEntity
  8
1
  6
solid
 62
     7
100
AcDbSpline
210
0.0
220
0.0
230
1.0
 70
     8
 71
     2
 72
     7
 73
     4
 74
     0
 42
0.0000000001
 43
0.0000000001
 40
0.0
 40
0.0
 40
0.0
 40
1.0
 40
2.0
 40
2.0
 40
2.0
 10
1.500221289805071
 20
1.119485247186727
 30
0.0
 10
1.478846871200419
 20
1.119485247186727
 30
0.0
 10
1.451203266549257
 20
1.145367805326262
 30
0.0
 10
1.449107336316698
 20
1.16672361927975
 30
0.0
  0
LINE
  5
69
330
A
100
AcDbEntity
  8
1
  6
solid
 62
     7
100
AcDbLine
 10
1.670765708409722
 20
1.23493350300068
 30
0.0
 11
1.639879080502745
 21
1.232130596023936
 31
0.0
  0
SPLINE
  5
6A
330
A
100
AcDbEntity
  8
1
  6
solid
 62
     7
100
AcDbSpline
210
0.0
220
0.0
230
1.0
 70
     8
 71
     2
 72
     7
 73
     4
 74
     0
 42
0.0000000001
 43
0.0000000001
 40
0.0
 40
0.0
 40
0.0
 40
1.0
 40
2.0
 40
2.0
 40
2.0
 10
1.639879080502745
 20
1.232130596023936
 30
0.0
 10
1.638564545619024
 20
1.24136373555882
 30
0.0
 10
1.629703499107396
 20
1.250299200675099
 30
0.0
 10
1.622622103758559
 20
1.250299200675099
 30
0.0
  0
SPLINE
  5
6B
330
A
100
AcDbEntity
  8
1
  6
solid
 62
     7
100
AcDbSpline
210
0.0
220
0.0
230
1.0
 70
     8
 71
     2
 72
     7
 73
     4
 74
     0
 42
0.0000000001
 43
0.0000000001
 40
0.0
 40
0.0
 40
0.0
 40
1.0
 40
2.0
 40
2.0
 40
2.0
 10
1.622622103758559
 20
1.250299200675099
 30
0.0
 10
1.613426173526001
 20
1.250299200675099
 30
0.0
 10
1.600652336316698
 20
1.232167805326262
 30
0.0
 10
1.598928499107396
 20
1.203935247186727
 30
0.0
  0
SPLINE
  5
6C
330
A
100
AcDbEntity
  8
1
  6
solid
 62
     7
100
AcDbSpline
210
0.0
220
0.0
230
1.0
 70
     8
 71
     2
 72
     6
 73
     3
 74
     0
 42
0.0000000001
 43
0.0000000001
 40
0.0
 40
0.0
 40
0.0
 40
1.0
 40
1.0
 40
1.0
 10
1.598928499107396
 20
1.203935247186727
 30
0.0
 10
1.610809313060884
 20
1.217595712303006
 30
0.0
 10
1.627607568874838
 20
1.217595712303006
 30
0.0
  0
SPLINE
  5
6D
330
A
100
AcDbEntity
  8
1
  6
solid
 62
     7
100
AcDbSpline
210
0.0
220
0.0
230
1.0
 70
     8
 71
     2
 72
     7
 73
     4
 74
     0
 42
0.0000000001
 43
0.0000000001
 40
0.0
 40
0.0
 40
0.0
 40
1.0
 40
2.0
 40
2.0
 40
2.0
 10
1.627607568874838
 20
1.217595712303006
 30
0.0
 10
1.646445940967861
 20
1.217595712303006
 30
0.0
 10
1.674399429339954
 20
1.190566061140215
 30
0.0
 10
1.674399429339954
 20
1.16909861927975
 30
0.0
  0
SPLINE
  5
6E
330
A
100
AcDbEntity
  8
1
  6
solid
 62
     7
100
AcDbSpline
210
0.0
220
0.0
230
1.0
 70
     8
 71
     2
 72
     7
 73
     4
 74
     0
 42
0.0000000001
 43
0.0000000001
 40
0.0
 40
0.0
 40
0.0
 40
1.0
 40
2.0
 40
2.0
 40
2.0
 10
1.674399429339954
 20
1.16909861927975
 30
0.0
 10
1.674399429339954
 20
1.146775363465796
 30
0.0
 10
1.646073847944605
 20
1.119485247186727
 30
0.0
 10
1.624215708409722
 20
1.119485247186727
 30
0.0
  0
SPLINE
  5
6F
330
A
100
AcDbEntity
  8
1
  6
solid
 62
     7
100
AcDbSpline
210
0.0
220
0.0
230
1.0
 70
     8
 71
     2
 72
     7
 73
     4
 74
     0
 42
0.0000000001
 43
0.0000000001
 40
0.0
 40
0.0
 40
0.0
 40
1.0
 40
2.0
 40
2.0
 40
2.0
 10
1.624215708409722
 20
1.119485247186727
 30
0.0
 10
1.600689545619024
 20
1.119485247186727
 30
0.0
 10
1.570838382828326
 20
1.155878270442541
 30
0.0
 10
1.570838382828326
 20
1.196853851837889
 30
0.0
  0
SPLINE
  5
70
330
A
100
AcDbEntity
  8
1
  6
solid
 62
     7
100
AcDbSpline
210
0.0
220
0.0
230
1.0
 70
     8
 71
     2
 72
     7
 73
     4
 74
     0
 42
0.0000000001
 43
0.0000000001
 40
0.0
 40
0.0
 40
0.0
 40
1.0
 40
2.0
 40
2.0
 40
2.0
 10
1.570838382828326
 20
1.196853851837889
 30
0.0
 10
1.570838382828326
 20
1.239770130907657
 30
0.0
 10
1.601985475851582
 20
1.277552107651843
 30
0.0
 10
1.626497685153908
 20
1.277552107651843
 30
0.0
  0
SPLINE
  5
71
330
A
100
AcDbEntity
  8
1
  6
solid
 62
     7
100
AcDbSpline
210
0.0
220
0.0
230
1.0
 70
     8
 71
     2
 72
     7
 73
     4
 74
     0
 42
0.0000000001
 43
0.0000000001
 40
0.0
 40
0.0
 40
0.0
 40
1.0
 40
2.0
 40
2.0
 40
2.0
 10
1.626497685153908
 20
1.277552107651843
 30
0.0
 10
1.644238382828326
 20
1.277552107651843
 30
0.0
 10
1.667448266549257
 20
1.25589861927975
 30
0.0
 10
1.670765708409722
 20
1.23493350300068
 30
0.0
  0
SPLINE
  5
72
330
A
100
AcDbEntity
  8
1
  6
solid
 62
     7
100
AcDbSpline
210
0.0
220
0.0
230
1.0
 70
     8
 71
     2
 72
     7
 73
     4
 74
     0
 42
0.0000000001
 43
0.0000000001
 40
0.0
 40
0.0
 40
0.0
 40
1.0
 40
2.0
 40
2.0
 40
2.0
 10
1.601725010735303
 20
1.169470712303006
 30
0.0
 10
1.601725010735303
 20
1.158420712303006
 30
0.0
 10
1.614982568874838
 20
1.146738154163471
 30
0.0
 10
1.62380640608414
 20
1.146738154163471
 30
0.0
  0
SPLINE
  5
73
330
A
100
AcDbEntity
  8
1
  6
solid
 62
     7
100
AcDbSpline
210
0.0
220
0.0
230
1.0
 70
     8
 71
     2
 72
     7
 73
     4
 74
     0
 42
0.0000000001
 43
0.0000000001
 40
0.0
 40
0.0
 40
0.0
 40
1.0
 40
2.0
 40
2.0
 40
2.0
 10
1.62380640608414
 20
1.146738154163471
 30
0.0
 10
1.631799429339954
 20
1.146738154163471
 30
0.0
 10
1.643512801432978
 20
1.156361991372773
 30
0.0
 10
1.643512801432978
 20
1.16752361927975
 30
0.0
  0
SPLINE
  5
74
330
A
100
AcDbEntity
  8
1
  6
solid
 62
     7
100
AcDbSpline
210
0.0
220
0.0
230
1.0
 70
     8
 71
     2
 72
     7
 73
     4
 74
     0
 42
0.0000000001
 43
0.0000000001
 40
0.0
 40
0.0
 40
0.0
 40
1.0
 40
2.0
 40
2.0
 40
2.0
 10
1.643512801432978
 20
1.16752361927975
 30
0.0
 10
1.643512801432978
 20
1.179516061140215
 30
0.0
 10
1.63124128980507
 20
1.190342805326262
 30
0.0
 10
1.622194196781815
 20
1.190342805326262
 30
0.0
  0
SPLINE
  5
75
330
A
100
AcDbEntity
  8
1
  6
solid
 62
     7
100
AcDbSpline
210
0.0
220
0.0
230
1.0
 70
     8
 71
     2
 72
     7
 73
     4
 74
     0
 42
0.0000000001
 43
0.0000000001
 40
0.0
 40
0.0
 40
0.0
 40
1.0
 40
2.0
 40
2.0
 40
2.0
 10
1.622194196781815
 20
1.190342805326262
 30
0.0
 10
1.613370359572512
 20
1.190342805326262
 30
0.0
 10
1.601725010735303
 20
1.179832340209983
 30
0.0
 10
1.601725010735303
 20
1.169470712303006
 30
0.0
  0
LINE
  5
76
330
A
100
AcDbEntity
  8
1
  6
solid
 62
     7
100
AcDbLine
 10
1.796130475851582
 20
1.15218873555882
 30
0.0
 11
1.796130475851582
 21
1.121302107651843
 31
0.0
  0
LINE
  5
77
330
A
100
AcDbEntity
  8
1
  6
solid
 62
     7
100
AcDbLine
 10
1.796130475851582
 20
1.121302107651843
 30
0.0
 11
1.692569429339954
 21
1.121302107651843
 31
0.0
  0
SPLINE
  5
78
330
A
100
AcDbEntity
  8
1
  6
solid
 62
     7
100
AcDbSpline
210
0.0
220
0.0
230
1.0
 70
     8
 71
     2
 72
     7
 73
     4
 74
     0
 42
0.0000000001
 43
0.0000000001
 40
0.0
 40
0.0
 40
0.0
 40
1.0
 40
2.0
 40
2.0
 40
2.0
 10
1.692569429339954
 20
1.121302107651843
 30
0.0
 10
1.693648499107396
 20
1.13641373555882
 30
0.0
 10
1.71075663864228
 20
1.163889898349517
 30
0.0
 10
1.734878150270187
 20
1.186969549512308
 30
0.0
  0
SPLINE
  5
79
330
A
100
AcDbEntity
  8
1
  6
solid
 62
     7
100
AcDbSpline
210
0.0
220
0.0
230
1.0
 70
     8
 71
     2
 72
     6
 73
     3
 74
     0
 42
0.0000000001
 43
0.0000000001
 40
0.0
 40
0.0
 40
0.0
 40
1.0
 40
1.0
 40
1.0
 10
1.734878150270187
 20
1.186969549512308
 30
0.0
 10
1.754640359572512
 20
1.205305596023936
 30
0.0
 10
1.758813615386466
 20
1.211481758814634
 30
0.0
  0
SPLINE
  5
7A
330
A
100
AcDbEntity
  8
1
  6
solid
 62
     7
100
AcDbSpline
210
0.0
220
0.0
230
1.0
 70
     8
 71
     2
 72
     6
 73
     3
 74
     0
 42
0.0000000001
 43
0.0000000001
 40
0.0
 40
0.0
 40
0.0
 40
1.0
 40
1.0
 40
1.0
 10
1.758813615386466
 20
1.211481758814634
 30
0.0
 10
1.765243847944605
 20
1.220547456489052
 30
0.0
 10
1.765243847944605
 20
1.229482921605331
 30
0.0
  0
SPLINE
  5
7B
330
A
100
AcDbEntity
  8
1
  6
solid
 62
     7
100
AcDbSpline
210
0.0
220
0.0
230
1.0
 70
     8
 71
     2
 72
     7
 73
     4
 74
     0
 42
0.0000000001
 43
0.0000000001
 40
0.0
 40
0.0
 40
0.0
 40
1.0
 40
2.0
 40
2.0
 40
2.0
 10
1.765243847944605
 20
1.229482921605331
 30
0.0
 10
1.765243847944605
 20
1.23965850300068
 30
0.0
 10
1.755012452595768
 20
1.250299200675099
 30
0.0
 10
1.746170010735303
 20
1.250299200675099
 30
0.0
  0
SPLINE
  5
7C
330
A
100
AcDbEntity
  8
1
  6
solid
 62
     7
100
AcDbSpline
210
0.0
220
0.0
230
1.0
 70
     8
 71
     2
 72
     7
 73
     4
 74
     0
 42
0.0000000001
 43
0.0000000001
 40
0.0
 40
0.0
 40
0.0
 40
1.0
 40
2.0
 40
2.0
 40
2.0
 10
1.746170010735303
 20
1.250299200675099
 30
0.0
 10
1.738028150270187
 20
1.250299200675099
 30
0.0
 10
1.727610708409722
 20
1.238753270442541
 30
0.0
 10
1.727089778177164
 20
1.226680014628587
 30
0.0
  0
LINE
  5
7D
330
A
100
AcDbEntity
  8
1
  6
solid
 62
     7
100
AcDbLine
 10
1.727089778177164
 20
1.226680014628587
 30
0.0
 11
1.696203150270187
 21
1.22920385183789
 31
0.0
  0
SPLINE
  5
7E
330
A
100
AcDbEntity
  8
1
  6
solid
 62
     7
100
AcDbSpline
210
0.0
220
0.0
230
1.0
 70
     8
 71
     2
 72
     7
 73
     4
 74
     0
 42
0.0000000001
 43
0.0000000001
 40
0.0
 40
0.0
 40
0.0
 40
1.0
 40
2.0
 40
2.0
 40
2.0
 10
1.696203150270187
 20
1.22920385183789
 30
0.0
 10
1.698540940967861
 20
1.254770130907657
 30
0.0
 10
1.726110127014373
 20
1.277552107651843
 30
0.0
 10
1.747242685153908
 20
1.277552107651843
 30
0.0
  0
SPLINE
  5
7F
330
A
100
AcDbEntity
  8
1
  6
solid
 62
     7
100
AcDbSpline
210
0.0
220
0.0
230
1.0
 70
     8
 71
     2
 72
     7
 73
     4
 74
     0
 42
0.0000000001
 43
0.0000000001
 40
0.0
 40
0.0
 40
0.0
 40
1.0
 40
2.0
 40
2.0
 40
2.0
 10
1.747242685153908
 20
1.277552107651843
 30
0.0
 10
1.769677568874838
 20
1.277552107651843
 30
0.0
 10
1.796130475851582
 20
1.252916061140215
 30
0.0
 10
1.796130475851582
 20
1.234840479744866
 30
0.0
  0
SPLINE
  5
80
330
A
100
AcDbEntity
  8
1
  6
solid
 62
     7
100
AcDbSpline
210
0.0
220
0.0
230
1.0
 70
     8
 71
     2
 72
     7
 73
     4
 74
     0
 42
0.0000000001
 43
0.0000000001
 40
0.0
 40
0.0
 40
0.0
 40
1.0
 40
2.0
 40
2.0
 40
2.0
 10
1.796130475851582
 20
1.234840479744866
 30
0.0
 10
1.796130475851582
 20
1.22499338672161
 30
0.0
 10
1.788162452595768
 20
1.205956758814634
 30
0.0
 10
1.780392685153908
 20
1.196184084396029
 30
0.0
  0
SPLINE
  5
81
330
A
100
AcDbEntity
  8
1
  6
solid
 62
     7
100
AcDbSpline
210
0.0
220
0.0
230
1.0
 70
     8
 71
     2
 72
     8
 73
     5
 74
     0
 42
0.0000000001
 43
0.0000000001
 40
0.0
 40
0.0
 40
0.0
 40
1.0
 40
2.0
 40
3.0
 40
3.0
 40
3.0
 10
1.780392685153908
 20
1.196184084396029
 30
0.0
 10
1.775035127014373
 20
1.189270130907657
 30
0.0
 10
1.74628163864228
 20
1.163945712303006
 30
0.0
 10
1.738939778177164
 20
1.156027107651843
 30
0.0
 10
1.73680663864228
 20
1.15218873555882
 30
0.0
  0
LINE
  5
82
330
A
100
AcDbEntity
  8
1
  6
solid
 62
     7
100
AcDbLine
 10
1.796130475851582
 20
1.15218873555882
 30
0.0
 11
1.73680663864228
 21
1.15218873555882
 31
0.0
  0
DIMENSION
  5
8D
330
A
100
AcDbEntity
  8
1
  6
solid
 62
     7
100
AcDbDimension
  2
*D0
 10
2.427019467382788
 20
3.891542375087737
 30
0.0
 11
2.427019467382788
 21
3.891542375087737
 31
0.0
 70
    33
 71
     5
 42
6.750000119209289
  3
Standard
100
AcDbAlignedDimension
 13
2.00769829750061
 23
7.266542434692382
 33
0.0
 14
2.00769829750061
 24
0.5165423154830933
 34
0.0
1001
ACAD
1000
DSTYLE
1002
{
1070
    41
1040
0.125
1070
    42
1040
0.125
1070
    44
1040
0.0625
1070
    47
1040
0.0005
1070
    48
1040
0.0005
1070
    75
1070
     1
1070
    76
1070
     1
1070
   140
1040
0.125
1070
   146
1040
0.5
1070
   270
1070
     5
1070
   271
1070
     3
1070
   272
1070
     3
1070
   277
1070
     5
1002
}
  0
DIMENSION
  5
98
330
A
100
AcDbEntity
  8
1
  6
solid
 62
     7
100
AcDbDimension
  2
*D1
 10
1.632698237895965
 20
0.3366843227045991
 30
0.0
 11
1.632698237895965
 21
0.3366843227045991
 31
0.0
 70
    33
 71
     5
 42
0.7500001192092896
  3
Standard
100
AcDbAlignedDimension
 13
2.00769829750061
 23
0.5165423154830933
 33
0.0
 14
1.25769817829132
 24
0.5165423154830933
 34
0.0
1001
ACAD
1000
DSTYLE
1002
{
1070
    41
1040
0.125
1070
    42
1040
0.125
1070
    44
1040
0.0625
1070
    47
1040
0.0005
1070
    48
1040
0.0005
1070
    75
1070
     1
1070
    76
1070
     1
1070
   140
1040
0.125
1070
   146
1040
0.5
1070
   270
1070
     5
1070
   271
1070
     3
1070
   272
1070
     3
1070
   277
1070
     5
1002
}
  0
ARC
  5
99
330
A
100
AcDbEntity
  8
1
  6
solid
 62
     7
100
AcDbCircle
 10
-1.275024379767104
 20
3.949462794368423
 30
0.0
 40
0.1641582554703617
100
AcDbArc
 50
26.51068908786293
 51
95.72048098840232
  0
ARC
  5
9A
330
A
100
AcDbEntity
  8
1
  6
solid
 62
     7
100
AcDbCircle
 10
-1.430953991750645
 20
4.029781869922953
 30
0.0
 40
0.1623932665564467
100
AcDbArc
 50
30.74635004904425
 51
99.36902568092433
  0
ARC
  5
9B
330
A
100
AcDbEntity
  8
1
  6
solid
 62
     7
100
AcDbCircle
 10
-4.227181351682577
 20
4.095020157589194
 30
0.0
 40
0.1128360403679767
100
AcDbArc
 50
21.40926125716163
 51
107.2863834314938
  0
ARC
  5
9C
330
A
100
AcDbEntity
  8
1
  6
solid
 62
     7
100
AcDbCircle
 10
-4.490132950671862
 20
4.113835413927976
 30
0.0
 40
0.2460534095063251
100
AcDbArc
 50
21.18630646420156
 51
131.6415041048479
  0
ARC
  5
9D
330
A
100
AcDbEntity
  8
1
  6
solid
 62
     7
100
AcDbCircle
 10
-4.742517020798804
 20
4.160904426637122
 30
0.0
 40
0.1631519149946739
100
AcDbArc
 50
56.9872155291431
 51
133.4372544563586
  0
ARC
  5
9E
330
A
100
AcDbEntity
  8
1
  6
solid
 62
     7
100
AcDbCircle
 10
-5.077731726627514
 20
4.708409528815614
 30
0.0
 40
0.4835471437889173
100
AcDbArc
 50
249.5480900895291
 51
297.4680545204926
  0
ARC
  5
9F
330
A
100
AcDbEntity
  8
1
  6
solid
 62
     7
100
AcDbCircle
 10
-6.097257808473311
 20
2.627200895169085
 30
0.0
 40
1.83692805545982
100
AcDbArc
 50
62.41678578071098
 51
83.87688722827375
  0
ARC
  5
A0
330
A
100
AcDbEntity
  8
1
  6
solid
 62
     7
100
AcDbCircle
 10
-5.898592304966714
 20
3.679777049070856
 30
0.0
 40
0.7738770106155181
100
AcDbArc
 50
90.20206313917126
 51
137.6099131972215
  0
LINE
  5
A1
330
A
100
AcDbEntity
  8
1
  6
solid
 62
     7
100
AcDbLine
 10
-2.11448133675563
 20
4.136208399730877
 30
0.0
 11
-4.12213142043166
 21
4.136208386013796
 31
0.0
  0
ARC
  5
A2
330
A
100
AcDbEntity
  8
1
  6
solid
 62
     7
100
AcDbCircle
 10
-1.771527704008414
 20
3.987133526499047
 30
0.0
 40
0.3739525531983959
100
AcDbArc
 50
32.85509686614472
 51
156.5064086577426
  0
LINE
  5
A3
330
A
100
AcDbEntity
  8
1
  6
solid
 62
     7
100
AcDbLine
 10
-7.722963636493896
 20
3.739664979667975
 30
0.0
 11
-7.722963636493896
 21
4.489664979667976
 31
0.0
  0
LINE
  5
A4
330
A
100
AcDbEntity
  8
1
  6
solid
 62
     7
100
AcDbLine
 10
-0.9729636364938949
 20
3.95145492623749
 30
0.0
 11
-0.9729636364938949
 21
3.739664979667983
 31
0.0
  0
ARC
  5
A5
330
A
100
AcDbEntity
  8
1
  6
solid
 62
     7
100
AcDbCircle
 10
-0.9926124475740651
 20
4.11320170028771
 30
0.0
 40
0.1629358606707469
100
AcDbArc
 50
213.7255418118886
 51
276.9262874315253
  0
LINE
  5
A6
330
A
100
AcDbEntity
  8
1
  6
solid
 62
     7
100
AcDbLine
 10
-0.9729636364938949
 20
3.739664979667983
 30
0.0
 11
-2.722963636493895
 21
3.739664979667982
 31
0.0
  0
LINE
  5
A7
330
A
100
AcDbEntity
  8
1
  6
solid
 62
     7
100
AcDbLine
 10
-7.722963636493896
 20
3.739664979667975
 30
0.0
 11
-6.722963636493896
 21
3.739664979667976
 31
0.0
  0
LINE
  5
A8
330
A
100
AcDbEntity
  8
1
  6
solid
 62
     7
100
AcDbLine
 10
-2.722963636493895
 20
3.770914979667982
 30
0.0
 11
-2.722963636493895
 21
3.739664979667982
 31
0.0
  0
ARC
  5
A9
330
A
100
AcDbEntity
  8
1
  6
solid
 62
     7
100
AcDbCircle
 10
-2.785463636493895
 20
3.770914979667982
 30
0.0
 40
0.0625
100
AcDbArc
 50
0.0000000000000509
 51
90.00000000000005
  0
LINE
  5
AA
330
A
100
AcDbEntity
  8
1
  6
solid
 62
     7
100
AcDbLine
 10
-6.722963636493896
 20
3.739664979667976
 30
0.0
 11
-6.722963636493896
 21
3.770914979667976
 31
0.0
  0
LINE
  5
AB
330
A
100
AcDbEntity
  8
1
  6
solid
 62
     7
100
AcDbLine
 10
-6.660463636493896
 20
3.833414979667976
 30
0.0
 11
-2.785463636493895
 21
3.833414979667982
 31
0.0
  0
ARC
  5
AC
330
A
100
AcDbEntity
  8
1
  6
solid
 62
     7
100
AcDbCircle
 10
-6.660463636493896
 20
3.770914979667976
 30
0.0
 40
0.0625
100
AcDbArc
 50
90.00000000000005
 51
180.0
  0
LINE
  5
AD
330
A
100
AcDbEntity
  8
1
  6
solid
 62
     7
100
AcDbLine
 10
-6.47015619095461
 20
4.201505308620617
 30
0.0
 11
-6.471757639713326
 21
4.365882735651183
 31
0.0
  0
LINE
  5
AE
330
A
100
AcDbEntity
  8
1
  6
solid
 62
     7
100
AcDbLine
 10
-7.722963636493896
 20
4.489664979667976
 30
0.0
 11
-6.596751707854038
 21
4.489664979667976
 31
0.0
  0
ARC
  5
AF
330
A
100
AcDbEntity
  8
1
  6
solid
 62
     7
100
AcDbCircle
 10
-6.596751707854038
 20
4.364664979667976
 30
0.0
 40
0.125
100
AcDbArc
 50
0.558187056109969
 51
90.00000000000005
  0
LINE
  5
B1
330
A
100
AcDbEntity
  8
0
  6
solid
 62
     7
100
AcDbLine
 10
1.442154430824578
 20
1.365835036484257
 30
0.0
 11
1.442154430824578
 21
1.553335036484257
 31
0.0
  0
LINE
  5
B2
330
A
100
AcDbEntity
  8
0
  6
solid
 62
     7
100
AcDbLine
 10
1.442154430824578
 20
1.553335036484257
 30
0.0
 11
1.4774805177811
 21
1.553335036484257
 31
0.0
  0
LINE
  5
B3
330
A
100
AcDbEntity
  8
0
  6
solid
 62
     7
100
AcDbLine
 10
1.4774805177811
 20
1.553335036484257
 30
0.0
 11
1.4774805177811
 21
1.39844373213643
 31
0.0
  0
LINE
  5
B4
330
A
100
AcDbEntity
  8
0
  6
solid
 62
     7
100
AcDbLine
 10
1.4774805177811
 20
1.39844373213643
 30
0.0
 11
1.575306604737622
 21
1.39844373213643
 31
0.0
  0
LINE
  5
B5
330
A
100
AcDbEntity
  8
0
  6
solid
 62
     7
100
AcDbLine
 10
1.575306604737622
 20
1.39844373213643
 30
0.0
 11
1.575306604737622
 21
1.365835036484257
 31
0.0
  0
LINE
  5
B6
330
A
100
AcDbEntity
  8
0
  6
solid
 62
     7
100
AcDbLine
 10
1.442154430824578
 20
1.365835036484257
 30
0.0
 11
1.575306604737622
 21
1.365835036484257
 31
0.0
  0
LINE
  5
B7
330
A
100
AcDbEntity
  8
0
  6
solid
 62
     7
100
AcDbLine
 10
1.602476604737621
 20
1.553335036484257
 30
0.0
 11
1.671357474302839
 21
1.553335036484257
 31
0.0
  0
SPLINE
  5
B8
330
A
100
AcDbEntity
  8
0
  6
solid
 62
     7
100
AcDbSpline
210
0.0
220
0.0
230
1.0
 70
     8
 71
     2
 72
     6
 73
     3
 74
     0
 42
0.0000000001
 43
0.0000000001
 40
0.0
 40
0.0
 40
0.0
 40
1.0
 40
1.0
 40
1.0
 10
1.671357474302839
 20
1.553335036484257
 30
0.0
 10
1.695173996041969
 20
1.553335036484257
 30
0.0
 10
1.706989648215882
 20
1.549124601701648
 30
0.0
  0
SPLINE
  5
B9
330
A
100
AcDbEntity
  8
0
  6
solid
 62
     7
100
AcDbSpline
210
0.0
220
0.0
230
1.0
 70
     8
 71
     2
 72
     8
 73
     5
 74
     0
 42
0.0000000001
 43
0.0000000001
 40
0.0
 40
0.0
 40
0.0
 40
1.0
 40
2.0
 40
3.0
 40
3.0
 40
3.0
 10
1.706989648215882
 20
1.549124601701648
 30
0.0
 10
1.723433126476752
 20
1.544051558223387
 30
0.0
 10
1.747333126476752
 20
1.519372427788604
 30
0.0
 10
1.760085300389795
 20
1.483628949527735
 30
0.0
 10
1.760085300389795
 20
1.457011558223387
 30
0.0
  0
SPLINE
  5
BA
330
A
100
AcDbEntity
  8
0
  6
solid
 62
     7
100
AcDbSpline
210
0.0
220
0.0
230
1.0
 70
     8
 71
     2
 72
     6
 73
     3
 74
     0
 42
0.0000000001
 43
0.0000000001
 40
0.0
 40
0.0
 40
0.0
 40
1.0
 40
1.0
 40
1.0
 10
1.760085300389795
 20
1.457011558223387
 30
0.0
 10
1.760085300389795
 20
1.434354166919039
 30
0.0
 10
1.753491387346317
 20
1.417743732136431
 30
0.0
  0
SPLINE
  5
BB
330
A
100
AcDbEntity
  8
0
  6
solid
 62
     7
100
AcDbSpline
210
0.0
220
0.0
230
1.0
 70
     8
 71
     2
 72
     6
 73
     3
 74
     0
 42
0.0000000001
 43
0.0000000001
 40
0.0
 40
0.0
 40
0.0
 40
1.0
 40
1.0
 40
1.0
 10
1.753491387346317
 20
1.417743732136431
 30
0.0
 10
1.746999213433274
 20
1.396839384310343
 30
0.0
 10
1.733746169955013
 20
1.383864601701648
 30
0.0
  0
SPLINE
  5
BC
330
A
100
AcDbEntity
  8
0
  6
solid
 62
     7
100
AcDbSpline
210
0.0
220
0.0
230
1.0
 70
     8
 71
     2
 72
     6
 73
     3
 74
     0
 42
0.0000000001
 43
0.0000000001
 40
0.0
 40
0.0
 40
0.0
 40
1.0
 40
1.0
 40
1.0
 10
1.733746169955013
 20
1.383864601701648
 30
0.0
 10
1.723516604737621
 20
1.374766340832083
 30
0.0
 10
1.706906169955013
 20
1.369359384310343
 30
0.0
  0
SPLINE
  5
BD
330
A
100
AcDbEntity
  8
0
  6
solid
 62
     7
100
AcDbSpline
210
0.0
220
0.0
230
1.0
 70
     8
 71
     2
 72
     6
 73
     3
 74
     0
 42
0.0000000001
 43
0.0000000001
 40
0.0
 40
0.0
 40
0.0
 40
1.0
 40
1.0
 40
1.0
 10
1.706906169955013
 20
1.369359384310343
 30
0.0
 10
1.694923561259361
 20
1.365835036484257
 30
0.0
 10
1.673629648215882
 20
1.365835036484257
 30
0.0
  0
LINE
  5
BE
330
A
100
AcDbEntity
  8
0
  6
solid
 62
     7
100
AcDbLine
 10
1.673629648215882
 20
1.365835036484257
 30
0.0
 11
1.602476604737621
 21
1.365835036484257
 31
0.0
  0
LINE
  5
BF
330
A
100
AcDbEntity
  8
0
  6
solid
 62
     7
100
AcDbLine
 10
1.602476604737621
 20
1.553335036484257
 30
0.0
 11
1.602476604737621
 21
1.365835036484257
 31
0.0
  0
LINE
  5
C0
330
A
100
AcDbEntity
  8
0
  6
solid
 62
     7
100
AcDbLine
 10
1.637802691694143
 20
1.520726340832083
 30
0.0
 11
1.637802691694143
 21
1.39844373213643
 31
0.0
  0
LINE
  5
C1
330
A
100
AcDbEntity
  8
0
  6
solid
 62
     7
100
AcDbLine
 10
1.637802691694143
 20
1.39844373213643
 30
0.0
 11
1.668194865607187
 21
1.39844373213643
 31
0.0
  0
SPLINE
  5
C2
330
A
100
AcDbEntity
  8
0
  6
solid
 62
     7
100
AcDbSpline
210
0.0
220
0.0
230
1.0
 70
     8
 71
     2
 72
     6
 73
     3
 74
     0
 42
0.0000000001
 43
0.0000000001
 40
0.0
 40
0.0
 40
0.0
 40
1.0
 40
1.0
 40
1.0
 10
1.668194865607187
 20
1.39844373213643
 30
0.0
 10
1.685083561259361
 20
1.39844373213643
 30
0.0
 10
1.692901822128926
 20
1.399612427788604
 30
0.0
  0
SPLINE
  5
C3
330
A
100
AcDbEntity
  8
0
  6
solid
 62
     7
100
AcDbSpline
210
0.0
220
0.0
230
1.0
 70
     8
 71
     2
 72
     8
 73
     5
 74
     0
 42
0.0000000001
 43
0.0000000001
 40
0.0
 40
0.0
 40
0.0
 40
1.0
 40
2.0
 40
3.0
 40
3.0
 40
3.0
 10
1.692901822128926
 20
1.399612427788604
 30
0.0
 10
1.70318703952023
 20
1.402023732136431
 30
0.0
 10
1.715559213433274
 20
1.412865471266865
 30
0.0
 10
1.724759213433274
 20
1.437544601701648
 30
0.0
 10
1.724759213433274
 20
1.459088949527735
 30
0.0
  0
SPLINE
  5
C4
330
A
100
AcDbEntity
  8
0
  6
solid
 62
     7
100
AcDbSpline
210
0.0
220
0.0
230
1.0
 70
     8
 71
     2
 72
     8
 73
     5
 74
     0
 42
0.0000000001
 43
0.0000000001
 40
0.0
 40
0.0
 40
0.0
 40
1.0
 40
2.0
 40
3.0
 40
3.0
 40
3.0
 10
1.724759213433274
 20
1.459088949527735
 30
0.0
 10
1.724759213433274
 20
1.480605471266865
 30
0.0
 10
1.715559213433274
 20
1.503123732136431
 30
0.0
 10
1.701053996041969
 20
1.516209819092952
 30
0.0
 10
1.68976703952023
 20
1.518621123440778
 30
0.0
  0
SPLINE
  5
C5
330
A
100
AcDbEntity
  8
0
  6
solid
 62
     7
100
AcDbSpline
210
0.0
220
0.0
230
1.0
 70
     8
 71
     2
 72
     6
 73
     3
 74
     0
 42
0.0000000001
 43
0.0000000001
 40
0.0
 40
0.0
 40
0.0
 40
1.0
 40
1.0
 40
1.0
 10
1.68976703952023
 20
1.518621123440778
 30
0.0
 10
1.681336604737621
 20
1.520726340832083
 30
0.0
 10
1.655498343868056
 20
1.520726340832083
 30
0.0
  0
LINE
  5
C6
330
A
100
AcDbEntity
  8
0
  6
solid
 62
     7
100
AcDbLine
 10
1.637802691694143
 20
1.520726340832083
 30
0.0
 11
1.655498343868056
 21
1.520726340832083
 31
0.0
  0
DIMENSION
  5
D1
330
A
100
AcDbEntity
  8
0
  6
solid
 62
     7
100
AcDbDimension
  2
*D2
 10
-8.182148412128677
 20
4.114665031433106
 30
0.0
 11
-8.182148412128677
 21
4.114665031433106
 31
0.0
 70
    33
 71
     5
 42
0.75
  3
Standard
100
AcDbAlignedDimension
 13
-7.722963809967041
 23
4.489665031433105
 33
0.0
 14
-7.722963809967041
 24
3.739665031433105
 34
0.0
1001
ACAD
1000
DSTYLE
1002
{
1070
    41
1040
0.125
1070
    42
1040
0.125
1070
    44
1040
0.0625
1070
    47
1040
0.0005
1070
    48
1040
0.0005
1070
    75
1070
     1
1070
    76
1070
     1
1070
    77
1070
     1
1070
    78
1070
     1
1070
   140
1040
0.125
1070
   146
1040
0.5
1070
   174
1070
     1
1070
   270
1070
     5
1070
   271
1070
     3
1070
   272
1070
     3
1070
   277
1070
     5
1070
   284
1070
     1
1002
}
  0
DIMENSION
  5
DC
330
A
100
AcDbEntity
  8
0
  6
solid
 62
     7
100
AcDbDimension
  2
*D3
 10
-4.347963720560073
 20
3.34822017379141
 30
0.0
 11
-4.347963720560073
 21
3.34822017379141
 31
0.0
 70
    33
 71
     5
 42
6.750000178813934
  3
Standard
100
AcDbAlignedDimension
 13
-7.722963809967041
 23
3.739665031433105
 33
0.0
 14
-0.9729636311531066
 24
3.739665031433105
 34
0.0
1001
ACAD
1000
DSTYLE
1002
{
1070
    41
1040
0.125
1070
    42
1040
0.125
1070
    44
1040
0.0625
1070
    47
1040
0.0005
1070
    48
1040
0.0005
1070
    75
1070
     1
1070
    76
1070
     1
1070
    77
1070
     1
1070
    78
1070
     1
1070
   140
1040
0.125
1070
   146
1040
0.5
1070
   174
1070
     1
1070
   270
1070
     5
1070
   271
1070
     3
1070
   272
1070
     3
1070
   277
1070
     5
1070
   284
1070
     1
1002
}
  0
VIEWPORT
  5
FA
330
B
100
AcDbEntity
 67
     1
  8
0
  6
Continuous
370
     0
100
AcDbViewport
 10
5.151764306687562
 20
3.950916201673133
 30
0.0
 40
15.41180433898097
 41
8.154478595157291
 68
     1
 69
     1
 12
5.151764306687562
 22
3.950916201673133
 13
0.0
 23
0.0
 14
0.5
 24
0.5
 15
0.5
 25
0.5
 16
0.0
 26
0.0
 36
1.0
 17
0.0
 27
0.0
 37
0.0
 42
50.0
 43
0.0
 44
0.0
 45
8.154478595157291
 50
0.0
 51
0.0
 72
   100
 90
   819232
  1

281
     0
 71
     1
 74
     0
110
0.0
120
0.0
130
0.0
111
1.0
121
0.0
131
0.0
112
0.0
122
1.0
132
0.0
 79
     0
146
0.0
170
     0
  0
VIEWPORT
  5
FD
330
B
100
AcDbEntity
 67
     1
  8
0
  6
Continuous
370
     0
100
AcDbViewport
 10
5.151738341987247
 20
3.951116639509745
 30
0.0
 40
10.55447821870885
 41
8.058433136795166
 68
     2
 69
     2
 12
-2.838958728366899
 22
3.97564874453457
 13
0.0
 23
0.0
 14
0.5
 24
0.5
 15
0.5
 25
0.5
 16
0.0
 26
0.0
 36
1.0
 17
0.0
 27
0.0
 37
0.0
 42
50.0
 43
0.0
 44
0.0
 45
10.91729143553554
 50
0.0
 51
0.0
 72
   100
 90
   819232
  1

281
     0
 71
     1
 74
     0
110
0.0
120
0.0
130
0.0
111
1.0
121
0.0
131
0.0
112
0.0
122
1.0
132
0.0
 79
     0
146
0.0
170
     0
  0
ENDSEC
  0
SECTION
  2
OBJECTS
  0
DICTIONARY
  5
19
330
0
100
AcDbDictionary
281
     1
  3
ACAD_COLOR
350
F3
  3
ACAD_GROUP
350
1A
  3
ACAD_LAYOUT
350
1E
  3
ACAD_MATERIAL
350
DE
  3
ACAD_MLEADERSTYLE
350
127
  3
ACAD_MLINESTYLE
350
1B
  3
ACAD_PLOTSETTINGS
350
22
  3
ACAD_PLOTSTYLENAME
350
1F
  3
ACAD_SCALELIST
350
105
  3
ACAD_TABLESTYLE
350
F4
  3
ACAD_VISUALSTYLE
350
E2
  3
ACAD_WIPEOUT_VARS
350
23
  3
ACDB_RECOMPOSE_DATA
350
15C
  3
AcDbVariableDictionary
350
102
  3
ASE_INDEX_DICTIONARY
350
FF
  0
DICTIONARY
  5
130
330
14
100
AcDbDictionary
280
     1
281
     1
  3
ADSK_XREC_LAYER_RECONCILED
360
131
  0
DICTIONARY
  5
132
330
27
100
AcDbDictionary
280
     1
281
     1
  3
ADSK_XREC_LAYER_RECONCILED
360
133
  0
DICTIONARY
  5
134
330
B0
100
AcDbDictionary
280
     1
281
     1
  3
ADSK_XREC_LAYER_RECONCILED
360
135
  0
DICTIONARY
  5
F3
102
{ACAD_REACTORS
330
19
102
}
330
19
100
AcDbDictionary
281
     1
  0
DICTIONARY
  5
1A
102
{ACAD_REACTORS
330
19
102
}
330
19
100
AcDbDictionary
281
     1
  0
DICTIONARY
  5
1E
102
{ACAD_REACTORS
330
19
102
}
330
19
100
AcDbDictionary
281
     1
  3
Layout1
350
21
  3
Model
350
20
  0
DICTIONARY
  5
DE
102
{ACAD_REACTORS
330
19
102
}
330
19
100
AcDbDictionary
281
     1
  3
ByBlock
350
E0
  3
ByLayer
350
DF
  3
Global
350
E1
  0
DICTIONARY
  5
127
102
{ACAD_REACTORS
330
19
102
}
330
19
100
AcDbDictionary
281
     1
  3
Standard
350
128
  0
DICTIONARY
  5
1B
102
{ACAD_REACTORS
330
19
102
}
330
19
100
AcDbDictionary
281
     1
  3
Standard
350
1C
  0
DICTIONARY
  5
22
102
{ACAD_REACTORS
330
19
102
}
330
19
100
AcDbDictionary
281
     1
  0
ACDBDICTIONARYWDFLT
  5
1F
102
{ACAD_REACTORS
330
19
102
}
330
19
100
AcDbDictionary
281
     1
  3
Normal
350
1D
100
AcDbDictionaryWithDefault
340
1D
  0
DICTIONARY
  5
105
102
{ACAD_REACTORS
330
19
102
}
330
19
100
AcDbDictionary
281
     1
  3
A0
350
106
  3
A1
350
107
  3
A2
350
108
  3
A3
350
109
  3
A4
350
10A
  3
A5
350
10B
  3
A6
350
10C
  3
A7
350
10D
  3
A8
350
10E
  3
A9
350
10F
  3
B0
350
110
  3
B1
350
111
  3
B2
350
112
  3
B3
350
113
  3
B4
350
114
  3
B5
350
115
  3
B6
350
116
  3
B7
350
117
  3
B8
350
118
  3
B9
350
119
  3
C0
350
11A
  3
C1
350
11B
  3
C2
350
11C
  3
C3
350
11D
  3
C4
350
11E
  3
C5
350
11F
  3
C6
350
120
  3
C7
350
121
  3
C8
350
122
  3
C9
350
123
  3
D0
350
124
  3
D1
350
125
  3
D2
350
126
  0
DICTIONARY
  5
F4
102
{ACAD_REACTORS
330
19
102
}
330
19
100
AcDbDictionary
281
     1
  3
Standard
350
F5
  0
DICTIONARY
  5
E2
102
{ACAD_REACTORS
330
19
102
}
330
19
100
AcDbDictionary
281
     1
  3
2dWireframe
350
E8
  3
3D Hidden
350
EA
  3
3dWireframe
350
E9
  3
Basic
350
E7
  3
Brighten
350
EE
  3
ColorChange
350
F2
  3
Conceptual
350
EB
  3
Dim
350
ED
  3
Facepattern
350
F1
  3
Flat
350
E3
  3
FlatWithEdges
350
E4
  3
Gouraud
350
E5
  3
GouraudWithEdges
350
E6
  3
Linepattern
350
F0
  3
Realistic
350
EC
  3
Thicken
350
EF
  0
WIPEOUTVARIABLES
  5
23
330
19
100
AcDbWipeoutVariables
 70
     1
  0
XRECORD
  5
15C
102
{ACAD_REACTORS
330
19
102
}
330
19
100
AcDbXrecord
280
     1
 90
        1
330
F5
  0
DICTIONARY
  5
102
102
{ACAD_REACTORS
330
19
102
}
330
19
100
AcDbDictionary
281
     1
  3
CANNOSCALE
350
159
  3
CMLEADERSTYLE
350
158
  3
CTABLESTYLE
350
103
  0
DICTIONARY
  5
FF
102
{ACAD_REACTORS
330
19
102
}
330
19
100
AcDbDictionary
281
     1
  3
ASEBlockHierarchyIndexRecord
350
101
1001
DCO15
1040
1645035458.151
  0
XRECORD
  5
131
102
{ACAD_REACTORS
330
130
102
}
330
130
100
AcDbXrecord
280
     1
290
     1
  0
XRECORD
  5
133
102
{ACAD_REACTORS
330
132
102
}
330
132
100
AcDbXrecord
280
     1
290
     1
  0
XRECORD
  5
135
102
{ACAD_REACTORS
330
134
102
}
330
134
100
AcDbXrecord
280
     1
290
     1
  0
LAYOUT
  5
21
102
{ACAD_REACTORS
330
1E
102
}
330
1E
100
AcDbPlotSettings
  1

  2
Foxit PDF Printer
  4
Letter
  6

 40
3.174999952316284
 41
3.174999952316284
 42
3.17498779296875
 43
3.175003051757812
 44
279.3999938964844
 45
215.8999938964844
 46
31.47715384821894
 47
24.12875752349356
 48
0.0
 49
0.0
140
0.0
141
0.0
142
1.0
143
1.0
 70
     4
 72
     0
 73
     0
 74
     1
  7

 75
     0
147
1.0
 76
     0
 77
     2
 78
   300
148
-26.25461124795212
149
-20.16000981431432
100
AcDbLayout
  1
Layout1
 70
     0
 71
     1
 10
-0.3306119115190196
 20
-0.2812499079328949
 11
10.66938784818509
 21
8.218749851771214
 12
0.0
 22
0.0
 32
0.0
 14
-0.1261744205303614
 24
-0.078529332350616
 34
-0.0015258207003583
 15
10.42970303390548
 25
7.980361735696885
 35
0.0000000349246037
146
0.0
 13
0.0
 23
0.0
 33
0.0
 16
1.0
 26
0.0
 36
0.0
 17
0.0
 27
1.0
 37
0.0
 76
     0
330
B
331
FA
1001
ACAD_PSEXT
1000
Foxit PDF Printer
1000
Foxit PDF Printer Driver
1000
FOXIT_PDF
1000

1070
     0
  0
LAYOUT
  5
20
102
{ACAD_REACTORS
330
1E
102
}
330
1E
100
AcDbPlotSettings
  1

  2

  4

  6

 40
0.0
 41
0.0
 42
0.0
 43
0.0
 44
0.0
 45
0.0
 46
0.0
 47
0.0
 48
0.0
 49
0.0
140
0.0
141
0.0
142
1.0
143
1.0
 70
  1024
 72
     0
 73
     0
 74
     0
  7

 75
     0
147
1.0
 76
     0
 77
     2
 78
   300
148
0.0
149
0.0
100
AcDbLayout
  1
Model
 70
     0
 71
     0
 10
0.0
 20
0.0
 11
0.0
 21
0.0
 12
0.0
 22
0.0
 32
0.0
 14
0.0
 24
0.0
 34
0.0
 15
0.0
 25
0.0
 35
0.0
146
0.0
 13
0.0
 23
0.0
 33
0.0
 16
0.0
 26
0.0
 36
0.0
 17
0.0
 27
0.0
 37
0.0
 76
     0
330
A
  0
MATERIAL
  5
E0
102
{ACAD_XDICTIONARY
360
15F
102
}
102
{ACAD_REACTORS
330
DE
102
}
330
DE
100
AcDbMaterial
  1
ByBlock
 73
     1
 78
     1
172
     1
176
     1
270
     1
274
     1
  0
MATERIAL
  5
DF
102
{ACAD_XDICTIONARY
360
15D
102
}
102
{ACAD_REACTORS
330
DE
102
}
330
DE
100
AcDbMaterial
  1
ByLayer
 73
     1
 78
     1
172
     1
176
     1
270
     1
274
     1
  0
MATERIAL
  5
E1
102
{ACAD_XDICTIONARY
360
161
102
}
102
{ACAD_REACTORS
330
DE
102
}
330
DE
100
AcDbMaterial
  1
Global
 73
     1
 78
     1
172
     1
176
     1
270
     1
274
     1
  0
MLEADERSTYLE
  5
128
102
{ACAD_REACTORS
330
127
102
}
330
127
100
AcDbMLeaderStyle
170
     2
171
     1
172
     0
 90
        2
 40
0.0
 41
0.0
173
     1
 91
-1056964608
340
11
 92
       -2
290
     1
 42
0.09
291
     1
 43
0.36
  3
Standard
 44
0.18
300

342
17
174
     1
178
     6
175
     1
176
     0
 93
-1056964608
 45
0.18
292
     0
297
     0
 46
0.18
 94
-1056964608
 47
1.0
 49
1.0
140
1.0
293
     1
141
0.0
294
     1
177
     0
142
1.0
295
     0
296
     0
143
0.125
1001
ACAD_MLEADERVER
1070
     2
  0
MLINESTYLE
  5
1C
102
{ACAD_REACTORS
330
1B
102
}
330
1B
100
AcDbMlineStyle
  2
STANDARD
 70
     0
  3

 62
     0
 51
90.0
 52
90.0
 71
     2
 49
0.5
 62
   256
  6
BYLAYER
 49
-0.5
 62
   256
  6
BYLAYER
  0
ACDBPLACEHOLDER
  5
1D
102
{ACAD_REACTORS
330
1F
102
}
330
1F
  0
SCALE
  5
106
102
{ACAD_REACTORS
330
105
102
}
330
105
100
AcDbScale
 70
     0
300
1:1
140
1.0
141
1.0
290
     1
  0
SCALE
  5
107
102
{ACAD_REACTORS
330
105
102
}
330
105
100
AcDbScale
 70
     0
300
1:2
140
1.0
141
2.0
290
     0
  0
SCALE
  5
108
102
{ACAD_REACTORS
330
105
102
}
330
105
100
AcDbScale
 70
     0
300
1:4
140
1.0
141
4.0
290
     0
  0
SCALE
  5
109
102
{ACAD_REACTORS
330
105
102
}
330
105
100
AcDbScale
 70
     0
300
1:5
140
1.0
141
5.0
290
     0
  0
SCALE
  5
10A
102
{ACAD_REACTORS
330
105
102
}
330
105
100
AcDbScale
 70
     0
300
1:8
140
1.0
141
8.0
290
     0
  0
SCALE
  5
10B
102
{ACAD_REACTORS
330
105
102
}
330
105
100
AcDbScale
 70
     0
300
1:10
140
1.0
141
10.0
290
     0
  0
SCALE
  5
10C
102
{ACAD_REACTORS
330
105
102
}
330
105
100
AcDbScale
 70
     0
300
1:16
140
1.0
141
16.0
290
     0
  0
SCALE
  5
10D
102
{ACAD_REACTORS
330
105
102
}
330
105
100
AcDbScale
 70
     0
300
1:20
140
1.0
141
20.0
290
     0
  0
SCALE
  5
10E
102
{ACAD_REACTORS
330
105
102
}
330
105
100
AcDbScale
 70
     0
300
1:30
140
1.0
141
30.0
290
     0
  0
SCALE
  5
10F
102
{ACAD_REACTORS
330
105
102
}
330
105
100
AcDbScale
 70
     0
300
1:40
140
1.0
141
40.0
290
     0
  0
SCALE
  5
110
102
{ACAD_REACTORS
330
105
102
}
330
105
100
AcDbScale
 70
     0
300
1:50
140
1.0
141
50.0
290
     0
  0
SCALE
  5
111
102
{ACAD_REACTORS
330
105
102
}
330
105
100
AcDbScale
 70
     0
300
1:100
140
1.0
141
100.0
290
     0
  0
SCALE
  5
112
102
{ACAD_REACTORS
330
105
102
}
330
105
100
AcDbScale
 70
     0
300
2:1
140
2.0
141
1.0
290
     0
  0
SCALE
  5
113
102
{ACAD_REACTORS
330
105
102
}
330
105
100
AcDbScale
 70
     0
300
4:1
140
4.0
141
1.0
290
     0
  0
SCALE
  5
114
102
{ACAD_REACTORS
330
105
102
}
330
105
100
AcDbScale
 70
     0
300
8:1
140
8.0
141
1.0
290
     0
  0
SCALE
  5
115
102
{ACAD_REACTORS
330
105
102
}
330
105
100
AcDbScale
 70
     0
300
10:1
140
10.0
141
1.0
290
     0
  0
SCALE
  5
116
102
{ACAD_REACTORS
330
105
102
}
330
105
100
AcDbScale
 70
     0
300
100:1
140
100.0
141
1.0
290
     0
  0
SCALE
  5
117
102
{ACAD_REACTORS
330
105
102
}
330
105
100
AcDbScale
 70
     0
300
1/128" = 1'-0"
140
0.0078125
141
12.0
290
     0
  0
SCALE
  5
118
102
{ACAD_REACTORS
330
105
102
}
330
105
100
AcDbScale
 70
     0
300
1/64" = 1'-0"
140
0.015625
141
12.0
290
     0
  0
SCALE
  5
119
102
{ACAD_REACTORS
330
105
102
}
330
105
100
AcDbScale
 70
     0
300
1/32" = 1'-0"
140
0.03125
141
12.0
290
     0
  0
SCALE
  5
11A
102
{ACAD_REACTORS
330
105
102
}
330
105
100
AcDbScale
 70
     0
300
1/16" = 1'-0"
140
0.0625
141
12.0
290
     0
  0
SCALE
  5
11B
102
{ACAD_REACTORS
330
105
102
}
330
105
100
AcDbScale
 70
     0
300
3/32" = 1'-0"
140
0.09375
141
12.0
290
     0
  0
SCALE
  5
11C
102
{ACAD_REACTORS
330
105
102
}
330
105
100
AcDbScale
 70
     0
300
1/8" = 1'-0"
140
0.125
141
12.0
290
     0
  0
SCALE
  5
11D
102
{ACAD_REACTORS
330
105
102
}
330
105
100
AcDbScale
 70
     0
300
3/16" = 1'-0"
140
0.1875
141
12.0
290
     0
  0
SCALE
  5
11E
102
{ACAD_REACTORS
330
105
102
}
330
105
100
AcDbScale
 70
     0
300
1/4" = 1'-0"
140
0.25
141
12.0
290
     0
  0
SCALE
  5
11F
102
{ACAD_REACTORS
330
105
102
}
330
105
100
AcDbScale
 70
     0
300
3/8" = 1'-0"
140
0.375
141
12.0
290
     0
  0
SCALE
  5
120
102
{ACAD_REACTORS
330
105
102
}
330
105
100
AcDbScale
 70
     0
300
1/2" = 1'-0"
140
0.5
141
12.0
290
     0
  0
SCALE
  5
121
102
{ACAD_REACTORS
330
105
102
}
330
105
100
AcDbScale
 70
     0
300
3/4" = 1'-0"
140
0.75
141
12.0
290
     0
  0
SCALE
  5
122
102
{ACAD_REACTORS
330
105
102
}
330
105
100
AcDbScale
 70
     0
300
1" = 1'-0"
140
1.0
141
12.0
290
     0
  0
SCALE
  5
123
102
{ACAD_REACTORS
330
105
102
}
330
105
100
AcDbScale
 70
     0
300
1-1/2" = 1'-0"
140
1.5
141
12.0
290
     0
  0
SCALE
  5
124
102
{ACAD_REACTORS
330
105
102
}
330
105
100
AcDbScale
 70
     0
300
3" = 1'-0"
140
3.0
141
12.0
290
     0
  0
SCALE
  5
125
102
{ACAD_REACTORS
330
105
102
}
330
105
100
AcDbScale
 70
     0
300
6" = 1'-0"
140
6.0
141
12.0
290
     0
  0
SCALE
  5
126
102
{ACAD_REACTORS
330
105
102
}
330
105
100
AcDbScale
 70
     0
300
1'-0" = 1'-0"
140
12.0
141
12.0
290
     0
  0
TABLESTYLE
  5
F5
102
{ACAD_XDICTIONARY
360
15A
102
}
102
{ACAD_REACTORS
330
F4
102
}
330
F4
100
AcDbTableStyle
  3
Standard
 70
     0
 71
     0
 40
0.06
 41
0.06
280
     0
281
     0
  7
Standard
140
0.18
170
     2
 62
     0
 63
     7
283
     0
274
    -2
284
     1
 64
     0
275
    -2
285
     1
 65
     0
276
    -2
286
     1
 66
     0
277
    -2
287
     1
 67
     0
278
    -2
288
     1
 68
     0
279
    -2
289
     1
 69
     0
  7
Standard
140
0.25
170
     5
 62
     0
 63
     7
283
     0
274
    -2
284
     1
 64
     0
275
    -2
285
     1
 65
     0
276
    -2
286
     1
 66
     0
277
    -2
287
     1
 67
     0
278
    -2
288
     1
 68
     0
279
    -2
289
     1
 69
     0
  7
Standard
140
0.18
170
     5
 62
     0
 63
     7
283
     0
274
    -2
284
     1
 64
     0
275
    -2
285
     1
 65
     0
276
    -2
286
     1
 66
     0
277
    -2
287
     1
 67
     0
278
    -2
288
     1
 68
     0
279
    -2
289
     1
 69
     0
  0
VISUALSTYLE
  5
E8
102
{ACAD_REACTORS
330
E2
102
}
330
E2
100
AcDbVisualStyle
  2
2dWireframe
 70
     4
 71
     0
 72
     2
 73
     0
 90
        0
 40
-0.6
 41
-30.0
 62
     5
 63
     7
421
 16777215
 74
     1
 91
        4
 64
     7
 65
   257
 75
     1
175
     1
 42
1.0
 92
        0
 66
   257
 43
1.0
 76
     1
 77
     6
 78
     2
 67
     7
 79
     5
170
     0
171
     0
290
     0
174
     0
 93
        1
 44
0.0
173
     0
291
     0
 45
0.0
1001
ACAD
1000
AcDbSavedByObjectVersion
1070
     0
  0
VISUALSTYLE
  5
EA
102
{ACAD_REACTORS
330
E2
102
}
330
E2
100
AcDbVisualStyle
  2
3D Hidden
 70
     6
 71
     1
 72
     2
 73
     2
 90
        0
 40
-0.6
 41
-30.0
 62
     5
 63
     7
421
 16777215
 74
     2
 91
        2
 64
     7
 65
   257
 75
     2
175
     1
 42
40.0
 92
        0
 66
   257
 43
1.0
 76
     1
 77
     6
 78
     2
 67
     7
 79
     3
170
     0
171
     0
290
     0
174
     0
 93
        1
 44
0.0
173
     0
291
     0
 45
0.0
1001
ACAD
1000
AcDbSavedByObjectVersion
1070
     0
  0
VISUALSTYLE
  5
E9
102
{ACAD_REACTORS
330
E2
102
}
330
E2
100
AcDbVisualStyle
  2
3dWireframe
 70
     5
 71
     0
 72
     2
 73
     0
 90
        0
 40
-0.6
 41
-30.0
 62
     5
 63
     7
421
 16777215
 74
     1
 91
        4
 64
     7
 65
   257
 75
     1
175
     1
 42
1.0
 92
        0
 66
   257
 43
1.0
 76
     1
 77
     6
 78
     2
 67
     7
 79
     5
170
     0
171
     0
290
     0
174
     0
 93
        1
 44
0.0
173
     0
291
     0
 45
0.0
1001
ACAD
1000
AcDbSavedByObjectVersion
1070
     0
  0
VISUALSTYLE
  5
E7
102
{ACAD_REACTORS
330
E2
102
}
330
E2
100
AcDbVisualStyle
  2
Basic
 70
     7
 71
     1
 72
     0
 73
     1
 90
        0
 40
-0.6
 41
-30.0
 62
     5
 63
     7
421
 16777215
 74
     0
 91
        4
 64
     7
 65
   257
 75
     1
175
     1
 42
1.0
 92
        8
 66
     7
 43
1.0
 76
     1
 77
     6
 78
     2
 67
     7
 79
     5
170
     0
171
     0
290
     0
174
     0
 93
        1
 44
0.0
173
     0
291
     1
 45
0.0
1001
ACAD
1000
AcDbSavedByObjectVersion
1070
     0
  0
VISUALSTYLE
  5
EE
102
{ACAD_REACTORS
330
E2
102
}
330
E2
100
AcDbVisualStyle
  2
Brighten
 70
    12
 71
     2
 72
     2
 73
     0
 90
        0
 40
-0.6
 41
-30.0
 62
     5
 63
     7
421
 16777215
 74
     1
 91
        4
 64
     7
 65
   257
 75
     1
175
     1
 42
1.0
 92
        8
 66
     7
 43
1.0
 76
     1
 77
     6
 78
     2
 67
     7
 79
     5
170
     0
171
     0
290
     0
174
     0
 93
        1
 44
50.0
173
     0
291
     1
 45
0.0
1001
ACAD
1000
AcDbSavedByObjectVersion
1070
     0
  0
VISUALSTYLE
  5
F2
102
{ACAD_REACTORS
330
E2
102
}
330
E2
100
AcDbVisualStyle
  2
ColorChange
 70
    16
 71
     2
 72
     2
 73
     3
 90
        0
 40
-0.6
 41
-30.0
 62
     5
 63
     8
421
  8421504
 74
     1
 91
        4
 64
     7
 65
   257
 75
     1
175
     1
 42
1.0
 92
        8
 66
     8
424
  8421504
 43
1.0
 76
     1
 77
     6
 78
     2
 67
     7
 79
     5
170
     0
171
     0
290
     0
174
     0
 93
        1
 44
0.0
173
     0
291
     1
 45
0.0
1001
ACAD
1000
AcDbSavedByObjectVersion
1070
     0
  0
VISUALSTYLE
  5
EB
102
{ACAD_REACTORS
330
E2
102
}
330
E2
100
AcDbVisualStyle
  2
Conceptual
 70
     9
 71
     3
 72
     2
 73
     0
 90
        0
 40
-0.6
 41
-30.0
 62
     5
 63
     7
421
 16777215
 74
     2
 91
        2
 64
     7
 65
   257
 75
     1
175
     1
 42
40.0
 92
        8
 66
     7
 43
1.0
 76
     1
 77
     6
 78
     2
 67
     7
 79
     3
170
     0
171
     0
290
     0
174
     0
 93
        1
 44
0.0
173
     0
291
     0
 45
0.0
1001
ACAD
1000
AcDbSavedByObjectVersion
1070
     0
  0
VISUALSTYLE
  5
ED
102
{ACAD_REACTORS
330
E2
102
}
330
E2
100
AcDbVisualStyle
  2
Dim
 70
    11
 71
     2
 72
     2
 73
     0
 90
        0
 40
-0.6
 41
-30.0
 62
     5
 63
     7
421
 16777215
 74
     1
 91
        4
 64
     7
 65
   257
 75
     1
175
     1
 42
1.0
 92
        8
 66
     7
 43
1.0
 76
     1
 77
     6
 78
     2
 67
     7
 79
     5
170
     0
171
     0
290
     0
174
     0
 93
        1
 44
-50.0
173
     0
291
     1
 45
0.0
1001
ACAD
1000
AcDbSavedByObjectVersion
1070
     0
  0
VISUALSTYLE
  5
F1
102
{ACAD_REACTORS
330
E2
102
}
330
E2
100
AcDbVisualStyle
  2
Facepattern
 70
    15
 71
     2
 72
     2
 73
     0
 90
        0
 40
-0.6
 41
-30.0
 62
     5
 63
     7
421
 16777215
 74
     1
 91
        4
 64
     7
 65
   257
 75
     1
175
     1
 42
1.0
 92
        8
 66
     7
 43
1.0
 76
     1
 77
     6
 78
     2
 67
     7
 79
     5
170
     0
171
     0
290
     0
174
     0
 93
        1
 44
0.0
173
     0
291
     1
 45
0.0
1001
ACAD
1000
AcDbSavedByObjectVersion
1070
     0
  0
VISUALSTYLE
  5
E3
102
{ACAD_REACTORS
330
E2
102
}
330
E2
100
AcDbVisualStyle
  2
Flat
 70
     0
 71
     2
 72
     1
 73
     1
 90
        2
 40
-0.6
 41
30.0
 62
     5
 63
     7
421
 16777215
 74
     0
 91
        4
 64
     7
 65
   257
 75
     1
175
     1
 42
1.0
 92
        8
 66
     7
 43
1.0
 76
     1
 77
     6
 78
     2
 67
     7
 79
     5
170
     0
171
     0
290
     0
174
     0
 93
       13
 44
0.0
173
     0
291
     1
 45
0.0
1001
ACAD
1000
AcDbSavedByObjectVersion
1070
     0
  0
VISUALSTYLE
  5
E4
102
{ACAD_REACTORS
330
E2
102
}
330
E2
100
AcDbVisualStyle
  2
FlatWithEdges
 70
     1
 71
     2
 72
     1
 73
     1
 90
        2
 40
-0.6
 41
30.0
 62
     5
 63
     7
421
 16777215
 74
     1
 91
        4
 64
     7
 65
   257
 75
     1
175
     1
 42
1.0
 92
        0
 66
   257
 43
1.0
 76
     1
 77
     6
 78
     2
 67
     7
 79
     5
170
     0
171
     0
290
     0
174
     0
 93
       13
 44
0.0
173
     0
291
     1
 45
0.0
1001
ACAD
1000
AcDbSavedByObjectVersion
1070
     0
  0
VISUALSTYLE
  5
E5
102
{ACAD_REACTORS
330
E2
102
}
330
E2
100
AcDbVisualStyle
  2
Gouraud
 70
     2
 71
     2
 72
     2
 73
     1
 90
        2
 40
-0.6
 41
30.0
 62
     5
 63
     7
421
 16777215
 74
     0
 91
        4
 64
     7
 65
   257
 75
     1
175
     1
 42
1.0
 92
        0
 66
     7
 43
1.0
 76
     1
 77
     6
 78
     2
 67
     7
 79
     5
170
     0
171
     0
290
     0
174
     0
 93
       13
 44
0.0
173
     0
291
     1
 45
0.0
1001
ACAD
1000
AcDbSavedByObjectVersion
1070
     0
  0
VISUALSTYLE
  5
E6
102
{ACAD_REACTORS
330
E2
102
}
330
E2
100
AcDbVisualStyle
  2
GouraudWithEdges
 70
     3
 71
     2
 72
     2
 73
     1
 90
        2
 40
-0.6
 41
30.0
 62
     5
 63
     7
421
 16777215
 74
     1
 91
        4
 64
     7
 65
   257
 75
     1
175
     1
 42
1.0
 92
        0
 66
   257
 43
1.0
 76
     1
 77
     6
 78
     2
 67
     7
 79
     5
170
     0
171
     0
290
     0
174
     0
 93
       13
 44
0.0
173
     0
291
     1
 45
0.0
1001
ACAD
1000
AcDbSavedByObjectVersion
1070
     0
  0
VISUALSTYLE
  5
F0
102
{ACAD_REACTORS
330
E2
102
}
330
E2
100
AcDbVisualStyle
  2
Linepattern
 70
    14
 71
     2
 72
     2
 73
     0
 90
        0
 40
-0.6
 41
-30.0
 62
     5
 63
     7
421
 16777215
 74
     1
 91
        4
 64
     7
 65
   257
 75
     7
175
     7
 42
1.0
 92
        8
 66
     7
 43
1.0
 76
     1
 77
     6
 78
     2
 67
     7
 79
     5
170
     0
171
     0
290
     0
174
     0
 93
        1
 44
0.0
173
     0
291
     1
 45
0.0
1001
ACAD
1000
AcDbSavedByObjectVersion
1070
     0
  0
VISUALSTYLE
  5
EC
102
{ACAD_REACTORS
330
E2
102
}
330
E2
100
AcDbVisualStyle
  2
Realistic
 70
     8
 71
     2
 72
     2
 73
     0
 90
        0
 40
-0.6
 41
-30.0
 62
     5
 63
     7
421
 16777215
 74
     1
 91
        0
 64
     7
 65
   257
 75
     1
175
     1
 42
1.0
 92
        8
 66
     8
424
  7895160
 43
1.0
 76
     1
 77
     6
 78
     2
 67
     7
 79
     5
170
     0
171
     0
290
     0
174
     0
 93
       13
 44
0.0
173
     0
291
     0
 45
0.0
1001
ACAD
1000
AcDbSavedByObjectVersion
1070
     0
  0
VISUALSTYLE
  5
EF
102
{ACAD_REACTORS
330
E2
102
}
330
E2
100
AcDbVisualStyle
  2
Thicken
 70
    13
 71
     2
 72
     2
 73
     0
 90
        0
 40
-0.6
 41
-30.0
 62
     5
 63
     7
421
 16777215
 74
     1
 91
        4
 64
     7
 65
   257
 75
     1
175
     1
 42
1.0
 92
       12
 66
     7
 43
1.0
 76
     1
 77
     6
 78
     2
 67
     7
 79
     5
170
     0
171
     0
290
     0
174
     0
 93
        1
 44
0.0
173
     0
291
     1
 45
0.0
1001
ACAD
1000
AcDbSavedByObjectVersion
1070
     0
  0
DICTIONARYVAR
  5
159
102
{ACAD_REACTORS
330
102
102
}
330
102
100
DictionaryVariables
280
     0
  1
1:1
  0
DICTIONARYVAR
  5
158
102
{ACAD_REACTORS
330
102
102
}
330
102
100
DictionaryVariables
280
     0
  1
STANDARD
  0
DICTIONARYVAR
  5
103
102
{ACAD_REACTORS
330
102
102
}
330
102
100
DictionaryVariables
280
     0
  1
STANDARD
  0
XRECORD
  5
101
102
{ACAD_REACTORS
330
FF
102
}
330
FF
100
AcDbXrecord
280
     1
  0
DICTIONARY
  5
15F
330
E0
100
AcDbDictionary
280
     1
281
     1
  3
ACAD_XREC_ROUNDTRIP
360
160
  0
DICTIONARY
  5
15D
330
DF
100
AcDbDictionary
280
     1
281
     1
  3
ACAD_XREC_ROUNDTRIP
360
15E
  0
DICTIONARY
  5
161
330
E1
100
AcDbDictionary
280
     1
281
     1
  3
ACAD_XREC_ROUNDTRIP
360
162
  0
DICTIONARY
  5
15A
330
F5
100
AcDbDictionary
280
     1
281
     1
  3
ACAD_ROUNDTRIP_2008_TABLESTYLE_CELLSTYLEMAP
360
15B
  3
ACAD_XREC_ROUNDTRIP
360
163
  0
XRECORD
  5
160
102
{ACAD_REACTORS
330
15F
102
}
330
15F
100
AcDbXrecord
280
     1
102
MATERIAL
148
0.0
149
0.0
149
0.0
 93
        0
 94
       63
282
     0
 72
     1
 77
     1
171
     1
175
     1
179
     1
273
     0
  0
XRECORD
  5
15E
102
{ACAD_REACTORS
330
15D
102
}
330
15D
100
AcDbXrecord
280
     1
102
MATERIAL
148
0.0
149
0.0
149
0.0
 93
        0
 94
       63
282
     0
 72
     1
 77
     1
171
     1
175
     1
179
     1
273
     0
  0
XRECORD
  5
162
102
{ACAD_REACTORS
330
161
102
}
330
161
100
AcDbXrecord
280
     1
102
MATERIAL
148
0.0
149
0.0
149
0.0
 93
        0
 94
       63
282
     0
 72
     1
 77
     1
171
     1
175
     1
179
     1
273
     0
  0
CELLSTYLEMAP
  5
15B
102
{ACAD_REACTORS
330
15A
102
}
330
15A
100
AcDbCellStyleMap
 90
        3
300
CELLSTYLE
  1
TABLEFORMAT_BEGIN
 90
        5
170
     1
 91
        0
 92
    32768
 62
   257
 93
        1
300
CONTENTFORMAT
  1
CONTENTFORMAT_BEGIN
 90
        0
 91
        0
 92
      512
 93
        0
300

 40
0.0
140
1.0
 94
        5
 62
     0
340
17
144
0.25
309
CONTENTFORMAT_END
171
     0
 94
        6
 95
        1
302
GRIDFORMAT
  1
GRIDFORMAT_BEGIN
 90
        0
 91
        1
 62
     0
 92
       -2
340
0
 93
        0
 40
0.045
309
GRIDFORMAT_END
 95
        2
302
GRIDFORMAT
  1
GRIDFORMAT_BEGIN
 90
        0
 91
        1
 62
     0
 92
       -2
340
0
 93
        0
 40
0.045
309
GRIDFORMAT_END
 95
        4
302
GRIDFORMAT
  1
GRIDFORMAT_BEGIN
 90
        0
 91
        1
 62
     0
 92
       -2
340
0
 93
        0
 40
0.045
309
GRIDFORMAT_END
 95
        8
302
GRIDFORMAT
  1
GRIDFORMAT_BEGIN
 90
        0
 91
        1
 62
     0
 92
       -2
340
0
 93
        0
 40
0.045
309
GRIDFORMAT_END
 95
       16
302
GRIDFORMAT
  1
GRIDFORMAT_BEGIN
 90
        0
 91
        1
 62
     0
 92
       -2
340
0
 93
        0
 40
0.045
309
GRIDFORMAT_END
 95
       32
302
GRIDFORMAT
  1
GRIDFORMAT_BEGIN
 90
        0
 91
        1
 62
     0
 92
       -2
340
0
 93
        0
 40
0.045
309
GRIDFORMAT_END
309
TABLEFORMAT_END
  1
CELLSTYLE_BEGIN
 90
        1
 91
        1
300
_TITLE
309
CELLSTYLE_END
300
CELLSTYLE
  1
TABLEFORMAT_BEGIN
 90
        5
170
     1
 91
        0
 92
        0
 62
   257
 93
        1
300
CONTENTFORMAT
  1
CONTENTFORMAT_BEGIN
 90
        0
 91
        0
 92
      512
 93
        0
300

 40
0.0
140
1.0
 94
        5
 62
     0
340
17
144
0.18
309
CONTENTFORMAT_END
171
     0
 94
        6
 95
        1
302
GRIDFORMAT
  1
GRIDFORMAT_BEGIN
 90
        0
 91
        1
 62
     0
 92
       -2
340
0
 93
        0
 40
0.045
309
GRIDFORMAT_END
 95
        2
302
GRIDFORMAT
  1
GRIDFORMAT_BEGIN
 90
        0
 91
        1
 62
     0
 92
       -2
340
0
 93
        0
 40
0.045
309
GRIDFORMAT_END
 95
        4
302
GRIDFORMAT
  1
GRIDFORMAT_BEGIN
 90
        0
 91
        1
 62
     0
 92
       -2
340
0
 93
        0
 40
0.045
309
GRIDFORMAT_END
 95
        8
302
GRIDFORMAT
  1
GRIDFORMAT_BEGIN
 90
        0
 91
        1
 62
     0
 92
       -2
340
0
 93
        0
 40
0.045
309
GRIDFORMAT_END
 95
       16
302
GRIDFORMAT
  1
GRIDFORMAT_BEGIN
 90
        0
 91
        1
 62
     0
 92
       -2
340
0
 93
        0
 40
0.045
309
GRIDFORMAT_END
 95
       32
302
GRIDFORMAT
  1
GRIDFORMAT_BEGIN
 90
        0
 91
        1
 62
     0
 92
       -2
340
0
 93
        0
 40
0.045
309
GRIDFORMAT_END
309
TABLEFORMAT_END
  1
CELLSTYLE_BEGIN
 90
        2
 91
        1
300
_HEADER
309
CELLSTYLE_END
300
CELLSTYLE
  1
TABLEFORMAT_BEGIN
 90
        5
170
     1
 91
        0
 92
        0
 62
   257
 93
        1
300
CONTENTFORMAT
  1
CONTENTFORMAT_BEGIN
 90
        0
 91
        0
 92
      512
 93
        0
300

 40
0.0
140
1.0
 94
        2
 62
     0
340
17
144
0.18
309
CONTENTFORMAT_END
171
     0
 94
        6
 95
        1
302
GRIDFORMAT
  1
GRIDFORMAT_BEGIN
 90
        0
 91
        1
 62
     0
 92
       -2
340
0
 93
        0
 40
0.045
309
GRIDFORMAT_END
 95
        2
302
GRIDFORMAT
  1
GRIDFORMAT_BEGIN
 90
        0
 91
        1
 62
     0
 92
       -2
340
0
 93
        0
 40
0.045
309
GRIDFORMAT_END
 95
        4
302
GRIDFORMAT
  1
GRIDFORMAT_BEGIN
 90
        0
 91
        1
 62
     0
 92
       -2
340
0
 93
        0
 40
0.045
309
GRIDFORMAT_END
 95
        8
302
GRIDFORMAT
  1
GRIDFORMAT_BEGIN
 90
        0
 91
        1
 62
     0
 92
       -2
340
0
 93
        0
 40
0.045
309
GRIDFORMAT_END
 95
       16
302
GRIDFORMAT
  1
GRIDFORMAT_BEGIN
 90
        0
 91
        1
 62
     0
 92
       -2
340
0
 93
        0
 40
0.045
309
GRIDFORMAT_END
 95
       32
302
GRIDFORMAT
  1
GRIDFORMAT_BEGIN
 90
        0
 91
        1
 62
     0
 92
       -2
340
0
 93
        0
 40
0.045
309
GRIDFORMAT_END
309
TABLEFORMAT_END
  1
CELLSTYLE_BEGIN
 90
        3
 91
        2
300
_DATA
309
CELLSTYLE_END
  0
XRECORD
  5
163
102
{ACAD_REACTORS
330
15A
102
}
330
15A
100
AcDbXrecord
280
     1
102
ACAD_ROUNDTRIP_PRE2007_TABLESTYLE
 90
      512
 91
        0
  1

 92
      512
 93
        0
  2

 94
      512
 95
        0
  3

  0
ENDSEC
  0
EOF
