  0
SECTION
  2
HEADER
  9
$ACADVER
  1
AC1018
  9
$ACADMAINTVER
 70
   104
  9
$DWGCODEPAGE
  3
ANSI_1252
  9
$LASTSAVEDBY
  1
EARL
  9
$INSBASE
 10
0.0
 20
0.0
 30
0.0
  9
$EXTMIN
 10
-3.745469331741333
 20
0.310014082472156
 30
0.0
  9
$EXTMAX
 10
1.485794038976296
 20
6.448374982049367
 30
0.0
  9
$LIMMIN
 10
0.0
 20
0.0
  9
$LIMMAX
 10
0.0
 20
0.0
  9
$ORTHOMODE
 70
     0
  9
$REGENMODE
 70
     1
  9
$FILLMODE
 70
     1
  9
$QTEXTMODE
 70
     0
  9
$MIRRTEXT
 70
     1
  9
$LTSCALE
 40
1.0
  9
$ATTMODE
 70
     1
  9
$TEXTSIZE
 40
0.0
  9
$TRACEWID
 40
0.05
  9
$TEXTSTYLE
  7
Standard
  9
$CLAYER
  8
0
  9
$CELTYPE
  6
Continuous
  9
$CECOLOR
 62
   256
  9
$CELTSCALE
 40
1.0
  9
$DISPSILH
 70
     0
  9
$DIMSCALE
 40
1.0
  9
$DIMASZ
 40
0.18
  9
$DIMEXO
 40
0.0625
  9
$DIMDLI
 40
0.38
  9
$DIMRND
 40
0.0
  9
$DIMDLE
 40
0.0
  9
$DIMEXE
 40
0.18
  9
$DIMTP
 40
0.0
  9
$DIMTM
 40
0.0
  9
$DIMTXT
 40
0.18
  9
$DIMCEN
 40
0.09
  9
$DIMTSZ
 40
0.0
  9
$DIMTOL
 70
     0
  9
$DIMLIM
 70
     0
  9
$DIMTIH
 70
     1
  9
$DIMTOH
 70
     1
  9
$DIMSE1
 70
     0
  9
$DIMSE2
 70
     0
  9
$DIMTAD
 70
     0
  9
$DIMZIN
 70
     0
  9
$DIMBLK
  1

  9
$DIMASO
 70
     1
  9
$DIMSHO
 70
     1
  9
$DIMPOST
  1

  9
$DIMAPOST
  1

  9
$DIMALT
 70
     0
  9
$DIMALTD
 70
     2
  9
$DIMALTF
 40
25.4
  9
$DIMLFAC
 40
1.0
  9
$DIMTOFL
 70
     0
  9
$DIMTVP
 40
0.0
  9
$DIMTIX
 70
     0
  9
$DIMSOXD
 70
     0
  9
$DIMSAH
 70
     0
  9
$DIMBLK1
  1

  9
$DIMBLK2
  1

  9
$DIMSTYLE
  2
Standard
  9
$DIMCLRD
 70
     0
  9
$DIMCLRE
 70
     0
  9
$DIMCLRT
 70
     0
  9
$DIMTFAC
 40
1.0
  9
$DIMGAP
 40
0.09
  9
$DIMJUST
 70
     0
  9
$DIMSD1
 70
     0
  9
$DIMSD2
 70
     0
  9
$DIMTOLJ
 70
     1
  9
$DIMTZIN
 70
     0
  9
$DIMALTZ
 70
     0
  9
$DIMALTTZ
 70
     0
  9
$DIMUPT
 70
     0
  9
$DIMDEC
 70
     4
  9
$DIMTDEC
 70
     4
  9
$DIMALTU
 70
     2
  9
$DIMALTTD
 70
     2
  9
$DIMTXSTY
  7
Standard
  9
$DIMAUNIT
 70
     0
  9
$DIMADEC
 70
     0
  9
$DIMALTRND
 40
0.0
  9
$DIMAZIN
 70
     0
  9
$DIMDSEP
 70
    46
  9
$DIMATFIT
 70
     0
  9
$DIMFRAC
 70
     0
  9
$DIMLDRBLK
  1

  9
$DIMLUNIT
 70
     2
  9
$DIMLWD
 70
    -2
  9
$DIMLWE
 70
    -2
  9
$DIMTMOVE
 70
     0
  9
$LUNITS
 70
     2
  9
$LUPREC
 70
     4
  9
$SKETCHINC
 40
0.1
  9
$FILLETRAD
 40
0.0
  9
$AUNITS
 70
     0
  9
$AUPREC
 70
     0
  9
$MENU
  1
acad
  9
$ELEVATION
 40
0.0
  9
$PELEVATION
 40
0.0
  9
$THICKNESS
 40
0.0
  9
$LIMCHECK
 70
     0
  9
$CHAMFERA
 40
0.0
  9
$CHAMFERB
 40
0.0
  9
$CHAMFERC
 40
0.0
  9
$CHAMFERD
 40
0.0
  9
$SKPOLY
 70
     0
  9
$TDCREATE
 40
2454842.802592593
  9
$TDUCREATE
 40
2454842.969259260
  9
$TDUPDATE
 40
2455095.983287755
  9
$TDUUPDATE
 40
2455096.149954421
  9
$TDINDWG
 40
0.0011755671
  9
$TDUSRTIMER
 40
0.0011755671
  9
$USRTIMER
 70
     1
  9
$ANGBASE
 50
0.0
  9
$ANGDIR
 70
     0
  9
$PDMODE
 70
     0
  9
$PDSIZE
 40
0.0
  9
$PLINEWID
 40
0.0
  9
$SPLFRAME
 70
     0
  9
$SPLINETYPE
 70
     6
  9
$SPLINESEGS
 70
     8
  9
$HANDSEED
  5
1A8
  9
$SURFTAB1
 70
     6
  9
$SURFTAB2
 70
     6
  9
$SURFTYPE
 70
     6
  9
$SURFU
 70
     6
  9
$SURFV
 70
     6
  9
$UCSBASE
  2

  9
$UCSNAME
  2

  9
$UCSORG
 10
0.0
 20
0.0
 30
0.0
  9
$UCSXDIR
 10
1.0
 20
0.0
 30
0.0
  9
$UCSYDIR
 10
0.0
 20
1.0
 30
0.0
  9
$UCSORTHOREF
  2

  9
$UCSORTHOVIEW
 70
     0
  9
$UCSORGTOP
 10
0.0
 20
0.0
 30
0.0
  9
$UCSORGBOTTOM
 10
0.0
 20
0.0
 30
0.0
  9
$UCSORGLEFT
 10
0.0
 20
0.0
 30
0.0
  9
$UCSORGRIGHT
 10
0.0
 20
0.0
 30
0.0
  9
$UCSORGFRONT
 10
0.0
 20
0.0
 30
0.0
  9
$UCSORGBACK
 10
0.0
 20
0.0
 30
0.0
  9
$PUCSBASE
  2

  9
$PUCSNAME
  2

  9
$PUCSORG
 10
0.0
 20
0.0
 30
0.0
  9
$PUCSXDIR
 10
1.0
 20
0.0
 30
0.0
  9
$PUCSYDIR
 10
0.0
 20
1.0
 30
0.0
  9
$PUCSORTHOREF
  2

  9
$PUCSORTHOVIEW
 70
     0
  9
$PUCSORGTOP
 10
0.0
 20
0.0
 30
0.0
  9
$PUCSORGBOTTOM
 10
0.0
 20
0.0
 30
0.0
  9
$PUCSORGLEFT
 10
0.0
 20
0.0
 30
0.0
  9
$PUCSORGRIGHT
 10
0.0
 20
0.0
 30
0.0
  9
$PUCSORGFRONT
 10
0.0
 20
0.0
 30
0.0
  9
$PUCSORGBACK
 10
0.0
 20
0.0
 30
0.0
  9
$USERI1
 70
     0
  9
$USERI2
 70
     0
  9
$USERI3
 70
     0
  9
$USERI4
 70
     0
  9
$USERI5
 70
     0
  9
$USERR1
 40
0.0
  9
$USERR2
 40
0.0
  9
$USERR3
 40
0.0
  9
$USERR4
 40
0.0
  9
$USERR5
 40
0.0
  9
$WORLDVIEW
 70
     1
  9
$SHADEDGE
 70
     3
  9
$SHADEDIF
 70
    70
  9
$TILEMODE
 70
     0
  9
$MAXACTVP
 70
    16
  9
$PINSBASE
 10
0.0
 20
0.0
 30
0.0
  9
$PLIMCHECK
 70
     0
  9
$PEXTMIN
 10
-0.0909266185249429
 20
-0.0610198723760078
 30
-0.0015258207003583
  9
$PEXTMAX
 10
10.42970303390548
 20
7.99851969418907
 30
0.0000000349246037
  9
$PLIMMIN
 10
-0.3306119115190196
 20
-0.2812499079328949
  9
$PLIMMAX
 10
10.66938784818509
 20
8.218749851771214
  9
$UNITMODE
 70
     0
  9
$VISRETAIN
 70
     0
  9
$PLINEGEN
 70
     1
  9
$PSLTSCALE
 70
     0
  9
$TREEDEPTH
 70
  3020
  9
$CMLSTYLE
  2
Standard
  9
$CMLJUST
 70
     0
  9
$CMLSCALE
 40
1.0
  9
$PROXYGRAPHICS
 70
     0
  9
$MEASUREMENT
 70
     0
  9
$CELWEIGHT
370
     0
  9
$ENDCAPS
280
     0
  9
$JOINSTYLE
280
     0
  9
$LWDISPLAY
290
     0
  9
$INSUNITS
 70
     0
  9
$HYPERLINKBASE
  1

  9
$STYLESHEET
  1

  9
$XEDIT
290
     1
  9
$CEPSNTYPE
380
     0
  9
$PSTYLEMODE
290
     1
  9
$FINGERPRINTGUID
  2

  9
$VERSIONGUID
  2
{E969A704-B861-4253-80D4-2996E19AF2AA}
  9
$EXTNAMES
290
     1
  9
$PSVPSCALE
 40
0.0
  9
$OLESTARTUP
290
     0
  9
$SORTENTS
280
   127
  9
$INDEXCTL
280
     0
  9
$HIDETEXT
280
     0
  9
$XCLIPFRAME
290
     0
  9
$HALOGAP
280
     0
  9
$OBSCOLOR
 70
   257
  9
$OBSLTYPE
280
     0
  9
$INTERSECTIONDISPLAY
280
     0
  9
$INTERSECTIONCOLOR
 70
   257
  9
$DIMASSOC
280
     1
  9
$PROJECTNAME
  1

  0
ENDSEC
  0
SECTION
  2
CLASSES
  0
CLASS
  1
IMAGE
  2
AcDbRasterImage
  3
ISM
 90
     2175
 91
        0
280
     0
281
     1
  0
CLASS
  1
DICTIONARYVAR
  2
AcDbDictionaryVar
  3
ObjectDBX Classes
 90
        0
 91
        5
280
     0
281
     0
  0
CLASS
  1
RASTERVARIABLES
  2
AcDbRasterVariables
  3
ISM
 90
        0
 91
        0
280
     0
281
     0
  0
CLASS
  1
IMAGEDEF
  2
AcDbRasterImageDef
  3
ISM
 90
        0
 91
        0
280
     0
281
     0
  0
CLASS
  1
IMAGEDEF_REACTOR
  2
AcDbRasterImageDefReactor
  3
ISM
 90
        1
 91
        0
280
     0
281
     0
  0
CLASS
  1
IDBUFFER
  2
AcDbIdBuffer
  3
ObjectDBX Classes
 90
        0
 91
        0
280
     0
281
     0
  0
CLASS
  1
SPATIAL_FILTER
  2
AcDbSpatialFilter
  3
ObjectDBX Classes
 90
        0
 91
        0
280
     0
281
     0
  0
CLASS
  1
SORTENTSTABLE
  2
AcDbSortentsTable
  3
ObjectDBX Classes
 90
        0
 91
        1
280
     0
281
     0
  0
CLASS
  1
LAYER_INDEX
  2
AcDbLayerIndex
  3
ObjectDBX Classes
 90
        0
 91
        0
280
     0
281
     0
  0
CLASS
  1
SPATIAL_INDEX
  2
AcDbSpatialIndex
  3
ObjectDBX Classes
 90
        0
 91
        0
280
     0
281
     0
  0
CLASS
  1
OBJECT_PTR
  2
CAseDLPNTableRecord
  3
ASE-LPNTableRecord
 90
        1
 91
        0
280
     0
281
     0
  0
CLASS
  1
PLOTSETTINGS
  2
AcDbPlotSettings
  3
ObjectDBX Classes
 90
        0
 91
        0
280
     0
281
     0
  0
CLASS
  1
ACDBDICTIONARYWDFLT
  2
AcDbDictionaryWithDefault
  3
ObjectDBX Classes
 90
        0
 91
        1
280
     0
281
     0
  0
CLASS
  1
WIPEOUT
  2
AcDbWipeout
  3
"WipeOut|Product Desc: Object Enabler for WipeOut entity                        |Company: Autodesk, Inc.                        |WEB Address: www.autodesk.com"
 90
     2175
 91
        0
280
     0
281
     1
  0
CLASS
  1
WIPEOUTVARIABLES
  2
AcDbWipeoutVariables
  3
"WipeOut|Product Desc:     WipeOut Dbx Application|Company:          Autodesk, Inc.|WEB Address:      www.autodesk.com"
 90
        0
 91
        1
280
     0
281
     0
  0
CLASS
  1
RTEXT
  2
RText
  3
RText|AutoCAD Express Tool|expresstools@autodesk.com
 90
     3071
 91
        0
280
     0
281
     1
  0
CLASS
  1
ARCALIGNEDTEXT
  2
AcDbArcAlignedText
  3
ATEXT|AutoCAD Express Tool|expresstools@autodesk.com
 90
        0
 91
        0
280
     0
281
     1
  0
CLASS
  1
MATERIAL
  2
AcDbMaterial
  3
ObjectDBX Classes
 90
     1153
 91
        3
280
     0
281
     0
  0
CLASS
  1
VISUALSTYLE
  2
AcDbVisualStyle
  3
ObjectDBX Classes
 90
     4095
 91
       16
280
     0
281
     0
  0
CLASS
  1
TABLESTYLE
  2
AcDbTableStyle
  3
ObjectDBX Classes
 90
     4095
 91
        1
280
     0
281
     0
  0
CLASS
  1
SCALE
  2
AcDbScale
  3
ObjectDBX Classes
 90
     1153
 91
       33
280
     0
281
     0
  0
CLASS
  1
MLEADERSTYLE
  2
AcDbMLeaderStyle
  3
ACDB_MLEADERSTYLE_CLASS
 90
     4095
 91
        1
280
     0
281
     0
  0
CLASS
  1
CELLSTYLEMAP
  2
AcDbCellStyleMap
  3
ObjectDBX Classes
 90
     1152
 91
        2
280
     0
281
     0
  0
ENDSEC
  0
SECTION
  2
TABLES
  0
TABLE
  2
VPORT
  5
7
330
0
100
AcDbSymbolTable
 70
     1
  0
VPORT
  5
15
330
7
100
AcDbSymbolTableRecord
100
AcDbViewportTableRecord
  2
*ACTIVE
 70
     0
 10
0.0
 20
0.0
 11
1.0
 21
1.0
 12
13.89621157632295
 22
4.579183999999999
 13
0.0
 23
0.0
 14
1.0
 24
1.0
 15
0.0
 25
0.0
 16
0.0
 26
0.0
 36
1.0
 17
0.0
 27
0.0
 37
0.0
 40
9.158369
 41
2.283809523809523
 42
50.0
 43
0.0
 44
0.0
 50
0.0
 51
0.0
 71
     0
 72
   100
 73
     1
 74
     1
 75
     0
 76
     0
 77
     0
 78
     0
281
     0
 65
     0
110
0.0
120
0.0
130
0.0
111
1.0
121
0.0
131
0.0
112
0.0
122
1.0
132
0.0
 79
     0
146
0.0
  0
ENDTAB
  0
TABLE
  2
LTYPE
  5
4
330
0
100
AcDbSymbolTable
 70
     5
  0
LTYPE
  5
11
330
4
100
AcDbSymbolTableRecord
100
AcDbLinetypeTableRecord
  2
ByBlock
 70
     0
  3

 72
    65
 73
     0
 40
0.0
  0
LTYPE
  5
12
330
4
100
AcDbSymbolTableRecord
100
AcDbLinetypeTableRecord
  2
ByLayer
 70
     0
  3

 72
    65
 73
     0
 40
0.0
  0
LTYPE
  5
13
330
4
100
AcDbSymbolTableRecord
100
AcDbLinetypeTableRecord
  2
Continuous
 70
     0
  3
Solid line
 72
    65
 73
     0
 40
0.0
  0
LTYPE
  5
24
330
4
100
AcDbSymbolTableRecord
100
AcDbLinetypeTableRecord
  2
solid
 70
     0
  3

 72
    65
 73
     0
 40
0.0
  0
LTYPE
  5
25
330
4
100
AcDbSymbolTableRecord
100
AcDbLinetypeTableRecord
  2
dashed
 70
     0
  3

 72
    65
 73
     0
 40
0.0
  0
LTYPE
  5
26
330
4
100
AcDbSymbolTableRecord
100
AcDbLinetypeTableRecord
  2
center
 70
     0
  3

 72
    65
 73
     0
 40
0.0
  0
ENDTAB
  0
TABLE
  2
LAYER
  5
2
330
0
100
AcDbSymbolTable
 70
     3
  0
LAYER
  5
14
102
{ACAD_XDICTIONARY
360
165
102
}
330
2
100
AcDbSymbolTableRecord
100
AcDbLayerTableRecord
  2
0
 70
     0
 62
     7
  6
Continuous
370
    -3
390
1D
  0
LAYER
  5
27
102
{ACAD_XDICTIONARY
360
167
102
}
330
2
100
AcDbSymbolTableRecord
100
AcDbLayerTableRecord
  2
1
 70
     0
 62
     1
  6
solid
370
    -3
390
1D
  0
LAYER
  5
FB
102
{ACAD_XDICTIONARY
360
169
102
}
330
2
100
AcDbSymbolTableRecord
100
AcDbLayerTableRecord
  2
0
 70
     0
 62
     1
  6
solid
370
    -3
390
1D
  0
ENDTAB
  0
TABLE
  2
STYLE
  5
3
330
0
100
AcDbSymbolTable
 70
     3
  0
STYLE
  5
17
330
3
100
AcDbSymbolTableRecord
100
AcDbTextStyleTableRecord
  2
Standard
 70
     0
 40
0.0
 41
1.0
 50
0.0
 71
     0
 42
0.0
  3
txt
  4

  0
ENDTAB
  0
TABLE
  2
VIEW
  5
5
330
0
100
AcDbSymbolTable
 70
     0
  0
ENDTAB
  0
TABLE
  2
UCS
  5
6
330
0
100
AcDbSymbolTable
 70
     0
  0
ENDTAB
  0
TABLE
  2
APPID
  5
8
330
0
100
AcDbSymbolTable
 70
     4
  0
APPID
  5
16
330
8
100
AcDbSymbolTableRecord
100
AcDbRegAppTableRecord
  2
ACAD
 70
     0
  0
APPID
  5
130
330
8
100
AcDbSymbolTableRecord
100
AcDbRegAppTableRecord
  2
ACAD_PSEXT
 70
     0
  0
APPID
  5
135
330
8
100
AcDbSymbolTableRecord
100
AcDbRegAppTableRecord
  2
DCO15
 70
     0
  0
APPID
  5
15E
330
8
100
AcDbSymbolTableRecord
100
AcDbRegAppTableRecord
  2
ACAD_MLEADERVER
 70
     0
  0
ENDTAB
  0
TABLE
  2
DIMSTYLE
  5
9
330
0
100
AcDbSymbolTable
 70
     4
100
AcDbDimStyleTable
 71
     1
340
18
  0
DIMSTYLE
105
18
102
{ACAD_REACTORS
330
90
102
}
330
9
100
AcDbSymbolTableRecord
100
AcDbDimStyleTableRecord
  2
Standard
 70
     0
289
     0
340
17
  0
ENDTAB
  0
TABLE
  2
BLOCK_RECORD
  5
1
330
0
100
AcDbSymbolTable
 70
     5
  0
BLOCK_RECORD
  5
A
102
{ACAD_XDICTIONARY
360
17A
102
}
330
1
100
AcDbSymbolTableRecord
100
AcDbBlockTableRecord
  2
*MODEL_SPACE
340
20
  0
BLOCK_RECORD
  5
B
330
1
100
AcDbSymbolTableRecord
100
AcDbBlockTableRecord
  2
*PAPER_SPACE
340
21
  0
BLOCK_RECORD
  5
86
330
1
100
AcDbSymbolTableRecord
100
AcDbBlockTableRecord
  2
*D0
340
0
  0
BLOCK_RECORD
  5
91
330
1
100
AcDbSymbolTableRecord
100
AcDbBlockTableRecord
  2
*D1
340
0
  0
ENDTAB
  0
ENDSEC
  0
SECTION
  2
BLOCKS
  0
BLOCK
  5
D
330
A
100
AcDbEntity
  8
0
100
AcDbBlockBegin
  2
*MODEL_SPACE
 70
     0
 10
0.0
 20
0.0
 30
0.0
  3
*MODEL_SPACE
  1

  0
ENDBLK
  5
E
330
A
100
AcDbEntity
  8
0
100
AcDbBlockEnd
  0
BLOCK
  5
F
330
B
100
AcDbEntity
 67
     1
  8
0
100
AcDbBlockBegin
  2
*PAPER_SPACE
 70
     0
 10
0.0
 20
0.0
 30
0.0
  3
*PAPER_SPACE
  1

  0
ENDBLK
  5
10
330
B
100
AcDbEntity
 67
     1
  8
0
100
AcDbBlockEnd
  0
BLOCK
  5
87
330
86
100
AcDbEntity
  8
1
  6
solid
 62
     7
100
AcDbBlockBegin
  2
*D0
 70
     0
 10
0.0
 20
0.0
 30
0.0
  3
*D0
  1

  0
LINE
  5
88
330
86
100
AcDbEntity
  8
1
  6
solid
 62
     7
100
AcDbLine
 10
-2.932969331741333
 20
0.760857880115509
 30
0.0
 11
-1.403464615231428
 21
0.7608578801155082
 31
0.0
  0
LINE
  5
89
330
86
100
AcDbEntity
  8
1
  6
solid
 62
     7
100
AcDbLine
 10
-2.932969331741333
 20
6.010858058929443
 30
0.0
 11
-1.403464615231424
 21
6.010858058929441
 31
0.0
  0
LINE
  5
8A
330
86
100
AcDbEntity
  8
1
  6
solid
 62
     7
100
AcDbLine
 10
-1.465964615231428
 20
0.7608578801155082
 30
0.0
 11
-1.465964615231426
 21
3.225985373368628
 31
0.0
  0
LINE
  5
8B
330
86
100
AcDbEntity
  8
1
  6
solid
 62
     7
100
AcDbLine
 10
-1.465964615231424
 20
6.010858058929441
 30
0.0
 11
-1.465964615231425
 21
3.54573056567632
 31
0.0
  0
MTEXT
  5
8C
330
86
100
AcDbEntity
  8
1
  6
solid
 62
     7
100
AcDbMText
 10
-1.465964615231426
 20
3.385857969522474
 30
0.0
 40
0.125
 41
0.0
 71
     5
 72
     1
  1
{\H0.125000;5 1/4}
 73
     1
 44
1.0
  0
SOLID
  5
8D
330
86
100
AcDbEntity
  8
1
  6
solid
 62
     7
100
AcDbTrace
 10
-1.486777115231427
 20
0.7858578801155082
 30
0.0
 11
-1.445152115231427
 21
0.7858578801155082
 31
0.0
 12
-1.465964615231428
 22
0.7608578801155082
 32
0.0
 13
-1.465964615231428
 23
0.7608578801155082
 33
0.0
  0
SOLID
  5
8E
330
86
100
AcDbEntity
  8
1
  6
solid
 62
     7
100
AcDbTrace
 10
-1.445152115231423
 20
5.985858058929442
 30
0.0
 11
-1.486777115231423
 21
5.985858058929441
 31
0.0
 12
-1.465964615231424
 22
6.010858058929441
 32
0.0
 13
-1.465964615231424
 23
6.010858058929441
 33
0.0
  0
ENDBLK
  5
8F
330
86
100
AcDbEntity
  8
1
  6
solid
 62
     7
100
AcDbBlockEnd
  0
BLOCK
  5
92
330
91
100
AcDbEntity
  8
1
  6
solid
 62
     7
100
AcDbBlockBegin
  2
*D1
 70
     0
 10
0.0
 20
0.0
 30
0.0
  3
*D1
  1

  0
LINE
  5
93
330
91
100
AcDbEntity
  8
1
  6
solid
 62
     7
100
AcDbLine
 10
-3.745469331741333
 20
0.6358578801155091
 30
0.0
 11
-3.745469331741333
 21
0.4937390061022017
 31
0.0
  0
LINE
  5
94
330
91
100
AcDbEntity
  8
1
  6
solid
 62
     7
100
AcDbLine
 10
-3.057969331741333
 20
0.6358578801155091
 30
0.0
 11
-3.057969331741333
 21
0.4937390061022017
 31
0.0
  0
LINE
  5
95
330
91
100
AcDbEntity
  8
1
  6
solid
 62
     7
100
AcDbLine
 10
-3.745469331741333
 20
0.5562390061022017
 30
0.0
 11
-3.598204625858979
 21
0.5562390061022017
 31
0.0
  0
LINE
  5
96
330
91
100
AcDbEntity
  8
1
  6
solid
 62
     7
100
AcDbLine
 10
-3.057969331741333
 20
0.5562390061022017
 30
0.0
 11
-3.205234037623686
 21
0.5562390061022017
 31
0.0
  0
MTEXT
  5
97
330
91
100
AcDbEntity
  8
1
  6
solid
 62
     7
100
AcDbMText
 10
-3.401719331741333
 20
0.5562390061022017
 30
0.0
 40
0.125
 41
0.0
 71
     5
 72
     1
  1
{\H0.125000;11/16}
 73
     1
 44
1.0
  0
SOLID
  5
98
330
91
100
AcDbEntity
  8
1
  6
solid
 62
     7
100
AcDbTrace
 10
-3.720469331741333
 20
0.5770515061022018
 30
0.0
 11
-3.720469331741333
 21
0.5354265061022017
 31
0.0
 12
-3.745469331741333
 22
0.5562390061022017
 32
0.0
 13
-3.745469331741333
 23
0.5562390061022017
 33
0.0
  0
SOLID
  5
99
330
91
100
AcDbEntity
  8
1
  6
solid
 62
     7
100
AcDbTrace
 10
-3.082969331741332
 20
0.5354265061022017
 30
0.0
 11
-3.082969331741332
 21
0.5770515061022018
 31
0.0
 12
-3.057969331741333
 22
0.5562390061022017
 32
0.0
 13
-3.057969331741333
 23
0.5562390061022017
 33
0.0
  0
ENDBLK
  5
9A
330
91
100
AcDbEntity
  8
1
  6
solid
 62
     7
100
AcDbBlockEnd
  0
ENDSEC
  0
SECTION
  2
ENTITIES
  0
LINE
  5
28
330
A
100
AcDbEntity
  8
1
  6
solid
 62
     7
100
AcDbLine
 10
1.468272063356817
 20
0.6758284235148489
 30
0.0
 11
0.7807720633568179
 21
0.6758284235148489
 31
0.0
  0
ARC
  5
29
330
A
100
AcDbEntity
  8
1
  6
solid
 62
     7
100
AcDbCircle
 10
1.248325740625167
 20
4.808932316535916
 30
0.0
 40
0.4037751063531036
100
AcDbArc
 50
136.823300699774
 51
235.311074847396
  0
ARC
  5
2A
330
A
100
AcDbEntity
  8
1
  6
solid
 62
     7
100
AcDbCircle
 10
2.800110704379858
 20
4.061209466735002
 30
0.0
 40
2.111203130038555
100
AcDbArc
 50
143.3558549932744
 51
150.9852765732798
  0
ARC
  5
2B
330
A
100
AcDbEntity
  8
1
  6
solid
 62
     7
100
AcDbCircle
 10
0.9074613612598424
 20
5.475738110067601
 30
0.0
 40
0.2516876721673944
100
AcDbArc
 50
322.1393896758403
 51
413.3007659059204
  0
LINE
  5
2C
330
A
100
AcDbEntity
  8
1
  6
solid
 62
     7
100
AcDbLine
 10
1.220735709553026
 20
5.925828423514849
 30
0.0
 11
1.468272063356817
 21
5.925828423514849
 31
0.0
  0
LINE
  5
2D
330
A
100
AcDbEntity
  8
1
  6
solid
 62
     7
100
AcDbLine
 10
1.057873575423507
 20
5.677537137724731
 30
0.0
 11
1.220735709553026
 21
5.925828423514849
 31
0.0
  0
LINE
  5
2E
330
A
100
AcDbEntity
  8
1
  6
solid
 62
     7
100
AcDbLine
 10
1.468272063356817
 20
5.925828423514849
 30
0.0
 11
1.468272063356817
 21
4.550828423514849
 31
0.0
  0
LINE
  5
2F
330
A
100
AcDbEntity
  8
1
  6
solid
 62
     7
100
AcDbLine
 10
1.468272063356817
 20
0.6758284235148489
 30
0.0
 11
1.468272063356817
 21
1.425828423514848
 31
0.0
  0
LINE
  5
30
330
A
100
AcDbEntity
  8
1
  6
solid
 62
     7
100
AcDbLine
 10
1.437022063356817
 20
4.550828423514849
 30
0.0
 11
1.468272063356817
 21
4.550828423514849
 31
0.0
  0
ARC
  5
31
330
A
100
AcDbEntity
  8
1
  6
solid
 62
     7
100
AcDbCircle
 10
1.437022063356817
 20
4.488328423514849
 30
0.0
 40
0.0625
100
AcDbArc
 50
90.0
 51
180.0
  0
LINE
  5
32
330
A
100
AcDbEntity
  8
1
  6
solid
 62
     7
100
AcDbLine
 10
1.468272063356817
 20
1.425828423514848
 30
0.0
 11
1.437022063356817
 21
1.425828423514848
 31
0.0
  0
LINE
  5
33
330
A
100
AcDbEntity
  8
1
  6
solid
 62
     7
100
AcDbLine
 10
1.374522063356817
 20
1.488328423514848
 30
0.0
 11
1.374522063356817
 21
4.488328423514849
 31
0.0
  0
ARC
  5
34
330
A
100
AcDbEntity
  8
1
  6
solid
 62
     7
100
AcDbCircle
 10
1.437022063356817
 20
1.488328423514848
 30
0.0
 40
0.0625
100
AcDbArc
 50
180.0
 51
269.9999999999999
  0
LINE
  5
35
330
A
100
AcDbEntity
  8
1
  6
solid
 62
     7
100
AcDbLine
 10
0.8548233142196643
 20
4.441743405076552
 30
0.0
 11
1.018529066136596
 21
4.476926701964369
 31
0.0
  0
LINE
  5
36
330
A
100
AcDbEntity
  8
1
  6
solid
 62
     7
100
AcDbLine
 10
0.7807720633568179
 20
0.6758284235148489
 30
0.0
 11
0.7807720633568179
 21
4.350086317066779
 31
0.0
  0
ARC
  5
37
330
A
100
AcDbEntity
  8
1
  6
solid
 62
     7
100
AcDbCircle
 10
0.8745220633568177
 20
4.350086317066778
 30
0.0
 40
0.09375
100
AcDbArc
 50
102.1293841023086
 51
179.9999999999997
  0
LINE
  5
38
330
A
100
AcDbEntity
  8
1
  6
solid
 62
     7
100
AcDbLine
 10
0.9185057212712624
 20
1.158564070892629
 30
0.0
 11
0.9493923491782393
 21
1.162197791822862
 31
0.0
  0
SPLINE
  5
39
330
A
100
AcDbEntity
  8
1
  6
solid
 62
     7
100
AcDbSpline
210
0.0
220
0.0
230
1.0
 70
     8
 71
     2
 72
     7
 73
     4
 74
     0
 42
0.0000000001
 43
0.0000000001
 40
0.0
 40
0.0
 40
0.0
 40
1.0
 40
2.0
 40
2.0
 40
2.0
 10
0.9493923491782393
 20
1.162197791822862
 30
0.0
 10
0.9502481631317277
 20
1.150298373218211
 30
0.0
 10
0.9621847910387042
 20
1.13857860577635
 30
0.0
 10
0.9700475817363788
 20
1.13857860577635
 30
0.0
  0
SPLINE
  5
3A
330
A
100
AcDbEntity
  8
1
  6
solid
 62
     7
100
AcDbSpline
210
0.0
220
0.0
230
1.0
 70
     8
 71
     2
 72
     7
 73
     4
 74
     0
 42
0.0000000001
 43
0.0000000001
 40
0.0
 40
0.0
 40
0.0
 40
1.0
 40
2.0
 40
2.0
 40
2.0
 10
0.9700475817363788
 20
1.13857860577635
 30
0.0
 10
0.9789272328991694
 20
1.13857860577635
 30
0.0
 10
0.9911801398759136
 20
1.150633256939141
 30
0.0
 10
0.9911801398759136
 20
1.161422791822862
 30
0.0
  0
SPLINE
  5
3B
330
A
100
AcDbEntity
  8
1
  6
solid
 62
     7
100
AcDbSpline
210
0.0
220
0.0
230
1.0
 70
     8
 71
     2
 72
     7
 73
     4
 74
     0
 42
0.0000000001
 43
0.0000000001
 40
0.0
 40
0.0
 40
0.0
 40
1.0
 40
2.0
 40
2.0
 40
2.0
 10
0.9911801398759136
 20
1.161422791822862
 30
0.0
 10
0.9911801398759136
 20
1.171821629032164
 30
0.0
 10
0.9803161863875416
 20
1.184000117404257
 30
0.0
 10
0.9720876980154486
 20
1.184000117404257
 30
0.0
  0
SPLINE
  5
3C
330
A
100
AcDbEntity
  8
1
  6
solid
 62
     7
100
AcDbSpline
210
0.0
220
0.0
230
1.0
 70
     8
 71
     2
 72
     6
 73
     3
 74
     0
 42
0.0000000001
 43
0.0000000001
 40
0.0
 40
0.0
 40
0.0
 40
1.0
 40
1.0
 40
1.0
 10
0.9720876980154486
 20
1.184000117404257
 30
0.0
 10
0.9668417677828903
 20
1.184000117404257
 30
0.0
 10
0.9602935119689368
 20
1.181278024381001
 30
0.0
  0
LINE
  5
3D
330
A
100
AcDbEntity
  8
1
  6
solid
 62
     7
100
AcDbLine
 10
0.9602935119689368
 20
1.181278024381001
 30
0.0
 11
0.9627243259224252
 21
1.207619303450769
 31
0.0
  0
SPLINE
  5
3E
330
A
100
AcDbEntity
  8
1
  6
solid
 62
     7
100
AcDbSpline
210
0.0
220
0.0
230
1.0
 70
     8
 71
     2
 72
     7
 73
     4
 74
     0
 42
0.0000000001
 43
0.0000000001
 40
0.0
 40
0.0
 40
0.0
 40
1.0
 40
2.0
 40
2.0
 40
2.0
 10
0.9627243259224252
 20
1.207619303450769
 30
0.0
 10
0.9731417677828904
 20
1.206769884846117
 30
0.0
 10
0.9839126980154485
 20
1.217317559264722
 30
0.0
 10
0.9839126980154485
 20
1.226066977869373
 30
0.0
  0
SPLINE
  5
3F
330
A
100
AcDbEntity
  8
1
  6
solid
 62
     7
100
AcDbSpline
210
0.0
220
0.0
230
1.0
 70
     8
 71
     2
 72
     7
 73
     4
 74
     0
 42
0.0000000001
 43
0.0000000001
 40
0.0
 40
0.0
 40
0.0
 40
1.0
 40
2.0
 40
2.0
 40
2.0
 10
0.9839126980154485
 20
1.226066977869373
 30
0.0
 10
0.9839126980154485
 20
1.233334419729838
 30
0.0
 10
0.9756283956898672
 20
1.242139652287978
 30
0.0
 10
0.969489442201495
 20
1.242139652287978
 30
0.0
  0
SPLINE
  5
40
330
A
100
AcDbEntity
  8
1
  6
solid
 62
     7
100
AcDbSpline
210
0.0
220
0.0
230
1.0
 70
     8
 71
     2
 72
     7
 73
     4
 74
     0
 42
0.0000000001
 43
0.0000000001
 40
0.0
 40
0.0
 40
0.0
 40
1.0
 40
2.0
 40
2.0
 40
2.0
 10
0.969489442201495
 20
1.242139652287978
 30
0.0
 10
0.9627615352247508
 20
1.242139652287978
 30
0.0
 10
0.9536772328991695
 20
1.23170360577635
 30
0.0
 10
0.9530260701084717
 20
1.222154187171699
 30
0.0
  0
LINE
  5
41
330
A
100
AcDbEntity
  8
1
  6
solid
 62
     7
100
AcDbLine
 10
0.9530260701084717
 20
1.222154187171699
 30
0.0
 11
0.9221394422014949
 21
1.226346047636815
 31
0.0
  0
SPLINE
  5
42
330
A
100
AcDbEntity
  8
1
  6
solid
 62
     7
100
AcDbSpline
210
0.0
220
0.0
230
1.0
 70
     8
 71
     2
 72
     8
 73
     5
 74
     0
 42
0.0000000001
 43
0.0000000001
 40
0.0
 40
0.0
 40
0.0
 40
1.0
 40
2.0
 40
3.0
 40
3.0
 40
3.0
 10
0.9221394422014949
 20
1.226346047636815
 30
0.0
 10
0.9246074654573089
 20
1.241085582520536
 30
0.0
 10
0.9358249073177741
 20
1.258975117404257
 30
0.0
 10
0.9566970003410299
 20
1.269392559264722
 30
0.0
 10
0.9687330468526578
 20
1.269392559264722
 30
0.0
  0
SPLINE
  5
43
330
A
100
AcDbEntity
  8
1
  6
solid
 62
     7
100
AcDbSpline
210
0.0
220
0.0
230
1.0
 70
     8
 71
     2
 72
     6
 73
     3
 74
     0
 42
0.0000000001
 43
0.0000000001
 40
0.0
 40
0.0
 40
0.0
 40
1.0
 40
1.0
 40
1.0
 10
0.9687330468526578
 20
1.269392559264722
 30
0.0
 10
0.9904237445270764
 20
1.269392559264722
 30
0.0
 10
1.003991186387541
 20
1.255099536008908
 30
0.0
  0
SPLINE
  5
44
330
A
100
AcDbEntity
  8
1
  6
solid
 62
     7
100
AcDbSpline
210
0.0
220
0.0
230
1.0
 70
     8
 71
     2
 72
     6
 73
     3
 74
     0
 42
0.0000000001
 43
0.0000000001
 40
0.0
 40
0.0
 40
0.0
 40
1.0
 40
1.0
 40
1.0
 10
1.003991186387541
 20
1.255099536008908
 30
0.0
 10
1.014799325922425
 20
1.243125698799606
 30
0.0
 10
1.014799325922425
 20
1.228572210427513
 30
0.0
  0
SPLINE
  5
45
330
A
100
AcDbEntity
  8
1
  6
solid
 62
     7
100
AcDbSpline
210
0.0
220
0.0
230
1.0
 70
     8
 71
     2
 72
     6
 73
     3
 74
     0
 42
0.0000000001
 43
0.0000000001
 40
0.0
 40
0.0
 40
0.0
 40
1.0
 40
1.0
 40
1.0
 10
1.014799325922425
 20
1.228572210427513
 30
0.0
 10
1.014799325922425
 20
1.208103024381001
 30
0.0
 10
0.9915150235968438
 20
1.195645466241466
 30
0.0
  0
SPLINE
  5
46
330
A
100
AcDbEntity
  8
1
  6
solid
 62
     7
100
AcDbSpline
210
0.0
220
0.0
230
1.0
 70
     8
 71
     2
 72
     7
 73
     4
 74
     0
 42
0.0000000001
 43
0.0000000001
 40
0.0
 40
0.0
 40
0.0
 40
1.0
 40
2.0
 40
2.0
 40
2.0
 10
0.9915150235968438
 20
1.195645466241466
 30
0.0
 10
1.004958628248006
 20
1.193177442985652
 30
0.0
 10
1.02206676778289
 20
1.173452442985652
 30
0.0
 10
1.02206676778289
 20
1.159364070892629
 30
0.0
  0
SPLINE
  5
47
330
A
100
AcDbEntity
  8
1
  6
solid
 62
     7
100
AcDbSpline
210
0.0
220
0.0
230
1.0
 70
     8
 71
     2
 72
     7
 73
     4
 74
     0
 42
0.0000000001
 43
0.0000000001
 40
0.0
 40
0.0
 40
0.0
 40
1.0
 40
2.0
 40
2.0
 40
2.0
 10
1.02206676778289
 20
1.159364070892629
 30
0.0
 10
1.02206676778289
 20
1.139285582520536
 30
0.0
 10
0.9917754887131229
 20
1.111325698799606
 30
0.0
 10
0.9696196747596346
 20
1.111325698799606
 30
0.0
  0
SPLINE
  5
48
330
A
100
AcDbEntity
  8
1
  6
solid
 62
     7
100
AcDbSpline
210
0.0
220
0.0
230
1.0
 70
     8
 71
     2
 72
     7
 73
     4
 74
     0
 42
0.0000000001
 43
0.0000000001
 40
0.0
 40
0.0
 40
0.0
 40
1.0
 40
2.0
 40
2.0
 40
2.0
 10
0.9696196747596346
 20
1.111325698799606
 30
0.0
 10
0.9482452561549834
 20
1.111325698799606
 30
0.0
 10
0.9206016515038207
 20
1.137208256939141
 30
0.0
 10
0.9185057212712624
 20
1.158564070892629
 30
0.0
  0
LINE
  5
49
330
A
100
AcDbEntity
  8
1
  6
solid
 62
     7
100
AcDbLine
 10
1.04023676778289
 20
1.15876872205542
 30
0.0
 11
1.067489674759634
 21
1.162197791822862
 31
0.0
  0
SPLINE
  5
4A
330
A
100
AcDbEntity
  8
1
  6
solid
 62
     7
100
AcDbSpline
210
0.0
220
0.0
230
1.0
 70
     8
 71
     2
 72
     7
 73
     4
 74
     0
 42
0.0000000001
 43
0.0000000001
 40
0.0
 40
0.0
 40
0.0
 40
1.0
 40
2.0
 40
2.0
 40
2.0
 10
1.067489674759634
 20
1.162197791822862
 30
0.0
 10
1.068382698015448
 20
1.151296629032164
 30
0.0
 10
1.082154791038704
 20
1.13857860577635
 30
0.0
 10
1.090371070108471
 20
1.13857860577635
 30
0.0
  0
SPLINE
  5
4B
330
A
100
AcDbEntity
  8
1
  6
solid
 62
     7
100
AcDbSpline
210
0.0
220
0.0
230
1.0
 70
     8
 71
     2
 72
     7
 73
     4
 74
     0
 42
0.0000000001
 43
0.0000000001
 40
0.0
 40
0.0
 40
0.0
 40
1.0
 40
2.0
 40
2.0
 40
2.0
 10
1.090371070108471
 20
1.13857860577635
 30
0.0
 10
1.100658279410797
 20
1.13857860577635
 30
0.0
 10
1.114728046852657
 20
1.150596047636815
 30
0.0
 10
1.114728046852657
 20
1.163276861590303
 30
0.0
  0
SPLINE
  5
4C
330
A
100
AcDbEntity
  8
1
  6
solid
 62
     7
100
AcDbSpline
210
0.0
220
0.0
230
1.0
 70
     8
 71
     2
 72
     7
 73
     4
 74
     0
 42
0.0000000001
 43
0.0000000001
 40
0.0
 40
0.0
 40
0.0
 40
1.0
 40
2.0
 40
2.0
 40
2.0
 10
1.114728046852657
 20
1.163276861590303
 30
0.0
 10
1.114728046852657
 20
1.175455349962396
 30
0.0
 10
1.102289093364285
 20
1.187633838334489
 30
0.0
 10
1.092076302666611
 20
1.187633838334489
 30
0.0
  0
SPLINE
  5
4D
330
A
100
AcDbEntity
  8
1
  6
solid
 62
     7
100
AcDbSpline
210
0.0
220
0.0
230
1.0
 70
     8
 71
     2
 72
     6
 73
     3
 74
     0
 42
0.0000000001
 43
0.0000000001
 40
0.0
 40
0.0
 40
0.0
 40
1.0
 40
1.0
 40
1.0
 10
1.092076302666611
 20
1.187633838334489
 30
0.0
 10
1.080263511968936
 20
1.187633838334489
 30
0.0
 10
1.070125139875913
 20
1.176732675543792
 30
0.0
  0
LINE
  5
4E
330
A
100
AcDbEntity
  8
1
  6
solid
 62
     7
100
AcDbLine
 10
1.070125139875913
 20
1.176732675543792
 30
0.0
 11
1.043870488713122
 21
1.179554187171699
 31
0.0
  0
LINE
  5
4F
330
A
100
AcDbEntity
  8
1
  6
solid
 62
     7
100
AcDbLine
 10
1.043870488713122
 20
1.179554187171699
 30
0.0
 11
1.062039093364285
 21
1.267575698799606
 31
0.0
  0
LINE
  5
50
330
A
100
AcDbEntity
  8
1
  6
solid
 62
     7
100
AcDbLine
 10
1.062039093364285
 20
1.267575698799606
 30
0.0
 11
1.138347232899169
 21
1.267575698799606
 31
0.0
  0
LINE
  5
51
330
A
100
AcDbEntity
  8
1
  6
solid
 62
     7
100
AcDbLine
 10
1.138347232899169
 20
1.267575698799606
 30
0.0
 11
1.138347232899169
 21
1.236689070892629
 31
0.0
  0
LINE
  5
52
330
A
100
AcDbEntity
  8
1
  6
solid
 62
     7
100
AcDbLine
 10
1.138347232899169
 20
1.236689070892629
 30
0.0
 11
1.086383860806146
 21
1.236689070892629
 31
0.0
  0
LINE
  5
53
330
A
100
AcDbEntity
  8
1
  6
solid
 62
     7
100
AcDbLine
 10
1.086383860806146
 20
1.236689070892629
 30
0.0
 11
1.080412349178239
 21
1.208251861590303
 31
0.0
  0
SPLINE
  5
54
330
A
100
AcDbEntity
  8
1
  6
solid
 62
     7
100
AcDbSpline
210
0.0
220
0.0
230
1.0
 70
     8
 71
     2
 72
     6
 73
     3
 74
     0
 42
0.0000000001
 43
0.0000000001
 40
0.0
 40
0.0
 40
0.0
 40
1.0
 40
1.0
 40
1.0
 10
1.080412349178239
 20
1.208251861590303
 30
0.0
 10
1.089812930573587
 20
1.214886745311234
 30
0.0
 10
1.099492581736378
 20
1.214886745311234
 30
0.0
  0
SPLINE
  5
55
330
A
100
AcDbEntity
  8
1
  6
solid
 62
     7
100
AcDbSpline
210
0.0
220
0.0
230
1.0
 70
     8
 71
     2
 72
     7
 73
     4
 74
     0
 42
0.0000000001
 43
0.0000000001
 40
0.0
 40
0.0
 40
0.0
 40
1.0
 40
2.0
 40
2.0
 40
2.0
 10
1.099492581736378
 20
1.214886745311234
 30
0.0
 10
1.118864093364285
 20
1.214886745311234
 30
0.0
 10
1.145614674759634
 20
1.186523954613559
 30
0.0
 10
1.145614674759634
 20
1.164368140660071
 30
0.0
  0
SPLINE
  5
56
330
A
100
AcDbEntity
  8
1
  6
solid
 62
     7
100
AcDbSpline
210
0.0
220
0.0
230
1.0
 70
     8
 71
     2
 72
     6
 73
     3
 74
     0
 42
0.0000000001
 43
0.0000000001
 40
0.0
 40
0.0
 40
0.0
 40
1.0
 40
1.0
 40
1.0
 10
1.145614674759634
 20
1.164368140660071
 30
0.0
 10
1.145614674759634
 20
1.145883256939141
 30
0.0
 10
1.133882698015448
 20
1.130666396474024
 30
0.0
  0
SPLINE
  5
57
330
A
100
AcDbEntity
  8
1
  6
solid
 62
     7
100
AcDbSpline
210
0.0
220
0.0
230
1.0
 70
     8
 71
     2
 72
     6
 73
     3
 74
     0
 42
0.0000000001
 43
0.0000000001
 40
0.0
 40
0.0
 40
0.0
 40
1.0
 40
1.0
 40
1.0
 10
1.133882698015448
 20
1.130666396474024
 30
0.0
 10
1.118845488713122
 20
1.111325698799606
 30
0.0
 10
1.091667000341029
 20
1.111325698799606
 30
0.0
  0
SPLINE
  5
58
330
A
100
AcDbEntity
  8
1
  6
solid
 62
     7
100
AcDbSpline
210
0.0
220
0.0
230
1.0
 70
     8
 71
     2
 72
     7
 73
     4
 74
     0
 42
0.0000000001
 43
0.0000000001
 40
0.0
 40
0.0
 40
0.0
 40
1.0
 40
2.0
 40
2.0
 40
2.0
 10
1.091667000341029
 20
1.111325698799606
 30
0.0
 10
1.069939093364285
 20
1.111325698799606
 30
0.0
 10
1.04261176778289
 20
1.136985001125187
 30
0.0
 10
1.04023676778289
 20
1.15876872205542
 30
0.0
  0
LINE
  5
59
330
A
100
AcDbEntity
  8
1
  6
solid
 62
     7
100
AcDbLine
 10
1.163784674759634
 20
1.15876872205542
 30
0.0
 11
1.191037581736378
 21
1.162197791822862
 31
0.0
  0
SPLINE
  5
5A
330
A
100
AcDbEntity
  8
1
  6
solid
 62
     7
100
AcDbSpline
210
0.0
220
0.0
230
1.0
 70
     8
 71
     2
 72
     7
 73
     4
 74
     0
 42
0.0000000001
 43
0.0000000001
 40
0.0
 40
0.0
 40
0.0
 40
1.0
 40
2.0
 40
2.0
 40
2.0
 10
1.191037581736378
 20
1.162197791822862
 30
0.0
 10
1.191930604992192
 20
1.151296629032164
 30
0.0
 10
1.205702698015448
 20
1.13857860577635
 30
0.0
 10
1.213918977085215
 20
1.13857860577635
 30
0.0
  0
SPLINE
  5
5B
330
A
100
AcDbEntity
  8
1
  6
solid
 62
     7
100
AcDbSpline
210
0.0
220
0.0
230
1.0
 70
     8
 71
     2
 72
     7
 73
     4
 74
     0
 42
0.0000000001
 43
0.0000000001
 40
0.0
 40
0.0
 40
0.0
 40
1.0
 40
2.0
 40
2.0
 40
2.0
 10
1.213918977085215
 20
1.13857860577635
 30
0.0
 10
1.224206186387541
 20
1.13857860577635
 30
0.0
 10
1.238275953829402
 20
1.150596047636815
 30
0.0
 10
1.238275953829402
 20
1.163276861590303
 30
0.0
  0
SPLINE
  5
5C
330
A
100
AcDbEntity
  8
1
  6
solid
 62
     7
100
AcDbSpline
210
0.0
220
0.0
230
1.0
 70
     8
 71
     2
 72
     7
 73
     4
 74
     0
 42
0.0000000001
 43
0.0000000001
 40
0.0
 40
0.0
 40
0.0
 40
1.0
 40
2.0
 40
2.0
 40
2.0
 10
1.238275953829402
 20
1.163276861590303
 30
0.0
 10
1.238275953829402
 20
1.175455349962396
 30
0.0
 10
1.225837000341029
 20
1.187633838334489
 30
0.0
 10
1.215624209643355
 20
1.187633838334489
 30
0.0
  0
SPLINE
  5
5D
330
A
100
AcDbEntity
  8
1
  6
solid
 62
     7
100
AcDbSpline
210
0.0
220
0.0
230
1.0
 70
     8
 71
     2
 72
     6
 73
     3
 74
     0
 42
0.0000000001
 43
0.0000000001
 40
0.0
 40
0.0
 40
0.0
 40
1.0
 40
1.0
 40
1.0
 10
1.215624209643355
 20
1.187633838334489
 30
0.0
 10
1.203811418945681
 20
1.187633838334489
 30
0.0
 10
1.193673046852657
 20
1.176732675543792
 30
0.0
  0
LINE
  5
5E
330
A
100
AcDbEntity
  8
1
  6
solid
 62
     7
100
AcDbLine
 10
1.193673046852657
 20
1.176732675543792
 30
0.0
 11
1.167418395689867
 21
1.179554187171699
 31
0.0
  0
LINE
  5
5F
330
A
100
AcDbEntity
  8
1
  6
solid
 62
     7
100
AcDbLine
 10
1.167418395689867
 20
1.179554187171699
 30
0.0
 11
1.18558700034103
 21
1.267575698799606
 31
0.0
  0
LINE
  5
60
330
A
100
AcDbEntity
  8
1
  6
solid
 62
     7
100
AcDbLine
 10
1.18558700034103
 20
1.267575698799606
 30
0.0
 11
1.261895139875913
 21
1.267575698799606
 31
0.0
  0
LINE
  5
61
330
A
100
AcDbEntity
  8
1
  6
solid
 62
     7
100
AcDbLine
 10
1.261895139875913
 20
1.267575698799606
 30
0.0
 11
1.261895139875913
 21
1.236689070892629
 31
0.0
  0
LINE
  5
62
330
A
100
AcDbEntity
  8
1
  6
solid
 62
     7
100
AcDbLine
 10
1.261895139875913
 20
1.236689070892629
 30
0.0
 11
1.20993176778289
 21
1.236689070892629
 31
0.0
  0
LINE
  5
63
330
A
100
AcDbEntity
  8
1
  6
solid
 62
     7
100
AcDbLine
 10
1.20993176778289
 20
1.236689070892629
 30
0.0
 11
1.203960256154983
 21
1.208251861590303
 31
0.0
  0
SPLINE
  5
64
330
A
100
AcDbEntity
  8
1
  6
solid
 62
     7
100
AcDbSpline
210
0.0
220
0.0
230
1.0
 70
     8
 71
     2
 72
     6
 73
     3
 74
     0
 42
0.0000000001
 43
0.0000000001
 40
0.0
 40
0.0
 40
0.0
 40
1.0
 40
1.0
 40
1.0
 10
1.203960256154983
 20
1.208251861590303
 30
0.0
 10
1.213360837550332
 20
1.214886745311234
 30
0.0
 10
1.223040488713122
 20
1.214886745311234
 30
0.0
  0
SPLINE
  5
65
330
A
100
AcDbEntity
  8
1
  6
solid
 62
     7
100
AcDbSpline
210
0.0
220
0.0
230
1.0
 70
     8
 71
     2
 72
     7
 73
     4
 74
     0
 42
0.0000000001
 43
0.0000000001
 40
0.0
 40
0.0
 40
0.0
 40
1.0
 40
2.0
 40
2.0
 40
2.0
 10
1.223040488713122
 20
1.214886745311234
 30
0.0
 10
1.242412000341029
 20
1.214886745311234
 30
0.0
 10
1.269162581736378
 20
1.186523954613559
 30
0.0
 10
1.269162581736378
 20
1.164368140660071
 30
0.0
  0
SPLINE
  5
66
330
A
100
AcDbEntity
  8
1
  6
solid
 62
     7
100
AcDbSpline
210
0.0
220
0.0
230
1.0
 70
     8
 71
     2
 72
     6
 73
     3
 74
     0
 42
0.0000000001
 43
0.0000000001
 40
0.0
 40
0.0
 40
0.0
 40
1.0
 40
1.0
 40
1.0
 10
1.269162581736378
 20
1.164368140660071
 30
0.0
 10
1.269162581736378
 20
1.145883256939141
 30
0.0
 10
1.257430604992192
 20
1.130666396474024
 30
0.0
  0
SPLINE
  5
67
330
A
100
AcDbEntity
  8
1
  6
solid
 62
     7
100
AcDbSpline
210
0.0
220
0.0
230
1.0
 70
     8
 71
     2
 72
     6
 73
     3
 74
     0
 42
0.0000000001
 43
0.0000000001
 40
0.0
 40
0.0
 40
0.0
 40
1.0
 40
1.0
 40
1.0
 10
1.257430604992192
 20
1.130666396474024
 30
0.0
 10
1.242393395689867
 20
1.111325698799606
 30
0.0
 10
1.215214907317774
 20
1.111325698799606
 30
0.0
  0
SPLINE
  5
68
330
A
100
AcDbEntity
  8
1
  6
solid
 62
     7
100
AcDbSpline
210
0.0
220
0.0
230
1.0
 70
     8
 71
     2
 72
     7
 73
     4
 74
     0
 42
0.0000000001
 43
0.0000000001
 40
0.0
 40
0.0
 40
0.0
 40
1.0
 40
2.0
 40
2.0
 40
2.0
 10
1.215214907317774
 20
1.111325698799606
 30
0.0
 10
1.19348700034103
 20
1.111325698799606
 30
0.0
 10
1.166159674759634
 20
1.136985001125187
 30
0.0
 10
1.163784674759634
 20
1.15876872205542
 30
0.0
  0
ARC
  5
69
330
A
100
AcDbEntity
  8
1
  6
solid
 62
     7
100
AcDbCircle
 10
0.3112239945597799
 20
5.331478875070434
 30
0.0
 40
0.4037751063531036
100
AcDbArc
 50
136.823300699774
 51
235.311074847396
  0
ARC
  5
6A
330
A
100
AcDbEntity
  8
1
  6
solid
 62
     7
100
AcDbCircle
 10
1.86300895831447
 20
4.58375602526952
 30
0.0
 40
2.111203130038555
100
AcDbArc
 50
143.3558549932744
 51
150.9852765732798
  0
ARC
  5
6B
330
A
100
AcDbEntity
  8
1
  6
solid
 62
     7
100
AcDbCircle
 10
-0.0296403848055454
 20
5.998284668602119
 30
0.0
 40
0.2516876721673944
100
AcDbArc
 50
322.1393896758403
 51
413.3007659059204
  0
LINE
  5
6C
330
A
100
AcDbEntity
  8
1
  6
solid
 62
     7
100
AcDbLine
 10
0.283633963487639
 20
6.448374982049367
 30
0.0
 11
0.53117031729143
 21
6.448374982049367
 31
0.0
  0
LINE
  5
6D
330
A
100
AcDbEntity
  8
1
  6
solid
 62
     7
100
AcDbLine
 10
0.1207718293581195
 20
6.200083696259249
 30
0.0
 11
0.283633963487639
 21
6.448374982049367
 31
0.0
  0
LINE
  5
6E
330
A
100
AcDbEntity
  8
1
  6
solid
 62
     7
100
AcDbLine
 10
-0.0822784318457236
 20
4.96428996361107
 30
0.0
 11
0.0814273200712084
 21
4.999473260498888
 31
0.0
  0
LINE
  5
6F
330
A
100
AcDbEntity
  8
1
  6
solid
 62
     7
100
AcDbLine
 10
-0.1563296827085701
 20
1.198374982049367
 30
0.0
 11
-0.1563296827085701
 21
4.872632875601297
 31
0.0
  0
ARC
  5
70
330
A
100
AcDbEntity
  8
1
  6
solid
 62
     7
100
AcDbCircle
 10
-0.0625796827085701
 20
4.872632875601296
 30
0.0
 40
0.09375
100
AcDbArc
 50
102.1293841023086
 51
179.9999999999997
  0
LINE
  5
71
330
A
100
AcDbEntity
  8
1
  6
solid
 62
     7
100
AcDbLine
 10
0.5311703085899353
 20
6.44837474822998
 30
0.0
 11
1.46827208995819
 21
5.925828456878662
 31
0.0
  0
LINE
  5
72
330
A
100
AcDbEntity
  8
1
  6
solid
 62
     7
100
AcDbLine
 10
0.2836339771747589
 20
6.44837474822998
 30
0.0
 11
1.220735669136047
 21
5.925828456878662
 31
0.0
  0
LINE
  5
73
330
A
100
AcDbEntity
  8
1
  6
solid
 62
     7
100
AcDbLine
 10
0.1207718327641487
 20
6.20008373260498
 30
0.0
 11
1.057873606681823
 21
5.677536964416503
 31
0.0
  0
LINE
  5
74
330
A
100
AcDbEntity
  8
1
  6
solid
 62
     7
100
AcDbLine
 10
1.018529057502746
 20
4.476926803588867
 30
0.0
 11
0.0814272612333298
 21
4.999473094940185
 31
0.0
  0
LINE
  5
75
330
A
100
AcDbEntity
  8
1
  6
solid
 62
     7
100
AcDbLine
 10
0.780772089958191
 20
0.6758283972740174
 30
0.0
 11
-0.1563296765089035
 21
1.198374986648559
 31
0.0
  0
LINE
  5
76
330
A
100
AcDbEntity
  8
1
  6
solid
 62
     7
100
AcDbLine
 10
-3.057969228164207
 20
0.7608579037843981
 30
0.0
 11
-3.745469228164207
 21
0.7608579037843981
 31
0.0
  0
ARC
  5
77
330
A
100
AcDbEntity
  8
1
  6
solid
 62
     7
100
AcDbCircle
 10
-3.277915550895857
 20
4.893961796805465
 30
0.0
 40
0.4037751063531036
100
AcDbArc
 50
136.823300699774
 51
235.311074847396
  0
ARC
  5
78
330
A
100
AcDbEntity
  8
1
  6
solid
 62
     7
100
AcDbCircle
 10
-1.726130587141167
 20
4.146238947004551
 30
0.0
 40
2.111203130038555
100
AcDbArc
 50
143.3558549932744
 51
150.9852765732798
  0
ARC
  5
79
330
A
100
AcDbEntity
  8
1
  6
solid
 62
     7
100
AcDbCircle
 10
-3.618779930261183
 20
5.56076759033715
 30
0.0
 40
0.2516876721673944
100
AcDbArc
 50
322.1393896758403
 51
413.3007659059204
  0
LINE
  5
7A
330
A
100
AcDbEntity
  8
1
  6
solid
 62
     7
100
AcDbLine
 10
-3.305505581967998
 20
6.010857903784398
 30
0.0
 11
-3.057969228164207
 21
6.010857903784398
 31
0.0
  0
LINE
  5
7B
330
A
100
AcDbEntity
  8
1
  6
solid
 62
     7
100
AcDbLine
 10
-3.468367716097518
 20
5.76256661799428
 30
0.0
 11
-3.305505581967998
 21
6.010857903784398
 31
0.0
  0
LINE
  5
7C
330
A
100
AcDbEntity
  8
1
  6
solid
 62
     7
100
AcDbLine
 10
-3.057969228164207
 20
6.010857903784398
 30
0.0
 11
-3.057969228164207
 21
4.635857903784398
 31
0.0
  0
LINE
  5
7D
330
A
100
AcDbEntity
  8
1
  6
solid
 62
     7
100
AcDbLine
 10
-3.057969228164207
 20
0.7608579037843981
 30
0.0
 11
-3.057969228164207
 21
1.510857903784398
 31
0.0
  0
LINE
  5
7E
330
A
100
AcDbEntity
  8
1
  6
solid
 62
     7
100
AcDbLine
 10
-3.089219228164207
 20
4.635857903784398
 30
0.0
 11
-3.057969228164207
 21
4.635857903784398
 31
0.0
  0
ARC
  5
7F
330
A
100
AcDbEntity
  8
1
  6
solid
 62
     7
100
AcDbCircle
 10
-3.089219228164207
 20
4.573357903784398
 30
0.0
 40
0.0625
100
AcDbArc
 50
90.0
 51
180.0
  0
LINE
  5
80
330
A
100
AcDbEntity
  8
1
  6
solid
 62
     7
100
AcDbLine
 10
-3.057969228164207
 20
1.510857903784398
 30
0.0
 11
-3.089219228164207
 21
1.510857903784398
 31
0.0
  0
LINE
  5
81
330
A
100
AcDbEntity
  8
1
  6
solid
 62
     7
100
AcDbLine
 10
-3.151719228164207
 20
1.573357903784397
 30
0.0
 11
-3.151719228164207
 21
4.573357903784398
 31
0.0
  0
ARC
  5
82
330
A
100
AcDbEntity
  8
1
  6
solid
 62
     7
100
AcDbCircle
 10
-3.089219228164207
 20
1.573357903784398
 30
0.0
 40
0.0625
100
AcDbArc
 50
180.0
 51
269.9999999999999
  0
LINE
  5
83
330
A
100
AcDbEntity
  8
1
  6
solid
 62
     7
100
AcDbLine
 10
-3.671417977301361
 20
4.526772885346101
 30
0.0
 11
-3.507712225384429
 21
4.561956182233918
 31
0.0
  0
LINE
  5
84
330
A
100
AcDbEntity
  8
1
  6
solid
 62
     7
100
AcDbLine
 10
-3.745469228164207
 20
0.7608579037843981
 30
0.0
 11
-3.745469228164207
 21
4.435115797336328
 31
0.0
  0
ARC
  5
85
330
A
100
AcDbEntity
  8
1
  6
solid
 62
     7
100
AcDbCircle
 10
-3.651719228164207
 20
4.435115797336327
 30
0.0
 40
0.09375
100
AcDbArc
 50
102.1293841023086
 51
179.9999999999997
  0
DIMENSION
  5
90
330
A
100
AcDbEntity
  8
1
  6
solid
 62
     7
100
AcDbDimension
  2
*D0
 10
-1.465964615231426
 20
3.385857969522474
 30
0.0
 11
-1.465964615231426
 21
3.385857969522474
 31
0.0
 70
    33
 71
     5
 42
5.250000178813934
  3
Standard
100
AcDbAlignedDimension
 13
-3.057969331741333
 23
6.010858058929443
 33
0.0
 14
-3.057969331741333
 24
0.7608578801155091
 34
0.0
1001
ACAD
1000
DSTYLE
1002
{
1070
    41
1040
0.025
1070
    42
1040
0.125
1070
    44
1040
0.0625
1070
    47
1040
0.0005
1070
    48
1040
0.0005
1070
    75
1070
     1
1070
    76
1070
     1
1070
   140
1040
0.125
1070
   146
1040
0.5
1070
   270
1070
     5
1070
   271
1070
     3
1070
   272
1070
     3
1070
   277
1070
     5
1002
}
  0
LINE
  5
9C
330
A
100
AcDbEntity
  8
1
  6
solid
 62
     7
100
AcDbLine
 10
0.2903288064181566
 20
0.3118309429372723
 30
0.0
 11
0.2594421785111798
 21
0.3118309429372723
 31
0.0
  0
LINE
  5
9D
330
A
100
AcDbEntity
  8
1
  6
solid
 62
     7
100
AcDbLine
 10
0.2594421785111798
 20
0.3118309429372723
 30
0.0
 11
0.2594421785111798
 21
0.4229012917744817
 31
0.0
  0
SPLINE
  5
9E
330
A
100
AcDbEntity
  8
1
  6
solid
 62
     7
100
AcDbSpline
210
0.0
220
0.0
230
1.0
 70
     8
 71
     2
 72
     6
 73
     3
 74
     0
 42
0.0000000001
 43
0.0000000001
 40
0.0
 40
0.0
 40
0.0
 40
1.0
 40
1.0
 40
1.0
 10
0.2594421785111798
 20
0.4229012917744817
 30
0.0
 10
0.24320206223211
 20
0.4051978034023886
 30
0.0
 10
0.2212881087437379
 20
0.3972233847977375
 30
0.0
  0
LINE
  5
9F
330
A
100
AcDbEntity
  8
1
  6
solid
 62
     7
100
AcDbLine
 10
0.2212881087437379
 20
0.3972233847977375
 30
0.0
 11
0.2212881087437379
 21
0.4281100127047142
 31
0.0
  0
SPLINE
  5
A0
330
A
100
AcDbEntity
  8
1
  6
solid
 62
     7
100
AcDbSpline
210
0.0
220
0.0
230
1.0
 70
     8
 71
     2
 72
     7
 73
     4
 74
     0
 42
0.0000000001
 43
0.0000000001
 40
0.0
 40
0.0
 40
0.0
 40
1.0
 40
2.0
 40
2.0
 40
2.0
 10
0.2212881087437379
 20
0.4281100127047142
 30
0.0
 10
0.2327660157204821
 20
0.4319111754954119
 30
0.0
 10
0.2602979924646682
 20
0.4536018731698305
 30
0.0
 10
0.2655439226972263
 20
0.4680809429372724
 30
0.0
  0
LINE
  5
A1
330
A
100
AcDbEntity
  8
1
  6
solid
 62
     7
100
AcDbLine
 10
0.2655439226972263
 20
0.4680809429372724
 30
0.0
 11
0.2903288064181566
 21
0.4680809429372724
 31
0.0
  0
LINE
  5
A2
330
A
100
AcDbEntity
  8
1
  6
solid
 62
     7
100
AcDbLine
 10
0.2903288064181566
 20
0.3118309429372723
 30
0.0
 11
0.2903288064181566
 21
0.4680809429372724
 31
0.0
  0
LINE
  5
A3
330
A
100
AcDbEntity
  8
1
  6
solid
 62
     7
100
AcDbLine
 10
0.3897995040925752
 20
0.3118309429372723
 30
0.0
 11
0.3589128761855984
 21
0.3118309429372723
 31
0.0
  0
LINE
  5
A4
330
A
100
AcDbEntity
  8
1
  6
solid
 62
     7
100
AcDbLine
 10
0.3589128761855984
 20
0.3118309429372723
 30
0.0
 11
0.3589128761855984
 21
0.4229012917744817
 31
0.0
  0
SPLINE
  5
A5
330
A
100
AcDbEntity
  8
1
  6
solid
 62
     7
100
AcDbSpline
210
0.0
220
0.0
230
1.0
 70
     8
 71
     2
 72
     6
 73
     3
 74
     0
 42
0.0000000001
 43
0.0000000001
 40
0.0
 40
0.0
 40
0.0
 40
1.0
 40
1.0
 40
1.0
 10
0.3589128761855984
 20
0.4229012917744817
 30
0.0
 10
0.3426727599065287
 20
0.4051978034023886
 30
0.0
 10
0.3207588064181566
 20
0.3972233847977375
 30
0.0
  0
LINE
  5
A6
330
A
100
AcDbEntity
  8
1
  6
solid
 62
     7
100
AcDbLine
 10
0.3207588064181566
 20
0.3972233847977375
 30
0.0
 11
0.3207588064181566
 21
0.4281100127047142
 31
0.0
  0
SPLINE
  5
A7
330
A
100
AcDbEntity
  8
1
  6
solid
 62
     7
100
AcDbSpline
210
0.0
220
0.0
230
1.0
 70
     8
 71
     2
 72
     7
 73
     4
 74
     0
 42
0.0000000001
 43
0.0000000001
 40
0.0
 40
0.0
 40
0.0
 40
1.0
 40
2.0
 40
2.0
 40
2.0
 10
0.3207588064181566
 20
0.4281100127047142
 30
0.0
 10
0.3322367133949007
 20
0.4319111754954119
 30
0.0
 10
0.3597686901390868
 20
0.4536018731698305
 30
0.0
 10
0.3650146203716449
 20
0.4680809429372724
 30
0.0
  0
LINE
  5
A8
330
A
100
AcDbEntity
  8
1
  6
solid
 62
     7
100
AcDbLine
 10
0.3650146203716449
 20
0.4680809429372724
 30
0.0
 11
0.3897995040925752
 21
0.4680809429372724
 31
0.0
  0
LINE
  5
A9
330
A
100
AcDbEntity
  8
1
  6
solid
 62
     7
100
AcDbLine
 10
0.3897995040925752
 20
0.3118309429372723
 30
0.0
 11
0.3897995040925752
 21
0.4680809429372724
 31
0.0
  0
LINE
  5
AA
330
A
100
AcDbEntity
  8
1
  6
solid
 62
     7
100
AcDbLine
 10
0.4191940389762962
 20
0.3118309429372723
 30
0.0
 11
0.4555498529297845
 21
0.4680809429372724
 31
0.0
  0
LINE
  5
AB
330
A
100
AcDbEntity
  8
1
  6
solid
 62
     7
100
AcDbLine
 10
0.4555498529297845
 20
0.4680809429372724
 30
0.0
 11
0.4801858994414125
 21
0.4680809429372724
 31
0.0
  0
LINE
  5
AC
330
A
100
AcDbEntity
  8
1
  6
solid
 62
     7
100
AcDbLine
 10
0.4801858994414125
 20
0.4680809429372724
 30
0.0
 11
0.4438486901390869
 21
0.3118309429372723
 31
0.0
  0
LINE
  5
AD
330
A
100
AcDbEntity
  8
1
  6
solid
 62
     7
100
AcDbLine
 10
0.4191940389762962
 20
0.3118309429372723
 30
0.0
 11
0.4438486901390869
 21
0.3118309429372723
 31
0.0
  0
LINE
  5
AE
330
A
100
AcDbEntity
  8
1
  6
solid
 62
     7
100
AcDbLine
 10
0.579656597115831
 20
0.3118309429372723
 30
0.0
 11
0.5487699692088543
 21
0.3118309429372723
 31
0.0
  0
LINE
  5
AF
330
A
100
AcDbEntity
  8
1
  6
solid
 62
     7
100
AcDbLine
 10
0.5487699692088543
 20
0.3118309429372723
 30
0.0
 11
0.5487699692088543
 21
0.4229012917744817
 31
0.0
  0
SPLINE
  5
B0
330
A
100
AcDbEntity
  8
1
  6
solid
 62
     7
100
AcDbSpline
210
0.0
220
0.0
230
1.0
 70
     8
 71
     2
 72
     6
 73
     3
 74
     0
 42
0.0000000001
 43
0.0000000001
 40
0.0
 40
0.0
 40
0.0
 40
1.0
 40
1.0
 40
1.0
 10
0.5487699692088543
 20
0.4229012917744817
 30
0.0
 10
0.5325298529297845
 20
0.4051978034023886
 30
0.0
 10
0.5106158994414125
 20
0.3972233847977375
 30
0.0
  0
LINE
  5
B1
330
A
100
AcDbEntity
  8
1
  6
solid
 62
     7
100
AcDbLine
 10
0.5106158994414125
 20
0.3972233847977375
 30
0.0
 11
0.5106158994414125
 21
0.4281100127047142
 31
0.0
  0
SPLINE
  5
B2
330
A
100
AcDbEntity
  8
1
  6
solid
 62
     7
100
AcDbSpline
210
0.0
220
0.0
230
1.0
 70
     8
 71
     2
 72
     7
 73
     4
 74
     0
 42
0.0000000001
 43
0.0000000001
 40
0.0
 40
0.0
 40
0.0
 40
1.0
 40
2.0
 40
2.0
 40
2.0
 10
0.5106158994414125
 20
0.4281100127047142
 30
0.0
 10
0.5220938064181567
 20
0.4319111754954119
 30
0.0
 10
0.5496257831623426
 20
0.4536018731698305
 30
0.0
 10
0.5548717133949009
 20
0.4680809429372724
 30
0.0
  0
LINE
  5
B3
330
A
100
AcDbEntity
  8
1
  6
solid
 62
     7
100
AcDbLine
 10
0.5548717133949009
 20
0.4680809429372724
 30
0.0
 11
0.579656597115831
 21
0.4680809429372724
 31
0.0
  0
LINE
  5
B4
330
A
100
AcDbEntity
  8
1
  6
solid
 62
     7
100
AcDbLine
 10
0.579656597115831
 20
0.3118309429372723
 30
0.0
 11
0.579656597115831
 21
0.4680809429372724
 31
0.0
  0
LINE
  5
B5
330
A
100
AcDbEntity
  8
1
  6
solid
 62
     7
100
AcDbLine
 10
0.7100139226972264
 20
0.4254623382861096
 30
0.0
 11
0.6791272947902496
 21
0.4226594313093654
 31
0.0
  0
SPLINE
  5
B6
330
A
100
AcDbEntity
  8
1
  6
solid
 62
     7
100
AcDbSpline
210
0.0
220
0.0
230
1.0
 70
     8
 71
     2
 72
     7
 73
     4
 74
     0
 42
0.0000000001
 43
0.0000000001
 40
0.0
 40
0.0
 40
0.0
 40
1.0
 40
2.0
 40
2.0
 40
2.0
 10
0.6791272947902496
 20
0.4226594313093654
 30
0.0
 10
0.6778127599065287
 20
0.4318925708442491
 30
0.0
 10
0.6689517133949008
 20
0.4408280359605281
 30
0.0
 10
0.6618703180460636
 20
0.4408280359605281
 30
0.0
  0
SPLINE
  5
B7
330
A
100
AcDbEntity
  8
1
  6
solid
 62
     7
100
AcDbSpline
210
0.0
220
0.0
230
1.0
 70
     8
 71
     2
 72
     7
 73
     4
 74
     0
 42
0.0000000001
 43
0.0000000001
 40
0.0
 40
0.0
 40
0.0
 40
1.0
 40
2.0
 40
2.0
 40
2.0
 10
0.6618703180460636
 20
0.4408280359605281
 30
0.0
 10
0.6526743878135055
 20
0.4408280359605281
 30
0.0
 10
0.6399005506042032
 20
0.4226966406116909
 30
0.0
 10
0.6381767133949009
 20
0.394464082472156
 30
0.0
  0
SPLINE
  5
B8
330
A
100
AcDbEntity
  8
1
  6
solid
 62
     7
100
AcDbSpline
210
0.0
220
0.0
230
1.0
 70
     8
 71
     2
 72
     6
 73
     3
 74
     0
 42
0.0000000001
 43
0.0000000001
 40
0.0
 40
0.0
 40
0.0
 40
1.0
 40
1.0
 40
1.0
 10
0.6381767133949009
 20
0.394464082472156
 30
0.0
 10
0.6500575273483892
 20
0.4081245475884351
 30
0.0
 10
0.6668557831623426
 20
0.4081245475884351
 30
0.0
  0
SPLINE
  5
B9
330
A
100
AcDbEntity
  8
1
  6
solid
 62
     7
100
AcDbSpline
210
0.0
220
0.0
230
1.0
 70
     8
 71
     2
 72
     7
 73
     4
 74
     0
 42
0.0000000001
 43
0.0000000001
 40
0.0
 40
0.0
 40
0.0
 40
1.0
 40
2.0
 40
2.0
 40
2.0
 10
0.6668557831623426
 20
0.4081245475884351
 30
0.0
 10
0.6856941552553659
 20
0.4081245475884351
 30
0.0
 10
0.7136476436274589
 20
0.3810948964256444
 30
0.0
 10
0.7136476436274589
 20
0.3596274545651793
 30
0.0
  0
SPLINE
  5
BA
330
A
100
AcDbEntity
  8
1
  6
solid
 62
     7
100
AcDbSpline
210
0.0
220
0.0
230
1.0
 70
     8
 71
     2
 72
     7
 73
     4
 74
     0
 42
0.0000000001
 43
0.0000000001
 40
0.0
 40
0.0
 40
0.0
 40
1.0
 40
2.0
 40
2.0
 40
2.0
 10
0.7136476436274589
 20
0.3596274545651793
 30
0.0
 10
0.7136476436274589
 20
0.3373041987512258
 30
0.0
 10
0.6853220622321102
 20
0.310014082472156
 30
0.0
 10
0.6634639226972264
 20
0.310014082472156
 30
0.0
  0
SPLINE
  5
BB
330
A
100
AcDbEntity
  8
1
  6
solid
 62
     7
100
AcDbSpline
210
0.0
220
0.0
230
1.0
 70
     8
 71
     2
 72
     7
 73
     4
 74
     0
 42
0.0000000001
 43
0.0000000001
 40
0.0
 40
0.0
 40
0.0
 40
1.0
 40
2.0
 40
2.0
 40
2.0
 10
0.6634639226972264
 20
0.310014082472156
 30
0.0
 10
0.6399377599065287
 20
0.310014082472156
 30
0.0
 10
0.610086597115831
 20
0.34640710572797
 30
0.0
 10
0.610086597115831
 20
0.3873826871233188
 30
0.0
  0
SPLINE
  5
BC
330
A
100
AcDbEntity
  8
1
  6
solid
 62
     7
100
AcDbSpline
210
0.0
220
0.0
230
1.0
 70
     8
 71
     2
 72
     7
 73
     4
 74
     0
 42
0.0000000001
 43
0.0000000001
 40
0.0
 40
0.0
 40
0.0
 40
1.0
 40
2.0
 40
2.0
 40
2.0
 10
0.610086597115831
 20
0.3873826871233188
 30
0.0
 10
0.610086597115831
 20
0.4302989661930863
 30
0.0
 10
0.6412336901390869
 20
0.4680809429372724
 30
0.0
 10
0.6657458994414124
 20
0.4680809429372724
 30
0.0
  0
SPLINE
  5
BD
330
A
100
AcDbEntity
  8
1
  6
solid
 62
     7
100
AcDbSpline
210
0.0
220
0.0
230
1.0
 70
     8
 71
     2
 72
     7
 73
     4
 74
     0
 42
0.0000000001
 43
0.0000000001
 40
0.0
 40
0.0
 40
0.0
 40
1.0
 40
2.0
 40
2.0
 40
2.0
 10
0.6657458994414124
 20
0.4680809429372724
 30
0.0
 10
0.683486597115831
 20
0.4680809429372724
 30
0.0
 10
0.7066964808367614
 20
0.4464274545651793
 30
0.0
 10
0.7100139226972264
 20
0.4254623382861096
 30
0.0
  0
SPLINE
  5
BE
330
A
100
AcDbEntity
  8
1
  6
solid
 62
     7
100
AcDbSpline
210
0.0
220
0.0
230
1.0
 70
     8
 71
     2
 72
     7
 73
     4
 74
     0
 42
0.0000000001
 43
0.0000000001
 40
0.0
 40
0.0
 40
0.0
 40
1.0
 40
2.0
 40
2.0
 40
2.0
 10
0.6409732250228078
 20
0.3599995475884351
 30
0.0
 10
0.6409732250228078
 20
0.3489495475884351
 30
0.0
 10
0.6542307831623427
 20
0.3372669894489002
 30
0.0
 10
0.663054620371645
 20
0.3372669894489002
 30
0.0
  0
SPLINE
  5
BF
330
A
100
AcDbEntity
  8
1
  6
solid
 62
     7
100
AcDbSpline
210
0.0
220
0.0
230
1.0
 70
     8
 71
     2
 72
     7
 73
     4
 74
     0
 42
0.0000000001
 43
0.0000000001
 40
0.0
 40
0.0
 40
0.0
 40
1.0
 40
2.0
 40
2.0
 40
2.0
 10
0.663054620371645
 20
0.3372669894489002
 30
0.0
 10
0.671047643627459
 20
0.3372669894489002
 30
0.0
 10
0.6827610157204822
 20
0.3468908266582025
 30
0.0
 10
0.6827610157204822
 20
0.3580524545651793
 30
0.0
  0
SPLINE
  5
C0
330
A
100
AcDbEntity
  8
1
  6
solid
 62
     7
100
AcDbSpline
210
0.0
220
0.0
230
1.0
 70
     8
 71
     2
 72
     7
 73
     4
 74
     0
 42
0.0000000001
 43
0.0000000001
 40
0.0
 40
0.0
 40
0.0
 40
1.0
 40
2.0
 40
2.0
 40
2.0
 10
0.6827610157204822
 20
0.3580524545651793
 30
0.0
 10
0.6827610157204822
 20
0.3700448964256444
 30
0.0
 10
0.6704895040925752
 20
0.3808716406116909
 30
0.0
 10
0.6614424110693193
 20
0.3808716406116909
 30
0.0
  0
SPLINE
  5
C1
330
A
100
AcDbEntity
  8
1
  6
solid
 62
     7
100
AcDbSpline
210
0.0
220
0.0
230
1.0
 70
     8
 71
     2
 72
     7
 73
     4
 74
     0
 42
0.0000000001
 43
0.0000000001
 40
0.0
 40
0.0
 40
0.0
 40
1.0
 40
2.0
 40
2.0
 40
2.0
 10
0.6614424110693193
 20
0.3808716406116909
 30
0.0
 10
0.6526185738600172
 20
0.3808716406116909
 30
0.0
 10
0.6409732250228078
 20
0.3703611754954119
 30
0.0
 10
0.6409732250228078
 20
0.3599995475884351
 30
0.0
  0
LINE
  5
C2
330
A
100
AcDbEntity
  8
1
  6
solid
 62
     7
100
AcDbLine
 10
0.7769198529297845
 20
0.3118309429372723
 30
0.0
 11
0.817039620371645
 21
0.3705100127047141
 31
0.0
  0
LINE
  5
C3
330
A
100
AcDbEntity
  8
1
  6
solid
 62
     7
100
AcDbLine
 10
0.817039620371645
 20
0.3705100127047141
 30
0.0
 11
0.7805535738600172
 21
0.4262931522395979
 31
0.0
  0
LINE
  5
C4
330
A
100
AcDbEntity
  8
1
  6
solid
 62
     7
100
AcDbLine
 10
0.7805535738600172
 20
0.4262931522395979
 30
0.0
 11
0.8173186901390868
 21
0.4262931522395979
 31
0.0
  0
LINE
  5
C5
330
A
100
AcDbEntity
  8
1
  6
solid
 62
     7
100
AcDbLine
 10
0.8173186901390868
 20
0.4262931522395979
 30
0.0
 11
0.8345756668832729
 21
0.3943896638675049
 31
0.0
  0
LINE
  5
C6
330
A
100
AcDbEntity
  8
1
  6
solid
 62
     7
100
AcDbLine
 10
0.8345756668832729
 20
0.3943896638675049
 30
0.0
 11
0.8527814808367612
 21
0.4262931522395979
 31
0.0
  0
LINE
  5
C7
330
A
100
AcDbEntity
  8
1
  6
solid
 62
     7
100
AcDbLine
 10
0.8527814808367612
 20
0.4262931522395979
 30
0.0
 11
0.8895652017669938
 21
0.4262931522395979
 31
0.0
  0
LINE
  5
C8
330
A
100
AcDbEntity
  8
1
  6
solid
 62
     7
100
AcDbLine
 10
0.8895652017669938
 20
0.4262931522395979
 30
0.0
 11
0.851764620371645
 21
0.3719733847977374
 31
0.0
  0
LINE
  5
C9
330
A
100
AcDbEntity
  8
1
  6
solid
 62
     7
100
AcDbLine
 10
0.851764620371645
 20
0.3719733847977374
 30
0.0
 11
0.8931989226972262
 21
0.3118309429372723
 31
0.0
  0
LINE
  5
CA
330
A
100
AcDbEntity
  8
1
  6
solid
 62
     7
100
AcDbLine
 10
0.8931989226972262
 20
0.3118309429372723
 30
0.0
 11
0.8564152017669938
 21
0.3118309429372723
 31
0.0
  0
LINE
  5
CB
330
A
100
AcDbEntity
  8
1
  6
solid
 62
     7
100
AcDbLine
 10
0.8564152017669938
 20
0.3118309429372723
 30
0.0
 11
0.8345756668832729
 21
0.3469652452628537
 31
0.0
  0
LINE
  5
CC
330
A
100
AcDbEntity
  8
1
  6
solid
 62
     7
100
AcDbLine
 10
0.8345756668832729
 20
0.3469652452628537
 30
0.0
 11
0.8136849692088542
 21
0.3118309429372723
 31
0.0
  0
LINE
  5
CD
330
A
100
AcDbEntity
  8
1
  6
solid
 62
     7
100
AcDbLine
 10
0.7769198529297845
 20
0.3118309429372723
 30
0.0
 11
0.8136849692088542
 21
0.3118309429372723
 31
0.0
  0
LINE
  5
CE
330
A
100
AcDbEntity
  8
1
  6
solid
 62
     7
100
AcDbLine
 10
0.9570972947902497
 20
0.35745710572797
 30
0.0
 11
0.9843502017669937
 21
0.3608861754954118
 31
0.0
  0
SPLINE
  5
CF
330
A
100
AcDbEntity
  8
1
  6
solid
 62
     7
100
AcDbSpline
210
0.0
220
0.0
230
1.0
 70
     8
 71
     2
 72
     7
 73
     4
 74
     0
 42
0.0000000001
 43
0.0000000001
 40
0.0
 40
0.0
 40
0.0
 40
1.0
 40
2.0
 40
2.0
 40
2.0
 10
0.9843502017669937
 20
0.3608861754954118
 30
0.0
 10
0.9852432250228076
 20
0.3499850127047142
 30
0.0
 10
0.9990153180460636
 20
0.3372669894489002
 30
0.0
 10
1.00723159711583
 20
0.3372669894489002
 30
0.0
  0
SPLINE
  5
D0
330
A
100
AcDbEntity
  8
1
  6
solid
 62
     7
100
AcDbSpline
210
0.0
220
0.0
230
1.0
 70
     8
 71
     2
 72
     7
 73
     4
 74
     0
 42
0.0000000001
 43
0.0000000001
 40
0.0
 40
0.0
 40
0.0
 40
1.0
 40
2.0
 40
2.0
 40
2.0
 10
1.00723159711583
 20
0.3372669894489002
 30
0.0
 10
1.017518806418156
 20
0.3372669894489002
 30
0.0
 10
1.031588573860017
 20
0.3492844313093653
 30
0.0
 10
1.031588573860017
 20
0.3619652452628537
 30
0.0
  0
SPLINE
  5
D1
330
A
100
AcDbEntity
  8
1
  6
solid
 62
     7
100
AcDbSpline
210
0.0
220
0.0
230
1.0
 70
     8
 71
     2
 72
     7
 73
     4
 74
     0
 42
0.0000000001
 43
0.0000000001
 40
0.0
 40
0.0
 40
0.0
 40
1.0
 40
2.0
 40
2.0
 40
2.0
 10
1.031588573860017
 20
0.3619652452628537
 30
0.0
 10
1.031588573860017
 20
0.3741437336349467
 30
0.0
 10
1.019149620371645
 20
0.3863222220070397
 30
0.0
 10
1.00893682967397
 20
0.3863222220070397
 30
0.0
  0
SPLINE
  5
D2
330
A
100
AcDbEntity
  8
1
  6
solid
 62
     7
100
AcDbSpline
210
0.0
220
0.0
230
1.0
 70
     8
 71
     2
 72
     6
 73
     3
 74
     0
 42
0.0000000001
 43
0.0000000001
 40
0.0
 40
0.0
 40
0.0
 40
1.0
 40
1.0
 40
1.0
 10
1.00893682967397
 20
0.3863222220070397
 30
0.0
 10
0.9971240389762961
 20
0.3863222220070397
 30
0.0
 10
0.9869856668832728
 20
0.3754210592163421
 30
0.0
  0
LINE
  5
D3
330
A
100
AcDbEntity
  8
1
  6
solid
 62
     7
100
AcDbLine
 10
0.9869856668832728
 20
0.3754210592163421
 30
0.0
 11
0.9607310157204821
 21
0.378242570844249
 31
0.0
  0
LINE
  5
D4
330
A
100
AcDbEntity
  8
1
  6
solid
 62
     7
100
AcDbLine
 10
0.9607310157204821
 20
0.378242570844249
 30
0.0
 11
0.9788996203716449
 21
0.466264082472156
 31
0.0
  0
LINE
  5
D5
330
A
100
AcDbEntity
  8
1
  6
solid
 62
     7
100
AcDbLine
 10
0.9788996203716449
 20
0.466264082472156
 30
0.0
 11
1.055207759906528
 21
0.466264082472156
 31
0.0
  0
LINE
  5
D6
330
A
100
AcDbEntity
  8
1
  6
solid
 62
     7
100
AcDbLine
 10
1.055207759906528
 20
0.466264082472156
 30
0.0
 11
1.055207759906528
 21
0.4353774545651793
 31
0.0
  0
LINE
  5
D7
330
A
100
AcDbEntity
  8
1
  6
solid
 62
     7
100
AcDbLine
 10
1.055207759906528
 20
0.4353774545651793
 30
0.0
 11
1.003244387813505
 21
0.4353774545651793
 31
0.0
  0
LINE
  5
D8
330
A
100
AcDbEntity
  8
1
  6
solid
 62
     7
100
AcDbLine
 10
1.003244387813505
 20
0.4353774545651793
 30
0.0
 11
0.9972728761855984
 21
0.4069402452628538
 31
0.0
  0
SPLINE
  5
D9
330
A
100
AcDbEntity
  8
1
  6
solid
 62
     7
100
AcDbSpline
210
0.0
220
0.0
230
1.0
 70
     8
 71
     2
 72
     6
 73
     3
 74
     0
 42
0.0000000001
 43
0.0000000001
 40
0.0
 40
0.0
 40
0.0
 40
1.0
 40
1.0
 40
1.0
 10
0.9972728761855984
 20
0.4069402452628538
 30
0.0
 10
1.006673457580947
 20
0.413575128983784
 30
0.0
 10
1.016353108743738
 20
0.413575128983784
 30
0.0
  0
SPLINE
  5
DA
330
A
100
AcDbEntity
  8
1
  6
solid
 62
     7
100
AcDbSpline
210
0.0
220
0.0
230
1.0
 70
     8
 71
     2
 72
     7
 73
     4
 74
     0
 42
0.0000000001
 43
0.0000000001
 40
0.0
 40
0.0
 40
0.0
 40
1.0
 40
2.0
 40
2.0
 40
2.0
 10
1.016353108743738
 20
0.413575128983784
 30
0.0
 10
1.035724620371645
 20
0.413575128983784
 30
0.0
 10
1.062475201766993
 20
0.3852123382861095
 30
0.0
 10
1.062475201766993
 20
0.3630565243326211
 30
0.0
  0
SPLINE
  5
DB
330
A
100
AcDbEntity
  8
1
  6
solid
 62
     7
100
AcDbSpline
210
0.0
220
0.0
230
1.0
 70
     8
 71
     2
 72
     6
 73
     3
 74
     0
 42
0.0000000001
 43
0.0000000001
 40
0.0
 40
0.0
 40
0.0
 40
1.0
 40
1.0
 40
1.0
 10
1.062475201766993
 20
0.3630565243326211
 30
0.0
 10
1.062475201766993
 20
0.3445716406116909
 30
0.0
 10
1.050743225022807
 20
0.3293547801465746
 30
0.0
  0
SPLINE
  5
DC
330
A
100
AcDbEntity
  8
1
  6
solid
 62
     7
100
AcDbSpline
210
0.0
220
0.0
230
1.0
 70
     8
 71
     2
 72
     6
 73
     3
 74
     0
 42
0.0000000001
 43
0.0000000001
 40
0.0
 40
0.0
 40
0.0
 40
1.0
 40
1.0
 40
1.0
 10
1.050743225022807
 20
0.3293547801465746
 30
0.0
 10
1.035706015720482
 20
0.310014082472156
 30
0.0
 10
1.008527527348389
 20
0.310014082472156
 30
0.0
  0
SPLINE
  5
DD
330
A
100
AcDbEntity
  8
1
  6
solid
 62
     7
100
AcDbSpline
210
0.0
220
0.0
230
1.0
 70
     8
 71
     2
 72
     7
 73
     4
 74
     0
 42
0.0000000001
 43
0.0000000001
 40
0.0
 40
0.0
 40
0.0
 40
1.0
 40
2.0
 40
2.0
 40
2.0
 10
1.008527527348389
 20
0.310014082472156
 30
0.0
 10
0.9867996203716449
 20
0.310014082472156
 30
0.0
 10
0.9594722947902495
 20
0.3356733847977375
 30
0.0
 10
0.9570972947902497
 20
0.35745710572797
 30
0.0
  0
LINE
  5
DE
330
A
100
AcDbEntity
  8
1
  6
solid
 62
     7
100
AcDbLine
 10
1.092905201766993
 20
0.3536187336349467
 30
0.0
 11
1.092905201766993
 21
0.3808716406116909
 31
0.0
  0
LINE
  5
DF
330
A
100
AcDbEntity
  8
1
  6
solid
 62
     7
100
AcDbLine
 10
1.092905201766993
 20
0.3808716406116909
 30
0.0
 11
1.152861597115831
 21
0.3808716406116909
 31
0.0
  0
LINE
  5
E0
330
A
100
AcDbEntity
  8
1
  6
solid
 62
     7
100
AcDbLine
 10
1.152861597115831
 20
0.3808716406116909
 30
0.0
 11
1.152861597115831
 21
0.3536187336349467
 31
0.0
  0
LINE
  5
E1
330
A
100
AcDbEntity
  8
1
  6
solid
 62
     7
100
AcDbLine
 10
1.092905201766993
 20
0.3536187336349467
 30
0.0
 11
1.152861597115831
 21
0.3536187336349467
 31
0.0
  0
LINE
  5
E2
330
A
100
AcDbEntity
  8
1
  6
solid
 62
     7
100
AcDbLine
 10
1.252332294790249
 20
0.3118309429372723
 30
0.0
 11
1.221445666883272
 21
0.3118309429372723
 31
0.0
  0
LINE
  5
E3
330
A
100
AcDbEntity
  8
1
  6
solid
 62
     7
100
AcDbLine
 10
1.221445666883272
 20
0.3118309429372723
 30
0.0
 11
1.221445666883272
 21
0.4229012917744817
 31
0.0
  0
SPLINE
  5
E4
330
A
100
AcDbEntity
  8
1
  6
solid
 62
     7
100
AcDbSpline
210
0.0
220
0.0
230
1.0
 70
     8
 71
     2
 72
     6
 73
     3
 74
     0
 42
0.0000000001
 43
0.0000000001
 40
0.0
 40
0.0
 40
0.0
 40
1.0
 40
1.0
 40
1.0
 10
1.221445666883272
 20
0.4229012917744817
 30
0.0
 10
1.205205550604203
 20
0.4051978034023886
 30
0.0
 10
1.183291597115831
 20
0.3972233847977375
 30
0.0
  0
LINE
  5
E5
330
A
100
AcDbEntity
  8
1
  6
solid
 62
     7
100
AcDbLine
 10
1.183291597115831
 20
0.3972233847977375
 30
0.0
 11
1.183291597115831
 21
0.4281100127047142
 31
0.0
  0
SPLINE
  5
E6
330
A
100
AcDbEntity
  8
1
  6
solid
 62
     7
100
AcDbSpline
210
0.0
220
0.0
230
1.0
 70
     8
 71
     2
 72
     7
 73
     4
 74
     0
 42
0.0000000001
 43
0.0000000001
 40
0.0
 40
0.0
 40
0.0
 40
1.0
 40
2.0
 40
2.0
 40
2.0
 10
1.183291597115831
 20
0.4281100127047142
 30
0.0
 10
1.194769504092575
 20
0.4319111754954119
 30
0.0
 10
1.222301480836761
 20
0.4536018731698305
 30
0.0
 10
1.227547411069319
 20
0.4680809429372724
 30
0.0
  0
LINE
  5
E7
330
A
100
AcDbEntity
  8
1
  6
solid
 62
     7
100
AcDbLine
 10
1.227547411069319
 20
0.4680809429372724
 30
0.0
 11
1.252332294790249
 21
0.4680809429372724
 31
0.0
  0
LINE
  5
E8
330
A
100
AcDbEntity
  8
1
  6
solid
 62
     7
100
AcDbLine
 10
1.252332294790249
 20
0.3118309429372723
 30
0.0
 11
1.252332294790249
 21
0.4680809429372724
 31
0.0
  0
LINE
  5
E9
330
A
100
AcDbEntity
  8
1
  6
solid
 62
     7
100
AcDbLine
 10
1.28172682967397
 20
0.3118309429372723
 30
0.0
 11
1.318082643627459
 21
0.4680809429372724
 31
0.0
  0
LINE
  5
EA
330
A
100
AcDbEntity
  8
1
  6
solid
 62
     7
100
AcDbLine
 10
1.318082643627459
 20
0.4680809429372724
 30
0.0
 11
1.342718690139086
 21
0.4680809429372724
 31
0.0
  0
LINE
  5
EB
330
A
100
AcDbEntity
  8
1
  6
solid
 62
     7
100
AcDbLine
 10
1.342718690139086
 20
0.4680809429372724
 30
0.0
 11
1.306381480836761
 21
0.3118309429372723
 31
0.0
  0
LINE
  5
EC
330
A
100
AcDbEntity
  8
1
  6
solid
 62
     7
100
AcDbLine
 10
1.28172682967397
 20
0.3118309429372723
 30
0.0
 11
1.306381480836761
 21
0.3118309429372723
 31
0.0
  0
LINE
  5
ED
330
A
100
AcDbEntity
  8
1
  6
solid
 62
     7
100
AcDbLine
 10
1.43492194595304
 20
0.3118309429372723
 30
0.0
 11
1.43492194595304
 21
0.342717570844249
 31
0.0
  0
LINE
  5
EE
330
A
100
AcDbEntity
  8
1
  6
solid
 62
     7
100
AcDbLine
 10
1.43492194595304
 20
0.342717570844249
 30
0.0
 11
1.373148690139087
 21
0.342717570844249
 31
0.0
  0
LINE
  5
EF
330
A
100
AcDbEntity
  8
1
  6
solid
 62
     7
100
AcDbLine
 10
1.373148690139087
 20
0.342717570844249
 30
0.0
 11
1.373148690139087
 21
0.3674530359605281
 31
0.0
  0
LINE
  5
F0
330
A
100
AcDbEntity
  8
1
  6
solid
 62
     7
100
AcDbLine
 10
1.373148690139087
 20
0.3674530359605281
 30
0.0
 11
1.438853341301877
 21
0.466264082472156
 31
0.0
  0
LINE
  5
F1
330
A
100
AcDbEntity
  8
1
  6
solid
 62
     7
100
AcDbLine
 10
1.438853341301877
 20
0.466264082472156
 30
0.0
 11
1.465808573860017
 21
0.466264082472156
 31
0.0
  0
LINE
  5
F2
330
A
100
AcDbEntity
  8
1
  6
solid
 62
     7
100
AcDbLine
 10
1.465808573860017
 20
0.466264082472156
 30
0.0
 11
1.465808573860017
 21
0.368153617355877
 31
0.0
  0
LINE
  5
F3
330
A
100
AcDbEntity
  8
1
  6
solid
 62
     7
100
AcDbLine
 10
1.465808573860017
 20
0.368153617355877
 30
0.0
 11
1.485794038976296
 21
0.368153617355877
 31
0.0
  0
LINE
  5
F4
330
A
100
AcDbEntity
  8
1
  6
solid
 62
     7
100
AcDbLine
 10
1.485794038976296
 20
0.368153617355877
 30
0.0
 11
1.485794038976296
 21
0.342717570844249
 31
0.0
  0
LINE
  5
F5
330
A
100
AcDbEntity
  8
1
  6
solid
 62
     7
100
AcDbLine
 10
1.485794038976296
 20
0.342717570844249
 30
0.0
 11
1.465808573860017
 21
0.342717570844249
 31
0.0
  0
LINE
  5
F6
330
A
100
AcDbEntity
  8
1
  6
solid
 62
     7
100
AcDbLine
 10
1.465808573860017
 20
0.342717570844249
 30
0.0
 11
1.465808573860017
 21
0.3118309429372723
 31
0.0
  0
LINE
  5
F7
330
A
100
AcDbEntity
  8
1
  6
solid
 62
     7
100
AcDbLine
 10
1.43492194595304
 20
0.3118309429372723
 30
0.0
 11
1.465808573860017
 21
0.3118309429372723
 31
0.0
  0
LINE
  5
F8
330
A
100
AcDbEntity
  8
1
  6
solid
 62
     7
100
AcDbLine
 10
1.43492194595304
 20
0.368153617355877
 30
0.0
 11
1.43492194595304
 21
0.4179344313093654
 31
0.0
  0
LINE
  5
F9
330
A
100
AcDbEntity
  8
1
  6
solid
 62
     7
100
AcDbLine
 10
1.43492194595304
 20
0.4179344313093654
 30
0.0
 11
1.400978341301877
 21
0.368153617355877
 31
0.0
  0
LINE
  5
FA
330
A
100
AcDbEntity
  8
1
  6
solid
 62
     7
100
AcDbLine
 10
1.43492194595304
 20
0.368153617355877
 30
0.0
 11
1.400978341301877
 21
0.368153617355877
 31
0.0
  0
LINE
  5
FC
330
A
100
AcDbEntity
  8
0
  6
solid
 62
     7
100
AcDbLine
 10
0.919931856899489
 20
1.371379897785349
 30
0.0
 11
0.919931856899489
 21
1.558879897785349
 31
0.0
  0
LINE
  5
FD
330
A
100
AcDbEntity
  8
0
  6
solid
 62
     7
100
AcDbLine
 10
0.919931856899489
 20
1.558879897785349
 30
0.0
 11
0.9552579438560107
 21
1.558879897785349
 31
0.0
  0
LINE
  5
FE
330
A
100
AcDbEntity
  8
0
  6
solid
 62
     7
100
AcDbLine
 10
0.9552579438560107
 20
1.558879897785349
 30
0.0
 11
0.9552579438560107
 21
1.403988593437523
 31
0.0
  0
LINE
  5
FF
330
A
100
AcDbEntity
  8
0
  6
solid
 62
     7
100
AcDbLine
 10
0.9552579438560107
 20
1.403988593437523
 30
0.0
 11
1.053084030812532
 21
1.403988593437523
 31
0.0
  0
LINE
  5
100
330
A
100
AcDbEntity
  8
0
  6
solid
 62
     7
100
AcDbLine
 10
1.053084030812532
 20
1.403988593437523
 30
0.0
 11
1.053084030812532
 21
1.371379897785349
 31
0.0
  0
LINE
  5
101
330
A
100
AcDbEntity
  8
0
  6
solid
 62
     7
100
AcDbLine
 10
0.919931856899489
 20
1.371379897785349
 30
0.0
 11
1.053084030812532
 21
1.371379897785349
 31
0.0
  0
LINE
  5
102
330
A
100
AcDbEntity
  8
0
  6
solid
 62
     7
100
AcDbLine
 10
1.080254030812532
 20
1.558879897785349
 30
0.0
 11
1.14913490037775
 21
1.558879897785349
 31
0.0
  0
SPLINE
  5
103
330
A
100
AcDbEntity
  8
0
  6
solid
 62
     7
100
AcDbSpline
210
0.0
220
0.0
230
1.0
 70
     8
 71
     2
 72
     6
 73
     3
 74
     0
 42
0.0000000001
 43
0.0000000001
 40
0.0
 40
0.0
 40
0.0
 40
1.0
 40
1.0
 40
1.0
 10
1.14913490037775
 20
1.558879897785349
 30
0.0
 10
1.17295142211688
 20
1.558879897785349
 30
0.0
 10
1.184767074290793
 20
1.55466946300274
 30
0.0
  0
SPLINE
  5
104
330
A
100
AcDbEntity
  8
0
  6
solid
 62
     7
100
AcDbSpline
210
0.0
220
0.0
230
1.0
 70
     8
 71
     2
 72
     8
 73
     5
 74
     0
 42
0.0000000001
 43
0.0000000001
 40
0.0
 40
0.0
 40
0.0
 40
1.0
 40
2.0
 40
3.0
 40
3.0
 40
3.0
 10
1.184767074290793
 20
1.55466946300274
 30
0.0
 10
1.201210552551662
 20
1.549596419524479
 30
0.0
 10
1.225110552551663
 20
1.524917289089697
 30
0.0
 10
1.237862726464706
 20
1.489173810828827
 30
0.0
 10
1.237862726464706
 20
1.462556419524479
 30
0.0
  0
SPLINE
  5
105
330
A
100
AcDbEntity
  8
0
  6
solid
 62
     7
100
AcDbSpline
210
0.0
220
0.0
230
1.0
 70
     8
 71
     2
 72
     6
 73
     3
 74
     0
 42
0.0000000001
 43
0.0000000001
 40
0.0
 40
0.0
 40
0.0
 40
1.0
 40
1.0
 40
1.0
 10
1.237862726464706
 20
1.462556419524479
 30
0.0
 10
1.237862726464706
 20
1.439899028220131
 30
0.0
 10
1.231268813421228
 20
1.423288593437523
 30
0.0
  0
SPLINE
  5
106
330
A
100
AcDbEntity
  8
0
  6
solid
 62
     7
100
AcDbSpline
210
0.0
220
0.0
230
1.0
 70
     8
 71
     2
 72
     6
 73
     3
 74
     0
 42
0.0000000001
 43
0.0000000001
 40
0.0
 40
0.0
 40
0.0
 40
1.0
 40
1.0
 40
1.0
 10
1.231268813421228
 20
1.423288593437523
 30
0.0
 10
1.224776639508184
 20
1.402384245611436
 30
0.0
 10
1.211523596029923
 20
1.38940946300274
 30
0.0
  0
SPLINE
  5
107
330
A
100
AcDbEntity
  8
0
  6
solid
 62
     7
100
AcDbSpline
210
0.0
220
0.0
230
1.0
 70
     8
 71
     2
 72
     6
 73
     3
 74
     0
 42
0.0000000001
 43
0.0000000001
 40
0.0
 40
0.0
 40
0.0
 40
1.0
 40
1.0
 40
1.0
 10
1.211523596029923
 20
1.38940946300274
 30
0.0
 10
1.201294030812532
 20
1.380311202133175
 30
0.0
 10
1.184683596029923
 20
1.374904245611436
 30
0.0
  0
SPLINE
  5
108
330
A
100
AcDbEntity
  8
0
  6
solid
 62
     7
100
AcDbSpline
210
0.0
220
0.0
230
1.0
 70
     8
 71
     2
 72
     6
 73
     3
 74
     0
 42
0.0000000001
 43
0.0000000001
 40
0.0
 40
0.0
 40
0.0
 40
1.0
 40
1.0
 40
1.0
 10
1.184683596029923
 20
1.374904245611436
 30
0.0
 10
1.172700987334271
 20
1.371379897785349
 30
0.0
 10
1.151407074290793
 20
1.371379897785349
 30
0.0
  0
LINE
  5
109
330
A
100
AcDbEntity
  8
0
  6
solid
 62
     7
100
AcDbLine
 10
1.151407074290793
 20
1.371379897785349
 30
0.0
 11
1.080254030812532
 21
1.371379897785349
 31
0.0
  0
LINE
  5
10A
330
A
100
AcDbEntity
  8
0
  6
solid
 62
     7
100
AcDbLine
 10
1.080254030812532
 20
1.558879897785349
 30
0.0
 11
1.080254030812532
 21
1.371379897785349
 31
0.0
  0
LINE
  5
10B
330
A
100
AcDbEntity
  8
0
  6
solid
 62
     7
100
AcDbLine
 10
1.115580117769054
 20
1.526271202133175
 30
0.0
 11
1.115580117769054
 21
1.403988593437523
 31
0.0
  0
LINE
  5
10C
330
A
100
AcDbEntity
  8
0
  6
solid
 62
     7
100
AcDbLine
 10
1.115580117769054
 20
1.403988593437523
 30
0.0
 11
1.145972291682097
 21
1.403988593437523
 31
0.0
  0
SPLINE
  5
10D
330
A
100
AcDbEntity
  8
0
  6
solid
 62
     7
100
AcDbSpline
210
0.0
220
0.0
230
1.0
 70
     8
 71
     2
 72
     6
 73
     3
 74
     0
 42
0.0000000001
 43
0.0000000001
 40
0.0
 40
0.0
 40
0.0
 40
1.0
 40
1.0
 40
1.0
 10
1.145972291682097
 20
1.403988593437523
 30
0.0
 10
1.162860987334271
 20
1.403988593437523
 30
0.0
 10
1.170679248203836
 20
1.405157289089697
 30
0.0
  0
SPLINE
  5
10E
330
A
100
AcDbEntity
  8
0
  6
solid
 62
     7
100
AcDbSpline
210
0.0
220
0.0
230
1.0
 70
     8
 71
     2
 72
     8
 73
     5
 74
     0
 42
0.0000000001
 43
0.0000000001
 40
0.0
 40
0.0
 40
0.0
 40
1.0
 40
2.0
 40
3.0
 40
3.0
 40
3.0
 10
1.170679248203836
 20
1.405157289089697
 30
0.0
 10
1.180964465595141
 20
1.407568593437523
 30
0.0
 10
1.193336639508184
 20
1.418410332567957
 30
0.0
 10
1.202536639508184
 20
1.44308946300274
 30
0.0
 10
1.202536639508184
 20
1.464633810828827
 30
0.0
  0
SPLINE
  5
10F
330
A
100
AcDbEntity
  8
0
  6
solid
 62
     7
100
AcDbSpline
210
0.0
220
0.0
230
1.0
 70
     8
 71
     2
 72
     8
 73
     5
 74
     0
 42
0.0000000001
 43
0.0000000001
 40
0.0
 40
0.0
 40
0.0
 40
1.0
 40
2.0
 40
3.0
 40
3.0
 40
3.0
 10
1.202536639508184
 20
1.464633810828827
 30
0.0
 10
1.202536639508184
 20
1.486150332567957
 30
0.0
 10
1.193336639508184
 20
1.508668593437523
 30
0.0
 10
1.17883142211688
 20
1.521754680394044
 30
0.0
 10
1.167544465595141
 20
1.524165984741871
 30
0.0
  0
SPLINE
  5
110
330
A
100
AcDbEntity
  8
0
  6
solid
 62
     7
100
AcDbSpline
210
0.0
220
0.0
230
1.0
 70
     8
 71
     2
 72
     6
 73
     3
 74
     0
 42
0.0000000001
 43
0.0000000001
 40
0.0
 40
0.0
 40
0.0
 40
1.0
 40
1.0
 40
1.0
 10
1.167544465595141
 20
1.524165984741871
 30
0.0
 10
1.159114030812532
 20
1.526271202133175
 30
0.0
 10
1.133275769942967
 20
1.526271202133175
 30
0.0
  0
LINE
  5
111
330
A
100
AcDbEntity
  8
0
  6
solid
 62
     7
100
AcDbLine
 10
1.115580117769054
 20
1.526271202133175
 30
0.0
 11
1.133275769942967
 21
1.526271202133175
 31
0.0
  0
LINE
  5
173
330
A
100
AcDbEntity
  8
1
  6
solid
 62
     7
370
     0
100
AcDbLine
 10
-3.745469331741333
 20
0.6358578801155091
 30
0.0
 11
-3.745469331741333
 21
0.4937390061022017
 31
0.0
  0
LINE
  5
174
330
A
100
AcDbEntity
  8
1
  6
solid
 62
     7
370
     0
100
AcDbLine
 10
-3.057969331741333
 20
0.6358578801155091
 30
0.0
 11
-3.057969331741333
 21
0.4937390061022017
 31
0.0
  0
LINE
  5
175
330
A
100
AcDbEntity
  8
1
  6
solid
 62
     7
370
     0
100
AcDbLine
 10
-3.745469331741333
 20
0.5562390061022017
 30
0.0
 11
-3.671836978800156
 21
0.5562390061022017
 31
0.0
  0
LINE
  5
176
330
A
100
AcDbEntity
  8
1
  6
solid
 62
     7
370
     0
100
AcDbLine
 10
-3.057969331741333
 20
0.5562390061022017
 30
0.0
 11
-3.131601684682509
 21
0.5562390061022017
 31
0.0
  0
MTEXT
  5
177
330
A
100
AcDbEntity
  8
1
  6
solid
 62
     7
370
     0
100
AcDbMText
 10
-3.401719331741333
 20
0.5562390061022017
 30
0.0
 40
0.125
 41
0.0
 71
     5
 72
     1
  1
{\H0.125000;11/16}
 73
     1
 44
1.0
  0
SOLID
  5
178
330
A
100
AcDbEntity
  8
1
  6
solid
 62
     7
370
     0
100
AcDbTrace
 10
-3.720469331741333
 20
0.5770515061022018
 30
0.0
 11
-3.720469331741333
 21
0.5354265061022017
 31
0.0
 12
-3.745469331741333
 22
0.5562390061022017
 32
0.0
 13
-3.745469331741333
 23
0.5562390061022017
 33
0.0
  0
SOLID
  5
179
330
A
100
AcDbEntity
  8
1
  6
solid
 62
     7
370
     0
100
AcDbTrace
 10
-3.082969331741332
 20
0.5354265061022017
 30
0.0
 11
-3.082969331741332
 21
0.5770515061022018
 31
0.0
 12
-3.057969331741333
 22
0.5562390061022017
 32
0.0
 13
-3.057969331741333
 23
0.5562390061022017
 33
0.0
  0
VIEWPORT
  5
12F
330
B
100
AcDbEntity
 67
     1
  8
0
  6
Continuous
370
     0
100
AcDbViewport
 10
5.16938820769027
 20
3.968749910906531
 30
0.0
 40
15.41304452602192
 41
8.155134785597876
 68
     1
 69
     1
 12
5.16938820769027
 22
3.968749910906531
 13
0.0
 23
0.0
 14
0.5
 24
0.5
 15
0.5
 25
0.5
 16
0.0
 26
0.0
 36
1.0
 17
0.0
 27
0.0
 37
0.0
 42
50.0
 43
0.0
 44
0.0
 45
8.155134785597876
 50
0.0
 51
0.0
 72
   100
 90
   819232
  1

281
     0
 71
     1
 74
     0
110
0.0
120
0.0
130
0.0
111
1.0
121
0.0
131
0.0
112
0.0
122
1.0
132
0.0
 79
     0
146
0.0
170
     0
  0
VIEWPORT
  5
132
330
B
100
AcDbEntity
 67
     1
  8
0
  6
Continuous
370
     0
100
AcDbViewport
 10
5.169387975913462
 20
3.96874996762399
 30
0.0
 40
10.51917895085642
 41
8.058433111493609
 68
     2
 69
     2
 12
-1.129825415019116
 22
3.379194376896841
 13
0.0
 23
0.0
 14
0.5
 24
0.5
 15
0.5
 25
0.5
 16
0.0
 26
0.0
 36
1.0
 17
0.0
 27
0.0
 37
0.0
 42
50.0
 43
0.0
 44
0.0
 45
7.916175357550828
 50
0.0
 51
0.0
 72
   100
 90
   819232
  1

281
     0
 71
     1
 74
     0
110
0.0
120
0.0
130
0.0
111
1.0
121
0.0
131
0.0
112
0.0
122
1.0
132
0.0
 79
     0
146
0.0
170
     0
  0
ENDSEC
  0
SECTION
  2
OBJECTS
  0
DICTIONARY
  5
19
330
0
100
AcDbDictionary
281
     1
  3
ACAD_COLOR
350
128
  3
ACAD_GROUP
350
1A
  3
ACAD_LAYOUT
350
1E
  3
ACAD_MATERIAL
350
113
  3
ACAD_MLEADERSTYLE
350
15C
  3
ACAD_MLINESTYLE
350
1B
  3
ACAD_PLOTSETTINGS
350
22
  3
ACAD_PLOTSTYLENAME
350
1F
  3
ACAD_SCALELIST
350
13A
  3
ACAD_TABLESTYLE
350
129
  3
ACAD_VISUALSTYLE
350
117
  3
ACAD_WIPEOUT_VARS
350
23
  3
ACDB_RECOMPOSE_DATA
350
1A0
  3
AcDbVariableDictionary
350
137
  3
ASE_INDEX_DICTIONARY
350
134
  0
DICTIONARY
  5
165
330
14
100
AcDbDictionary
280
     1
281
     1
  3
ADSK_XREC_LAYER_RECONCILED
360
166
  0
DICTIONARY
  5
167
330
27
100
AcDbDictionary
280
     1
281
     1
  3
ADSK_XREC_LAYER_RECONCILED
360
168
  0
DICTIONARY
  5
169
330
FB
100
AcDbDictionary
280
     1
281
     1
  3
ADSK_XREC_LAYER_RECONCILED
360
16A
  0
DICTIONARY
  5
17A
330
A
100
AcDbDictionary
280
     1
281
     1
  3
ACAD_SORTENTS
360
17B
  0
DICTIONARY
  5
128
102
{ACAD_REACTORS
330
19
102
}
330
19
100
AcDbDictionary
281
     1
  0
DICTIONARY
  5
1A
102
{ACAD_REACTORS
330
19
102
}
330
19
100
AcDbDictionary
281
     1
  0
DICTIONARY
  5
1E
102
{ACAD_REACTORS
330
19
102
}
330
19
100
AcDbDictionary
281
     1
  3
Layout1
350
21
  3
Model
350
20
  0
DICTIONARY
  5
113
102
{ACAD_REACTORS
330
19
102
}
330
19
100
AcDbDictionary
281
     1
  3
ByBlock
350
115
  3
ByLayer
350
114
  3
Global
350
116
  0
DICTIONARY
  5
15C
102
{ACAD_REACTORS
330
19
102
}
330
19
100
AcDbDictionary
281
     1
  3
Standard
350
15D
  0
DICTIONARY
  5
1B
102
{ACAD_REACTORS
330
19
102
}
330
19
100
AcDbDictionary
281
     1
  3
Standard
350
1C
  0
DICTIONARY
  5
22
102
{ACAD_REACTORS
330
19
102
}
330
19
100
AcDbDictionary
281
     1
  0
ACDBDICTIONARYWDFLT
  5
1F
102
{ACAD_REACTORS
330
19
102
}
330
19
100
AcDbDictionary
281
     1
  3
Normal
350
1D
100
AcDbDictionaryWithDefault
340
1D
  0
DICTIONARY
  5
13A
102
{ACAD_REACTORS
330
19
102
}
330
19
100
AcDbDictionary
281
     1
  3
A0
350
13B
  3
A1
350
13C
  3
A2
350
13D
  3
A3
350
13E
  3
A4
350
13F
  3
A5
350
140
  3
A6
350
141
  3
A7
350
142
  3
A8
350
143
  3
A9
350
144
  3
B0
350
145
  3
B1
350
146
  3
B2
350
147
  3
B3
350
148
  3
B4
350
149
  3
B5
350
14A
  3
B6
350
14B
  3
B7
350
14C
  3
B8
350
14D
  3
B9
350
14E
  3
C0
350
14F
  3
C1
350
150
  3
C2
350
151
  3
C3
350
152
  3
C4
350
153
  3
C5
350
154
  3
C6
350
155
  3
C7
350
156
  3
C8
350
157
  3
C9
350
158
  3
D0
350
159
  3
D1
350
15A
  3
D2
350
15B
  0
DICTIONARY
  5
129
102
{ACAD_REACTORS
330
19
102
}
330
19
100
AcDbDictionary
281
     1
  3
Standard
350
12A
  0
DICTIONARY
  5
117
102
{ACAD_REACTORS
330
19
102
}
330
19
100
AcDbDictionary
281
     1
  3
2dWireframe
350
11D
  3
3D Hidden
350
11F
  3
3dWireframe
350
11E
  3
Basic
350
11C
  3
Brighten
350
123
  3
ColorChange
350
127
  3
Conceptual
350
120
  3
Dim
350
122
  3
Facepattern
350
126
  3
Flat
350
118
  3
FlatWithEdges
350
119
  3
Gouraud
350
11A
  3
GouraudWithEdges
350
11B
  3
Linepattern
350
125
  3
Realistic
350
121
  3
Thicken
350
124
  0
WIPEOUTVARIABLES
  5
23
330
19
100
AcDbWipeoutVariables
 70
     1
  0
XRECORD
  5
1A0
102
{ACAD_REACTORS
330
19
102
}
330
19
100
AcDbXrecord
280
     1
 90
        1
330
12A
  0
DICTIONARY
  5
137
102
{ACAD_REACTORS
330
19
102
}
330
19
100
AcDbDictionary
281
     1
  3
CANNOSCALE
350
19D
  3
CMLEADERSTYLE
350
19C
  3
CTABLESTYLE
350
138
  0
DICTIONARY
  5
134
102
{ACAD_REACTORS
330
19
102
}
330
19
100
AcDbDictionary
281
     1
  3
ASEBlockHierarchyIndexRecord
350
136
1001
DCO15
1040
1645035066.74
  0
XRECORD
  5
166
102
{ACAD_REACTORS
330
165
102
}
330
165
100
AcDbXrecord
280
     1
290
     1
  0
XRECORD
  5
168
102
{ACAD_REACTORS
330
167
102
}
330
167
100
AcDbXrecord
280
     1
290
     1
  0
XRECORD
  5
16A
102
{ACAD_REACTORS
330
169
102
}
330
169
100
AcDbXrecord
280
     1
290
     1
  0
SORTENTSTABLE
  5
17B
102
{ACAD_REACTORS
330
17A
102
}
330
17A
100
AcDbSortentsTable
330
A
331
F3
  5
FA
331
D9
  5
E0
331
173
  5
9C
331
104
  5
10B
331
EA
  5
F1
331
C8
  5
CF
331
A6
  5
AD
331
84
  5
84
331
6C
  5
6C
331
4A
  5
4A
331
B7
  5
BE
331
5B
  5
5B
331
39
  5
39
331
28
  5
28
331
F1
  5
F8
331
102
  5
109
331
E8
  5
EF
331
C6
  5
CD
331
A4
  5
AB
331
82
  5
82
331
6A
  5
6A
331
48
  5
48
331
D7
  5
DE
331
B5
  5
BC
331
59
  5
59
331
37
  5
37
331
111
  5
179
331
100
  5
107
331
E6
  5
ED
331
C4
  5
CB
331
A2
  5
A9
331
80
  5
80
331
68
  5
68
331
46
  5
46
331
D5
  5
DC
331
B3
  5
BA
331
57
  5
57
331
35
  5
35
331
FE
  5
105
331
E4
  5
EB
331
C2
  5
C9
331
A0
  5
A7
331
7E
  5
7E
331
66
  5
66
331
44
  5
44
331
10F
  5
177
331
D3
  5
DA
331
B1
  5
B8
331
77
  5
77
331
55
  5
55
331
33
  5
33
331
FC
  5
103
331
E2
  5
E9
331
C0
  5
C7
331
9E
  5
A5
331
7C
  5
7C
331
64
  5
64
331
42
  5
42
331
10D
  5
175
331
D1
  5
D8
331
AF
  5
B6
331
75
  5
75
331
53
  5
53
331
31
  5
31
331
FA
  5
102
331
E0
  5
E7
331
BE
  5
C5
331
9C
  5
A3
331
7A
  5
7A
331
62
  5
62
331
40
  5
40
331
10B
  5
173
331
CF
  5
D6
331
AD
  5
B4
331
73
  5
73
331
51
  5
51
331
2F
  5
2F
331
F8
  5
100
331
DE
  5
E5
331
BC
  5
C3
331
78
  5
78
331
60
  5
60
331
178
  5
A1
331
109
  5
110
331
EF
  5
F6
331
CD
  5
D4
331
AB
  5
B2
331
71
  5
71
331
4F
  5
4F
331
3E
  5
3E
331
2D
  5
2D
331
F6
  5
FE
331
DC
  5
E3
331
BA
  5
C1
331
176
  5
9F
331
107
  5
10E
331
ED
  5
F4
331
CB
  5
D2
331
A9
  5
B0
331
6F
  5
6F
331
4D
  5
4D
331
5E
  5
5E
331
3C
  5
3C
331
2B
  5
2B
331
F4
  5
FC
331
DA
  5
E1
331
B8
  5
BF
331
174
  5
9D
331
105
  5
10C
331
EB
  5
F2
331
C9
  5
D0
331
A7
  5
AE
331
85
  5
85
331
6D
  5
6D
331
4B
  5
4B
331
5C
  5
5C
331
3A
  5
3A
331
29
  5
29
331
F2
  5
F9
331
D8
  5
DF
331
103
  5
10A
331
E9
  5
F0
331
C7
  5
CE
331
A5
  5
AC
331
83
  5
83
331
6B
  5
6B
331
49
  5
49
331
B6
  5
BD
331
5A
  5
5A
331
38
  5
38
331
F0
  5
F7
331
101
  5
108
331
E7
  5
EE
331
C5
  5
CC
331
A3
  5
AA
331
81
  5
81
331
69
  5
69
331
47
  5
47
331
D6
  5
DD
331
B4
  5
BB
331
58
  5
58
331
36
  5
36
331
110
  5
178
331
FF
  5
106
331
E5
  5
EC
331
C3
  5
CA
331
A1
  5
A8
331
7F
  5
7F
331
67
  5
67
331
45
  5
45
331
D4
  5
DB
331
B2
  5
B9
331
90
  5
90
331
56
  5
56
331
34
  5
34
331
FD
  5
104
331
E3
  5
EA
331
C1
  5
C8
331
9F
  5
A6
331
7D
  5
7D
331
65
  5
65
331
43
  5
43
331
10E
  5
176
331
D2
  5
D9
331
B0
  5
B7
331
76
  5
76
331
54
  5
54
331
32
  5
32
331
E1
  5
E8
331
BF
  5
C6
331
9D
  5
A4
331
7B
  5
7B
331
63
  5
63
331
41
  5
41
331
10C
  5
174
331
D0
  5
D7
331
AE
  5
B5
331
74
  5
74
331
52
  5
52
331
30
  5
30
331
F9
  5
101
331
DF
  5
E6
331
BD
  5
C4
331
79
  5
79
331
61
  5
61
331
179
  5
A2
331
10A
  5
111
331
CE
  5
D5
331
AC
  5
B3
331
72
  5
72
331
50
  5
50
331
3F
  5
3F
331
2E
  5
2E
331
F7
  5
FF
331
DD
  5
E4
331
BB
  5
C2
331
177
  5
A0
331
108
  5
10F
331
EE
  5
F5
331
CC
  5
D3
331
AA
  5
B1
331
70
  5
70
331
4E
  5
4E
331
5F
  5
5F
331
3D
  5
3D
331
2C
  5
2C
331
F5
  5
FD
331
DB
  5
E2
331
B9
  5
C0
331
175
  5
9E
331
106
  5
10D
331
EC
  5
F3
331
CA
  5
D1
331
A8
  5
AF
331
6E
  5
6E
331
4C
  5
4C
331
5D
  5
5D
331
3B
  5
3B
331
2A
  5
2A
  0
LAYOUT
  5
21
102
{ACAD_REACTORS
330
1E
102
}
330
1E
100
AcDbPlotSettings
  1

  2
Foxit PDF Printer
  4
Letter
  6

 40
3.174999952316284
 41
3.174999952316284
 42
3.17498779296875
 43
3.175003051757812
 44
279.3999938964844
 45
215.8999938964844
 46
31.47715384821894
 47
24.12875752349356
 48
0.0
 49
0.0
140
0.0
141
0.0
142
1.0
143
1.0
 70
     4
 72
     0
 73
     0
 74
     1
  7

 75
     0
147
1.0
 76
     0
 77
     2
 78
   300
148
-26.25461124795212
149
-20.16000981431432
100
AcDbLayout
  1
Layout1
 70
     0
 71
     1
 10
-0.3306119115190196
 20
-0.2812499079328949
 11
10.66938784818509
 21
8.218749851771214
 12
0.0
 22
0.0
 32
0.0
 14
-0.0909266185249429
 24
-0.0610198723760078
 34
-0.0015258207003583
 15
10.42970303390548
 25
7.99851969418907
 35
0.0000000349246037
146
0.0
 13
0.0
 23
0.0
 33
0.0
 16
1.0
 26
0.0
 36
0.0
 17
0.0
 27
1.0
 37
0.0
 76
     0
330
B
331
12F
1001
ACAD_PSEXT
1000
Foxit PDF Printer
1000
Foxit PDF Printer Driver
1000
FOXIT_PDF
1000

1070
     0
  0
LAYOUT
  5
20
102
{ACAD_REACTORS
330
1E
102
}
330
1E
100
AcDbPlotSettings
  1

  2

  4

  6

 40
0.0
 41
0.0
 42
0.0
 43
0.0
 44
0.0
 45
0.0
 46
0.0
 47
0.0
 48
0.0
 49
0.0
140
0.0
141
0.0
142
1.0
143
1.0
 70
  1024
 72
     0
 73
     0
 74
     0
  7

 75
     0
147
1.0
 76
     0
 77
     2
 78
   300
148
0.0
149
0.0
100
AcDbLayout
  1
Model
 70
     0
 71
     0
 10
0.0
 20
0.0
 11
0.0
 21
0.0
 12
0.0
 22
0.0
 32
0.0
 14
0.0
 24
0.0
 34
0.0
 15
0.0
 25
0.0
 35
0.0
146
0.0
 13
0.0
 23
0.0
 33
0.0
 16
0.0
 26
0.0
 36
0.0
 17
0.0
 27
0.0
 37
0.0
 76
     0
330
A
  0
MATERIAL
  5
115
102
{ACAD_XDICTIONARY
360
1A3
102
}
102
{ACAD_REACTORS
330
113
102
}
330
113
100
AcDbMaterial
  1
ByBlock
 73
     1
 78
     1
172
     1
176
     1
270
     1
274
     1
  0
MATERIAL
  5
114
102
{ACAD_XDICTIONARY
360
1A1
102
}
102
{ACAD_REACTORS
330
113
102
}
330
113
100
AcDbMaterial
  1
ByLayer
 73
     1
 78
     1
172
     1
176
     1
270
     1
274
     1
  0
MATERIAL
  5
116
102
{ACAD_XDICTIONARY
360
1A5
102
}
102
{ACAD_REACTORS
330
113
102
}
330
113
100
AcDbMaterial
  1
Global
 73
     1
 78
     1
172
     1
176
     1
270
     1
274
     1
  0
MLEADERSTYLE
  5
15D
102
{ACAD_REACTORS
330
15C
102
}
330
15C
100
AcDbMLeaderStyle
170
     2
171
     1
172
     0
 90
        2
 40
0.0
 41
0.0
173
     1
 91
-1056964608
340
11
 92
       -2
290
     1
 42
0.09
291
     1
 43
0.36
  3
Standard
 44
0.18
300

342
17
174
     1
178
     6
175
     1
176
     0
 93
-1056964608
 45
0.18
292
     0
297
     0
 46
0.18
 94
-1056964608
 47
1.0
 49
1.0
140
1.0
293
     1
141
0.0
294
     1
177
     0
142
1.0
295
     0
296
     0
143
0.125
1001
ACAD_MLEADERVER
1070
     2
  0
MLINESTYLE
  5
1C
102
{ACAD_REACTORS
330
1B
102
}
330
1B
100
AcDbMlineStyle
  2
STANDARD
 70
     0
  3

 62
     0
 51
90.0
 52
90.0
 71
     2
 49
0.5
 62
   256
  6
BYLAYER
 49
-0.5
 62
   256
  6
BYLAYER
  0
ACDBPLACEHOLDER
  5
1D
102
{ACAD_REACTORS
330
1F
102
}
330
1F
  0
SCALE
  5
13B
102
{ACAD_REACTORS
330
13A
102
}
330
13A
100
AcDbScale
 70
     0
300
1:1
140
1.0
141
1.0
290
     1
  0
SCALE
  5
13C
102
{ACAD_REACTORS
330
13A
102
}
330
13A
100
AcDbScale
 70
     0
300
1:2
140
1.0
141
2.0
290
     0
  0
SCALE
  5
13D
102
{ACAD_REACTORS
330
13A
102
}
330
13A
100
AcDbScale
 70
     0
300
1:4
140
1.0
141
4.0
290
     0
  0
SCALE
  5
13E
102
{ACAD_REACTORS
330
13A
102
}
330
13A
100
AcDbScale
 70
     0
300
1:5
140
1.0
141
5.0
290
     0
  0
SCALE
  5
13F
102
{ACAD_REACTORS
330
13A
102
}
330
13A
100
AcDbScale
 70
     0
300
1:8
140
1.0
141
8.0
290
     0
  0
SCALE
  5
140
102
{ACAD_REACTORS
330
13A
102
}
330
13A
100
AcDbScale
 70
     0
300
1:10
140
1.0
141
10.0
290
     0
  0
SCALE
  5
141
102
{ACAD_REACTORS
330
13A
102
}
330
13A
100
AcDbScale
 70
     0
300
1:16
140
1.0
141
16.0
290
     0
  0
SCALE
  5
142
102
{ACAD_REACTORS
330
13A
102
}
330
13A
100
AcDbScale
 70
     0
300
1:20
140
1.0
141
20.0
290
     0
  0
SCALE
  5
143
102
{ACAD_REACTORS
330
13A
102
}
330
13A
100
AcDbScale
 70
     0
300
1:30
140
1.0
141
30.0
290
     0
  0
SCALE
  5
144
102
{ACAD_REACTORS
330
13A
102
}
330
13A
100
AcDbScale
 70
     0
300
1:40
140
1.0
141
40.0
290
     0
  0
SCALE
  5
145
102
{ACAD_REACTORS
330
13A
102
}
330
13A
100
AcDbScale
 70
     0
300
1:50
140
1.0
141
50.0
290
     0
  0
SCALE
  5
146
102
{ACAD_REACTORS
330
13A
102
}
330
13A
100
AcDbScale
 70
     0
300
1:100
140
1.0
141
100.0
290
     0
  0
SCALE
  5
147
102
{ACAD_REACTORS
330
13A
102
}
330
13A
100
AcDbScale
 70
     0
300
2:1
140
2.0
141
1.0
290
     0
  0
SCALE
  5
148
102
{ACAD_REACTORS
330
13A
102
}
330
13A
100
AcDbScale
 70
     0
300
4:1
140
4.0
141
1.0
290
     0
  0
SCALE
  5
149
102
{ACAD_REACTORS
330
13A
102
}
330
13A
100
AcDbScale
 70
     0
300
8:1
140
8.0
141
1.0
290
     0
  0
SCALE
  5
14A
102
{ACAD_REACTORS
330
13A
102
}
330
13A
100
AcDbScale
 70
     0
300
10:1
140
10.0
141
1.0
290
     0
  0
SCALE
  5
14B
102
{ACAD_REACTORS
330
13A
102
}
330
13A
100
AcDbScale
 70
     0
300
100:1
140
100.0
141
1.0
290
     0
  0
SCALE
  5
14C
102
{ACAD_REACTORS
330
13A
102
}
330
13A
100
AcDbScale
 70
     0
300
1/128" = 1'-0"
140
0.0078125
141
12.0
290
     0
  0
SCALE
  5
14D
102
{ACAD_REACTORS
330
13A
102
}
330
13A
100
AcDbScale
 70
     0
300
1/64" = 1'-0"
140
0.015625
141
12.0
290
     0
  0
SCALE
  5
14E
102
{ACAD_REACTORS
330
13A
102
}
330
13A
100
AcDbScale
 70
     0
300
1/32" = 1'-0"
140
0.03125
141
12.0
290
     0
  0
SCALE
  5
14F
102
{ACAD_REACTORS
330
13A
102
}
330
13A
100
AcDbScale
 70
     0
300
1/16" = 1'-0"
140
0.0625
141
12.0
290
     0
  0
SCALE
  5
150
102
{ACAD_REACTORS
330
13A
102
}
330
13A
100
AcDbScale
 70
     0
300
3/32" = 1'-0"
140
0.09375
141
12.0
290
     0
  0
SCALE
  5
151
102
{ACAD_REACTORS
330
13A
102
}
330
13A
100
AcDbScale
 70
     0
300
1/8" = 1'-0"
140
0.125
141
12.0
290
     0
  0
SCALE
  5
152
102
{ACAD_REACTORS
330
13A
102
}
330
13A
100
AcDbScale
 70
     0
300
3/16" = 1'-0"
140
0.1875
141
12.0
290
     0
  0
SCALE
  5
153
102
{ACAD_REACTORS
330
13A
102
}
330
13A
100
AcDbScale
 70
     0
300
1/4" = 1'-0"
140
0.25
141
12.0
290
     0
  0
SCALE
  5
154
102
{ACAD_REACTORS
330
13A
102
}
330
13A
100
AcDbScale
 70
     0
300
3/8" = 1'-0"
140
0.375
141
12.0
290
     0
  0
SCALE
  5
155
102
{ACAD_REACTORS
330
13A
102
}
330
13A
100
AcDbScale
 70
     0
300
1/2" = 1'-0"
140
0.5
141
12.0
290
     0
  0
SCALE
  5
156
102
{ACAD_REACTORS
330
13A
102
}
330
13A
100
AcDbScale
 70
     0
300
3/4" = 1'-0"
140
0.75
141
12.0
290
     0
  0
SCALE
  5
157
102
{ACAD_REACTORS
330
13A
102
}
330
13A
100
AcDbScale
 70
     0
300
1" = 1'-0"
140
1.0
141
12.0
290
     0
  0
SCALE
  5
158
102
{ACAD_REACTORS
330
13A
102
}
330
13A
100
AcDbScale
 70
     0
300
1-1/2" = 1'-0"
140
1.5
141
12.0
290
     0
  0
SCALE
  5
159
102
{ACAD_REACTORS
330
13A
102
}
330
13A
100
AcDbScale
 70
     0
300
3" = 1'-0"
140
3.0
141
12.0
290
     0
  0
SCALE
  5
15A
102
{ACAD_REACTORS
330
13A
102
}
330
13A
100
AcDbScale
 70
     0
300
6" = 1'-0"
140
6.0
141
12.0
290
     0
  0
SCALE
  5
15B
102
{ACAD_REACTORS
330
13A
102
}
330
13A
100
AcDbScale
 70
     0
300
1'-0" = 1'-0"
140
12.0
141
12.0
290
     0
  0
TABLESTYLE
  5
12A
102
{ACAD_XDICTIONARY
360
19E
102
}
102
{ACAD_REACTORS
330
129
102
}
330
129
100
AcDbTableStyle
  3
Standard
 70
     0
 71
     0
 40
0.06
 41
0.06
280
     0
281
     0
  7
Standard
140
0.18
170
     2
 62
     0
 63
     7
283
     0
274
    -2
284
     1
 64
     0
275
    -2
285
     1
 65
     0
276
    -2
286
     1
 66
     0
277
    -2
287
     1
 67
     0
278
    -2
288
     1
 68
     0
279
    -2
289
     1
 69
     0
  7
Standard
140
0.25
170
     5
 62
     0
 63
     7
283
     0
274
    -2
284
     1
 64
     0
275
    -2
285
     1
 65
     0
276
    -2
286
     1
 66
     0
277
    -2
287
     1
 67
     0
278
    -2
288
     1
 68
     0
279
    -2
289
     1
 69
     0
  7
Standard
140
0.18
170
     5
 62
     0
 63
     7
283
     0
274
    -2
284
     1
 64
     0
275
    -2
285
     1
 65
     0
276
    -2
286
     1
 66
     0
277
    -2
287
     1
 67
     0
278
    -2
288
     1
 68
     0
279
    -2
289
     1
 69
     0
  0
VISUALSTYLE
  5
11D
102
{ACAD_REACTORS
330
117
102
}
330
117
100
AcDbVisualStyle
  2
2dWireframe
 70
     4
 71
     0
 72
     2
 73
     0
 90
        0
 40
-0.6
 41
-30.0
 62
     5
 63
     7
421
 16777215
 74
     1
 91
        4
 64
     7
 65
   257
 75
     1
175
     1
 42
1.0
 92
        0
 66
   257
 43
1.0
 76
     1
 77
     6
 78
     2
 67
     7
 79
     5
170
     0
171
     0
290
     0
174
     0
 93
        1
 44
0.0
173
     0
291
     0
 45
0.0
1001
ACAD
1000
AcDbSavedByObjectVersion
1070
     0
  0
VISUALSTYLE
  5
11F
102
{ACAD_REACTORS
330
117
102
}
330
117
100
AcDbVisualStyle
  2
3D Hidden
 70
     6
 71
     1
 72
     2
 73
     2
 90
        0
 40
-0.6
 41
-30.0
 62
     5
 63
     7
421
 16777215
 74
     2
 91
        2
 64
     7
 65
   257
 75
     2
175
     1
 42
40.0
 92
        0
 66
   257
 43
1.0
 76
     1
 77
     6
 78
     2
 67
     7
 79
     3
170
     0
171
     0
290
     0
174
     0
 93
        1
 44
0.0
173
     0
291
     0
 45
0.0
1001
ACAD
1000
AcDbSavedByObjectVersion
1070
     0
  0
VISUALSTYLE
  5
11E
102
{ACAD_REACTORS
330
117
102
}
330
117
100
AcDbVisualStyle
  2
3dWireframe
 70
     5
 71
     0
 72
     2
 73
     0
 90
        0
 40
-0.6
 41
-30.0
 62
     5
 63
     7
421
 16777215
 74
     1
 91
        4
 64
     7
 65
   257
 75
     1
175
     1
 42
1.0
 92
        0
 66
   257
 43
1.0
 76
     1
 77
     6
 78
     2
 67
     7
 79
     5
170
     0
171
     0
290
     0
174
     0
 93
        1
 44
0.0
173
     0
291
     0
 45
0.0
1001
ACAD
1000
AcDbSavedByObjectVersion
1070
     0
  0
VISUALSTYLE
  5
11C
102
{ACAD_REACTORS
330
117
102
}
330
117
100
AcDbVisualStyle
  2
Basic
 70
     7
 71
     1
 72
     0
 73
     1
 90
        0
 40
-0.6
 41
-30.0
 62
     5
 63
     7
421
 16777215
 74
     0
 91
        4
 64
     7
 65
   257
 75
     1
175
     1
 42
1.0
 92
        8
 66
     7
 43
1.0
 76
     1
 77
     6
 78
     2
 67
     7
 79
     5
170
     0
171
     0
290
     0
174
     0
 93
        1
 44
0.0
173
     0
291
     1
 45
0.0
1001
ACAD
1000
AcDbSavedByObjectVersion
1070
     0
  0
VISUALSTYLE
  5
123
102
{ACAD_REACTORS
330
117
102
}
330
117
100
AcDbVisualStyle
  2
Brighten
 70
    12
 71
     2
 72
     2
 73
     0
 90
        0
 40
-0.6
 41
-30.0
 62
     5
 63
     7
421
 16777215
 74
     1
 91
        4
 64
     7
 65
   257
 75
     1
175
     1
 42
1.0
 92
        8
 66
     7
 43
1.0
 76
     1
 77
     6
 78
     2
 67
     7
 79
     5
170
     0
171
     0
290
     0
174
     0
 93
        1
 44
50.0
173
     0
291
     1
 45
0.0
1001
ACAD
1000
AcDbSavedByObjectVersion
1070
     0
  0
VISUALSTYLE
  5
127
102
{ACAD_REACTORS
330
117
102
}
330
117
100
AcDbVisualStyle
  2
ColorChange
 70
    16
 71
     2
 72
     2
 73
     3
 90
        0
 40
-0.6
 41
-30.0
 62
     5
 63
     8
421
  8421504
 74
     1
 91
        4
 64
     7
 65
   257
 75
     1
175
     1
 42
1.0
 92
        8
 66
     8
424
  8421504
 43
1.0
 76
     1
 77
     6
 78
     2
 67
     7
 79
     5
170
     0
171
     0
290
     0
174
     0
 93
        1
 44
0.0
173
     0
291
     1
 45
0.0
1001
ACAD
1000
AcDbSavedByObjectVersion
1070
     0
  0
VISUALSTYLE
  5
120
102
{ACAD_REACTORS
330
117
102
}
330
117
100
AcDbVisualStyle
  2
Conceptual
 70
     9
 71
     3
 72
     2
 73
     0
 90
        0
 40
-0.6
 41
-30.0
 62
     5
 63
     7
421
 16777215
 74
     2
 91
        2
 64
     7
 65
   257
 75
     1
175
     1
 42
40.0
 92
        8
 66
     7
 43
1.0
 76
     1
 77
     6
 78
     2
 67
     7
 79
     3
170
     0
171
     0
290
     0
174
     0
 93
        1
 44
0.0
173
     0
291
     0
 45
0.0
1001
ACAD
1000
AcDbSavedByObjectVersion
1070
     0
  0
VISUALSTYLE
  5
122
102
{ACAD_REACTORS
330
117
102
}
330
117
100
AcDbVisualStyle
  2
Dim
 70
    11
 71
     2
 72
     2
 73
     0
 90
        0
 40
-0.6
 41
-30.0
 62
     5
 63
     7
421
 16777215
 74
     1
 91
        4
 64
     7
 65
   257
 75
     1
175
     1
 42
1.0
 92
        8
 66
     7
 43
1.0
 76
     1
 77
     6
 78
     2
 67
     7
 79
     5
170
     0
171
     0
290
     0
174
     0
 93
        1
 44
-50.0
173
     0
291
     1
 45
0.0
1001
ACAD
1000
AcDbSavedByObjectVersion
1070
     0
  0
VISUALSTYLE
  5
126
102
{ACAD_REACTORS
330
117
102
}
330
117
100
AcDbVisualStyle
  2
Facepattern
 70
    15
 71
     2
 72
     2
 73
     0
 90
        0
 40
-0.6
 41
-30.0
 62
     5
 63
     7
421
 16777215
 74
     1
 91
        4
 64
     7
 65
   257
 75
     1
175
     1
 42
1.0
 92
        8
 66
     7
 43
1.0
 76
     1
 77
     6
 78
     2
 67
     7
 79
     5
170
     0
171
     0
290
     0
174
     0
 93
        1
 44
0.0
173
     0
291
     1
 45
0.0
1001
ACAD
1000
AcDbSavedByObjectVersion
1070
     0
  0
VISUALSTYLE
  5
118
102
{ACAD_REACTORS
330
117
102
}
330
117
100
AcDbVisualStyle
  2
Flat
 70
     0
 71
     2
 72
     1
 73
     1
 90
        2
 40
-0.6
 41
30.0
 62
     5
 63
     7
421
 16777215
 74
     0
 91
        4
 64
     7
 65
   257
 75
     1
175
     1
 42
1.0
 92
        8
 66
     7
 43
1.0
 76
     1
 77
     6
 78
     2
 67
     7
 79
     5
170
     0
171
     0
290
     0
174
     0
 93
       13
 44
0.0
173
     0
291
     1
 45
0.0
1001
ACAD
1000
AcDbSavedByObjectVersion
1070
     0
  0
VISUALSTYLE
  5
119
102
{ACAD_REACTORS
330
117
102
}
330
117
100
AcDbVisualStyle
  2
FlatWithEdges
 70
     1
 71
     2
 72
     1
 73
     1
 90
        2
 40
-0.6
 41
30.0
 62
     5
 63
     7
421
 16777215
 74
     1
 91
        4
 64
     7
 65
   257
 75
     1
175
     1
 42
1.0
 92
        0
 66
   257
 43
1.0
 76
     1
 77
     6
 78
     2
 67
     7
 79
     5
170
     0
171
     0
290
     0
174
     0
 93
       13
 44
0.0
173
     0
291
     1
 45
0.0
1001
ACAD
1000
AcDbSavedByObjectVersion
1070
     0
  0
VISUALSTYLE
  5
11A
102
{ACAD_REACTORS
330
117
102
}
330
117
100
AcDbVisualStyle
  2
Gouraud
 70
     2
 71
     2
 72
     2
 73
     1
 90
        2
 40
-0.6
 41
30.0
 62
     5
 63
     7
421
 16777215
 74
     0
 91
        4
 64
     7
 65
   257
 75
     1
175
     1
 42
1.0
 92
        0
 66
     7
 43
1.0
 76
     1
 77
     6
 78
     2
 67
     7
 79
     5
170
     0
171
     0
290
     0
174
     0
 93
       13
 44
0.0
173
     0
291
     1
 45
0.0
1001
ACAD
1000
AcDbSavedByObjectVersion
1070
     0
  0
VISUALSTYLE
  5
11B
102
{ACAD_REACTORS
330
117
102
}
330
117
100
AcDbVisualStyle
  2
GouraudWithEdges
 70
     3
 71
     2
 72
     2
 73
     1
 90
        2
 40
-0.6
 41
30.0
 62
     5
 63
     7
421
 16777215
 74
     1
 91
        4
 64
     7
 65
   257
 75
     1
175
     1
 42
1.0
 92
        0
 66
   257
 43
1.0
 76
     1
 77
     6
 78
     2
 67
     7
 79
     5
170
     0
171
     0
290
     0
174
     0
 93
       13
 44
0.0
173
     0
291
     1
 45
0.0
1001
ACAD
1000
AcDbSavedByObjectVersion
1070
     0
  0
VISUALSTYLE
  5
125
102
{ACAD_REACTORS
330
117
102
}
330
117
100
AcDbVisualStyle
  2
Linepattern
 70
    14
 71
     2
 72
     2
 73
     0
 90
        0
 40
-0.6
 41
-30.0
 62
     5
 63
     7
421
 16777215
 74
     1
 91
        4
 64
     7
 65
   257
 75
     7
175
     7
 42
1.0
 92
        8
 66
     7
 43
1.0
 76
     1
 77
     6
 78
     2
 67
     7
 79
     5
170
     0
171
     0
290
     0
174
     0
 93
        1
 44
0.0
173
     0
291
     1
 45
0.0
1001
ACAD
1000
AcDbSavedByObjectVersion
1070
     0
  0
VISUALSTYLE
  5
121
102
{ACAD_REACTORS
330
117
102
}
330
117
100
AcDbVisualStyle
  2
Realistic
 70
     8
 71
     2
 72
     2
 73
     0
 90
        0
 40
-0.6
 41
-30.0
 62
     5
 63
     7
421
 16777215
 74
     1
 91
        0
 64
     7
 65
   257
 75
     1
175
     1
 42
1.0
 92
        8
 66
     8
424
  7895160
 43
1.0
 76
     1
 77
     6
 78
     2
 67
     7
 79
     5
170
     0
171
     0
290
     0
174
     0
 93
       13
 44
0.0
173
     0
291
     0
 45
0.0
1001
ACAD
1000
AcDbSavedByObjectVersion
1070
     0
  0
VISUALSTYLE
  5
124
102
{ACAD_REACTORS
330
117
102
}
330
117
100
AcDbVisualStyle
  2
Thicken
 70
    13
 71
     2
 72
     2
 73
     0
 90
        0
 40
-0.6
 41
-30.0
 62
     5
 63
     7
421
 16777215
 74
     1
 91
        4
 64
     7
 65
   257
 75
     1
175
     1
 42
1.0
 92
       12
 66
     7
 43
1.0
 76
     1
 77
     6
 78
     2
 67
     7
 79
     5
170
     0
171
     0
290
     0
174
     0
 93
        1
 44
0.0
173
     0
291
     1
 45
0.0
1001
ACAD
1000
AcDbSavedByObjectVersion
1070
     0
  0
DICTIONARYVAR
  5
19D
102
{ACAD_REACTORS
330
137
102
}
330
137
100
DictionaryVariables
280
     0
  1
1:1
  0
DICTIONARYVAR
  5
19C
102
{ACAD_REACTORS
330
137
102
}
330
137
100
DictionaryVariables
280
     0
  1
STANDARD
  0
DICTIONARYVAR
  5
138
102
{ACAD_REACTORS
330
137
102
}
330
137
100
DictionaryVariables
280
     0
  1
STANDARD
  0
XRECORD
  5
136
102
{ACAD_REACTORS
330
134
102
}
330
134
100
AcDbXrecord
280
     1
  0
DICTIONARY
  5
1A3
330
115
100
AcDbDictionary
280
     1
281
     1
  3
ACAD_XREC_ROUNDTRIP
360
1A4
  0
DICTIONARY
  5
1A1
330
114
100
AcDbDictionary
280
     1
281
     1
  3
ACAD_XREC_ROUNDTRIP
360
1A2
  0
DICTIONARY
  5
1A5
330
116
100
AcDbDictionary
280
     1
281
     1
  3
ACAD_XREC_ROUNDTRIP
360
1A6
  0
DICTIONARY
  5
19E
330
12A
100
AcDbDictionary
280
     1
281
     1
  3
ACAD_ROUNDTRIP_2008_TABLESTYLE_CELLSTYLEMAP
360
19F
  3
ACAD_XREC_ROUNDTRIP
360
1A7
  0
XRECORD
  5
1A4
102
{ACAD_REACTORS
330
1A3
102
}
330
1A3
100
AcDbXrecord
280
     1
102
MATERIAL
148
0.0
149
0.0
149
0.0
 93
        0
 94
       63
282
     0
 72
     1
 77
     1
171
     1
175
     1
179
     1
273
     0
  0
XRECORD
  5
1A2
102
{ACAD_REACTORS
330
1A1
102
}
330
1A1
100
AcDbXrecord
280
     1
102
MATERIAL
148
0.0
149
0.0
149
0.0
 93
        0
 94
       63
282
     0
 72
     1
 77
     1
171
     1
175
     1
179
     1
273
     0
  0
XRECORD
  5
1A6
102
{ACAD_REACTORS
330
1A5
102
}
330
1A5
100
AcDbXrecord
280
     1
102
MATERIAL
148
0.0
149
0.0
149
0.0
 93
        0
 94
       63
282
     0
 72
     1
 77
     1
171
     1
175
     1
179
     1
273
     0
  0
CELLSTYLEMAP
  5
19F
102
{ACAD_REACTORS
330
19E
102
}
330
19E
100
AcDbCellStyleMap
 90
        3
300
CELLSTYLE
  1
TABLEFORMAT_BEGIN
 90
        5
170
     1
 91
        0
 92
    32768
 62
   257
 93
        1
300
CONTENTFORMAT
  1
CONTENTFORMAT_BEGIN
 90
        0
 91
        0
 92
      512
 93
        0
300

 40
0.0
140
1.0
 94
        5
 62
     0
340
17
144
0.25
309
CONTENTFORMAT_END
171
     0
 94
        6
 95
        1
302
GRIDFORMAT
  1
GRIDFORMAT_BEGIN
 90
        0
 91
        1
 62
     0
 92
       -2
340
0
 93
        0
 40
0.045
309
GRIDFORMAT_END
 95
        2
302
GRIDFORMAT
  1
GRIDFORMAT_BEGIN
 90
        0
 91
        1
 62
     0
 92
       -2
340
0
 93
        0
 40
0.045
309
GRIDFORMAT_END
 95
        4
302
GRIDFORMAT
  1
GRIDFORMAT_BEGIN
 90
        0
 91
        1
 62
     0
 92
       -2
340
0
 93
        0
 40
0.045
309
GRIDFORMAT_END
 95
        8
302
GRIDFORMAT
  1
GRIDFORMAT_BEGIN
 90
        0
 91
        1
 62
     0
 92
       -2
340
0
 93
        0
 40
0.045
309
GRIDFORMAT_END
 95
       16
302
GRIDFORMAT
  1
GRIDFORMAT_BEGIN
 90
        0
 91
        1
 62
     0
 92
       -2
340
0
 93
        0
 40
0.045
309
GRIDFORMAT_END
 95
       32
302
GRIDFORMAT
  1
GRIDFORMAT_BEGIN
 90
        0
 91
        1
 62
     0
 92
       -2
340
0
 93
        0
 40
0.045
309
GRIDFORMAT_END
309
TABLEFORMAT_END
  1
CELLSTYLE_BEGIN
 90
        1
 91
        1
300
_TITLE
309
CELLSTYLE_END
300
CELLSTYLE
  1
TABLEFORMAT_BEGIN
 90
        5
170
     1
 91
        0
 92
        0
 62
   257
 93
        1
300
CONTENTFORMAT
  1
CONTENTFORMAT_BEGIN
 90
        0
 91
        0
 92
      512
 93
        0
300

 40
0.0
140
1.0
 94
        5
 62
     0
340
17
144
0.18
309
CONTENTFORMAT_END
171
     0
 94
        6
 95
        1
302
GRIDFORMAT
  1
GRIDFORMAT_BEGIN
 90
        0
 91
        1
 62
     0
 92
       -2
340
0
 93
        0
 40
0.045
309
GRIDFORMAT_END
 95
        2
302
GRIDFORMAT
  1
GRIDFORMAT_BEGIN
 90
        0
 91
        1
 62
     0
 92
       -2
340
0
 93
        0
 40
0.045
309
GRIDFORMAT_END
 95
        4
302
GRIDFORMAT
  1
GRIDFORMAT_BEGIN
 90
        0
 91
        1
 62
     0
 92
       -2
340
0
 93
        0
 40
0.045
309
GRIDFORMAT_END
 95
        8
302
GRIDFORMAT
  1
GRIDFORMAT_BEGIN
 90
        0
 91
        1
 62
     0
 92
       -2
340
0
 93
        0
 40
0.045
309
GRIDFORMAT_END
 95
       16
302
GRIDFORMAT
  1
GRIDFORMAT_BEGIN
 90
        0
 91
        1
 62
     0
 92
       -2
340
0
 93
        0
 40
0.045
309
GRIDFORMAT_END
 95
       32
302
GRIDFORMAT
  1
GRIDFORMAT_BEGIN
 90
        0
 91
        1
 62
     0
 92
       -2
340
0
 93
        0
 40
0.045
309
GRIDFORMAT_END
309
TABLEFORMAT_END
  1
CELLSTYLE_BEGIN
 90
        2
 91
        1
300
_HEADER
309
CELLSTYLE_END
300
CELLSTYLE
  1
TABLEFORMAT_BEGIN
 90
        5
170
     1
 91
        0
 92
        0
 62
   257
 93
        1
300
CONTENTFORMAT
  1
CONTENTFORMAT_BEGIN
 90
        0
 91
        0
 92
      512
 93
        0
300

 40
0.0
140
1.0
 94
        2
 62
     0
340
17
144
0.18
309
CONTENTFORMAT_END
171
     0
 94
        6
 95
        1
302
GRIDFORMAT
  1
GRIDFORMAT_BEGIN
 90
        0
 91
        1
 62
     0
 92
       -2
340
0
 93
        0
 40
0.045
309
GRIDFORMAT_END
 95
        2
302
GRIDFORMAT
  1
GRIDFORMAT_BEGIN
 90
        0
 91
        1
 62
     0
 92
       -2
340
0
 93
        0
 40
0.045
309
GRIDFORMAT_END
 95
        4
302
GRIDFORMAT
  1
GRIDFORMAT_BEGIN
 90
        0
 91
        1
 62
     0
 92
       -2
340
0
 93
        0
 40
0.045
309
GRIDFORMAT_END
 95
        8
302
GRIDFORMAT
  1
GRIDFORMAT_BEGIN
 90
        0
 91
        1
 62
     0
 92
       -2
340
0
 93
        0
 40
0.045
309
GRIDFORMAT_END
 95
       16
302
GRIDFORMAT
  1
GRIDFORMAT_BEGIN
 90
        0
 91
        1
 62
     0
 92
       -2
340
0
 93
        0
 40
0.045
309
GRIDFORMAT_END
 95
       32
302
GRIDFORMAT
  1
GRIDFORMAT_BEGIN
 90
        0
 91
        1
 62
     0
 92
       -2
340
0
 93
        0
 40
0.045
309
GRIDFORMAT_END
309
TABLEFORMAT_END
  1
CELLSTYLE_BEGIN
 90
        3
 91
        2
300
_DATA
309
CELLSTYLE_END
  0
XRECORD
  5
1A7
102
{ACAD_REACTORS
330
19E
102
}
330
19E
100
AcDbXrecord
280
     1
102
ACAD_ROUNDTRIP_PRE2007_TABLESTYLE
 90
      512
 91
        0
  1

 92
      512
 93
        0
  2

 94
      512
 95
        0
  3

  0
ENDSEC
  0
EOF
