  0
SECTION
  2
HEADER
  9
$ACADVER
  1
AC1018
  9
$ACADMAINTVER
 70
   104
  9
$DWGCODEPAGE
  3
ANSI_1252
  9
$LASTSAVEDBY
  1
EARL
  9
$INSBASE
 10
0.0
 20
0.0
 30
0.0
  9
$EXTMIN
 10
-2.502426046936141
 20
-0.0329314760441192
 30
0.0
  9
$EXTMAX
 10
1.193338751792907
 20
3.705378382113821
 30
0.0
  9
$LIMMIN
 10
0.0
 20
0.0
  9
$LIMMAX
 10
0.0
 20
0.0
  9
$ORTHOMODE
 70
     0
  9
$REGENMODE
 70
     1
  9
$FILLMODE
 70
     1
  9
$QTEXTMODE
 70
     0
  9
$MIRRTEXT
 70
     1
  9
$LTSCALE
 40
1.0
  9
$ATTMODE
 70
     1
  9
$TEXTSIZE
 40
0.0
  9
$TRACEWID
 40
0.05
  9
$TEXTSTYLE
  7
Standard
  9
$CLAYER
  8
0
  9
$CELTYPE
  6
Continuous
  9
$CECOLOR
 62
   256
  9
$CELTSCALE
 40
1.0
  9
$DISPSILH
 70
     0
  9
$DIMSCALE
 40
1.0
  9
$DIMASZ
 40
0.18
  9
$DIMEXO
 40
0.0625
  9
$DIMDLI
 40
0.38
  9
$DIMRND
 40
0.0
  9
$DIMDLE
 40
0.0
  9
$DIMEXE
 40
0.18
  9
$DIMTP
 40
0.0
  9
$DIMTM
 40
0.0
  9
$DIMTXT
 40
0.18
  9
$DIMCEN
 40
0.09
  9
$DIMTSZ
 40
0.0
  9
$DIMTOL
 70
     0
  9
$DIMLIM
 70
     0
  9
$DIMTIH
 70
     1
  9
$DIMTOH
 70
     1
  9
$DIMSE1
 70
     0
  9
$DIMSE2
 70
     0
  9
$DIMTAD
 70
     0
  9
$DIMZIN
 70
     0
  9
$DIMBLK
  1

  9
$DIMASO
 70
     1
  9
$DIMSHO
 70
     1
  9
$DIMPOST
  1

  9
$DIMAPOST
  1

  9
$DIMALT
 70
     0
  9
$DIMALTD
 70
     2
  9
$DIMALTF
 40
25.4
  9
$DIMLFAC
 40
1.0
  9
$DIMTOFL
 70
     0
  9
$DIMTVP
 40
0.0
  9
$DIMTIX
 70
     0
  9
$DIMSOXD
 70
     0
  9
$DIMSAH
 70
     0
  9
$DIMBLK1
  1

  9
$DIMBLK2
  1

  9
$DIMSTYLE
  2
Standard
  9
$DIMCLRD
 70
     0
  9
$DIMCLRE
 70
     0
  9
$DIMCLRT
 70
     0
  9
$DIMTFAC
 40
1.0
  9
$DIMGAP
 40
0.09
  9
$DIMJUST
 70
     0
  9
$DIMSD1
 70
     0
  9
$DIMSD2
 70
     0
  9
$DIMTOLJ
 70
     1
  9
$DIMTZIN
 70
     0
  9
$DIMALTZ
 70
     0
  9
$DIMALTTZ
 70
     0
  9
$DIMUPT
 70
     0
  9
$DIMDEC
 70
     4
  9
$DIMTDEC
 70
     4
  9
$DIMALTU
 70
     2
  9
$DIMALTTD
 70
     2
  9
$DIMTXSTY
  7
Standard
  9
$DIMAUNIT
 70
     0
  9
$DIMADEC
 70
     0
  9
$DIMALTRND
 40
0.0
  9
$DIMAZIN
 70
     0
  9
$DIMDSEP
 70
    46
  9
$DIMATFIT
 70
     0
  9
$DIMFRAC
 70
     0
  9
$DIMLDRBLK
  1

  9
$DIMLUNIT
 70
     2
  9
$DIMLWD
 70
    -2
  9
$DIMLWE
 70
    -2
  9
$DIMTMOVE
 70
     0
  9
$LUNITS
 70
     2
  9
$LUPREC
 70
     4
  9
$SKETCHINC
 40
0.1
  9
$FILLETRAD
 40
0.0
  9
$AUNITS
 70
     0
  9
$AUPREC
 70
     0
  9
$MENU
  1
acad
  9
$ELEVATION
 40
0.0
  9
$PELEVATION
 40
0.0
  9
$THICKNESS
 40
0.0
  9
$LIMCHECK
 70
     0
  9
$CHAMFERA
 40
0.0
  9
$CHAMFERB
 40
0.0
  9
$CHAMFERC
 40
0.0
  9
$CHAMFERD
 40
0.0
  9
$SKPOLY
 70
     0
  9
$TDCREATE
 40
2454842.750474537
  9
$TDUCREATE
 40
2454842.917141204
  9
$TDUPDATE
 40
2455099.682914132
  9
$TDUUPDATE
 40
2455099.849580799
  9
$TDINDWG
 40
0.0010666667
  9
$TDUSRTIMER
 40
0.0010666667
  9
$USRTIMER
 70
     1
  9
$ANGBASE
 50
0.0
  9
$ANGDIR
 70
     0
  9
$PDMODE
 70
     0
  9
$PDSIZE
 40
0.0
  9
$PLINEWID
 40
0.0
  9
$SPLFRAME
 70
     0
  9
$SPLINETYPE
 70
     6
  9
$SPLINESEGS
 70
     8
  9
$HANDSEED
  5
18A
  9
$SURFTAB1
 70
     6
  9
$SURFTAB2
 70
     6
  9
$SURFTYPE
 70
     6
  9
$SURFU
 70
     6
  9
$SURFV
 70
     6
  9
$UCSBASE
  2

  9
$UCSNAME
  2

  9
$UCSORG
 10
0.0
 20
0.0
 30
0.0
  9
$UCSXDIR
 10
1.0
 20
0.0
 30
0.0
  9
$UCSYDIR
 10
0.0
 20
1.0
 30
0.0
  9
$UCSORTHOREF
  2

  9
$UCSORTHOVIEW
 70
     0
  9
$UCSORGTOP
 10
0.0
 20
0.0
 30
0.0
  9
$UCSORGBOTTOM
 10
0.0
 20
0.0
 30
0.0
  9
$UCSORGLEFT
 10
0.0
 20
0.0
 30
0.0
  9
$UCSORGRIGHT
 10
0.0
 20
0.0
 30
0.0
  9
$UCSORGFRONT
 10
0.0
 20
0.0
 30
0.0
  9
$UCSORGBACK
 10
0.0
 20
0.0
 30
0.0
  9
$PUCSBASE
  2

  9
$PUCSNAME
  2

  9
$PUCSORG
 10
0.0
 20
0.0
 30
0.0
  9
$PUCSXDIR
 10
1.0
 20
0.0
 30
0.0
  9
$PUCSYDIR
 10
0.0
 20
1.0
 30
0.0
  9
$PUCSORTHOREF
  2

  9
$PUCSORTHOVIEW
 70
     0
  9
$PUCSORGTOP
 10
0.0
 20
0.0
 30
0.0
  9
$PUCSORGBOTTOM
 10
0.0
 20
0.0
 30
0.0
  9
$PUCSORGLEFT
 10
0.0
 20
0.0
 30
0.0
  9
$PUCSORGRIGHT
 10
0.0
 20
0.0
 30
0.0
  9
$PUCSORGFRONT
 10
0.0
 20
0.0
 30
0.0
  9
$PUCSORGBACK
 10
0.0
 20
0.0
 30
0.0
  9
$USERI1
 70
     0
  9
$USERI2
 70
     0
  9
$USERI3
 70
     0
  9
$USERI4
 70
     0
  9
$USERI5
 70
     0
  9
$USERR1
 40
0.0
  9
$USERR2
 40
0.0
  9
$USERR3
 40
0.0
  9
$USERR4
 40
0.0
  9
$USERR5
 40
0.0
  9
$WORLDVIEW
 70
     1
  9
$SHADEDGE
 70
     3
  9
$SHADEDIF
 70
    70
  9
$TILEMODE
 70
     0
  9
$MAXACTVP
 70
    16
  9
$PINSBASE
 10
0.0
 20
0.0
 30
0.0
  9
$PLIMCHECK
 70
     0
  9
$PEXTMIN
 10
-0.0909266185249429
 20
-0.0610198723760078
 30
-0.0015258207003583
  9
$PEXTMAX
 10
10.34074429551085
 20
7.962852275722276
 30
0.0000000349246037
  9
$PLIMMIN
 10
-0.3306119115190196
 20
-0.2812499079328949
  9
$PLIMMAX
 10
10.66938784818509
 20
8.218749851771214
  9
$UNITMODE
 70
     0
  9
$VISRETAIN
 70
     0
  9
$PLINEGEN
 70
     1
  9
$PSLTSCALE
 70
     0
  9
$TREEDEPTH
 70
  3020
  9
$CMLSTYLE
  2
Standard
  9
$CMLJUST
 70
     0
  9
$CMLSCALE
 40
1.0
  9
$PROXYGRAPHICS
 70
     0
  9
$MEASUREMENT
 70
     0
  9
$CELWEIGHT
370
     0
  9
$ENDCAPS
280
     0
  9
$JOINSTYLE
280
     0
  9
$LWDISPLAY
290
     0
  9
$INSUNITS
 70
     0
  9
$HYPERLINKBASE
  1

  9
$STYLESHEET
  1

  9
$XEDIT
290
     1
  9
$CEPSNTYPE
380
     0
  9
$PSTYLEMODE
290
     1
  9
$FINGERPRINTGUID
  2

  9
$VERSIONGUID
  2
{C0841FA3-D66F-440D-99BC-8C3C0354C80C}
  9
$EXTNAMES
290
     1
  9
$PSVPSCALE
 40
0.0
  9
$OLESTARTUP
290
     0
  9
$SORTENTS
280
   127
  9
$INDEXCTL
280
     0
  9
$HIDETEXT
280
     0
  9
$XCLIPFRAME
290
     0
  9
$HALOGAP
280
     0
  9
$OBSCOLOR
 70
   257
  9
$OBSLTYPE
280
     0
  9
$INTERSECTIONDISPLAY
280
     0
  9
$INTERSECTIONCOLOR
 70
   257
  9
$DIMASSOC
280
     1
  9
$PROJECTNAME
  1

  0
ENDSEC
  0
SECTION
  2
CLASSES
  0
CLASS
  1
IMAGE
  2
AcDbRasterImage
  3
ISM
 90
     2175
 91
        0
280
     0
281
     1
  0
CLASS
  1
DICTIONARYVAR
  2
AcDbDictionaryVar
  3
ObjectDBX Classes
 90
        0
 91
        5
280
     0
281
     0
  0
CLASS
  1
RASTERVARIABLES
  2
AcDbRasterVariables
  3
ISM
 90
        0
 91
        0
280
     0
281
     0
  0
CLASS
  1
IMAGEDEF
  2
AcDbRasterImageDef
  3
ISM
 90
        0
 91
        0
280
     0
281
     0
  0
CLASS
  1
IMAGEDEF_REACTOR
  2
AcDbRasterImageDefReactor
  3
ISM
 90
        1
 91
        0
280
     0
281
     0
  0
CLASS
  1
IDBUFFER
  2
AcDbIdBuffer
  3
ObjectDBX Classes
 90
        0
 91
        0
280
     0
281
     0
  0
CLASS
  1
SPATIAL_FILTER
  2
AcDbSpatialFilter
  3
ObjectDBX Classes
 90
        0
 91
        0
280
     0
281
     0
  0
CLASS
  1
SORTENTSTABLE
  2
AcDbSortentsTable
  3
ObjectDBX Classes
 90
        0
 91
        1
280
     0
281
     0
  0
CLASS
  1
LAYER_INDEX
  2
AcDbLayerIndex
  3
ObjectDBX Classes
 90
        0
 91
        0
280
     0
281
     0
  0
CLASS
  1
SPATIAL_INDEX
  2
AcDbSpatialIndex
  3
ObjectDBX Classes
 90
        0
 91
        0
280
     0
281
     0
  0
CLASS
  1
OBJECT_PTR
  2
CAseDLPNTableRecord
  3
ASE-LPNTableRecord
 90
        1
 91
        0
280
     0
281
     0
  0
CLASS
  1
PLOTSETTINGS
  2
AcDbPlotSettings
  3
ObjectDBX Classes
 90
        0
 91
        0
280
     0
281
     0
  0
CLASS
  1
ACDBDICTIONARYWDFLT
  2
AcDbDictionaryWithDefault
  3
ObjectDBX Classes
 90
        0
 91
        1
280
     0
281
     0
  0
CLASS
  1
WIPEOUT
  2
AcDbWipeout
  3
"WipeOut|Product Desc: Object Enabler for WipeOut entity                        |Company: Autodesk, Inc.                        |WEB Address: www.autodesk.com"
 90
     2175
 91
        0
280
     0
281
     1
  0
CLASS
  1
WIPEOUTVARIABLES
  2
AcDbWipeoutVariables
  3
"WipeOut|Product Desc:     WipeOut Dbx Application|Company:          Autodesk, Inc.|WEB Address:      www.autodesk.com"
 90
        0
 91
        1
280
     0
281
     0
  0
CLASS
  1
RTEXT
  2
RText
  3
RText|AutoCAD Express Tool|expresstools@autodesk.com
 90
     3071
 91
        0
280
     0
281
     1
  0
CLASS
  1
ARCALIGNEDTEXT
  2
AcDbArcAlignedText
  3
ATEXT|AutoCAD Express Tool|expresstools@autodesk.com
 90
        0
 91
        0
280
     0
281
     1
  0
CLASS
  1
MATERIAL
  2
AcDbMaterial
  3
ObjectDBX Classes
 90
     1153
 91
        3
280
     0
281
     0
  0
CLASS
  1
VISUALSTYLE
  2
AcDbVisualStyle
  3
ObjectDBX Classes
 90
     4095
 91
       16
280
     0
281
     0
  0
CLASS
  1
TABLESTYLE
  2
AcDbTableStyle
  3
ObjectDBX Classes
 90
     4095
 91
        1
280
     0
281
     0
  0
CLASS
  1
SCALE
  2
AcDbScale
  3
ObjectDBX Classes
 90
     1153
 91
       33
280
     0
281
     0
  0
CLASS
  1
MLEADERSTYLE
  2
AcDbMLeaderStyle
  3
ACDB_MLEADERSTYLE_CLASS
 90
     4095
 91
        1
280
     0
281
     0
  0
CLASS
  1
CELLSTYLEMAP
  2
AcDbCellStyleMap
  3
ObjectDBX Classes
 90
     1152
 91
        2
280
     0
281
     0
  0
ENDSEC
  0
SECTION
  2
TABLES
  0
TABLE
  2
VPORT
  5
7
330
0
100
AcDbSymbolTable
 70
     1
  0
VPORT
  5
15
330
7
100
AcDbSymbolTableRecord
100
AcDbViewportTableRecord
  2
*ACTIVE
 70
     0
 10
0.0
 20
0.0
 11
1.0
 21
1.0
 12
13.89621157632295
 22
4.579183999999999
 13
0.0
 23
0.0
 14
1.0
 24
1.0
 15
0.0
 25
0.0
 16
0.0
 26
0.0
 36
1.0
 17
0.0
 27
0.0
 37
0.0
 40
9.158369
 41
2.283809523809523
 42
50.0
 43
0.0
 44
0.0
 50
0.0
 51
0.0
 71
     0
 72
   100
 73
     1
 74
     1
 75
     0
 76
     0
 77
     0
 78
     0
281
     0
 65
     0
110
0.0
120
0.0
130
0.0
111
1.0
121
0.0
131
0.0
112
0.0
122
1.0
132
0.0
 79
     0
146
0.0
  0
ENDTAB
  0
TABLE
  2
LTYPE
  5
4
330
0
100
AcDbSymbolTable
 70
     5
  0
LTYPE
  5
11
330
4
100
AcDbSymbolTableRecord
100
AcDbLinetypeTableRecord
  2
ByBlock
 70
     0
  3

 72
    65
 73
     0
 40
0.0
  0
LTYPE
  5
12
330
4
100
AcDbSymbolTableRecord
100
AcDbLinetypeTableRecord
  2
ByLayer
 70
     0
  3

 72
    65
 73
     0
 40
0.0
  0
LTYPE
  5
13
330
4
100
AcDbSymbolTableRecord
100
AcDbLinetypeTableRecord
  2
Continuous
 70
     0
  3
Solid line
 72
    65
 73
     0
 40
0.0
  0
LTYPE
  5
24
330
4
100
AcDbSymbolTableRecord
100
AcDbLinetypeTableRecord
  2
solid
 70
     0
  3

 72
    65
 73
     0
 40
0.0
  0
LTYPE
  5
25
330
4
100
AcDbSymbolTableRecord
100
AcDbLinetypeTableRecord
  2
dashed
 70
     0
  3

 72
    65
 73
     0
 40
0.0
  0
LTYPE
  5
26
330
4
100
AcDbSymbolTableRecord
100
AcDbLinetypeTableRecord
  2
center
 70
     0
  3

 72
    65
 73
     0
 40
0.0
  0
ENDTAB
  0
TABLE
  2
LAYER
  5
2
330
0
100
AcDbSymbolTable
 70
     3
  0
LAYER
  5
14
102
{ACAD_XDICTIONARY
360
14F
102
}
330
2
100
AcDbSymbolTableRecord
100
AcDbLayerTableRecord
  2
0
 70
     0
 62
     7
  6
Continuous
370
    -3
390
1D
  0
LAYER
  5
27
102
{ACAD_XDICTIONARY
360
151
102
}
330
2
100
AcDbSymbolTableRecord
100
AcDbLayerTableRecord
  2
1
 70
     0
 62
     1
  6
solid
370
    -3
390
1D
  0
LAYER
  5
E5
102
{ACAD_XDICTIONARY
360
153
102
}
330
2
100
AcDbSymbolTableRecord
100
AcDbLayerTableRecord
  2
0
 70
     0
 62
     1
  6
solid
370
    -3
390
1D
  0
ENDTAB
  0
TABLE
  2
STYLE
  5
3
330
0
100
AcDbSymbolTable
 70
     2
  0
STYLE
  5
17
330
3
100
AcDbSymbolTableRecord
100
AcDbTextStyleTableRecord
  2
Standard
 70
     0
 40
0.0
 41
1.0
 50
0.0
 71
     0
 42
0.0
  3
txt
  4

  0
ENDTAB
  0
TABLE
  2
VIEW
  5
5
330
0
100
AcDbSymbolTable
 70
     0
  0
ENDTAB
  0
TABLE
  2
UCS
  5
6
330
0
100
AcDbSymbolTable
 70
     0
  0
ENDTAB
  0
TABLE
  2
APPID
  5
8
330
0
100
AcDbSymbolTable
 70
     4
  0
APPID
  5
16
330
8
100
AcDbSymbolTableRecord
100
AcDbRegAppTableRecord
  2
ACAD
 70
     0
  0
APPID
  5
11A
330
8
100
AcDbSymbolTableRecord
100
AcDbRegAppTableRecord
  2
ACAD_PSEXT
 70
     0
  0
APPID
  5
11F
330
8
100
AcDbSymbolTableRecord
100
AcDbRegAppTableRecord
  2
DCO15
 70
     0
  0
APPID
  5
148
330
8
100
AcDbSymbolTableRecord
100
AcDbRegAppTableRecord
  2
ACAD_MLEADERVER
 70
     0
  0
ENDTAB
  0
TABLE
  2
DIMSTYLE
  5
9
330
0
100
AcDbSymbolTable
 70
     3
100
AcDbDimStyleTable
 71
     1
340
18
  0
DIMSTYLE
105
18
102
{ACAD_REACTORS
330
96
102
}
330
9
100
AcDbSymbolTableRecord
100
AcDbDimStyleTableRecord
  2
Standard
 70
     0
289
     0
340
17
  0
ENDTAB
  0
TABLE
  2
BLOCK_RECORD
  5
1
330
0
100
AcDbSymbolTable
 70
     4
  0
BLOCK_RECORD
  5
A
102
{ACAD_XDICTIONARY
360
164
102
}
330
1
100
AcDbSymbolTableRecord
100
AcDbBlockTableRecord
  2
*MODEL_SPACE
340
20
  0
BLOCK_RECORD
  5
B
330
1
100
AcDbSymbolTableRecord
100
AcDbBlockTableRecord
  2
*PAPER_SPACE
340
21
  0
BLOCK_RECORD
  5
8C
330
1
100
AcDbSymbolTableRecord
100
AcDbBlockTableRecord
  2
*D0
340
0
  0
BLOCK_RECORD
  5
97
330
1
100
AcDbSymbolTableRecord
100
AcDbBlockTableRecord
  2
*D1
340
0
  0
ENDTAB
  0
ENDSEC
  0
SECTION
  2
BLOCKS
  0
BLOCK
  5
D
330
A
100
AcDbEntity
  8
0
100
AcDbBlockBegin
  2
*MODEL_SPACE
 70
     0
 10
0.0
 20
0.0
 30
0.0
  3
*MODEL_SPACE
  1

  0
ENDBLK
  5
E
330
A
100
AcDbEntity
  8
0
100
AcDbBlockEnd
  0
BLOCK
  5
F
330
B
100
AcDbEntity
 67
     1
  8
0
100
AcDbBlockBegin
  2
*PAPER_SPACE
 70
     0
 10
0.0
 20
0.0
 30
0.0
  3
*PAPER_SPACE
  1

  0
ENDBLK
  5
10
330
B
100
AcDbEntity
 67
     1
  8
0
100
AcDbBlockEnd
  0
BLOCK
  5
8D
330
8C
100
AcDbEntity
  8
1
  6
solid
 62
     7
100
AcDbBlockBegin
  2
*D0
 70
     0
 10
0.0
 20
0.0
 30
0.0
  3
*D0
  1

  0
LINE
  5
8E
330
8C
100
AcDbEntity
  8
1
  6
solid
 62
     7
100
AcDbLine
 10
-1.689926028251647
 20
0.2833079695701598
 30
0.0
 11
-0.6242445459082216
 21
0.283307969570159
 31
0.0
  0
LINE
  5
8F
330
8C
100
AcDbEntity
  8
1
  6
solid
 62
     7
100
AcDbLine
 10
-1.689926028251647
 20
3.283308029174804
 30
0.0
 11
-0.6242445459082193
 21
3.283308029174803
 31
0.0
  0
LINE
  5
90
330
8C
100
AcDbEntity
  8
1
  6
solid
 62
     7
100
AcDbLine
 10
-0.6867445459082216
 20
0.283307969570159
 30
0.0
 11
-0.6867445459082206
 21
1.623435403218635
 31
0.0
  0
LINE
  5
91
330
8C
100
AcDbEntity
  8
1
  6
solid
 62
     7
100
AcDbLine
 10
-0.6867445459082193
 20
3.283308029174803
 30
0.0
 11
-0.6867445459082204
 21
1.943180595526327
 31
0.0
  0
MTEXT
  5
92
330
8C
100
AcDbEntity
  8
1
  6
solid
 62
     7
100
AcDbMText
 10
-0.6867445459082205
 20
1.783307999372481
 30
0.0
 40
0.125
 41
0.0
 71
     5
 72
     1
  1
{\H0.125000;3}
 73
     1
 44
1.0
  0
SOLID
  5
93
330
8C
100
AcDbEntity
  8
1
  6
solid
 62
     7
100
AcDbTrace
 10
-0.6992445459082215
 20
0.308307969570159
 30
0.0
 11
-0.6742445459082215
 21
0.308307969570159
 31
0.0
 12
-0.6867445459082216
 22
0.283307969570159
 32
0.0
 13
-0.6867445459082216
 23
0.283307969570159
 33
0.0
  0
SOLID
  5
94
330
8C
100
AcDbEntity
  8
1
  6
solid
 62
     7
100
AcDbTrace
 10
-0.6742445459082194
 20
3.258308029174803
 30
0.0
 11
-0.6992445459082194
 21
3.258308029174803
 31
0.0
 12
-0.6867445459082193
 22
3.283308029174803
 32
0.0
 13
-0.6867445459082193
 23
3.283308029174803
 33
0.0
  0
ENDBLK
  5
95
330
8C
100
AcDbEntity
  8
1
  6
solid
 62
     7
100
AcDbBlockEnd
  0
BLOCK
  5
98
330
97
100
AcDbEntity
  8
1
  6
solid
 62
     7
100
AcDbBlockBegin
  2
*D1
 70
     0
 10
0.0
 20
0.0
 30
0.0
  3
*D1
  1

  0
LINE
  5
99
330
97
100
AcDbEntity
  8
1
  6
solid
 62
     7
100
AcDbLine
 10
-2.50224232673645
 20
2.403409719467163
 30
0.0
 11
-2.50224232673645
 21
-0.0329314760441192
 31
0.0
  0
LINE
  5
9A
330
97
100
AcDbEntity
  8
1
  6
solid
 62
     7
100
AcDbLine
 10
-1.814926028251647
 20
0.1583079695701599
 30
0.0
 11
-1.814926028251647
 21
-0.0329314760441192
 31
0.0
  0
LINE
  5
9B
330
97
100
AcDbEntity
  8
1
  6
solid
 62
     7
100
AcDbLine
 10
-2.50224232673645
 20
0.0295685239558808
 30
0.0
 11
-2.355069471611695
 21
0.0295685239558808
 31
0.0
  0
LINE
  5
9C
330
97
100
AcDbEntity
  8
1
  6
solid
 62
     7
100
AcDbLine
 10
-1.814926028251647
 20
0.0295685239558808
 30
0.0
 11
-1.962098883376402
 21
0.0295685239558808
 31
0.0
  0
MTEXT
  5
9D
330
97
100
AcDbEntity
  8
1
  6
solid
 62
     7
100
AcDbMText
 10
-2.158584177494049
 20
0.0295685239558808
 30
0.0
 40
0.125
 41
0.0
 71
     5
 72
     1
  1
{\H0.125000;11/16}
 73
     1
 44
1.0
  0
SOLID
  5
9E
330
97
100
AcDbEntity
  8
1
  6
solid
 62
     7
100
AcDbTrace
 10
-2.47724232673645
 20
0.0420685239558808
 30
0.0
 11
-2.47724232673645
 21
0.0170685239558808
 31
0.0
 12
-2.50224232673645
 22
0.0295685239558808
 32
0.0
 13
-2.50224232673645
 23
0.0295685239558808
 33
0.0
  0
SOLID
  5
9F
330
97
100
AcDbEntity
  8
1
  6
solid
 62
     7
100
AcDbTrace
 10
-1.839926028251647
 20
0.0170685239558808
 30
0.0
 11
-1.839926028251647
 21
0.0420685239558808
 31
0.0
 12
-1.814926028251647
 22
0.0295685239558808
 32
0.0
 13
-1.814926028251647
 23
0.0295685239558808
 33
0.0
  0
ENDBLK
  5
A0
330
97
100
AcDbEntity
  8
1
  6
solid
 62
     7
100
AcDbBlockEnd
  0
ENDSEC
  0
SECTION
  2
ENTITIES
  0
LINE
  5
28
330
A
100
AcDbEntity
  8
1
  6
solid
 62
     7
100
AcDbLine
 10
0.4985452561722337
 20
2.494784049002602
 30
0.0
 11
0.5058387412878918
 21
2.494784049002602
 31
0.0
  0
LINE
  5
29
330
A
100
AcDbEntity
  8
1
  6
solid
 62
     7
100
AcDbLine
 10
0.7433105411094219
 20
2.969257694434808
 30
0.0
 11
0.7045226895908541
 21
2.883784011894761
 31
0.0
  0
ARC
  5
2A
330
A
100
AcDbEntity
  8
1
  6
solid
 62
     7
100
AcDbCircle
 10
0.9348467719609852
 20
2.521846703496575
 30
0.0
 40
0.4290080530354557
100
AcDbArc
 50
122.4712065072364
 51
240.8836077673932
  0
LINE
  5
2B
330
A
100
AcDbEntity
  8
1
  6
solid
 62
     7
100
AcDbLine
 10
0.7260977164233613
 20
2.147051061160923
 30
0.0
 11
0.7301491824005027
 21
2.048346051663947
 31
0.0
  0
ARC
  5
2C
330
A
100
AcDbEntity
  8
1
  6
solid
 62
     7
100
AcDbCircle
 10
0.5951846523865059
 20
1.793633171610832
 30
0.0
 40
0.2882603173683275
100
AcDbArc
 50
340.0654810883263
 51
422.0822284762469
  0
ARC
  5
2D
330
A
100
AcDbEntity
  8
1
  6
solid
 62
     7
100
AcDbCircle
 10
2.143637594663484
 20
1.369092857053667
 30
0.0
 40
1.318468913157228
100
AcDbArc
 50
165.6731432079994
 51
202.1359465675197
  0
ARC
  5
2E
330
A
100
AcDbEntity
  8
1
  6
solid
 62
     7
100
AcDbCircle
 10
1.033406482090151
 20
0.6705382604265613
 30
0.0
 40
0.2302953309583255
100
AcDbArc
 50
118.8315189254812
 51
218.3951534982098
  0
ARC
  5
2F
330
A
100
AcDbEntity
  8
1
  6
solid
 62
     7
100
AcDbCircle
 10
-0.4830661015032583
 20
-0.8986553625413264
 30
0.0
 40
1.954169328484622
100
AcDbArc
 50
44.36835327657995
 51
46.8699968475107
  0
ARC
  5
30
330
A
100
AcDbEntity
  8
1
  6
solid
 62
     7
100
AcDbCircle
 10
0.8648640881771033
 20
0.3566362715186222
 30
0.0
 40
0.1215253289539413
100
AcDbArc
 50
356.6506793205415
 51
426.2080387408238
  0
LINE
  5
31
330
A
100
AcDbEntity
  8
1
  6
solid
 62
     7
100
AcDbLine
 10
1.019187331988478
 20
3.264186901642201
 30
0.0
 11
1.193338741287891
 21
3.264186901642201
 31
0.0
  0
ARC
  5
32
330
A
100
AcDbEntity
  8
1
  6
solid
 62
     7
100
AcDbCircle
 10
0.6852223709137415
 20
3.300085435419456
 30
0.0
 40
0.3358888208217232
100
AcDbArc
 50
279.9587179857939
 51
353.8647245080583
  0
LINE
  5
33
330
A
100
AcDbEntity
  8
1
  6
solid
 62
     7
100
AcDbLine
 10
1.193338741287891
 20
0.2641869016422018
 30
0.0
 11
1.070016227430406
 21
0.2641869016422018
 31
0.0
  0
ARC
  5
34
330
A
100
AcDbEntity
  8
1
  6
solid
 62
     7
100
AcDbCircle
 10
0.9268938784607666
 20
0.2074531138562969
 30
0.0
 40
0.1539569077733235
100
AcDbArc
 50
21.62340523289353
 51
67.35037333712542
  0
LINE
  5
35
330
A
100
AcDbEntity
  8
1
  6
solid
 62
     7
100
AcDbLine
 10
1.193338741287891
 20
3.264186901642201
 30
0.0
 11
1.193338741287891
 21
2.764186901642201
 31
0.0
  0
LINE
  5
36
330
A
100
AcDbEntity
  8
1
  6
solid
 62
     7
100
AcDbLine
 10
1.193338741287891
 20
0.7641869016422019
 30
0.0
 11
1.193338741287891
 21
0.2641869016422018
 31
0.0
  0
LINE
  5
37
330
A
100
AcDbEntity
  8
1
  6
solid
 62
     7
100
AcDbLine
 10
1.162088741287891
 20
2.764186901642201
 30
0.0
 11
1.193338741287891
 21
2.764186901642201
 31
0.0
  0
ARC
  5
38
330
A
100
AcDbEntity
  8
1
  6
solid
 62
     7
100
AcDbCircle
 10
1.162088741287891
 20
2.701686901642201
 30
0.0
 40
0.0625
100
AcDbArc
 50
90.0
 51
180.0
  0
LINE
  5
39
330
A
100
AcDbEntity
  8
1
  6
solid
 62
     7
100
AcDbLine
 10
1.193338741287891
 20
0.7641869016422019
 30
0.0
 11
1.162088741287891
 21
0.7641869016422019
 31
0.0
  0
LINE
  5
3A
330
A
100
AcDbEntity
  8
1
  6
solid
 62
     7
100
AcDbLine
 10
1.099588741287891
 20
0.8266869016422017
 30
0.0
 11
1.099588741287891
 21
2.701686901642201
 31
0.0
  0
ARC
  5
3B
330
A
100
AcDbEntity
  8
1
  6
solid
 62
     7
100
AcDbCircle
 10
1.162088741287891
 20
0.8266869016422017
 30
0.0
 40
0.0625
100
AcDbArc
 50
180.0
 51
269.9999999999999
  0
LINE
  5
3C
330
A
100
AcDbEntity
  8
1
  6
solid
 62
     7
100
AcDbLine
 10
-0.0746053682383725
 20
2.935975529474222
 30
0.0
 11
-0.0673118831227144
 21
2.935975529474222
 31
0.0
  0
LINE
  5
3D
330
A
100
AcDbEntity
  8
1
  6
solid
 62
     7
100
AcDbLine
 10
0.1701599166988157
 20
3.410449174906428
 30
0.0
 11
0.1313720651802479
 21
3.324975492366381
 31
0.0
  0
ARC
  5
3E
330
A
100
AcDbEntity
  8
1
  6
solid
 62
     7
100
AcDbCircle
 10
0.361696147550379
 20
2.963038183968195
 30
0.0
 40
0.4290080530354557
100
AcDbArc
 50
122.4712065072364
 51
240.8836077673932
  0
LINE
  5
3F
330
A
100
AcDbEntity
  8
1
  6
solid
 62
     7
100
AcDbLine
 10
0.1529470920127551
 20
2.588242541632543
 30
0.0
 11
0.1569985579898965
 21
2.489537532135567
 31
0.0
  0
ARC
  5
40
330
A
100
AcDbEntity
  8
1
  6
solid
 62
     7
100
AcDbCircle
 10
0.0220340279758997
 20
2.234824652082452
 30
0.0
 40
0.2882603173683275
100
AcDbArc
 50
340.0654810883263
 51
422.0822284762469
  0
ARC
  5
41
330
A
100
AcDbEntity
  8
1
  6
solid
 62
     7
100
AcDbCircle
 10
1.570486970252878
 20
1.810284337525287
 30
0.0
 40
1.318468913157228
100
AcDbArc
 50
165.6731432079994
 51
202.1359465675197
  0
ARC
  5
42
330
A
100
AcDbEntity
  8
1
  6
solid
 62
     7
100
AcDbCircle
 10
0.4602558576795455
 20
1.111729740898181
 30
0.0
 40
0.2302953309583255
100
AcDbArc
 50
118.8315189254812
 51
218.3951534982098
  0
ARC
  5
43
330
A
100
AcDbEntity
  8
1
  6
solid
 62
     7
100
AcDbCircle
 10
-1.056216725913864
 20
-0.4574638820697064
 30
0.0
 40
1.954169328484622
100
AcDbArc
 50
44.36835327657995
 51
46.8699968475107
  0
ARC
  5
44
330
A
100
AcDbEntity
  8
1
  6
solid
 62
     7
100
AcDbCircle
 10
0.2917134637664971
 20
0.7978277519902424
 30
0.0
 40
0.1215253289539413
100
AcDbArc
 50
356.6506793205415
 51
426.2080387408238
  0
LINE
  5
45
330
A
100
AcDbEntity
  8
1
  6
solid
 62
     7
100
AcDbLine
 10
0.4460367075778724
 20
3.705378382113821
 30
0.0
 11
0.6201881168772856
 21
3.705378382113821
 31
0.0
  0
ARC
  5
46
330
A
100
AcDbEntity
  8
1
  6
solid
 62
     7
100
AcDbCircle
 10
0.1120717465031353
 20
3.741276915891076
 30
0.0
 40
0.3358888208217232
100
AcDbArc
 50
279.9587179857939
 51
353.8647245080583
  0
ARC
  5
47
330
A
100
AcDbEntity
  8
1
  6
solid
 62
     7
100
AcDbCircle
 10
0.3537432540501604
 20
0.6486445943279171
 30
0.0
 40
0.1539569077733235
100
AcDbArc
 50
21.62340523289353
 51
37.47390830936015
  0
LINE
  5
48
330
A
100
AcDbEntity
  8
1
  6
solid
 62
     7
100
AcDbLine
 10
0.6201881170272828
 20
3.705378293991088
 30
0.0
 11
1.193338751792907
 21
3.264186859130859
 31
0.0
  0
LINE
  5
49
330
A
100
AcDbEntity
  8
1
  6
solid
 62
     7
100
AcDbLine
 10
0.446036696434021
 20
3.705378293991088
 30
0.0
 11
1.019187331199645
 21
3.264186859130859
 31
0.0
  0
LINE
  5
4A
330
A
100
AcDbEntity
  8
1
  6
solid
 62
     7
100
AcDbLine
 10
0.1701599210500717
 20
3.410449266433715
 30
0.0
 11
0.7433105707168579
 21
2.969257593154907
 31
0.0
  0
LINE
  5
4B
330
A
100
AcDbEntity
  8
1
  6
solid
 62
     7
100
AcDbLine
 10
0.1313720643520355
 20
3.324975490570068
 30
0.0
 11
0.7045227885246277
 21
2.883784294128417
 31
0.0
  0
LINE
  5
4C
330
A
100
AcDbEntity
  8
1
  6
solid
 62
     7
100
AcDbLine
 10
0.1529471129179001
 20
2.588242530822753
 30
0.0
 11
0.6259360651607261
 21
2.224152086828022
 31
0.0
  0
LINE
  5
4D
330
A
100
AcDbEntity
  8
1
  6
solid
 62
     7
100
AcDbLine
 10
0.1569986343383789
 20
2.489537477493286
 30
0.0
 11
0.7301492691040039
 21
2.048345804214477
 31
0.0
  0
LINE
  5
4E
330
A
100
AcDbEntity
  8
1
  6
solid
 62
     7
100
AcDbLine
 10
0.3491992354393005
 20
1.313477993011474
 30
0.0
 11
0.9223498702049255
 21
0.8722865581512451
 31
0.0
  0
LINE
  5
4F
330
A
100
AcDbEntity
  8
1
  6
solid
 62
     7
100
AcDbLine
 10
1.070016264915466
 20
0.2641868889331818
 30
0.0
 11
0.496865600347519
 21
0.7053783535957337
 31
0.0
  0
LINE
  5
50
330
A
100
AcDbEntity
  8
1
  6
solid
 62
     7
100
AcDbLine
 10
0.4130312204360962
 20
0.7907278537750245
 30
0.0
 11
0.9861819148063659
 21
0.3495364189147949
 31
0.0
  0
LINE
  5
51
330
A
100
AcDbEntity
  8
1
  6
solid
 62
     7
100
AcDbLine
 10
0.7371881639316733
 20
2.479940833994279
 30
0.0
 11
0.7371881639316733
 21
2.455231531668698
 31
0.0
  0
LINE
  5
52
330
A
100
AcDbEntity
  8
1
  6
solid
 62
     7
100
AcDbLine
 10
0.7371881639316733
 20
2.455231531668698
 30
0.0
 11
0.654339326722371
 21
2.455231531668698
 31
0.0
  0
SPLINE
  5
53
330
A
100
AcDbEntity
  8
1
  6
solid
 62
     7
100
AcDbSpline
210
0.0
220
0.0
230
1.0
 70
     8
 71
     2
 72
     7
 73
     4
 74
     0
 42
0.0000000001
 43
0.0000000001
 40
0.0
 40
0.0
 40
0.0
 40
1.0
 40
2.0
 40
2.0
 40
2.0
 10
0.654339326722371
 20
2.455231531668698
 30
0.0
 10
0.6552025825363245
 20
2.467320833994279
 30
0.0
 10
0.6688890941642314
 20
2.489301764226838
 30
0.0
 10
0.688186303466557
 20
2.50776548515707
 30
0.0
  0
SPLINE
  5
54
330
A
100
AcDbEntity
  8
1
  6
solid
 62
     7
100
AcDbSpline
210
0.0
220
0.0
230
1.0
 70
     8
 71
     2
 72
     6
 73
     3
 74
     0
 42
0.0000000001
 43
0.0000000001
 40
0.0
 40
0.0
 40
0.0
 40
1.0
 40
1.0
 40
1.0
 10
0.688186303466557
 20
2.50776548515707
 30
0.0
 10
0.7039960709084175
 20
2.522434322366372
 30
0.0
 10
0.7073346755595802
 20
2.52737525259893
 30
0.0
  0
SPLINE
  5
55
330
A
100
AcDbEntity
  8
1
  6
solid
 62
     7
100
AcDbSpline
210
0.0
220
0.0
230
1.0
 70
     8
 71
     2
 72
     6
 73
     3
 74
     0
 42
0.0000000001
 43
0.0000000001
 40
0.0
 40
0.0
 40
0.0
 40
1.0
 40
1.0
 40
1.0
 10
0.7073346755595802
 20
2.52737525259893
 30
0.0
 10
0.7124788616060919
 20
2.534627810738465
 30
0.0
 10
0.7124788616060919
 20
2.541776182831489
 30
0.0
  0
SPLINE
  5
56
330
A
100
AcDbEntity
  8
1
  6
solid
 62
     7
100
AcDbSpline
210
0.0
220
0.0
230
1.0
 70
     8
 71
     2
 72
     7
 73
     4
 74
     0
 42
0.0000000001
 43
0.0000000001
 40
0.0
 40
0.0
 40
0.0
 40
1.0
 40
2.0
 40
2.0
 40
2.0
 10
0.7124788616060919
 20
2.541776182831489
 30
0.0
 10
0.7124788616060919
 20
2.549916647947767
 30
0.0
 10
0.7042937453270221
 20
2.558429206087303
 30
0.0
 10
0.6972197918386501
 20
2.558429206087303
 30
0.0
  0
SPLINE
  5
57
330
A
100
AcDbEntity
  8
1
  6
solid
 62
     7
100
AcDbSpline
210
0.0
220
0.0
230
1.0
 70
     8
 71
     2
 72
     7
 73
     4
 74
     0
 42
0.0000000001
 43
0.0000000001
 40
0.0
 40
0.0
 40
0.0
 40
1.0
 40
2.0
 40
2.0
 40
2.0
 10
0.6972197918386501
 20
2.558429206087303
 30
0.0
 10
0.6907063034665569
 20
2.558429206087303
 30
0.0
 10
0.6823723499781849
 20
2.549192461901256
 30
0.0
 10
0.6819556057921384
 20
2.539533857250093
 30
0.0
  0
LINE
  5
58
330
A
100
AcDbEntity
  8
1
  6
solid
 62
     7
100
AcDbLine
 10
0.6819556057921384
 20
2.539533857250093
 30
0.0
 11
0.657246303466557
 21
2.541552927017535
 31
0.0
  0
SPLINE
  5
59
330
A
100
AcDbEntity
  8
1
  6
solid
 62
     7
100
AcDbSpline
210
0.0
220
0.0
230
1.0
 70
     8
 71
     2
 72
     7
 73
     4
 74
     0
 42
0.0000000001
 43
0.0000000001
 40
0.0
 40
0.0
 40
0.0
 40
1.0
 40
2.0
 40
2.0
 40
2.0
 10
0.657246303466557
 20
2.541552927017535
 30
0.0
 10
0.6591165360246966
 20
2.562005950273349
 30
0.0
 10
0.6811718848619059
 20
2.580231531668698
 30
0.0
 10
0.6980779313735337
 20
2.580231531668698
 30
0.0
  0
SPLINE
  5
5A
330
A
100
AcDbEntity
  8
1
  6
solid
 62
     7
100
AcDbSpline
210
0.0
220
0.0
230
1.0
 70
     8
 71
     2
 72
     7
 73
     4
 74
     0
 42
0.0000000001
 43
0.0000000001
 40
0.0
 40
0.0
 40
0.0
 40
1.0
 40
2.0
 40
2.0
 40
2.0
 10
0.6980779313735337
 20
2.580231531668698
 30
0.0
 10
0.7160258383502779
 20
2.580231531668698
 30
0.0
 10
0.7371881639316733
 20
2.560522694459395
 30
0.0
 10
0.7371881639316733
 20
2.546062229343116
 30
0.0
  0
SPLINE
  5
5B
330
A
100
AcDbEntity
  8
1
  6
solid
 62
     7
100
AcDbSpline
210
0.0
220
0.0
230
1.0
 70
     8
 71
     2
 72
     7
 73
     4
 74
     0
 42
0.0000000001
 43
0.0000000001
 40
0.0
 40
0.0
 40
0.0
 40
1.0
 40
2.0
 40
2.0
 40
2.0
 10
0.7371881639316733
 20
2.546062229343116
 30
0.0
 10
0.7371881639316733
 20
2.538184554924512
 30
0.0
 10
0.730813745327022
 20
2.52295525259893
 30
0.0
 10
0.7245979313735337
 20
2.515137113064047
 30
0.0
  0
SPLINE
  5
5C
330
A
100
AcDbEntity
  8
1
  6
solid
 62
     7
100
AcDbSpline
210
0.0
220
0.0
230
1.0
 70
     8
 71
     2
 72
     8
 73
     5
 74
     0
 42
0.0000000001
 43
0.0000000001
 40
0.0
 40
0.0
 40
0.0
 40
1.0
 40
2.0
 40
3.0
 40
3.0
 40
3.0
 10
0.7245979313735337
 20
2.515137113064047
 30
0.0
 10
0.7203118848619058
 20
2.509605950273349
 30
0.0
 10
0.6973090941642314
 20
2.489346415389628
 30
0.0
 10
0.6914356057921384
 20
2.483011531668698
 30
0.0
 10
0.6897290941642314
 20
2.479940833994279
 30
0.0
  0
LINE
  5
5D
330
A
100
AcDbEntity
  8
1
  6
solid
 62
     7
100
AcDbLine
 10
0.7371881639316733
 20
2.479940833994279
 30
0.0
 11
0.6897290941642314
 21
2.479940833994279
 31
0.0
  0
LINE
  5
5E
330
A
100
AcDbEntity
  8
1
  6
solid
 62
     7
100
AcDbLine
 10
0.7531751406758593
 20
2.487357113064047
 30
0.0
 11
0.7778844430014407
 21
2.49011525259893
 31
0.0
  0
SPLINE
  5
5F
330
A
100
AcDbEntity
  8
1
  6
solid
 62
     7
100
AcDbSpline
210
0.0
220
0.0
230
1.0
 70
     8
 71
     2
 72
     7
 73
     4
 74
     0
 42
0.0000000001
 43
0.0000000001
 40
0.0
 40
0.0
 40
0.0
 40
1.0
 40
2.0
 40
2.0
 40
2.0
 10
0.7778844430014407
 20
2.49011525259893
 30
0.0
 10
0.7784351406758593
 20
2.482257578180326
 30
0.0
 10
0.785538861606092
 20
2.475580368878
 30
0.0
 10
0.7913081639316733
 20
2.475580368878
 30
0.0
  0
SPLINE
  5
60
330
A
100
AcDbEntity
  8
1
  6
solid
 62
     7
100
AcDbSpline
210
0.0
220
0.0
230
1.0
 70
     8
 71
     2
 72
     7
 73
     4
 74
     0
 42
0.0000000001
 43
0.0000000001
 40
0.0
 40
0.0
 40
0.0
 40
1.0
 40
2.0
 40
2.0
 40
2.0
 10
0.7913081639316733
 20
2.475580368878
 30
0.0
 10
0.7985756057921384
 20
2.475580368878
 30
0.0
 10
0.8087649081177197
 20
2.489584554924512
 30
0.0
 10
0.8101886290479523
 20
2.512125950273349
 30
0.0
  0
SPLINE
  5
61
330
A
100
AcDbEntity
  8
1
  6
solid
 62
     7
100
AcDbSpline
210
0.0
220
0.0
230
1.0
 70
     8
 71
     2
 72
     6
 73
     3
 74
     0
 42
0.0000000001
 43
0.0000000001
 40
0.0
 40
0.0
 40
0.0
 40
1.0
 40
1.0
 40
1.0
 10
0.8101886290479523
 20
2.512125950273349
 30
0.0
 10
0.8006244430014406
 20
2.501743159575675
 30
0.0
 10
0.7870221174200454
 20
2.501743159575675
 30
0.0
  0
SPLINE
  5
62
330
A
100
AcDbEntity
  8
1
  6
solid
 62
     7
100
AcDbSpline
210
0.0
220
0.0
230
1.0
 70
     8
 71
     2
 72
     7
 73
     4
 74
     0
 42
0.0000000001
 43
0.0000000001
 40
0.0
 40
0.0
 40
0.0
 40
1.0
 40
2.0
 40
2.0
 40
2.0
 10
0.7870221174200454
 20
2.501743159575675
 30
0.0
 10
0.7721300243967896
 20
2.501743159575675
 30
0.0
 10
0.7502681639316733
 20
2.522806415389628
 30
0.0
 10
0.7502681639316733
 20
2.540084554924512
 30
0.0
  0
SPLINE
  5
63
330
A
100
AcDbEntity
  8
1
  6
solid
 62
     7
100
AcDbSpline
210
0.0
220
0.0
230
1.0
 70
     8
 71
     2
 72
     7
 73
     4
 74
     0
 42
0.0000000001
 43
0.0000000001
 40
0.0
 40
0.0
 40
0.0
 40
1.0
 40
2.0
 40
2.0
 40
2.0
 10
0.7502681639316733
 20
2.540084554924512
 30
0.0
 10
0.7502681639316733
 20
2.557838973529163
 30
0.0
 10
0.7724723499781849
 20
2.580231531668698
 30
0.0
 10
0.7898546755595803
 20
2.580231531668698
 30
0.0
  0
SPLINE
  5
64
330
A
100
AcDbEntity
  8
1
  6
solid
 62
     7
100
AcDbSpline
210
0.0
220
0.0
230
1.0
 70
     8
 71
     2
 72
     7
 73
     4
 74
     0
 42
0.0000000001
 43
0.0000000001
 40
0.0
 40
0.0
 40
0.0
 40
1.0
 40
2.0
 40
2.0
 40
2.0
 10
0.7898546755595803
 20
2.580231531668698
 30
0.0
 10
0.8087351406758592
 20
2.580231531668698
 30
0.0
 10
0.8331170011409756
 20
2.550631066552419
 30
0.0
 10
0.8331170011409756
 20
2.517746415389628
 30
0.0
  0
SPLINE
  5
65
330
A
100
AcDbEntity
  8
1
  6
solid
 62
     7
100
AcDbSpline
210
0.0
220
0.0
230
1.0
 70
     8
 71
     2
 72
     7
 73
     4
 74
     0
 42
0.0000000001
 43
0.0000000001
 40
0.0
 40
0.0
 40
0.0
 40
1.0
 40
2.0
 40
2.0
 40
2.0
 10
0.8331170011409756
 20
2.517746415389628
 30
0.0
 10
0.8331170011409756
 20
2.483487810738465
 30
0.0
 10
0.8076835127688825
 20
2.453778043296605
 30
0.0
 10
0.7874983964898128
 20
2.453778043296605
 30
0.0
  0
SPLINE
  5
66
330
A
100
AcDbEntity
  8
1
  6
solid
 62
     7
100
AcDbSpline
210
0.0
220
0.0
230
1.0
 70
     8
 71
     2
 72
     7
 73
     4
 74
     0
 42
0.0000000001
 43
0.0000000001
 40
0.0
 40
0.0
 40
0.0
 40
1.0
 40
2.0
 40
2.0
 40
2.0
 10
0.7874983964898128
 20
2.453778043296605
 30
0.0
 10
0.7735239778851617
 20
2.453778043296605
 30
0.0
 10
0.7553281639316733
 20
2.470346880505907
 30
0.0
 10
0.7531751406758593
 20
2.487357113064047
 30
0.0
  0
SPLINE
  5
67
330
A
100
AcDbEntity
  8
1
  6
solid
 62
     7
100
AcDbSpline
210
0.0
220
0.0
230
1.0
 70
     8
 71
     2
 72
     7
 73
     4
 74
     0
 42
0.0000000001
 43
0.0000000001
 40
0.0
 40
0.0
 40
0.0
 40
1.0
 40
2.0
 40
2.0
 40
2.0
 10
0.8084076988153942
 20
2.539757113064047
 30
0.0
 10
0.8084076988153942
 20
2.548552461901256
 30
0.0
 10
0.7973453732339989
 20
2.558429206087303
 30
0.0
 10
0.7902118848619059
 20
2.558429206087303
 30
0.0
  0
SPLINE
  5
68
330
A
100
AcDbEntity
  8
1
  6
solid
 62
     7
100
AcDbSpline
210
0.0
220
0.0
230
1.0
 70
     8
 71
     2
 72
     7
 73
     4
 74
     0
 42
0.0000000001
 43
0.0000000001
 40
0.0
 40
0.0
 40
0.0
 40
1.0
 40
2.0
 40
2.0
 40
2.0
 10
0.7902118848619059
 20
2.558429206087303
 30
0.0
 10
0.7838025825363245
 20
2.558429206087303
 30
0.0
 10
0.7749774662572547
 20
2.550199438645442
 30
0.0
 10
0.7749774662572547
 20
2.541240368878
 30
0.0
  0
SPLINE
  5
69
330
A
100
AcDbEntity
  8
1
  6
solid
 62
     7
100
AcDbSpline
210
0.0
220
0.0
230
1.0
 70
     8
 71
     2
 72
     7
 73
     4
 74
     0
 42
0.0000000001
 43
0.0000000001
 40
0.0
 40
0.0
 40
0.0
 40
1.0
 40
2.0
 40
2.0
 40
2.0
 10
0.7749774662572547
 20
2.541240368878
 30
0.0
 10
0.7749774662572547
 20
2.531705950273349
 30
0.0
 10
0.7843086290479525
 20
2.52354548515707
 30
0.0
 10
0.7915611871874873
 20
2.52354548515707
 30
0.0
  0
SPLINE
  5
6A
330
A
100
AcDbEntity
  8
1
  6
solid
 62
     7
100
AcDbSpline
210
0.0
220
0.0
230
1.0
 70
     8
 71
     2
 72
     7
 73
     4
 74
     0
 42
0.0000000001
 43
0.0000000001
 40
0.0
 40
0.0
 40
0.0
 40
1.0
 40
2.0
 40
2.0
 40
2.0
 10
0.7915611871874873
 20
2.52354548515707
 30
0.0
 10
0.7986351406758593
 20
2.52354548515707
 30
0.0
 10
0.8084076988153942
 20
2.531482694459396
 30
0.0
 10
0.8084076988153942
 20
2.539757113064047
 30
0.0
  0
LINE
  5
6B
330
A
100
AcDbEntity
  8
1
  6
solid
 62
     7
100
AcDbLine
 10
0.8956156057921383
 20
2.455231531668698
 30
0.0
 11
0.8956156057921383
 21
2.479940833994279
 31
0.0
  0
LINE
  5
6C
330
A
100
AcDbEntity
  8
1
  6
solid
 62
     7
100
AcDbLine
 10
0.8956156057921383
 20
2.479940833994279
 30
0.0
 11
0.8461970011409755
 21
2.479940833994279
 31
0.0
  0
LINE
  5
6D
330
A
100
AcDbEntity
  8
1
  6
solid
 62
     7
100
AcDbLine
 10
0.8461970011409755
 20
2.479940833994279
 30
0.0
 11
0.8461970011409755
 21
2.499729206087303
 31
0.0
  0
LINE
  5
6E
330
A
100
AcDbEntity
  8
1
  6
solid
 62
     7
100
AcDbLine
 10
0.8461970011409755
 20
2.499729206087303
 30
0.0
 11
0.8987607220712082
 21
2.578778043296605
 31
0.0
  0
LINE
  5
6F
330
A
100
AcDbEntity
  8
1
  6
solid
 62
     7
100
AcDbLine
 10
0.8987607220712082
 20
2.578778043296605
 30
0.0
 11
0.9203249081177197
 21
2.578778043296605
 31
0.0
  0
LINE
  5
70
330
A
100
AcDbEntity
  8
1
  6
solid
 62
     7
100
AcDbLine
 10
0.9203249081177197
 20
2.578778043296605
 30
0.0
 11
0.9203249081177197
 21
2.500289671203582
 31
0.0
  0
LINE
  5
71
330
A
100
AcDbEntity
  8
1
  6
solid
 62
     7
100
AcDbLine
 10
0.9203249081177197
 20
2.500289671203582
 30
0.0
 11
0.9363132802107429
 21
2.500289671203582
 31
0.0
  0
LINE
  5
72
330
A
100
AcDbEntity
  8
1
  6
solid
 62
     7
100
AcDbLine
 10
0.9363132802107429
 20
2.500289671203582
 30
0.0
 11
0.9363132802107429
 21
2.479940833994279
 31
0.0
  0
LINE
  5
73
330
A
100
AcDbEntity
  8
1
  6
solid
 62
     7
100
AcDbLine
 10
0.9363132802107429
 20
2.479940833994279
 30
0.0
 11
0.9203249081177197
 21
2.479940833994279
 31
0.0
  0
LINE
  5
74
330
A
100
AcDbEntity
  8
1
  6
solid
 62
     7
100
AcDbLine
 10
0.9203249081177197
 20
2.479940833994279
 30
0.0
 11
0.9203249081177197
 21
2.455231531668698
 31
0.0
  0
LINE
  5
75
330
A
100
AcDbEntity
  8
1
  6
solid
 62
     7
100
AcDbLine
 10
0.8956156057921383
 20
2.455231531668698
 30
0.0
 11
0.9203249081177197
 21
2.455231531668698
 31
0.0
  0
LINE
  5
76
330
A
100
AcDbEntity
  8
1
  6
solid
 62
     7
100
AcDbLine
 10
0.8956156057921383
 20
2.500289671203582
 30
0.0
 11
0.8956156057921383
 21
2.540114322366372
 31
0.0
  0
LINE
  5
77
330
A
100
AcDbEntity
  8
1
  6
solid
 62
     7
100
AcDbLine
 10
0.8956156057921383
 20
2.540114322366372
 30
0.0
 11
0.8684607220712081
 21
2.500289671203582
 31
0.0
  0
LINE
  5
78
330
A
100
AcDbEntity
  8
1
  6
solid
 62
     7
100
AcDbLine
 10
0.8956156057921383
 20
2.500289671203582
 30
0.0
 11
0.8684607220712081
 21
2.500289671203582
 31
0.0
  0
LINE
  5
79
330
A
100
AcDbEntity
  8
1
  6
solid
 62
     7
100
AcDbLine
 10
-2.264954224752249
 20
2.988378768447315
 30
0.0
 11
-2.303742076270816
 21
2.902905085907267
 31
0.0
  0
ARC
  5
7A
330
A
100
AcDbEntity
  8
1
  6
solid
 62
     7
100
AcDbCircle
 10
-2.073417993900685
 20
2.540967777509081
 30
0.0
 40
0.4290080530354557
100
AcDbArc
 50
122.4712065072364
 51
240.8836077673932
  0
LINE
  5
7B
330
A
100
AcDbEntity
  8
1
  6
solid
 62
     7
100
AcDbLine
 10
-2.282167049438309
 20
2.166172135173429
 30
0.0
 11
-2.278115583461168
 21
2.067467125676454
 31
0.0
  0
ARC
  5
7C
330
A
100
AcDbEntity
  8
1
  6
solid
 62
     7
100
AcDbCircle
 10
-2.413080113475165
 20
1.812754245623338
 30
0.0
 40
0.2882603173683275
100
AcDbArc
 50
340.0654810883263
 51
422.0822284762469
  0
ARC
  5
7D
330
A
100
AcDbEntity
  8
1
  6
solid
 62
     7
100
AcDbCircle
 10
-0.8646271711981864
 20
1.388213931066174
 30
0.0
 40
1.318468913157228
100
AcDbArc
 50
165.6731432079994
 51
202.1359465675197
  0
ARC
  5
7E
330
A
100
AcDbEntity
  8
1
  6
solid
 62
     7
100
AcDbCircle
 10
-1.974858283771519
 20
0.6896593344390678
 30
0.0
 40
0.2302953309583255
100
AcDbArc
 50
118.8315189254812
 51
218.3951534982098
  0
ARC
  5
7F
330
A
100
AcDbEntity
  8
1
  6
solid
 62
     7
100
AcDbCircle
 10
-3.491330867364929
 20
-0.8795342885288199
 30
0.0
 40
1.954169328484622
100
AcDbArc
 50
44.36835327657995
 51
46.8699968475107
  0
ARC
  5
80
330
A
100
AcDbEntity
  8
1
  6
solid
 62
     7
100
AcDbCircle
 10
-2.143400677684567
 20
0.3757573455311287
 30
0.0
 40
0.1215253289539413
100
AcDbArc
 50
356.6506793205415
 51
426.2080387408238
  0
LINE
  5
81
330
A
100
AcDbEntity
  8
1
  6
solid
 62
     7
100
AcDbLine
 10
-1.989077433873192
 20
3.283307975654708
 30
0.0
 11
-1.814926024573779
 21
3.283307975654708
 31
0.0
  0
ARC
  5
82
330
A
100
AcDbEntity
  8
1
  6
solid
 62
     7
100
AcDbCircle
 10
-2.323042394947929
 20
3.319206509431963
 30
0.0
 40
0.3358888208217232
100
AcDbArc
 50
279.9587179857939
 51
353.8647245080583
  0
LINE
  5
83
330
A
100
AcDbEntity
  8
1
  6
solid
 62
     7
100
AcDbLine
 10
-1.814926024573779
 20
0.2833079756547083
 30
0.0
 11
-1.938248538431264
 21
0.2833079756547083
 31
0.0
  0
ARC
  5
84
330
A
100
AcDbEntity
  8
1
  6
solid
 62
     7
100
AcDbCircle
 10
-2.081370887400904
 20
0.2265741878688035
 30
0.0
 40
0.1539569077733235
100
AcDbArc
 50
21.62340523289353
 51
67.35037333712542
  0
LINE
  5
85
330
A
100
AcDbEntity
  8
1
  6
solid
 62
     7
100
AcDbLine
 10
-1.814926024573779
 20
3.283307975654708
 30
0.0
 11
-1.814926024573779
 21
2.783307975654708
 31
0.0
  0
LINE
  5
86
330
A
100
AcDbEntity
  8
1
  6
solid
 62
     7
100
AcDbLine
 10
-1.814926024573779
 20
0.7833079756547084
 30
0.0
 11
-1.814926024573779
 21
0.2833079756547083
 31
0.0
  0
LINE
  5
87
330
A
100
AcDbEntity
  8
1
  6
solid
 62
     7
100
AcDbLine
 10
-1.846176024573779
 20
2.783307975654708
 30
0.0
 11
-1.814926024573779
 21
2.783307975654708
 31
0.0
  0
ARC
  5
88
330
A
100
AcDbEntity
  8
1
  6
solid
 62
     7
100
AcDbCircle
 10
-1.846176024573779
 20
2.720807975654708
 30
0.0
 40
0.0625
100
AcDbArc
 50
90.0
 51
180.0
  0
LINE
  5
89
330
A
100
AcDbEntity
  8
1
  6
solid
 62
     7
100
AcDbLine
 10
-1.814926024573779
 20
0.7833079756547084
 30
0.0
 11
-1.846176024573779
 21
0.7833079756547084
 31
0.0
  0
LINE
  5
8A
330
A
100
AcDbEntity
  8
1
  6
solid
 62
     7
100
AcDbLine
 10
-1.908676024573779
 20
0.8458079756547082
 30
0.0
 11
-1.908676024573779
 21
2.720807975654708
 31
0.0
  0
ARC
  5
8B
330
A
100
AcDbEntity
  8
1
  6
solid
 62
     7
100
AcDbCircle
 10
-1.846176024573779
 20
0.8458079756547082
 30
0.0
 40
0.0625
100
AcDbArc
 50
180.0
 51
269.9999999999999
  0
DIMENSION
  5
96
330
A
100
AcDbEntity
  8
1
  6
solid
 62
     7
100
AcDbDimension
  2
*D0
 10
-0.6867445459082205
 20
1.783307999372481
 30
0.0
 11
-0.6867445459082205
 21
1.783307999372481
 31
0.0
 70
    33
 71
     5
 42
3.000000059604644
  3
Standard
100
AcDbAlignedDimension
 13
-1.814926028251647
 23
3.283308029174804
 33
0.0
 14
-1.814926028251647
 24
0.2833079695701599
 34
0.0
1001
ACAD
1000
DSTYLE
1002
{
1070
    41
1040
0.025
1070
    42
1040
0.125
1070
    44
1040
0.0625
1070
    47
1040
0.0005
1070
    48
1040
0.0005
1070
    75
1070
     1
1070
    76
1070
     1
1070
   140
1040
0.125
1070
   146
1040
0.5
1070
   270
1070
     5
1070
   271
1070
     3
1070
   272
1070
     3
1070
   277
1070
     5
1002
}
  0
LINE
  5
A2
330
A
100
AcDbEntity
  8
1
  6
solid
 62
     7
100
AcDbLine
 10
0.3686286316204208
 20
0.043691120109727
 30
0.0
 11
0.337742003713444
 21
0.043691120109727
 31
0.0
  0
LINE
  5
A3
330
A
100
AcDbEntity
  8
1
  6
solid
 62
     7
100
AcDbLine
 10
0.337742003713444
 20
0.043691120109727
 30
0.0
 11
0.337742003713444
 21
0.1547614689469363
 31
0.0
  0
SPLINE
  5
A4
330
A
100
AcDbEntity
  8
1
  6
solid
 62
     7
100
AcDbSpline
210
0.0
220
0.0
230
1.0
 70
     8
 71
     2
 72
     6
 73
     3
 74
     0
 42
0.0000000001
 43
0.0000000001
 40
0.0
 40
0.0
 40
0.0
 40
1.0
 40
1.0
 40
1.0
 10
0.337742003713444
 20
0.1547614689469363
 30
0.0
 10
0.3215018874343742
 20
0.1370579805748433
 30
0.0
 10
0.2995879339460021
 20
0.1290835619701921
 30
0.0
  0
LINE
  5
A5
330
A
100
AcDbEntity
  8
1
  6
solid
 62
     7
100
AcDbLine
 10
0.2995879339460021
 20
0.1290835619701921
 30
0.0
 11
0.2995879339460021
 21
0.1599701898771688
 31
0.0
  0
SPLINE
  5
A6
330
A
100
AcDbEntity
  8
1
  6
solid
 62
     7
100
AcDbSpline
210
0.0
220
0.0
230
1.0
 70
     8
 71
     2
 72
     7
 73
     4
 74
     0
 42
0.0000000001
 43
0.0000000001
 40
0.0
 40
0.0
 40
0.0
 40
1.0
 40
2.0
 40
2.0
 40
2.0
 10
0.2995879339460021
 20
0.1599701898771688
 30
0.0
 10
0.3110658409227463
 20
0.1637713526678665
 30
0.0
 10
0.3385978176669324
 20
0.1854620503422851
 30
0.0
 10
0.3438437478994905
 20
0.199941120109727
 30
0.0
  0
LINE
  5
A7
330
A
100
AcDbEntity
  8
1
  6
solid
 62
     7
100
AcDbLine
 10
0.3438437478994905
 20
0.199941120109727
 30
0.0
 11
0.3686286316204208
 21
0.199941120109727
 31
0.0
  0
LINE
  5
A8
330
A
100
AcDbEntity
  8
1
  6
solid
 62
     7
100
AcDbLine
 10
0.3686286316204208
 20
0.043691120109727
 30
0.0
 11
0.3686286316204208
 21
0.199941120109727
 31
0.0
  0
LINE
  5
A9
330
A
100
AcDbEntity
  8
1
  6
solid
 62
     7
100
AcDbLine
 10
0.4735493292948394
 20
0.043691120109727
 30
0.0
 11
0.4426627013878627
 21
0.043691120109727
 31
0.0
  0
LINE
  5
AA
330
A
100
AcDbEntity
  8
1
  6
solid
 62
     7
100
AcDbLine
 10
0.4426627013878627
 20
0.043691120109727
 30
0.0
 11
0.4426627013878627
 21
0.1547614689469363
 31
0.0
  0
SPLINE
  5
AB
330
A
100
AcDbEntity
  8
1
  6
solid
 62
     7
100
AcDbSpline
210
0.0
220
0.0
230
1.0
 70
     8
 71
     2
 72
     6
 73
     3
 74
     0
 42
0.0000000001
 43
0.0000000001
 40
0.0
 40
0.0
 40
0.0
 40
1.0
 40
1.0
 40
1.0
 10
0.4426627013878627
 20
0.1547614689469363
 30
0.0
 10
0.4264225851087929
 20
0.1370579805748433
 30
0.0
 10
0.4045086316204208
 20
0.1290835619701921
 30
0.0
  0
LINE
  5
AC
330
A
100
AcDbEntity
  8
1
  6
solid
 62
     7
100
AcDbLine
 10
0.4045086316204208
 20
0.1290835619701921
 30
0.0
 11
0.4045086316204208
 21
0.1599701898771688
 31
0.0
  0
SPLINE
  5
AD
330
A
100
AcDbEntity
  8
1
  6
solid
 62
     7
100
AcDbSpline
210
0.0
220
0.0
230
1.0
 70
     8
 71
     2
 72
     7
 73
     4
 74
     0
 42
0.0000000001
 43
0.0000000001
 40
0.0
 40
0.0
 40
0.0
 40
1.0
 40
2.0
 40
2.0
 40
2.0
 10
0.4045086316204208
 20
0.1599701898771688
 30
0.0
 10
0.415986538597165
 20
0.1637713526678665
 30
0.0
 10
0.443518515341351
 20
0.1854620503422851
 30
0.0
 10
0.4487644455739092
 20
0.199941120109727
 30
0.0
  0
LINE
  5
AE
330
A
100
AcDbEntity
  8
1
  6
solid
 62
     7
100
AcDbLine
 10
0.4487644455739092
 20
0.199941120109727
 30
0.0
 11
0.4735493292948394
 21
0.199941120109727
 31
0.0
  0
LINE
  5
AF
330
A
100
AcDbEntity
  8
1
  6
solid
 62
     7
100
AcDbLine
 10
0.4735493292948394
 20
0.043691120109727
 30
0.0
 11
0.4735493292948394
 21
0.199941120109727
 31
0.0
  0
LINE
  5
B0
330
A
100
AcDbEntity
  8
1
  6
solid
 62
     7
100
AcDbLine
 10
0.5083938641785603
 20
0.043691120109727
 30
0.0
 11
0.5447496781320487
 21
0.199941120109727
 31
0.0
  0
LINE
  5
B1
330
A
100
AcDbEntity
  8
1
  6
solid
 62
     7
100
AcDbLine
 10
0.5447496781320487
 20
0.199941120109727
 30
0.0
 11
0.5693857246436766
 21
0.199941120109727
 31
0.0
  0
LINE
  5
B2
330
A
100
AcDbEntity
  8
1
  6
solid
 62
     7
100
AcDbLine
 10
0.5693857246436766
 20
0.199941120109727
 30
0.0
 11
0.5330485153413509
 21
0.043691120109727
 31
0.0
  0
LINE
  5
B3
330
A
100
AcDbEntity
  8
1
  6
solid
 62
     7
100
AcDbLine
 10
0.5083938641785603
 20
0.043691120109727
 30
0.0
 11
0.5330485153413509
 21
0.043691120109727
 31
0.0
  0
LINE
  5
B4
330
A
100
AcDbEntity
  8
1
  6
solid
 62
     7
100
AcDbLine
 10
0.6743064223180952
 20
0.043691120109727
 30
0.0
 11
0.6434197944111184
 21
0.043691120109727
 31
0.0
  0
LINE
  5
B5
330
A
100
AcDbEntity
  8
1
  6
solid
 62
     7
100
AcDbLine
 10
0.6434197944111184
 20
0.043691120109727
 30
0.0
 11
0.6434197944111184
 21
0.1547614689469363
 31
0.0
  0
SPLINE
  5
B6
330
A
100
AcDbEntity
  8
1
  6
solid
 62
     7
100
AcDbSpline
210
0.0
220
0.0
230
1.0
 70
     8
 71
     2
 72
     6
 73
     3
 74
     0
 42
0.0000000001
 43
0.0000000001
 40
0.0
 40
0.0
 40
0.0
 40
1.0
 40
1.0
 40
1.0
 10
0.6434197944111184
 20
0.1547614689469363
 30
0.0
 10
0.6271796781320486
 20
0.1370579805748433
 30
0.0
 10
0.6052657246436766
 20
0.1290835619701921
 30
0.0
  0
LINE
  5
B7
330
A
100
AcDbEntity
  8
1
  6
solid
 62
     7
100
AcDbLine
 10
0.6052657246436766
 20
0.1290835619701921
 30
0.0
 11
0.6052657246436766
 21
0.1599701898771688
 31
0.0
  0
SPLINE
  5
B8
330
A
100
AcDbEntity
  8
1
  6
solid
 62
     7
100
AcDbSpline
210
0.0
220
0.0
230
1.0
 70
     8
 71
     2
 72
     7
 73
     4
 74
     0
 42
0.0000000001
 43
0.0000000001
 40
0.0
 40
0.0
 40
0.0
 40
1.0
 40
2.0
 40
2.0
 40
2.0
 10
0.6052657246436766
 20
0.1599701898771688
 30
0.0
 10
0.6167436316204207
 20
0.1637713526678665
 30
0.0
 10
0.6442756083646067
 20
0.1854620503422851
 30
0.0
 10
0.649521538597165
 20
0.199941120109727
 30
0.0
  0
LINE
  5
B9
330
A
100
AcDbEntity
  8
1
  6
solid
 62
     7
100
AcDbLine
 10
0.649521538597165
 20
0.199941120109727
 30
0.0
 11
0.6743064223180952
 21
0.199941120109727
 31
0.0
  0
LINE
  5
BA
330
A
100
AcDbEntity
  8
1
  6
solid
 62
     7
100
AcDbLine
 10
0.6743064223180952
 20
0.043691120109727
 30
0.0
 11
0.6743064223180952
 21
0.199941120109727
 31
0.0
  0
LINE
  5
BB
330
A
100
AcDbEntity
  8
1
  6
solid
 62
     7
100
AcDbLine
 10
0.8101137478994903
 20
0.1573225154585642
 30
0.0
 11
0.7792271199925138
 21
0.15451960848182
 31
0.0
  0
SPLINE
  5
BC
330
A
100
AcDbEntity
  8
1
  6
solid
 62
     7
100
AcDbSpline
210
0.0
220
0.0
230
1.0
 70
     8
 71
     2
 72
     7
 73
     4
 74
     0
 42
0.0000000001
 43
0.0000000001
 40
0.0
 40
0.0
 40
0.0
 40
1.0
 40
2.0
 40
2.0
 40
2.0
 10
0.7792271199925138
 20
0.15451960848182
 30
0.0
 10
0.7779125851087928
 20
0.1637527480167037
 30
0.0
 10
0.7690515385971649
 20
0.1726882131329828
 30
0.0
 10
0.7619701432483277
 20
0.1726882131329828
 30
0.0
  0
SPLINE
  5
BD
330
A
100
AcDbEntity
  8
1
  6
solid
 62
     7
100
AcDbSpline
210
0.0
220
0.0
230
1.0
 70
     8
 71
     2
 72
     7
 73
     4
 74
     0
 42
0.0000000001
 43
0.0000000001
 40
0.0
 40
0.0
 40
0.0
 40
1.0
 40
2.0
 40
2.0
 40
2.0
 10
0.7619701432483277
 20
0.1726882131329828
 30
0.0
 10
0.7527742130157696
 20
0.1726882131329828
 30
0.0
 10
0.7400003758064673
 20
0.1545568177841456
 30
0.0
 10
0.738276538597165
 20
0.1263242596446107
 30
0.0
  0
SPLINE
  5
BE
330
A
100
AcDbEntity
  8
1
  6
solid
 62
     7
100
AcDbSpline
210
0.0
220
0.0
230
1.0
 70
     8
 71
     2
 72
     6
 73
     3
 74
     0
 42
0.0000000001
 43
0.0000000001
 40
0.0
 40
0.0
 40
0.0
 40
1.0
 40
1.0
 40
1.0
 10
0.738276538597165
 20
0.1263242596446107
 30
0.0
 10
0.7501573525506533
 20
0.1399847247608898
 30
0.0
 10
0.7669556083646068
 20
0.1399847247608898
 30
0.0
  0
SPLINE
  5
BF
330
A
100
AcDbEntity
  8
1
  6
solid
 62
     7
100
AcDbSpline
210
0.0
220
0.0
230
1.0
 70
     8
 71
     2
 72
     7
 73
     4
 74
     0
 42
0.0000000001
 43
0.0000000001
 40
0.0
 40
0.0
 40
0.0
 40
1.0
 40
2.0
 40
2.0
 40
2.0
 10
0.7669556083646068
 20
0.1399847247608898
 30
0.0
 10
0.7857939804576301
 20
0.1399847247608898
 30
0.0
 10
0.8137474688297229
 20
0.1129550735980991
 30
0.0
 10
0.8137474688297229
 20
0.091487631737634
 30
0.0
  0
SPLINE
  5
C0
330
A
100
AcDbEntity
  8
1
  6
solid
 62
     7
100
AcDbSpline
210
0.0
220
0.0
230
1.0
 70
     8
 71
     2
 72
     7
 73
     4
 74
     0
 42
0.0000000001
 43
0.0000000001
 40
0.0
 40
0.0
 40
0.0
 40
1.0
 40
2.0
 40
2.0
 40
2.0
 10
0.8137474688297229
 20
0.091487631737634
 30
0.0
 10
0.8137474688297229
 20
0.0691643759236805
 30
0.0
 10
0.7854218874343743
 20
0.0418742596446107
 30
0.0
 10
0.7635637478994905
 20
0.0418742596446107
 30
0.0
  0
SPLINE
  5
C1
330
A
100
AcDbEntity
  8
1
  6
solid
 62
     7
100
AcDbSpline
210
0.0
220
0.0
230
1.0
 70
     8
 71
     2
 72
     7
 73
     4
 74
     0
 42
0.0000000001
 43
0.0000000001
 40
0.0
 40
0.0
 40
0.0
 40
1.0
 40
2.0
 40
2.0
 40
2.0
 10
0.7635637478994905
 20
0.0418742596446107
 30
0.0
 10
0.7400375851087928
 20
0.0418742596446107
 30
0.0
 10
0.7101864223180952
 20
0.0782672829004247
 30
0.0
 10
0.7101864223180952
 20
0.1192428642957735
 30
0.0
  0
SPLINE
  5
C2
330
A
100
AcDbEntity
  8
1
  6
solid
 62
     7
100
AcDbSpline
210
0.0
220
0.0
230
1.0
 70
     8
 71
     2
 72
     7
 73
     4
 74
     0
 42
0.0000000001
 43
0.0000000001
 40
0.0
 40
0.0
 40
0.0
 40
1.0
 40
2.0
 40
2.0
 40
2.0
 10
0.7101864223180952
 20
0.1192428642957735
 30
0.0
 10
0.7101864223180952
 20
0.1621591433655409
 30
0.0
 10
0.741333515341351
 20
0.199941120109727
 30
0.0
 10
0.7658457246436765
 20
0.199941120109727
 30
0.0
  0
SPLINE
  5
C3
330
A
100
AcDbEntity
  8
1
  6
solid
 62
     7
100
AcDbSpline
210
0.0
220
0.0
230
1.0
 70
     8
 71
     2
 72
     7
 73
     4
 74
     0
 42
0.0000000001
 43
0.0000000001
 40
0.0
 40
0.0
 40
0.0
 40
1.0
 40
2.0
 40
2.0
 40
2.0
 10
0.7658457246436765
 20
0.199941120109727
 30
0.0
 10
0.7835864223180952
 20
0.199941120109727
 30
0.0
 10
0.8067963060390253
 20
0.178287631737634
 30
0.0
 10
0.8101137478994903
 20
0.1573225154585642
 30
0.0
  0
SPLINE
  5
C4
330
A
100
AcDbEntity
  8
1
  6
solid
 62
     7
100
AcDbSpline
210
0.0
220
0.0
230
1.0
 70
     8
 71
     2
 72
     7
 73
     4
 74
     0
 42
0.0000000001
 43
0.0000000001
 40
0.0
 40
0.0
 40
0.0
 40
1.0
 40
2.0
 40
2.0
 40
2.0
 10
0.7410730502250719
 20
0.0918597247608898
 30
0.0
 10
0.7410730502250719
 20
0.0808097247608898
 30
0.0
 10
0.7543306083646068
 20
0.0691271666213549
 30
0.0
 10
0.7631544455739091
 20
0.0691271666213549
 30
0.0
  0
SPLINE
  5
C5
330
A
100
AcDbEntity
  8
1
  6
solid
 62
     7
100
AcDbSpline
210
0.0
220
0.0
230
1.0
 70
     8
 71
     2
 72
     7
 73
     4
 74
     0
 42
0.0000000001
 43
0.0000000001
 40
0.0
 40
0.0
 40
0.0
 40
1.0
 40
2.0
 40
2.0
 40
2.0
 10
0.7631544455739091
 20
0.0691271666213549
 30
0.0
 10
0.7711474688297231
 20
0.0691271666213549
 30
0.0
 10
0.7828608409227464
 20
0.0787510038306572
 30
0.0
 10
0.7828608409227464
 20
0.089912631737634
 30
0.0
  0
SPLINE
  5
C6
330
A
100
AcDbEntity
  8
1
  6
solid
 62
     7
100
AcDbSpline
210
0.0
220
0.0
230
1.0
 70
     8
 71
     2
 72
     7
 73
     4
 74
     0
 42
0.0000000001
 43
0.0000000001
 40
0.0
 40
0.0
 40
0.0
 40
1.0
 40
2.0
 40
2.0
 40
2.0
 10
0.7828608409227464
 20
0.089912631737634
 30
0.0
 10
0.7828608409227464
 20
0.1019050735980991
 30
0.0
 10
0.7705893292948394
 20
0.1127318177841456
 30
0.0
 10
0.7615422362715835
 20
0.1127318177841456
 30
0.0
  0
SPLINE
  5
C7
330
A
100
AcDbEntity
  8
1
  6
solid
 62
     7
100
AcDbSpline
210
0.0
220
0.0
230
1.0
 70
     8
 71
     2
 72
     7
 73
     4
 74
     0
 42
0.0000000001
 43
0.0000000001
 40
0.0
 40
0.0
 40
0.0
 40
1.0
 40
2.0
 40
2.0
 40
2.0
 10
0.7615422362715835
 20
0.1127318177841456
 30
0.0
 10
0.7527183990622813
 20
0.1127318177841456
 30
0.0
 10
0.7410730502250719
 20
0.1022213526678665
 30
0.0
 10
0.7410730502250719
 20
0.0918597247608898
 30
0.0
  0
LINE
  5
C8
330
A
100
AcDbEntity
  8
1
  6
solid
 62
     7
100
AcDbLine
 10
0.8879196781320485
 20
0.043691120109727
 30
0.0
 11
0.9280394455739092
 21
0.1023701898771688
 31
0.0
  0
LINE
  5
C9
330
A
100
AcDbEntity
  8
1
  6
solid
 62
     7
100
AcDbLine
 10
0.9280394455739092
 20
0.1023701898771688
 30
0.0
 11
0.8915533990622812
 21
0.1581533294120526
 31
0.0
  0
LINE
  5
CA
330
A
100
AcDbEntity
  8
1
  6
solid
 62
     7
100
AcDbLine
 10
0.8915533990622812
 20
0.1581533294120526
 30
0.0
 11
0.928318515341351
 21
0.1581533294120526
 31
0.0
  0
LINE
  5
CB
330
A
100
AcDbEntity
  8
1
  6
solid
 62
     7
100
AcDbLine
 10
0.928318515341351
 20
0.1581533294120526
 30
0.0
 11
0.9455754920855369
 21
0.1262498410399595
 31
0.0
  0
LINE
  5
CC
330
A
100
AcDbEntity
  8
1
  6
solid
 62
     7
100
AcDbLine
 10
0.9455754920855369
 20
0.1262498410399595
 30
0.0
 11
0.9637813060390254
 21
0.1581533294120526
 31
0.0
  0
LINE
  5
CD
330
A
100
AcDbEntity
  8
1
  6
solid
 62
     7
100
AcDbLine
 10
0.9637813060390254
 20
0.1581533294120526
 30
0.0
 11
1.000565026969257
 21
0.1581533294120526
 31
0.0
  0
LINE
  5
CE
330
A
100
AcDbEntity
  8
1
  6
solid
 62
     7
100
AcDbLine
 10
1.000565026969257
 20
0.1581533294120526
 30
0.0
 11
0.9627644455739091
 21
0.1038335619701921
 31
0.0
  0
LINE
  5
CF
330
A
100
AcDbEntity
  8
1
  6
solid
 62
     7
100
AcDbLine
 10
0.9627644455739091
 20
0.1038335619701921
 30
0.0
 11
1.00419874789949
 21
0.043691120109727
 31
0.0
  0
LINE
  5
D0
330
A
100
AcDbEntity
  8
1
  6
solid
 62
     7
100
AcDbLine
 10
1.00419874789949
 20
0.043691120109727
 30
0.0
 11
0.967415026969258
 21
0.043691120109727
 31
0.0
  0
LINE
  5
D1
330
A
100
AcDbEntity
  8
1
  6
solid
 62
     7
100
AcDbLine
 10
0.967415026969258
 20
0.043691120109727
 30
0.0
 11
0.9455754920855369
 21
0.0788254224353084
 31
0.0
  0
LINE
  5
D2
330
A
100
AcDbEntity
  8
1
  6
solid
 62
     7
100
AcDbLine
 10
0.9455754920855369
 20
0.0788254224353084
 30
0.0
 11
0.9246847944111184
 21
0.043691120109727
 31
0.0
  0
LINE
  5
D3
330
A
100
AcDbEntity
  8
1
  6
solid
 62
     7
100
AcDbLine
 10
0.8879196781320485
 20
0.043691120109727
 30
0.0
 11
0.9246847944111184
 21
0.043691120109727
 31
0.0
  0
LINE
  5
D4
330
A
100
AcDbEntity
  8
1
  6
solid
 62
     7
100
AcDbLine
 10
1.078997119992513
 20
0.089112631737634
 30
0.0
 11
1.10988374789949
 21
0.0927463526678665
 31
0.0
  0
SPLINE
  5
D5
330
A
100
AcDbEntity
  8
1
  6
solid
 62
     7
100
AcDbSpline
210
0.0
220
0.0
230
1.0
 70
     8
 71
     2
 72
     7
 73
     4
 74
     0
 42
0.0000000001
 43
0.0000000001
 40
0.0
 40
0.0
 40
0.0
 40
1.0
 40
2.0
 40
2.0
 40
2.0
 10
1.10988374789949
 20
0.0927463526678665
 30
0.0
 10
1.110739561852978
 20
0.0808469340632154
 30
0.0
 10
1.122676189759955
 20
0.0691271666213549
 30
0.0
 10
1.13053898045763
 20
0.0691271666213549
 30
0.0
  0
SPLINE
  5
D6
330
A
100
AcDbEntity
  8
1
  6
solid
 62
     7
100
AcDbSpline
210
0.0
220
0.0
230
1.0
 70
     8
 71
     2
 72
     7
 73
     4
 74
     0
 42
0.0000000001
 43
0.0000000001
 40
0.0
 40
0.0
 40
0.0
 40
1.0
 40
2.0
 40
2.0
 40
2.0
 10
1.13053898045763
 20
0.0691271666213549
 30
0.0
 10
1.13941863162042
 20
0.0691271666213549
 30
0.0
 10
1.151671538597164
 20
0.0811818177841456
 30
0.0
 10
1.151671538597164
 20
0.0919713526678665
 30
0.0
  0
SPLINE
  5
D7
330
A
100
AcDbEntity
  8
1
  6
solid
 62
     7
100
AcDbSpline
210
0.0
220
0.0
230
1.0
 70
     8
 71
     2
 72
     7
 73
     4
 74
     0
 42
0.0000000001
 43
0.0000000001
 40
0.0
 40
0.0
 40
0.0
 40
1.0
 40
2.0
 40
2.0
 40
2.0
 10
1.151671538597164
 20
0.0919713526678665
 30
0.0
 10
1.151671538597164
 20
0.1023701898771688
 30
0.0
 10
1.140807585108792
 20
0.1145486782492619
 30
0.0
 10
1.132579096736699
 20
0.1145486782492619
 30
0.0
  0
SPLINE
  5
D8
330
A
100
AcDbEntity
  8
1
  6
solid
 62
     7
100
AcDbSpline
210
0.0
220
0.0
230
1.0
 70
     8
 71
     2
 72
     6
 73
     3
 74
     0
 42
0.0000000001
 43
0.0000000001
 40
0.0
 40
0.0
 40
0.0
 40
1.0
 40
1.0
 40
1.0
 10
1.132579096736699
 20
0.1145486782492619
 30
0.0
 10
1.127333166504141
 20
0.1145486782492619
 30
0.0
 10
1.120784910690188
 20
0.111826585226006
 30
0.0
  0
LINE
  5
D9
330
A
100
AcDbEntity
  8
1
  6
solid
 62
     7
100
AcDbLine
 10
1.120784910690188
 20
0.111826585226006
 30
0.0
 11
1.123215724643676
 21
0.1381678642957735
 31
0.0
  0
SPLINE
  5
DA
330
A
100
AcDbEntity
  8
1
  6
solid
 62
     7
100
AcDbSpline
210
0.0
220
0.0
230
1.0
 70
     8
 71
     2
 72
     7
 73
     4
 74
     0
 42
0.0000000001
 43
0.0000000001
 40
0.0
 40
0.0
 40
0.0
 40
1.0
 40
2.0
 40
2.0
 40
2.0
 10
1.123215724643676
 20
0.1381678642957735
 30
0.0
 10
1.133633166504141
 20
0.1373184456911223
 30
0.0
 10
1.144404096736699
 20
0.147866120109727
 30
0.0
 10
1.144404096736699
 20
0.1566155387143781
 30
0.0
  0
SPLINE
  5
DB
330
A
100
AcDbEntity
  8
1
  6
solid
 62
     7
100
AcDbSpline
210
0.0
220
0.0
230
1.0
 70
     8
 71
     2
 72
     7
 73
     4
 74
     0
 42
0.0000000001
 43
0.0000000001
 40
0.0
 40
0.0
 40
0.0
 40
1.0
 40
2.0
 40
2.0
 40
2.0
 10
1.144404096736699
 20
0.1566155387143781
 30
0.0
 10
1.144404096736699
 20
0.1638829805748432
 30
0.0
 10
1.136119794411118
 20
0.1726882131329828
 30
0.0
 10
1.129980840922746
 20
0.1726882131329828
 30
0.0
  0
SPLINE
  5
DC
330
A
100
AcDbEntity
  8
1
  6
solid
 62
     7
100
AcDbSpline
210
0.0
220
0.0
230
1.0
 70
     8
 71
     2
 72
     7
 73
     4
 74
     0
 42
0.0000000001
 43
0.0000000001
 40
0.0
 40
0.0
 40
0.0
 40
1.0
 40
2.0
 40
2.0
 40
2.0
 10
1.129980840922746
 20
0.1726882131329828
 30
0.0
 10
1.123252933946002
 20
0.1726882131329828
 30
0.0
 10
1.11416863162042
 20
0.1622521666213549
 30
0.0
 10
1.113517468829723
 20
0.1527027480167037
 30
0.0
  0
LINE
  5
DD
330
A
100
AcDbEntity
  8
1
  6
solid
 62
     7
100
AcDbLine
 10
1.113517468829723
 20
0.1527027480167037
 30
0.0
 11
1.082630840922746
 21
0.15689460848182
 31
0.0
  0
SPLINE
  5
DE
330
A
100
AcDbEntity
  8
1
  6
solid
 62
     7
100
AcDbSpline
210
0.0
220
0.0
230
1.0
 70
     8
 71
     2
 72
     8
 73
     5
 74
     0
 42
0.0000000001
 43
0.0000000001
 40
0.0
 40
0.0
 40
0.0
 40
1.0
 40
2.0
 40
3.0
 40
3.0
 40
3.0
 10
1.082630840922746
 20
0.15689460848182
 30
0.0
 10
1.08509886417856
 20
0.1716341433655409
 30
0.0
 10
1.096316306039025
 20
0.1895236782492619
 30
0.0
 10
1.117188399062281
 20
0.199941120109727
 30
0.0
 10
1.129224445573909
 20
0.199941120109727
 30
0.0
  0
SPLINE
  5
DF
330
A
100
AcDbEntity
  8
1
  6
solid
 62
     7
100
AcDbSpline
210
0.0
220
0.0
230
1.0
 70
     8
 71
     2
 72
     6
 73
     3
 74
     0
 42
0.0000000001
 43
0.0000000001
 40
0.0
 40
0.0
 40
0.0
 40
1.0
 40
1.0
 40
1.0
 10
1.129224445573909
 20
0.199941120109727
 30
0.0
 10
1.150915143248327
 20
0.199941120109727
 30
0.0
 10
1.164482585108792
 20
0.185648096853913
 30
0.0
  0
SPLINE
  5
E0
330
A
100
AcDbEntity
  8
1
  6
solid
 62
     7
100
AcDbSpline
210
0.0
220
0.0
230
1.0
 70
     8
 71
     2
 72
     6
 73
     3
 74
     0
 42
0.0000000001
 43
0.0000000001
 40
0.0
 40
0.0
 40
0.0
 40
1.0
 40
1.0
 40
1.0
 10
1.164482585108792
 20
0.185648096853913
 30
0.0
 10
1.175290724643676
 20
0.1736742596446107
 30
0.0
 10
1.175290724643676
 20
0.1591207712725177
 30
0.0
  0
SPLINE
  5
E1
330
A
100
AcDbEntity
  8
1
  6
solid
 62
     7
100
AcDbSpline
210
0.0
220
0.0
230
1.0
 70
     8
 71
     2
 72
     6
 73
     3
 74
     0
 42
0.0000000001
 43
0.0000000001
 40
0.0
 40
0.0
 40
0.0
 40
1.0
 40
1.0
 40
1.0
 10
1.175290724643676
 20
0.1591207712725177
 30
0.0
 10
1.175290724643676
 20
0.1386515852260061
 30
0.0
 10
1.152006422318095
 20
0.1261940270864712
 30
0.0
  0
SPLINE
  5
E2
330
A
100
AcDbEntity
  8
1
  6
solid
 62
     7
100
AcDbSpline
210
0.0
220
0.0
230
1.0
 70
     8
 71
     2
 72
     7
 73
     4
 74
     0
 42
0.0000000001
 43
0.0000000001
 40
0.0
 40
0.0
 40
0.0
 40
1.0
 40
2.0
 40
2.0
 40
2.0
 10
1.152006422318095
 20
0.1261940270864712
 30
0.0
 10
1.165450026969258
 20
0.1237260038306572
 30
0.0
 10
1.182558166504141
 20
0.1040010038306572
 30
0.0
 10
1.182558166504141
 20
0.089912631737634
 30
0.0
  0
SPLINE
  5
E3
330
A
100
AcDbEntity
  8
1
  6
solid
 62
     7
100
AcDbSpline
210
0.0
220
0.0
230
1.0
 70
     8
 71
     2
 72
     7
 73
     4
 74
     0
 42
0.0000000001
 43
0.0000000001
 40
0.0
 40
0.0
 40
0.0
 40
1.0
 40
2.0
 40
2.0
 40
2.0
 10
1.182558166504141
 20
0.089912631737634
 30
0.0
 10
1.182558166504141
 20
0.0698341433655409
 30
0.0
 10
1.152266887434374
 20
0.0418742596446107
 30
0.0
 10
1.130111073480885
 20
0.0418742596446107
 30
0.0
  0
SPLINE
  5
E4
330
A
100
AcDbEntity
  8
1
  6
solid
 62
     7
100
AcDbSpline
210
0.0
220
0.0
230
1.0
 70
     8
 71
     2
 72
     7
 73
     4
 74
     0
 42
0.0000000001
 43
0.0000000001
 40
0.0
 40
0.0
 40
0.0
 40
1.0
 40
2.0
 40
2.0
 40
2.0
 10
1.130111073480885
 20
0.0418742596446107
 30
0.0
 10
1.108736654876234
 20
0.0418742596446107
 30
0.0
 10
1.081093050225071
 20
0.0677568177841456
 30
0.0
 10
1.078997119992513
 20
0.089112631737634
 30
0.0
  0
LINE
  5
E6
330
A
100
AcDbEntity
  8
0
  6
solid
 62
     7
100
AcDbLine
 10
0.7044450711375577
 20
2.648200958946917
 30
0.0
 11
0.7044450711375577
 21
2.773200958946917
 31
0.0
  0
LINE
  5
E7
330
A
100
AcDbEntity
  8
0
  6
solid
 62
     7
100
AcDbLine
 10
0.7044450711375577
 20
2.773200958946917
 30
0.0
 11
0.7279957957752389
 21
2.773200958946917
 31
0.0
  0
LINE
  5
E8
330
A
100
AcDbEntity
  8
0
  6
solid
 62
     7
100
AcDbLine
 10
0.7279957957752389
 20
2.773200958946917
 30
0.0
 11
0.7279957957752389
 21
2.6699400893817
 31
0.0
  0
LINE
  5
E9
330
A
100
AcDbEntity
  8
0
  6
solid
 62
     7
100
AcDbLine
 10
0.7279957957752389
 20
2.6699400893817
 30
0.0
 11
0.7932131870795867
 21
2.6699400893817
 31
0.0
  0
LINE
  5
EA
330
A
100
AcDbEntity
  8
0
  6
solid
 62
     7
100
AcDbLine
 10
0.7932131870795867
 20
2.6699400893817
 30
0.0
 11
0.7932131870795867
 21
2.648200958946917
 31
0.0
  0
LINE
  5
EB
330
A
100
AcDbEntity
  8
0
  6
solid
 62
     7
100
AcDbLine
 10
0.7044450711375577
 20
2.648200958946917
 30
0.0
 11
0.7932131870795867
 21
2.648200958946917
 31
0.0
  0
LINE
  5
EC
330
A
100
AcDbEntity
  8
0
  6
solid
 62
     7
100
AcDbLine
 10
0.8113331870795866
 20
2.773200958946917
 30
0.0
 11
0.8572537667897314
 21
2.773200958946917
 31
0.0
  0
SPLINE
  5
ED
330
A
100
AcDbEntity
  8
0
  6
solid
 62
     7
100
AcDbSpline
210
0.0
220
0.0
230
1.0
 70
     8
 71
     2
 72
     6
 73
     3
 74
     0
 42
0.0000000001
 43
0.0000000001
 40
0.0
 40
0.0
 40
0.0
 40
1.0
 40
1.0
 40
1.0
 10
0.8572537667897314
 20
2.773200958946917
 30
0.0
 10
0.8731314479491519
 20
2.773200958946917
 30
0.0
 10
0.8810085493984271
 20
2.770394002425178
 30
0.0
  0
SPLINE
  5
EE
330
A
100
AcDbEntity
  8
0
  6
solid
 62
     7
100
AcDbSpline
210
0.0
220
0.0
230
1.0
 70
     8
 71
     2
 72
     8
 73
     5
 74
     0
 42
0.0000000001
 43
0.0000000001
 40
0.0
 40
0.0
 40
0.0
 40
1.0
 40
2.0
 40
3.0
 40
3.0
 40
3.0
 10
0.8810085493984271
 20
2.770394002425178
 30
0.0
 10
0.8919708682390069
 20
2.767011973439671
 30
0.0
 10
0.9079042015723402
 20
2.750559219816482
 30
0.0
 10
0.9164056508477024
 20
2.726730234309236
 30
0.0
 10
0.9164056508477024
 20
2.708985306773004
 30
0.0
  0
SPLINE
  5
EF
330
A
100
AcDbEntity
  8
0
  6
solid
 62
     7
100
AcDbSpline
210
0.0
220
0.0
230
1.0
 70
     8
 71
     2
 72
     6
 73
     3
 74
     0
 42
0.0000000001
 43
0.0000000001
 40
0.0
 40
0.0
 40
0.0
 40
1.0
 40
1.0
 40
1.0
 10
0.9164056508477024
 20
2.708985306773004
 30
0.0
 10
0.9164056508477024
 20
2.693880379236772
 30
0.0
 10
0.912009708818717
 20
2.682806756048366
 30
0.0
  0
SPLINE
  5
F0
330
A
100
AcDbEntity
  8
0
  6
solid
 62
     7
100
AcDbSpline
210
0.0
220
0.0
230
1.0
 70
     8
 71
     2
 72
     6
 73
     3
 74
     0
 42
0.0000000001
 43
0.0000000001
 40
0.0
 40
0.0
 40
0.0
 40
1.0
 40
1.0
 40
1.0
 10
0.912009708818717
 20
2.682806756048366
 30
0.0
 10
0.907681592876688
 20
2.668870524164308
 30
0.0
 10
0.8988462305578474
 20
2.660220669091845
 30
0.0
  0
SPLINE
  5
F1
330
A
100
AcDbEntity
  8
0
  6
solid
 62
     7
100
AcDbSpline
210
0.0
220
0.0
230
1.0
 70
     8
 71
     2
 72
     6
 73
     3
 74
     0
 42
0.0000000001
 43
0.0000000001
 40
0.0
 40
0.0
 40
0.0
 40
1.0
 40
1.0
 40
1.0
 10
0.8988462305578474
 20
2.660220669091845
 30
0.0
 10
0.8920265204129199
 20
2.654155161845468
 30
0.0
 10
0.8809528972245141
 20
2.650550524164308
 30
0.0
  0
SPLINE
  5
F2
330
A
100
AcDbEntity
  8
0
  6
solid
 62
     7
100
AcDbSpline
210
0.0
220
0.0
230
1.0
 70
     8
 71
     2
 72
     6
 73
     3
 74
     0
 42
0.0000000001
 43
0.0000000001
 40
0.0
 40
0.0
 40
0.0
 40
1.0
 40
1.0
 40
1.0
 10
0.8809528972245141
 20
2.650550524164308
 30
0.0
 10
0.8729644914274127
 20
2.648200958946917
 30
0.0
 10
0.858768549398427
 20
2.648200958946917
 30
0.0
  0
LINE
  5
F3
330
A
100
AcDbEntity
  8
0
  6
solid
 62
     7
100
AcDbLine
 10
0.858768549398427
 20
2.648200958946917
 30
0.0
 11
0.8113331870795866
 21
2.648200958946917
 31
0.0
  0
LINE
  5
F4
330
A
100
AcDbEntity
  8
0
  6
solid
 62
     7
100
AcDbLine
 10
0.8113331870795866
 20
2.773200958946917
 30
0.0
 11
0.8113331870795866
 21
2.648200958946917
 31
0.0
  0
LINE
  5
F5
330
A
100
AcDbEntity
  8
0
  6
solid
 62
     7
100
AcDbLine
 10
0.8348839117172678
 20
2.751461828512134
 30
0.0
 11
0.8348839117172678
 21
2.6699400893817
 31
0.0
  0
LINE
  5
F6
330
A
100
AcDbEntity
  8
0
  6
solid
 62
     7
100
AcDbLine
 10
0.8348839117172678
 20
2.6699400893817
 30
0.0
 11
0.85514536099263
 21
2.6699400893817
 31
0.0
  0
SPLINE
  5
F7
330
A
100
AcDbEntity
  8
0
  6
solid
 62
     7
100
AcDbSpline
210
0.0
220
0.0
230
1.0
 70
     8
 71
     2
 72
     6
 73
     3
 74
     0
 42
0.0000000001
 43
0.0000000001
 40
0.0
 40
0.0
 40
0.0
 40
1.0
 40
1.0
 40
1.0
 10
0.85514536099263
 20
2.6699400893817
 30
0.0
 10
0.8664044914274127
 20
2.6699400893817
 30
0.0
 10
0.8716166653404561
 20
2.670719219816482
 30
0.0
  0
SPLINE
  5
F8
330
A
100
AcDbEntity
  8
0
  6
solid
 62
     7
100
AcDbSpline
210
0.0
220
0.0
230
1.0
 70
     8
 71
     2
 72
     8
 73
     5
 74
     0
 42
0.0000000001
 43
0.0000000001
 40
0.0
 40
0.0
 40
0.0
 40
1.0
 40
2.0
 40
3.0
 40
3.0
 40
3.0
 10
0.8716166653404561
 20
2.670719219816482
 30
0.0
 10
0.878473476934659
 20
2.672326756048367
 30
0.0
 10
0.886721592876688
 20
2.679554582135323
 30
0.0
 10
0.8928549262100213
 20
2.696007335758511
 30
0.0
 10
0.8928549262100213
 20
2.710370234309236
 30
0.0
  0
SPLINE
  5
F9
330
A
100
AcDbEntity
  8
0
  6
solid
 62
     7
100
AcDbSpline
210
0.0
220
0.0
230
1.0
 70
     8
 71
     2
 72
     8
 73
     5
 74
     0
 42
0.0000000001
 43
0.0000000001
 40
0.0
 40
0.0
 40
0.0
 40
1.0
 40
2.0
 40
3.0
 40
3.0
 40
3.0
 10
0.8928549262100213
 20
2.710370234309236
 30
0.0
 10
0.8928549262100213
 20
2.724714582135323
 30
0.0
 10
0.886721592876688
 20
2.739726756048366
 30
0.0
 10
0.8770514479491517
 20
2.748450814019381
 30
0.0
 10
0.8695268102679923
 20
2.750058350251265
 30
0.0
  0
SPLINE
  5
FA
330
A
100
AcDbEntity
  8
0
  6
solid
 62
     7
100
AcDbSpline
210
0.0
220
0.0
230
1.0
 70
     8
 71
     2
 72
     6
 73
     3
 74
     0
 42
0.0000000001
 43
0.0000000001
 40
0.0
 40
0.0
 40
0.0
 40
1.0
 40
1.0
 40
1.0
 10
0.8695268102679923
 20
2.750058350251265
 30
0.0
 10
0.8639065204129199
 20
2.751461828512134
 30
0.0
 10
0.8466810131665432
 20
2.751461828512134
 30
0.0
  0
LINE
  5
FB
330
A
100
AcDbEntity
  8
0
  6
solid
 62
     7
100
AcDbLine
 10
0.8348839117172678
 20
2.751461828512134
 30
0.0
 11
0.8466810131665432
 21
2.751461828512134
 31
0.0
  0
LINE
  5
15D
330
A
100
AcDbEntity
  8
1
  6
solid
 62
     7
370
     0
100
AcDbLine
 10
-2.50224232673645
 20
2.051983658883495
 30
0.0
 11
-2.50224232673645
 21
-0.0329314760441192
 31
0.0
  0
LINE
  5
15E
330
A
100
AcDbEntity
  8
1
  6
solid
 62
     7
370
     0
100
AcDbLine
 10
-1.814926028251647
 20
0.1583079695701599
 30
0.0
 11
-1.814926028251647
 21
-0.0329314760441192
 31
0.0
  0
LINE
  5
15F
330
A
100
AcDbEntity
  8
1
  6
solid
 62
     7
370
     0
100
AcDbLine
 10
-2.50224232673645
 20
0.0295685239558808
 30
0.0
 11
-2.428655899174072
 21
0.0295685239558808
 31
0.0
  0
LINE
  5
160
330
A
100
AcDbEntity
  8
1
  6
solid
 62
     7
370
     0
100
AcDbLine
 10
-1.814926028251647
 20
0.0295685239558808
 30
0.0
 11
-1.888512455814025
 21
0.0295685239558808
 31
0.0
  0
MTEXT
  5
161
330
A
100
AcDbEntity
  8
1
  6
solid
 62
     7
370
     0
100
AcDbMText
 10
-2.158584177494049
 20
0.0295685239558808
 30
0.0
 40
0.125
 41
0.0
 71
     5
 72
     1
  1
{\H0.125000;11/16}
 73
     1
 44
1.0
  0
SOLID
  5
162
330
A
100
AcDbEntity
  8
1
  6
solid
 62
     7
370
     0
100
AcDbTrace
 10
-2.47724232673645
 20
0.0420685239558808
 30
0.0
 11
-2.47724232673645
 21
0.0170685239558808
 31
0.0
 12
-2.50224232673645
 22
0.0295685239558808
 32
0.0
 13
-2.50224232673645
 23
0.0295685239558808
 33
0.0
  0
SOLID
  5
163
330
A
100
AcDbEntity
  8
1
  6
solid
 62
     7
370
     0
100
AcDbTrace
 10
-1.839926028251647
 20
0.0170685239558808
 30
0.0
 11
-1.839926028251647
 21
0.0420685239558808
 31
0.0
 12
-1.814926028251647
 22
0.0295685239558808
 32
0.0
 13
-1.814926028251647
 23
0.0295685239558808
 33
0.0
  0
VIEWPORT
  5
119
330
B
100
AcDbEntity
 67
     1
  8
0
  6
Continuous
370
     0
100
AcDbViewport
 10
5.124908838492956
 20
3.950916201673134
 30
0.0
 40
15.34337202256945
 41
8.118270643958265
 68
     1
 69
     1
 12
5.124908838492956
 22
3.950916201673134
 13
0.0
 23
0.0
 14
0.5
 24
0.5
 15
0.5
 25
0.5
 16
0.0
 26
0.0
 36
1.0
 17
0.0
 27
0.0
 37
0.0
 42
50.0
 43
0.0
 44
0.0
 45
8.118270643958265
 50
0.0
 51
0.0
 72
   100
 90
   819232
  1

281
     0
 71
     1
 74
     0
110
0.0
120
0.0
130
0.0
111
1.0
121
0.0
131
0.0
112
0.0
122
1.0
132
0.0
 79
     0
146
0.0
170
     0
  0
VIEWPORT
  5
11C
330
B
100
AcDbEntity
 67
     1
  8
0
  6
Continuous
370
     0
100
AcDbViewport
 10
5.125263915007653
 20
3.951116639509745
 30
0.0
 40
10.4309308290448
 41
8.023166455265119
 68
     2
 69
     2
 12
-0.6809337201316238
 22
1.825674099136559
 13
0.0
 23
0.0
 14
0.5
 24
0.5
 15
0.5
 25
0.5
 16
0.0
 26
0.0
 36
1.0
 17
0.0
 27
0.0
 37
0.0
 42
50.0
 43
0.0
 44
0.0
 45
4.799914266802947
 50
0.0
 51
0.0
 72
   100
 90
   819232
  1

281
     0
 71
     1
 74
     0
110
0.0
120
0.0
130
0.0
111
1.0
121
0.0
131
0.0
112
0.0
122
1.0
132
0.0
 79
     0
146
0.0
170
     0
  0
ENDSEC
  0
SECTION
  2
OBJECTS
  0
DICTIONARY
  5
19
330
0
100
AcDbDictionary
281
     1
  3
ACAD_COLOR
350
112
  3
ACAD_GROUP
350
1A
  3
ACAD_LAYOUT
350
1E
  3
ACAD_MATERIAL
350
FD
  3
ACAD_MLEADERSTYLE
350
146
  3
ACAD_MLINESTYLE
350
1B
  3
ACAD_PLOTSETTINGS
350
22
  3
ACAD_PLOTSTYLENAME
350
1F
  3
ACAD_SCALELIST
350
124
  3
ACAD_TABLESTYLE
350
113
  3
ACAD_VISUALSTYLE
350
101
  3
ACAD_WIPEOUT_VARS
350
23
  3
ACDB_RECOMPOSE_DATA
350
182
  3
AcDbVariableDictionary
350
121
  3
ASE_INDEX_DICTIONARY
350
11E
  0
DICTIONARY
  5
14F
330
14
100
AcDbDictionary
280
     1
281
     1
  3
ADSK_XREC_LAYER_RECONCILED
360
150
  0
DICTIONARY
  5
151
330
27
100
AcDbDictionary
280
     1
281
     1
  3
ADSK_XREC_LAYER_RECONCILED
360
152
  0
DICTIONARY
  5
153
330
E5
100
AcDbDictionary
280
     1
281
     1
  3
ADSK_XREC_LAYER_RECONCILED
360
154
  0
DICTIONARY
  5
164
330
A
100
AcDbDictionary
280
     1
281
     1
  3
ACAD_SORTENTS
360
165
  0
DICTIONARY
  5
112
102
{ACAD_REACTORS
330
19
102
}
330
19
100
AcDbDictionary
281
     1
  0
DICTIONARY
  5
1A
102
{ACAD_REACTORS
330
19
102
}
330
19
100
AcDbDictionary
281
     1
  0
DICTIONARY
  5
1E
102
{ACAD_REACTORS
330
19
102
}
330
19
100
AcDbDictionary
281
     1
  3
Layout1
350
21
  3
Model
350
20
  0
DICTIONARY
  5
FD
102
{ACAD_REACTORS
330
19
102
}
330
19
100
AcDbDictionary
281
     1
  3
ByBlock
350
FF
  3
ByLayer
350
FE
  3
Global
350
100
  0
DICTIONARY
  5
146
102
{ACAD_REACTORS
330
19
102
}
330
19
100
AcDbDictionary
281
     1
  3
Standard
350
147
  0
DICTIONARY
  5
1B
102
{ACAD_REACTORS
330
19
102
}
330
19
100
AcDbDictionary
281
     1
  3
Standard
350
1C
  0
DICTIONARY
  5
22
102
{ACAD_REACTORS
330
19
102
}
330
19
100
AcDbDictionary
281
     1
  0
ACDBDICTIONARYWDFLT
  5
1F
102
{ACAD_REACTORS
330
19
102
}
330
19
100
AcDbDictionary
281
     1
  3
Normal
350
1D
100
AcDbDictionaryWithDefault
340
1D
  0
DICTIONARY
  5
124
102
{ACAD_REACTORS
330
19
102
}
330
19
100
AcDbDictionary
281
     1
  3
A0
350
125
  3
A1
350
126
  3
A2
350
127
  3
A3
350
128
  3
A4
350
129
  3
A5
350
12A
  3
A6
350
12B
  3
A7
350
12C
  3
A8
350
12D
  3
A9
350
12E
  3
B0
350
12F
  3
B1
350
130
  3
B2
350
131
  3
B3
350
132
  3
B4
350
133
  3
B5
350
134
  3
B6
350
135
  3
B7
350
136
  3
B8
350
137
  3
B9
350
138
  3
C0
350
139
  3
C1
350
13A
  3
C2
350
13B
  3
C3
350
13C
  3
C4
350
13D
  3
C5
350
13E
  3
C6
350
13F
  3
C7
350
140
  3
C8
350
141
  3
C9
350
142
  3
D0
350
143
  3
D1
350
144
  3
D2
350
145
  0
DICTIONARY
  5
113
102
{ACAD_REACTORS
330
19
102
}
330
19
100
AcDbDictionary
281
     1
  3
Standard
350
114
  0
DICTIONARY
  5
101
102
{ACAD_REACTORS
330
19
102
}
330
19
100
AcDbDictionary
281
     1
  3
2dWireframe
350
107
  3
3D Hidden
350
109
  3
3dWireframe
350
108
  3
Basic
350
106
  3
Brighten
350
10D
  3
ColorChange
350
111
  3
Conceptual
350
10A
  3
Dim
350
10C
  3
Facepattern
350
110
  3
Flat
350
102
  3
FlatWithEdges
350
103
  3
Gouraud
350
104
  3
GouraudWithEdges
350
105
  3
Linepattern
350
10F
  3
Realistic
350
10B
  3
Thicken
350
10E
  0
WIPEOUTVARIABLES
  5
23
330
19
100
AcDbWipeoutVariables
 70
     1
  0
XRECORD
  5
182
102
{ACAD_REACTORS
330
19
102
}
330
19
100
AcDbXrecord
280
     1
 90
        1
330
114
  0
DICTIONARY
  5
121
102
{ACAD_REACTORS
330
19
102
}
330
19
100
AcDbDictionary
281
     1
  3
CANNOSCALE
350
17F
  3
CMLEADERSTYLE
350
17E
  3
CTABLESTYLE
350
122
  0
DICTIONARY
  5
11E
102
{ACAD_REACTORS
330
19
102
}
330
19
100
AcDbDictionary
281
     1
  3
ASEBlockHierarchyIndexRecord
350
120
1001
DCO15
1040
1645030568.638
  0
XRECORD
  5
150
102
{ACAD_REACTORS
330
14F
102
}
330
14F
100
AcDbXrecord
280
     1
290
     1
  0
XRECORD
  5
152
102
{ACAD_REACTORS
330
151
102
}
330
151
100
AcDbXrecord
280
     1
290
     1
  0
XRECORD
  5
154
102
{ACAD_REACTORS
330
153
102
}
330
153
100
AcDbXrecord
280
     1
290
     1
  0
SORTENTSTABLE
  5
165
102
{ACAD_REACTORS
330
164
102
}
330
164
100
AcDbSortentsTable
330
A
331
F3
  5
FA
331
D9
  5
E0
331
EA
  5
F1
331
C8
  5
CF
331
A6
  5
AD
331
84
  5
84
331
6C
  5
6C
331
4A
  5
4A
331
B7
  5
BE
331
5B
  5
5B
331
39
  5
39
331
28
  5
28
331
F1
  5
F8
331
E8
  5
EF
331
C6
  5
CD
331
A4
  5
AB
331
82
  5
82
331
6A
  5
6A
331
48
  5
48
331
D7
  5
DE
331
B5
  5
BC
331
59
  5
59
331
37
  5
37
331
E6
  5
ED
331
C4
  5
CB
331
A2
  5
A9
331
80
  5
80
331
68
  5
68
331
46
  5
46
331
D5
  5
DC
331
B3
  5
BA
331
57
  5
57
331
35
  5
35
331
E4
  5
EC
331
C2
  5
C9
331
7E
  5
7E
331
66
  5
66
331
44
  5
44
331
D3
  5
DA
331
B1
  5
B8
331
77
  5
77
331
55
  5
55
331
33
  5
33
331
E2
  5
EA
331
C0
  5
C7
331
7C
  5
7C
331
64
  5
64
331
42
  5
42
331
162
  5
A7
331
D1
  5
D8
331
AF
  5
B6
331
75
  5
75
331
53
  5
53
331
31
  5
31
331
FA
  5
162
331
E0
  5
E8
331
BE
  5
C5
331
7A
  5
7A
331
62
  5
62
331
40
  5
40
331
160
  5
A5
331
CF
  5
D6
331
AD
  5
B4
331
8B
  5
8B
331
73
  5
73
331
51
  5
51
331
2F
  5
2F
331
F8
  5
160
331
DE
  5
E6
331
BC
  5
C3
331
78
  5
78
331
60
  5
60
331
15E
  5
A3
331
EF
  5
F6
331
CD
  5
D4
331
AB
  5
B2
331
89
  5
89
331
71
  5
71
331
4F
  5
4F
331
3E
  5
3E
331
2D
  5
2D
331
F6
  5
15E
331
DC
  5
E3
331
BA
  5
C1
331
ED
  5
F4
331
CB
  5
D2
331
A9
  5
B0
331
87
  5
87
331
6F
  5
6F
331
4D
  5
4D
331
5E
  5
5E
331
3C
  5
3C
331
2B
  5
2B
331
F4
  5
FB
331
DA
  5
E1
331
B8
  5
BF
331
EB
  5
F2
331
C9
  5
D0
331
A7
  5
AE
331
85
  5
85
331
6D
  5
6D
331
4B
  5
4B
331
96
  5
96
331
5C
  5
5C
331
3A
  5
3A
331
29
  5
29
331
F2
  5
F9
331
D8
  5
DF
331
E9
  5
F0
331
C7
  5
CE
331
A5
  5
AC
331
83
  5
83
331
6B
  5
6B
331
49
  5
49
331
B6
  5
BD
331
5A
  5
5A
331
38
  5
38
331
F0
  5
F7
331
E7
  5
EE
331
C5
  5
CC
331
A3
  5
AA
331
81
  5
81
331
69
  5
69
331
47
  5
47
331
D6
  5
DD
331
B4
  5
BB
331
58
  5
58
331
36
  5
36
331
C3
  5
CA
331
7F
  5
7F
331
67
  5
67
331
45
  5
45
331
D4
  5
DB
331
B2
  5
B9
331
56
  5
56
331
34
  5
34
331
E3
  5
EB
331
C1
  5
C8
331
7D
  5
7D
331
65
  5
65
331
43
  5
43
331
163
  5
A8
331
D2
  5
D9
331
B0
  5
B7
331
76
  5
76
331
54
  5
54
331
32
  5
32
331
FB
  5
163
331
E1
  5
E9
331
BF
  5
C6
331
7B
  5
7B
331
63
  5
63
331
41
  5
41
331
161
  5
A6
331
D0
  5
D7
331
AE
  5
B5
331
74
  5
74
331
52
  5
52
331
30
  5
30
331
F9
  5
161
331
DF
  5
E7
331
BD
  5
C4
331
79
  5
79
331
61
  5
61
331
15F
  5
A4
331
CE
  5
D5
331
AC
  5
B3
331
8A
  5
8A
331
72
  5
72
331
50
  5
50
331
3F
  5
3F
331
2E
  5
2E
331
F7
  5
15F
331
DD
  5
E4
331
BB
  5
C2
331
15D
  5
A2
331
EE
  5
F5
331
CC
  5
D3
331
AA
  5
B1
331
88
  5
88
331
70
  5
70
331
4E
  5
4E
331
5F
  5
5F
331
3D
  5
3D
331
2C
  5
2C
331
F5
  5
15D
331
DB
  5
E2
331
B9
  5
C0
331
EC
  5
F3
331
CA
  5
D1
331
A8
  5
AF
331
86
  5
86
331
6E
  5
6E
331
4C
  5
4C
331
5D
  5
5D
331
3B
  5
3B
331
2A
  5
2A
  0
LAYOUT
  5
21
102
{ACAD_REACTORS
330
1E
102
}
330
1E
100
AcDbPlotSettings
  1

  2
Foxit PDF Printer
  4
Letter
  6

 40
3.174999952316284
 41
3.174999952316284
 42
3.17498779296875
 43
3.175003051757812
 44
279.3999938964844
 45
215.8999938964844
 46
31.47715384821894
 47
24.12875752349356
 48
0.0
 49
0.0
140
0.0
141
0.0
142
1.0
143
1.0
 70
     4
 72
     0
 73
     0
 74
     1
  7

 75
     0
147
1.0
 76
     0
 77
     2
 78
   300
148
-26.25461124795212
149
-20.16000981431432
100
AcDbLayout
  1
Layout1
 70
     0
 71
     1
 10
-0.3306119115190196
 20
-0.2812499079328949
 11
10.66938784818509
 21
8.218749851771214
 12
0.0
 22
0.0
 32
0.0
 14
-0.0909266185249429
 24
-0.0610198723760078
 34
-0.0015258207003583
 15
10.34074429551085
 25
7.962852275722276
 35
0.0000000349246037
146
0.0
 13
0.0
 23
0.0
 33
0.0
 16
1.0
 26
0.0
 36
0.0
 17
0.0
 27
1.0
 37
0.0
 76
     0
330
B
331
119
1001
ACAD_PSEXT
1000
Foxit PDF Printer
1000
Foxit PDF Printer Driver
1000
FOXIT_PDF
1000

1070
     0
  0
LAYOUT
  5
20
102
{ACAD_REACTORS
330
1E
102
}
330
1E
100
AcDbPlotSettings
  1

  2

  4

  6

 40
0.0
 41
0.0
 42
0.0
 43
0.0
 44
0.0
 45
0.0
 46
0.0
 47
0.0
 48
0.0
 49
0.0
140
0.0
141
0.0
142
1.0
143
1.0
 70
  1024
 72
     0
 73
     0
 74
     0
  7

 75
     0
147
1.0
 76
     0
 77
     2
 78
   300
148
0.0
149
0.0
100
AcDbLayout
  1
Model
 70
     0
 71
     0
 10
0.0
 20
0.0
 11
0.0
 21
0.0
 12
0.0
 22
0.0
 32
0.0
 14
0.0
 24
0.0
 34
0.0
 15
0.0
 25
0.0
 35
0.0
146
0.0
 13
0.0
 23
0.0
 33
0.0
 16
0.0
 26
0.0
 36
0.0
 17
0.0
 27
0.0
 37
0.0
 76
     0
330
A
  0
MATERIAL
  5
FF
102
{ACAD_XDICTIONARY
360
185
102
}
102
{ACAD_REACTORS
330
FD
102
}
330
FD
100
AcDbMaterial
  1
ByBlock
 73
     1
 78
     1
172
     1
176
     1
270
     1
274
     1
  0
MATERIAL
  5
FE
102
{ACAD_XDICTIONARY
360
183
102
}
102
{ACAD_REACTORS
330
FD
102
}
330
FD
100
AcDbMaterial
  1
ByLayer
 73
     1
 78
     1
172
     1
176
     1
270
     1
274
     1
  0
MATERIAL
  5
100
102
{ACAD_XDICTIONARY
360
187
102
}
102
{ACAD_REACTORS
330
FD
102
}
330
FD
100
AcDbMaterial
  1
Global
 73
     1
 78
     1
172
     1
176
     1
270
     1
274
     1
  0
MLEADERSTYLE
  5
147
102
{ACAD_REACTORS
330
146
102
}
330
146
100
AcDbMLeaderStyle
170
     2
171
     1
172
     0
 90
        2
 40
0.0
 41
0.0
173
     1
 91
-1056964608
340
11
 92
       -2
290
     1
 42
0.09
291
     1
 43
0.36
  3
Standard
 44
0.18
300

342
17
174
     1
178
     6
175
     1
176
     0
 93
-1056964608
 45
0.18
292
     0
297
     0
 46
0.18
 94
-1056964608
 47
1.0
 49
1.0
140
1.0
293
     1
141
0.0
294
     1
177
     0
142
1.0
295
     0
296
     0
143
0.125
1001
ACAD_MLEADERVER
1070
     2
  0
MLINESTYLE
  5
1C
102
{ACAD_REACTORS
330
1B
102
}
330
1B
100
AcDbMlineStyle
  2
STANDARD
 70
     0
  3

 62
     0
 51
90.0
 52
90.0
 71
     2
 49
0.5
 62
   256
  6
BYLAYER
 49
-0.5
 62
   256
  6
BYLAYER
  0
ACDBPLACEHOLDER
  5
1D
102
{ACAD_REACTORS
330
1F
102
}
330
1F
  0
SCALE
  5
125
102
{ACAD_REACTORS
330
124
102
}
330
124
100
AcDbScale
 70
     0
300
1:1
140
1.0
141
1.0
290
     1
  0
SCALE
  5
126
102
{ACAD_REACTORS
330
124
102
}
330
124
100
AcDbScale
 70
     0
300
1:2
140
1.0
141
2.0
290
     0
  0
SCALE
  5
127
102
{ACAD_REACTORS
330
124
102
}
330
124
100
AcDbScale
 70
     0
300
1:4
140
1.0
141
4.0
290
     0
  0
SCALE
  5
128
102
{ACAD_REACTORS
330
124
102
}
330
124
100
AcDbScale
 70
     0
300
1:5
140
1.0
141
5.0
290
     0
  0
SCALE
  5
129
102
{ACAD_REACTORS
330
124
102
}
330
124
100
AcDbScale
 70
     0
300
1:8
140
1.0
141
8.0
290
     0
  0
SCALE
  5
12A
102
{ACAD_REACTORS
330
124
102
}
330
124
100
AcDbScale
 70
     0
300
1:10
140
1.0
141
10.0
290
     0
  0
SCALE
  5
12B
102
{ACAD_REACTORS
330
124
102
}
330
124
100
AcDbScale
 70
     0
300
1:16
140
1.0
141
16.0
290
     0
  0
SCALE
  5
12C
102
{ACAD_REACTORS
330
124
102
}
330
124
100
AcDbScale
 70
     0
300
1:20
140
1.0
141
20.0
290
     0
  0
SCALE
  5
12D
102
{ACAD_REACTORS
330
124
102
}
330
124
100
AcDbScale
 70
     0
300
1:30
140
1.0
141
30.0
290
     0
  0
SCALE
  5
12E
102
{ACAD_REACTORS
330
124
102
}
330
124
100
AcDbScale
 70
     0
300
1:40
140
1.0
141
40.0
290
     0
  0
SCALE
  5
12F
102
{ACAD_REACTORS
330
124
102
}
330
124
100
AcDbScale
 70
     0
300
1:50
140
1.0
141
50.0
290
     0
  0
SCALE
  5
130
102
{ACAD_REACTORS
330
124
102
}
330
124
100
AcDbScale
 70
     0
300
1:100
140
1.0
141
100.0
290
     0
  0
SCALE
  5
131
102
{ACAD_REACTORS
330
124
102
}
330
124
100
AcDbScale
 70
     0
300
2:1
140
2.0
141
1.0
290
     0
  0
SCALE
  5
132
102
{ACAD_REACTORS
330
124
102
}
330
124
100
AcDbScale
 70
     0
300
4:1
140
4.0
141
1.0
290
     0
  0
SCALE
  5
133
102
{ACAD_REACTORS
330
124
102
}
330
124
100
AcDbScale
 70
     0
300
8:1
140
8.0
141
1.0
290
     0
  0
SCALE
  5
134
102
{ACAD_REACTORS
330
124
102
}
330
124
100
AcDbScale
 70
     0
300
10:1
140
10.0
141
1.0
290
     0
  0
SCALE
  5
135
102
{ACAD_REACTORS
330
124
102
}
330
124
100
AcDbScale
 70
     0
300
100:1
140
100.0
141
1.0
290
     0
  0
SCALE
  5
136
102
{ACAD_REACTORS
330
124
102
}
330
124
100
AcDbScale
 70
     0
300
1/128" = 1'-0"
140
0.0078125
141
12.0
290
     0
  0
SCALE
  5
137
102
{ACAD_REACTORS
330
124
102
}
330
124
100
AcDbScale
 70
     0
300
1/64" = 1'-0"
140
0.015625
141
12.0
290
     0
  0
SCALE
  5
138
102
{ACAD_REACTORS
330
124
102
}
330
124
100
AcDbScale
 70
     0
300
1/32" = 1'-0"
140
0.03125
141
12.0
290
     0
  0
SCALE
  5
139
102
{ACAD_REACTORS
330
124
102
}
330
124
100
AcDbScale
 70
     0
300
1/16" = 1'-0"
140
0.0625
141
12.0
290
     0
  0
SCALE
  5
13A
102
{ACAD_REACTORS
330
124
102
}
330
124
100
AcDbScale
 70
     0
300
3/32" = 1'-0"
140
0.09375
141
12.0
290
     0
  0
SCALE
  5
13B
102
{ACAD_REACTORS
330
124
102
}
330
124
100
AcDbScale
 70
     0
300
1/8" = 1'-0"
140
0.125
141
12.0
290
     0
  0
SCALE
  5
13C
102
{ACAD_REACTORS
330
124
102
}
330
124
100
AcDbScale
 70
     0
300
3/16" = 1'-0"
140
0.1875
141
12.0
290
     0
  0
SCALE
  5
13D
102
{ACAD_REACTORS
330
124
102
}
330
124
100
AcDbScale
 70
     0
300
1/4" = 1'-0"
140
0.25
141
12.0
290
     0
  0
SCALE
  5
13E
102
{ACAD_REACTORS
330
124
102
}
330
124
100
AcDbScale
 70
     0
300
3/8" = 1'-0"
140
0.375
141
12.0
290
     0
  0
SCALE
  5
13F
102
{ACAD_REACTORS
330
124
102
}
330
124
100
AcDbScale
 70
     0
300
1/2" = 1'-0"
140
0.5
141
12.0
290
     0
  0
SCALE
  5
140
102
{ACAD_REACTORS
330
124
102
}
330
124
100
AcDbScale
 70
     0
300
3/4" = 1'-0"
140
0.75
141
12.0
290
     0
  0
SCALE
  5
141
102
{ACAD_REACTORS
330
124
102
}
330
124
100
AcDbScale
 70
     0
300
1" = 1'-0"
140
1.0
141
12.0
290
     0
  0
SCALE
  5
142
102
{ACAD_REACTORS
330
124
102
}
330
124
100
AcDbScale
 70
     0
300
1-1/2" = 1'-0"
140
1.5
141
12.0
290
     0
  0
SCALE
  5
143
102
{ACAD_REACTORS
330
124
102
}
330
124
100
AcDbScale
 70
     0
300
3" = 1'-0"
140
3.0
141
12.0
290
     0
  0
SCALE
  5
144
102
{ACAD_REACTORS
330
124
102
}
330
124
100
AcDbScale
 70
     0
300
6" = 1'-0"
140
6.0
141
12.0
290
     0
  0
SCALE
  5
145
102
{ACAD_REACTORS
330
124
102
}
330
124
100
AcDbScale
 70
     0
300
1'-0" = 1'-0"
140
12.0
141
12.0
290
     0
  0
TABLESTYLE
  5
114
102
{ACAD_XDICTIONARY
360
180
102
}
102
{ACAD_REACTORS
330
113
102
}
330
113
100
AcDbTableStyle
  3
Standard
 70
     0
 71
     0
 40
0.06
 41
0.06
280
     0
281
     0
  7
Standard
140
0.18
170
     2
 62
     0
 63
     7
283
     0
274
    -2
284
     1
 64
     0
275
    -2
285
     1
 65
     0
276
    -2
286
     1
 66
     0
277
    -2
287
     1
 67
     0
278
    -2
288
     1
 68
     0
279
    -2
289
     1
 69
     0
  7
Standard
140
0.25
170
     5
 62
     0
 63
     7
283
     0
274
    -2
284
     1
 64
     0
275
    -2
285
     1
 65
     0
276
    -2
286
     1
 66
     0
277
    -2
287
     1
 67
     0
278
    -2
288
     1
 68
     0
279
    -2
289
     1
 69
     0
  7
Standard
140
0.18
170
     5
 62
     0
 63
     7
283
     0
274
    -2
284
     1
 64
     0
275
    -2
285
     1
 65
     0
276
    -2
286
     1
 66
     0
277
    -2
287
     1
 67
     0
278
    -2
288
     1
 68
     0
279
    -2
289
     1
 69
     0
  0
VISUALSTYLE
  5
107
102
{ACAD_REACTORS
330
101
102
}
330
101
100
AcDbVisualStyle
  2
2dWireframe
 70
     4
 71
     0
 72
     2
 73
     0
 90
        0
 40
-0.6
 41
-30.0
 62
     5
 63
     7
421
 16777215
 74
     1
 91
        4
 64
     7
 65
   257
 75
     1
175
     1
 42
1.0
 92
        0
 66
   257
 43
1.0
 76
     1
 77
     6
 78
     2
 67
     7
 79
     5
170
     0
171
     0
290
     0
174
     0
 93
        1
 44
0.0
173
     0
291
     0
 45
0.0
1001
ACAD
1000
AcDbSavedByObjectVersion
1070
     0
  0
VISUALSTYLE
  5
109
102
{ACAD_REACTORS
330
101
102
}
330
101
100
AcDbVisualStyle
  2
3D Hidden
 70
     6
 71
     1
 72
     2
 73
     2
 90
        0
 40
-0.6
 41
-30.0
 62
     5
 63
     7
421
 16777215
 74
     2
 91
        2
 64
     7
 65
   257
 75
     2
175
     1
 42
40.0
 92
        0
 66
   257
 43
1.0
 76
     1
 77
     6
 78
     2
 67
     7
 79
     3
170
     0
171
     0
290
     0
174
     0
 93
        1
 44
0.0
173
     0
291
     0
 45
0.0
1001
ACAD
1000
AcDbSavedByObjectVersion
1070
     0
  0
VISUALSTYLE
  5
108
102
{ACAD_REACTORS
330
101
102
}
330
101
100
AcDbVisualStyle
  2
3dWireframe
 70
     5
 71
     0
 72
     2
 73
     0
 90
        0
 40
-0.6
 41
-30.0
 62
     5
 63
     7
421
 16777215
 74
     1
 91
        4
 64
     7
 65
   257
 75
     1
175
     1
 42
1.0
 92
        0
 66
   257
 43
1.0
 76
     1
 77
     6
 78
     2
 67
     7
 79
     5
170
     0
171
     0
290
     0
174
     0
 93
        1
 44
0.0
173
     0
291
     0
 45
0.0
1001
ACAD
1000
AcDbSavedByObjectVersion
1070
     0
  0
VISUALSTYLE
  5
106
102
{ACAD_REACTORS
330
101
102
}
330
101
100
AcDbVisualStyle
  2
Basic
 70
     7
 71
     1
 72
     0
 73
     1
 90
        0
 40
-0.6
 41
-30.0
 62
     5
 63
     7
421
 16777215
 74
     0
 91
        4
 64
     7
 65
   257
 75
     1
175
     1
 42
1.0
 92
        8
 66
     7
 43
1.0
 76
     1
 77
     6
 78
     2
 67
     7
 79
     5
170
     0
171
     0
290
     0
174
     0
 93
        1
 44
0.0
173
     0
291
     1
 45
0.0
1001
ACAD
1000
AcDbSavedByObjectVersion
1070
     0
  0
VISUALSTYLE
  5
10D
102
{ACAD_REACTORS
330
101
102
}
330
101
100
AcDbVisualStyle
  2
Brighten
 70
    12
 71
     2
 72
     2
 73
     0
 90
        0
 40
-0.6
 41
-30.0
 62
     5
 63
     7
421
 16777215
 74
     1
 91
        4
 64
     7
 65
   257
 75
     1
175
     1
 42
1.0
 92
        8
 66
     7
 43
1.0
 76
     1
 77
     6
 78
     2
 67
     7
 79
     5
170
     0
171
     0
290
     0
174
     0
 93
        1
 44
50.0
173
     0
291
     1
 45
0.0
1001
ACAD
1000
AcDbSavedByObjectVersion
1070
     0
  0
VISUALSTYLE
  5
111
102
{ACAD_REACTORS
330
101
102
}
330
101
100
AcDbVisualStyle
  2
ColorChange
 70
    16
 71
     2
 72
     2
 73
     3
 90
        0
 40
-0.6
 41
-30.0
 62
     5
 63
     8
421
  8421504
 74
     1
 91
        4
 64
     7
 65
   257
 75
     1
175
     1
 42
1.0
 92
        8
 66
     8
424
  8421504
 43
1.0
 76
     1
 77
     6
 78
     2
 67
     7
 79
     5
170
     0
171
     0
290
     0
174
     0
 93
        1
 44
0.0
173
     0
291
     1
 45
0.0
1001
ACAD
1000
AcDbSavedByObjectVersion
1070
     0
  0
VISUALSTYLE
  5
10A
102
{ACAD_REACTORS
330
101
102
}
330
101
100
AcDbVisualStyle
  2
Conceptual
 70
     9
 71
     3
 72
     2
 73
     0
 90
        0
 40
-0.6
 41
-30.0
 62
     5
 63
     7
421
 16777215
 74
     2
 91
        2
 64
     7
 65
   257
 75
     1
175
     1
 42
40.0
 92
        8
 66
     7
 43
1.0
 76
     1
 77
     6
 78
     2
 67
     7
 79
     3
170
     0
171
     0
290
     0
174
     0
 93
        1
 44
0.0
173
     0
291
     0
 45
0.0
1001
ACAD
1000
AcDbSavedByObjectVersion
1070
     0
  0
VISUALSTYLE
  5
10C
102
{ACAD_REACTORS
330
101
102
}
330
101
100
AcDbVisualStyle
  2
Dim
 70
    11
 71
     2
 72
     2
 73
     0
 90
        0
 40
-0.6
 41
-30.0
 62
     5
 63
     7
421
 16777215
 74
     1
 91
        4
 64
     7
 65
   257
 75
     1
175
     1
 42
1.0
 92
        8
 66
     7
 43
1.0
 76
     1
 77
     6
 78
     2
 67
     7
 79
     5
170
     0
171
     0
290
     0
174
     0
 93
        1
 44
-50.0
173
     0
291
     1
 45
0.0
1001
ACAD
1000
AcDbSavedByObjectVersion
1070
     0
  0
VISUALSTYLE
  5
110
102
{ACAD_REACTORS
330
101
102
}
330
101
100
AcDbVisualStyle
  2
Facepattern
 70
    15
 71
     2
 72
     2
 73
     0
 90
        0
 40
-0.6
 41
-30.0
 62
     5
 63
     7
421
 16777215
 74
     1
 91
        4
 64
     7
 65
   257
 75
     1
175
     1
 42
1.0
 92
        8
 66
     7
 43
1.0
 76
     1
 77
     6
 78
     2
 67
     7
 79
     5
170
     0
171
     0
290
     0
174
     0
 93
        1
 44
0.0
173
     0
291
     1
 45
0.0
1001
ACAD
1000
AcDbSavedByObjectVersion
1070
     0
  0
VISUALSTYLE
  5
102
102
{ACAD_REACTORS
330
101
102
}
330
101
100
AcDbVisualStyle
  2
Flat
 70
     0
 71
     2
 72
     1
 73
     1
 90
        2
 40
-0.6
 41
30.0
 62
     5
 63
     7
421
 16777215
 74
     0
 91
        4
 64
     7
 65
   257
 75
     1
175
     1
 42
1.0
 92
        8
 66
     7
 43
1.0
 76
     1
 77
     6
 78
     2
 67
     7
 79
     5
170
     0
171
     0
290
     0
174
     0
 93
       13
 44
0.0
173
     0
291
     1
 45
0.0
1001
ACAD
1000
AcDbSavedByObjectVersion
1070
     0
  0
VISUALSTYLE
  5
103
102
{ACAD_REACTORS
330
101
102
}
330
101
100
AcDbVisualStyle
  2
FlatWithEdges
 70
     1
 71
     2
 72
     1
 73
     1
 90
        2
 40
-0.6
 41
30.0
 62
     5
 63
     7
421
 16777215
 74
     1
 91
        4
 64
     7
 65
   257
 75
     1
175
     1
 42
1.0
 92
        0
 66
   257
 43
1.0
 76
     1
 77
     6
 78
     2
 67
     7
 79
     5
170
     0
171
     0
290
     0
174
     0
 93
       13
 44
0.0
173
     0
291
     1
 45
0.0
1001
ACAD
1000
AcDbSavedByObjectVersion
1070
     0
  0
VISUALSTYLE
  5
104
102
{ACAD_REACTORS
330
101
102
}
330
101
100
AcDbVisualStyle
  2
Gouraud
 70
     2
 71
     2
 72
     2
 73
     1
 90
        2
 40
-0.6
 41
30.0
 62
     5
 63
     7
421
 16777215
 74
     0
 91
        4
 64
     7
 65
   257
 75
     1
175
     1
 42
1.0
 92
        0
 66
     7
 43
1.0
 76
     1
 77
     6
 78
     2
 67
     7
 79
     5
170
     0
171
     0
290
     0
174
     0
 93
       13
 44
0.0
173
     0
291
     1
 45
0.0
1001
ACAD
1000
AcDbSavedByObjectVersion
1070
     0
  0
VISUALSTYLE
  5
105
102
{ACAD_REACTORS
330
101
102
}
330
101
100
AcDbVisualStyle
  2
GouraudWithEdges
 70
     3
 71
     2
 72
     2
 73
     1
 90
        2
 40
-0.6
 41
30.0
 62
     5
 63
     7
421
 16777215
 74
     1
 91
        4
 64
     7
 65
   257
 75
     1
175
     1
 42
1.0
 92
        0
 66
   257
 43
1.0
 76
     1
 77
     6
 78
     2
 67
     7
 79
     5
170
     0
171
     0
290
     0
174
     0
 93
       13
 44
0.0
173
     0
291
     1
 45
0.0
1001
ACAD
1000
AcDbSavedByObjectVersion
1070
     0
  0
VISUALSTYLE
  5
10F
102
{ACAD_REACTORS
330
101
102
}
330
101
100
AcDbVisualStyle
  2
Linepattern
 70
    14
 71
     2
 72
     2
 73
     0
 90
        0
 40
-0.6
 41
-30.0
 62
     5
 63
     7
421
 16777215
 74
     1
 91
        4
 64
     7
 65
   257
 75
     7
175
     7
 42
1.0
 92
        8
 66
     7
 43
1.0
 76
     1
 77
     6
 78
     2
 67
     7
 79
     5
170
     0
171
     0
290
     0
174
     0
 93
        1
 44
0.0
173
     0
291
     1
 45
0.0
1001
ACAD
1000
AcDbSavedByObjectVersion
1070
     0
  0
VISUALSTYLE
  5
10B
102
{ACAD_REACTORS
330
101
102
}
330
101
100
AcDbVisualStyle
  2
Realistic
 70
     8
 71
     2
 72
     2
 73
     0
 90
        0
 40
-0.6
 41
-30.0
 62
     5
 63
     7
421
 16777215
 74
     1
 91
        0
 64
     7
 65
   257
 75
     1
175
     1
 42
1.0
 92
        8
 66
     8
424
  7895160
 43
1.0
 76
     1
 77
     6
 78
     2
 67
     7
 79
     5
170
     0
171
     0
290
     0
174
     0
 93
       13
 44
0.0
173
     0
291
     0
 45
0.0
1001
ACAD
1000
AcDbSavedByObjectVersion
1070
     0
  0
VISUALSTYLE
  5
10E
102
{ACAD_REACTORS
330
101
102
}
330
101
100
AcDbVisualStyle
  2
Thicken
 70
    13
 71
     2
 72
     2
 73
     0
 90
        0
 40
-0.6
 41
-30.0
 62
     5
 63
     7
421
 16777215
 74
     1
 91
        4
 64
     7
 65
   257
 75
     1
175
     1
 42
1.0
 92
       12
 66
     7
 43
1.0
 76
     1
 77
     6
 78
     2
 67
     7
 79
     5
170
     0
171
     0
290
     0
174
     0
 93
        1
 44
0.0
173
     0
291
     1
 45
0.0
1001
ACAD
1000
AcDbSavedByObjectVersion
1070
     0
  0
DICTIONARYVAR
  5
17F
102
{ACAD_REACTORS
330
121
102
}
330
121
100
DictionaryVariables
280
     0
  1
1:1
  0
DICTIONARYVAR
  5
17E
102
{ACAD_REACTORS
330
121
102
}
330
121
100
DictionaryVariables
280
     0
  1
STANDARD
  0
DICTIONARYVAR
  5
122
102
{ACAD_REACTORS
330
121
102
}
330
121
100
DictionaryVariables
280
     0
  1
STANDARD
  0
XRECORD
  5
120
102
{ACAD_REACTORS
330
11E
102
}
330
11E
100
AcDbXrecord
280
     1
  0
DICTIONARY
  5
185
330
FF
100
AcDbDictionary
280
     1
281
     1
  3
ACAD_XREC_ROUNDTRIP
360
186
  0
DICTIONARY
  5
183
330
FE
100
AcDbDictionary
280
     1
281
     1
  3
ACAD_XREC_ROUNDTRIP
360
184
  0
DICTIONARY
  5
187
330
100
100
AcDbDictionary
280
     1
281
     1
  3
ACAD_XREC_ROUNDTRIP
360
188
  0
DICTIONARY
  5
180
330
114
100
AcDbDictionary
280
     1
281
     1
  3
ACAD_ROUNDTRIP_2008_TABLESTYLE_CELLSTYLEMAP
360
181
  3
ACAD_XREC_ROUNDTRIP
360
189
  0
XRECORD
  5
186
102
{ACAD_REACTORS
330
185
102
}
330
185
100
AcDbXrecord
280
     1
102
MATERIAL
148
0.0
149
0.0
149
0.0
 93
        0
 94
       63
282
     0
 72
     1
 77
     1
171
     1
175
     1
179
     1
273
     0
  0
XRECORD
  5
184
102
{ACAD_REACTORS
330
183
102
}
330
183
100
AcDbXrecord
280
     1
102
MATERIAL
148
0.0
149
0.0
149
0.0
 93
        0
 94
       63
282
     0
 72
     1
 77
     1
171
     1
175
     1
179
     1
273
     0
  0
XRECORD
  5
188
102
{ACAD_REACTORS
330
187
102
}
330
187
100
AcDbXrecord
280
     1
102
MATERIAL
148
0.0
149
0.0
149
0.0
 93
        0
 94
       63
282
     0
 72
     1
 77
     1
171
     1
175
     1
179
     1
273
     0
  0
CELLSTYLEMAP
  5
181
102
{ACAD_REACTORS
330
180
102
}
330
180
100
AcDbCellStyleMap
 90
        3
300
CELLSTYLE
  1
TABLEFORMAT_BEGIN
 90
        5
170
     1
 91
        0
 92
    32768
 62
   257
 93
        1
300
CONTENTFORMAT
  1
CONTENTFORMAT_BEGIN
 90
        0
 91
        0
 92
      512
 93
        0
300

 40
0.0
140
1.0
 94
        5
 62
     0
340
17
144
0.25
309
CONTENTFORMAT_END
171
     0
 94
        6
 95
        1
302
GRIDFORMAT
  1
GRIDFORMAT_BEGIN
 90
        0
 91
        1
 62
     0
 92
       -2
340
0
 93
        0
 40
0.045
309
GRIDFORMAT_END
 95
        2
302
GRIDFORMAT
  1
GRIDFORMAT_BEGIN
 90
        0
 91
        1
 62
     0
 92
       -2
340
0
 93
        0
 40
0.045
309
GRIDFORMAT_END
 95
        4
302
GRIDFORMAT
  1
GRIDFORMAT_BEGIN
 90
        0
 91
        1
 62
     0
 92
       -2
340
0
 93
        0
 40
0.045
309
GRIDFORMAT_END
 95
        8
302
GRIDFORMAT
  1
GRIDFORMAT_BEGIN
 90
        0
 91
        1
 62
     0
 92
       -2
340
0
 93
        0
 40
0.045
309
GRIDFORMAT_END
 95
       16
302
GRIDFORMAT
  1
GRIDFORMAT_BEGIN
 90
        0
 91
        1
 62
     0
 92
       -2
340
0
 93
        0
 40
0.045
309
GRIDFORMAT_END
 95
       32
302
GRIDFORMAT
  1
GRIDFORMAT_BEGIN
 90
        0
 91
        1
 62
     0
 92
       -2
340
0
 93
        0
 40
0.045
309
GRIDFORMAT_END
309
TABLEFORMAT_END
  1
CELLSTYLE_BEGIN
 90
        1
 91
        1
300
_TITLE
309
CELLSTYLE_END
300
CELLSTYLE
  1
TABLEFORMAT_BEGIN
 90
        5
170
     1
 91
        0
 92
        0
 62
   257
 93
        1
300
CONTENTFORMAT
  1
CONTENTFORMAT_BEGIN
 90
        0
 91
        0
 92
      512
 93
        0
300

 40
0.0
140
1.0
 94
        5
 62
     0
340
17
144
0.18
309
CONTENTFORMAT_END
171
     0
 94
        6
 95
        1
302
GRIDFORMAT
  1
GRIDFORMAT_BEGIN
 90
        0
 91
        1
 62
     0
 92
       -2
340
0
 93
        0
 40
0.045
309
GRIDFORMAT_END
 95
        2
302
GRIDFORMAT
  1
GRIDFORMAT_BEGIN
 90
        0
 91
        1
 62
     0
 92
       -2
340
0
 93
        0
 40
0.045
309
GRIDFORMAT_END
 95
        4
302
GRIDFORMAT
  1
GRIDFORMAT_BEGIN
 90
        0
 91
        1
 62
     0
 92
       -2
340
0
 93
        0
 40
0.045
309
GRIDFORMAT_END
 95
        8
302
GRIDFORMAT
  1
GRIDFORMAT_BEGIN
 90
        0
 91
        1
 62
     0
 92
       -2
340
0
 93
        0
 40
0.045
309
GRIDFORMAT_END
 95
       16
302
GRIDFORMAT
  1
GRIDFORMAT_BEGIN
 90
        0
 91
        1
 62
     0
 92
       -2
340
0
 93
        0
 40
0.045
309
GRIDFORMAT_END
 95
       32
302
GRIDFORMAT
  1
GRIDFORMAT_BEGIN
 90
        0
 91
        1
 62
     0
 92
       -2
340
0
 93
        0
 40
0.045
309
GRIDFORMAT_END
309
TABLEFORMAT_END
  1
CELLSTYLE_BEGIN
 90
        2
 91
        1
300
_HEADER
309
CELLSTYLE_END
300
CELLSTYLE
  1
TABLEFORMAT_BEGIN
 90
        5
170
     1
 91
        0
 92
        0
 62
   257
 93
        1
300
CONTENTFORMAT
  1
CONTENTFORMAT_BEGIN
 90
        0
 91
        0
 92
      512
 93
        0
300

 40
0.0
140
1.0
 94
        2
 62
     0
340
17
144
0.18
309
CONTENTFORMAT_END
171
     0
 94
        6
 95
        1
302
GRIDFORMAT
  1
GRIDFORMAT_BEGIN
 90
        0
 91
        1
 62
     0
 92
       -2
340
0
 93
        0
 40
0.045
309
GRIDFORMAT_END
 95
        2
302
GRIDFORMAT
  1
GRIDFORMAT_BEGIN
 90
        0
 91
        1
 62
     0
 92
       -2
340
0
 93
        0
 40
0.045
309
GRIDFORMAT_END
 95
        4
302
GRIDFORMAT
  1
GRIDFORMAT_BEGIN
 90
        0
 91
        1
 62
     0
 92
       -2
340
0
 93
        0
 40
0.045
309
GRIDFORMAT_END
 95
        8
302
GRIDFORMAT
  1
GRIDFORMAT_BEGIN
 90
        0
 91
        1
 62
     0
 92
       -2
340
0
 93
        0
 40
0.045
309
GRIDFORMAT_END
 95
       16
302
GRIDFORMAT
  1
GRIDFORMAT_BEGIN
 90
        0
 91
        1
 62
     0
 92
       -2
340
0
 93
        0
 40
0.045
309
GRIDFORMAT_END
 95
       32
302
GRIDFORMAT
  1
GRIDFORMAT_BEGIN
 90
        0
 91
        1
 62
     0
 92
       -2
340
0
 93
        0
 40
0.045
309
GRIDFORMAT_END
309
TABLEFORMAT_END
  1
CELLSTYLE_BEGIN
 90
        3
 91
        2
300
_DATA
309
CELLSTYLE_END
  0
XRECORD
  5
189
102
{ACAD_REACTORS
330
180
102
}
330
180
100
AcDbXrecord
280
     1
102
ACAD_ROUNDTRIP_PRE2007_TABLESTYLE
 90
      512
 91
        0
  1

 92
      512
 93
        0
  2

 94
      512
 95
        0
  3

  0
ENDSEC
  0
EOF
