  0
SECTION
  2
HEADER
  9
$ACADVER
  1
AC1018
  9
$ACADMAINTVER
 70
   104
  9
$DWGCODEPAGE
  3
ANSI_1252
  9
$LASTSAVEDBY
  1
EARL
  9
$INSBASE
 10
0.0
 20
0.0
 30
0.0
  9
$EXTMIN
 10
-2.952699958308361
 20
-0.1722292347177396
 30
0.0
  9
$EXTMAX
 10
1.776863479512713
 20
3.732191801071166
 30
0.0
  9
$LIMMIN
 10
0.0
 20
0.0
  9
$LIMMAX
 10
0.0
 20
0.0
  9
$ORTHOMODE
 70
     0
  9
$REGENMODE
 70
     1
  9
$FILLMODE
 70
     1
  9
$QTEXTMODE
 70
     0
  9
$MIRRTEXT
 70
     1
  9
$LTSCALE
 40
1.0
  9
$ATTMODE
 70
     1
  9
$TEXTSIZE
 40
0.0
  9
$TRACEWID
 40
0.05
  9
$TEXTSTYLE
  7
Standard
  9
$CLAYER
  8
0
  9
$CELTYPE
  6
Continuous
  9
$CECOLOR
 62
   256
  9
$CELTSCALE
 40
1.0
  9
$DISPSILH
 70
     0
  9
$DIMSCALE
 40
1.0
  9
$DIMASZ
 40
0.18
  9
$DIMEXO
 40
0.0625
  9
$DIMDLI
 40
0.38
  9
$DIMRND
 40
0.0
  9
$DIMDLE
 40
0.0
  9
$DIMEXE
 40
0.18
  9
$DIMTP
 40
0.0
  9
$DIMTM
 40
0.0
  9
$DIMTXT
 40
0.18
  9
$DIMCEN
 40
0.09
  9
$DIMTSZ
 40
0.0
  9
$DIMTOL
 70
     0
  9
$DIMLIM
 70
     0
  9
$DIMTIH
 70
     1
  9
$DIMTOH
 70
     1
  9
$DIMSE1
 70
     0
  9
$DIMSE2
 70
     0
  9
$DIMTAD
 70
     0
  9
$DIMZIN
 70
     0
  9
$DIMBLK
  1

  9
$DIMASO
 70
     1
  9
$DIMSHO
 70
     1
  9
$DIMPOST
  1

  9
$DIMAPOST
  1

  9
$DIMALT
 70
     0
  9
$DIMALTD
 70
     2
  9
$DIMALTF
 40
25.4
  9
$DIMLFAC
 40
1.0
  9
$DIMTOFL
 70
     0
  9
$DIMTVP
 40
0.0
  9
$DIMTIX
 70
     0
  9
$DIMSOXD
 70
     0
  9
$DIMSAH
 70
     0
  9
$DIMBLK1
  1

  9
$DIMBLK2
  1

  9
$DIMSTYLE
  2
Standard
  9
$DIMCLRD
 70
     0
  9
$DIMCLRE
 70
     0
  9
$DIMCLRT
 70
     0
  9
$DIMTFAC
 40
1.0
  9
$DIMGAP
 40
0.09
  9
$DIMJUST
 70
     0
  9
$DIMSD1
 70
     0
  9
$DIMSD2
 70
     0
  9
$DIMTOLJ
 70
     1
  9
$DIMTZIN
 70
     0
  9
$DIMALTZ
 70
     0
  9
$DIMALTTZ
 70
     0
  9
$DIMUPT
 70
     0
  9
$DIMDEC
 70
     4
  9
$DIMTDEC
 70
     4
  9
$DIMALTU
 70
     2
  9
$DIMALTTD
 70
     2
  9
$DIMTXSTY
  7
Standard
  9
$DIMAUNIT
 70
     0
  9
$DIMADEC
 70
     0
  9
$DIMALTRND
 40
0.0
  9
$DIMAZIN
 70
     0
  9
$DIMDSEP
 70
    46
  9
$DIMATFIT
 70
     0
  9
$DIMFRAC
 70
     0
  9
$DIMLDRBLK
  1

  9
$DIMLUNIT
 70
     2
  9
$DIMLWD
 70
    -2
  9
$DIMLWE
 70
    -2
  9
$DIMTMOVE
 70
     0
  9
$LUNITS
 70
     2
  9
$LUPREC
 70
     4
  9
$SKETCHINC
 40
0.1
  9
$FILLETRAD
 40
0.0
  9
$AUNITS
 70
     0
  9
$AUPREC
 70
     0
  9
$MENU
  1
acad
  9
$ELEVATION
 40
0.0
  9
$PELEVATION
 40
0.0
  9
$THICKNESS
 40
0.0
  9
$LIMCHECK
 70
     0
  9
$CHAMFERA
 40
0.0
  9
$CHAMFERB
 40
0.0
  9
$CHAMFERC
 40
0.0
  9
$CHAMFERD
 40
0.0
  9
$SKPOLY
 70
     0
  9
$TDCREATE
 40
2454842.749270834
  9
$TDUCREATE
 40
2454842.915937500
  9
$TDUPDATE
 40
2455099.681744421
  9
$TDUUPDATE
 40
2455099.848411088
  9
$TDINDWG
 40
0.0012677083
  9
$TDUSRTIMER
 40
0.0012677083
  9
$USRTIMER
 70
     1
  9
$ANGBASE
 50
0.0
  9
$ANGDIR
 70
     0
  9
$PDMODE
 70
     0
  9
$PDSIZE
 40
0.0
  9
$PLINEWID
 40
0.0
  9
$SPLFRAME
 70
     0
  9
$SPLINETYPE
 70
     6
  9
$SPLINESEGS
 70
     8
  9
$HANDSEED
  5
1AA
  9
$SURFTAB1
 70
     6
  9
$SURFTAB2
 70
     6
  9
$SURFTYPE
 70
     6
  9
$SURFU
 70
     6
  9
$SURFV
 70
     6
  9
$UCSBASE
  2

  9
$UCSNAME
  2

  9
$UCSORG
 10
0.0
 20
0.0
 30
0.0
  9
$UCSXDIR
 10
1.0
 20
0.0
 30
0.0
  9
$UCSYDIR
 10
0.0
 20
1.0
 30
0.0
  9
$UCSORTHOREF
  2

  9
$UCSORTHOVIEW
 70
     0
  9
$UCSORGTOP
 10
0.0
 20
0.0
 30
0.0
  9
$UCSORGBOTTOM
 10
0.0
 20
0.0
 30
0.0
  9
$UCSORGLEFT
 10
0.0
 20
0.0
 30
0.0
  9
$UCSORGRIGHT
 10
0.0
 20
0.0
 30
0.0
  9
$UCSORGFRONT
 10
0.0
 20
0.0
 30
0.0
  9
$UCSORGBACK
 10
0.0
 20
0.0
 30
0.0
  9
$PUCSBASE
  2

  9
$PUCSNAME
  2

  9
$PUCSORG
 10
0.0
 20
0.0
 30
0.0
  9
$PUCSXDIR
 10
1.0
 20
0.0
 30
0.0
  9
$PUCSYDIR
 10
0.0
 20
1.0
 30
0.0
  9
$PUCSORTHOREF
  2

  9
$PUCSORTHOVIEW
 70
     0
  9
$PUCSORGTOP
 10
0.0
 20
0.0
 30
0.0
  9
$PUCSORGBOTTOM
 10
0.0
 20
0.0
 30
0.0
  9
$PUCSORGLEFT
 10
0.0
 20
0.0
 30
0.0
  9
$PUCSORGRIGHT
 10
0.0
 20
0.0
 30
0.0
  9
$PUCSORGFRONT
 10
0.0
 20
0.0
 30
0.0
  9
$PUCSORGBACK
 10
0.0
 20
0.0
 30
0.0
  9
$USERI1
 70
     0
  9
$USERI2
 70
     0
  9
$USERI3
 70
     0
  9
$USERI4
 70
     0
  9
$USERI5
 70
     0
  9
$USERR1
 40
0.0
  9
$USERR2
 40
0.0
  9
$USERR3
 40
0.0
  9
$USERR4
 40
0.0
  9
$USERR5
 40
0.0
  9
$WORLDVIEW
 70
     1
  9
$SHADEDGE
 70
     3
  9
$SHADEDIF
 70
    70
  9
$TILEMODE
 70
     0
  9
$MAXACTVP
 70
    16
  9
$PINSBASE
 10
0.0
 20
0.0
 30
0.0
  9
$PLIMCHECK
 70
     0
  9
$PEXTMIN
 10
-0.5130610092088759
 20
0.3365097188993538
 30
-0.0015258207003583
  9
$PEXTMAX
 10
9.919449138208005
 20
8.255973605667566
 30
0.0000000349246037
  9
$PLIMMIN
 10
-0.7833783206124228
 20
0.06472405119501
  9
$PLIMMAX
 10
10.21662143909169
 20
8.564723810899119
  9
$UNITMODE
 70
     0
  9
$VISRETAIN
 70
     0
  9
$PLINEGEN
 70
     1
  9
$PSLTSCALE
 70
     0
  9
$TREEDEPTH
 70
  3020
  9
$CMLSTYLE
  2
Standard
  9
$CMLJUST
 70
     0
  9
$CMLSCALE
 40
1.0
  9
$PROXYGRAPHICS
 70
     0
  9
$MEASUREMENT
 70
     0
  9
$CELWEIGHT
370
     0
  9
$ENDCAPS
280
     0
  9
$JOINSTYLE
280
     0
  9
$LWDISPLAY
290
     0
  9
$INSUNITS
 70
     0
  9
$HYPERLINKBASE
  1

  9
$STYLESHEET
  1

  9
$XEDIT
290
     1
  9
$CEPSNTYPE
380
     0
  9
$PSTYLEMODE
290
     1
  9
$FINGERPRINTGUID
  2

  9
$VERSIONGUID
  2
{639A8240-CE22-41CE-87D8-C4016B5BCD26}
  9
$EXTNAMES
290
     1
  9
$PSVPSCALE
 40
0.0
  9
$OLESTARTUP
290
     0
  9
$SORTENTS
280
   127
  9
$INDEXCTL
280
     0
  9
$HIDETEXT
280
     0
  9
$XCLIPFRAME
290
     0
  9
$HALOGAP
280
     0
  9
$OBSCOLOR
 70
   257
  9
$OBSLTYPE
280
     0
  9
$INTERSECTIONDISPLAY
280
     0
  9
$INTERSECTIONCOLOR
 70
   257
  9
$DIMASSOC
280
     1
  9
$PROJECTNAME
  1

  0
ENDSEC
  0
SECTION
  2
CLASSES
  0
CLASS
  1
IMAGE
  2
AcDbRasterImage
  3
ISM
 90
     2175
 91
        0
280
     0
281
     1
  0
CLASS
  1
DICTIONARYVAR
  2
AcDbDictionaryVar
  3
ObjectDBX Classes
 90
        0
 91
        5
280
     0
281
     0
  0
CLASS
  1
RASTERVARIABLES
  2
AcDbRasterVariables
  3
ISM
 90
        0
 91
        0
280
     0
281
     0
  0
CLASS
  1
IMAGEDEF
  2
AcDbRasterImageDef
  3
ISM
 90
        0
 91
        0
280
     0
281
     0
  0
CLASS
  1
IMAGEDEF_REACTOR
  2
AcDbRasterImageDefReactor
  3
ISM
 90
        1
 91
        0
280
     0
281
     0
  0
CLASS
  1
IDBUFFER
  2
AcDbIdBuffer
  3
ObjectDBX Classes
 90
        0
 91
        0
280
     0
281
     0
  0
CLASS
  1
SPATIAL_FILTER
  2
AcDbSpatialFilter
  3
ObjectDBX Classes
 90
        0
 91
        0
280
     0
281
     0
  0
CLASS
  1
SORTENTSTABLE
  2
AcDbSortentsTable
  3
ObjectDBX Classes
 90
        0
 91
        1
280
     0
281
     0
  0
CLASS
  1
LAYER_INDEX
  2
AcDbLayerIndex
  3
ObjectDBX Classes
 90
        0
 91
        0
280
     0
281
     0
  0
CLASS
  1
SPATIAL_INDEX
  2
AcDbSpatialIndex
  3
ObjectDBX Classes
 90
        0
 91
        0
280
     0
281
     0
  0
CLASS
  1
OBJECT_PTR
  2
CAseDLPNTableRecord
  3
ASE-LPNTableRecord
 90
        1
 91
        0
280
     0
281
     0
  0
CLASS
  1
PLOTSETTINGS
  2
AcDbPlotSettings
  3
ObjectDBX Classes
 90
        0
 91
        0
280
     0
281
     0
  0
CLASS
  1
ACDBDICTIONARYWDFLT
  2
AcDbDictionaryWithDefault
  3
ObjectDBX Classes
 90
        0
 91
        1
280
     0
281
     0
  0
CLASS
  1
WIPEOUT
  2
AcDbWipeout
  3
"WipeOut|Product Desc: Object Enabler for WipeOut entity                        |Company: Autodesk, Inc.                        |WEB Address: www.autodesk.com"
 90
     2175
 91
        0
280
     0
281
     1
  0
CLASS
  1
WIPEOUTVARIABLES
  2
AcDbWipeoutVariables
  3
"WipeOut|Product Desc:     WipeOut Dbx Application|Company:          Autodesk, Inc.|WEB Address:      www.autodesk.com"
 90
        0
 91
        1
280
     0
281
     0
  0
CLASS
  1
RTEXT
  2
RText
  3
RText|AutoCAD Express Tool|expresstools@autodesk.com
 90
     3071
 91
        0
280
     0
281
     1
  0
CLASS
  1
ARCALIGNEDTEXT
  2
AcDbArcAlignedText
  3
ATEXT|AutoCAD Express Tool|expresstools@autodesk.com
 90
        0
 91
        0
280
     0
281
     1
  0
CLASS
  1
MATERIAL
  2
AcDbMaterial
  3
ObjectDBX Classes
 90
     1153
 91
        3
280
     0
281
     0
  0
CLASS
  1
VISUALSTYLE
  2
AcDbVisualStyle
  3
ObjectDBX Classes
 90
     4095
 91
       16
280
     0
281
     0
  0
CLASS
  1
TABLESTYLE
  2
AcDbTableStyle
  3
ObjectDBX Classes
 90
     4095
 91
        1
280
     0
281
     0
  0
CLASS
  1
SCALE
  2
AcDbScale
  3
ObjectDBX Classes
 90
     1153
 91
       33
280
     0
281
     0
  0
CLASS
  1
MLEADERSTYLE
  2
AcDbMLeaderStyle
  3
ACDB_MLEADERSTYLE_CLASS
 90
     4095
 91
        1
280
     0
281
     0
  0
CLASS
  1
CELLSTYLEMAP
  2
AcDbCellStyleMap
  3
ObjectDBX Classes
 90
     1152
 91
        2
280
     0
281
     0
  0
ENDSEC
  0
SECTION
  2
TABLES
  0
TABLE
  2
VPORT
  5
7
330
0
100
AcDbSymbolTable
 70
     1
  0
VPORT
  5
15
330
7
100
AcDbSymbolTableRecord
100
AcDbViewportTableRecord
  2
*ACTIVE
 70
     0
 10
0.0
 20
0.0
 11
1.0
 21
1.0
 12
13.89621157632295
 22
4.579183999999999
 13
0.0
 23
0.0
 14
1.0
 24
1.0
 15
0.0
 25
0.0
 16
0.0
 26
0.0
 36
1.0
 17
0.0
 27
0.0
 37
0.0
 40
9.158369
 41
2.283809523809523
 42
50.0
 43
0.0
 44
0.0
 50
0.0
 51
0.0
 71
     0
 72
   100
 73
     1
 74
     1
 75
     0
 76
     0
 77
     0
 78
     0
281
     0
 65
     0
110
0.0
120
0.0
130
0.0
111
1.0
121
0.0
131
0.0
112
0.0
122
1.0
132
0.0
 79
     0
146
0.0
  0
ENDTAB
  0
TABLE
  2
LTYPE
  5
4
330
0
100
AcDbSymbolTable
 70
     5
  0
LTYPE
  5
11
330
4
100
AcDbSymbolTableRecord
100
AcDbLinetypeTableRecord
  2
ByBlock
 70
     0
  3

 72
    65
 73
     0
 40
0.0
  0
LTYPE
  5
12
330
4
100
AcDbSymbolTableRecord
100
AcDbLinetypeTableRecord
  2
ByLayer
 70
     0
  3

 72
    65
 73
     0
 40
0.0
  0
LTYPE
  5
13
330
4
100
AcDbSymbolTableRecord
100
AcDbLinetypeTableRecord
  2
Continuous
 70
     0
  3
Solid line
 72
    65
 73
     0
 40
0.0
  0
LTYPE
  5
24
330
4
100
AcDbSymbolTableRecord
100
AcDbLinetypeTableRecord
  2
solid
 70
     0
  3

 72
    65
 73
     0
 40
0.0
  0
LTYPE
  5
25
330
4
100
AcDbSymbolTableRecord
100
AcDbLinetypeTableRecord
  2
dashed
 70
     0
  3

 72
    65
 73
     0
 40
0.0
  0
LTYPE
  5
26
330
4
100
AcDbSymbolTableRecord
100
AcDbLinetypeTableRecord
  2
center
 70
     0
  3

 72
    65
 73
     0
 40
0.0
  0
ENDTAB
  0
TABLE
  2
LAYER
  5
2
330
0
100
AcDbSymbolTable
 70
     3
  0
LAYER
  5
14
102
{ACAD_XDICTIONARY
360
16E
102
}
330
2
100
AcDbSymbolTableRecord
100
AcDbLayerTableRecord
  2
0
 70
     0
 62
     7
  6
Continuous
370
    -3
390
1D
  0
LAYER
  5
27
102
{ACAD_XDICTIONARY
360
170
102
}
330
2
100
AcDbSymbolTableRecord
100
AcDbLayerTableRecord
  2
1
 70
     0
 62
     1
  6
solid
370
    -3
390
1D
  0
LAYER
  5
104
102
{ACAD_XDICTIONARY
360
172
102
}
330
2
100
AcDbSymbolTableRecord
100
AcDbLayerTableRecord
  2
0
 70
     0
 62
     1
  6
solid
370
    -3
390
1D
  0
ENDTAB
  0
TABLE
  2
STYLE
  5
3
330
0
100
AcDbSymbolTable
 70
     2
  0
STYLE
  5
17
330
3
100
AcDbSymbolTableRecord
100
AcDbTextStyleTableRecord
  2
Standard
 70
     0
 40
0.0
 41
1.0
 50
0.0
 71
     0
 42
0.0
  3
txt
  4

  0
ENDTAB
  0
TABLE
  2
VIEW
  5
5
330
0
100
AcDbSymbolTable
 70
     0
  0
ENDTAB
  0
TABLE
  2
UCS
  5
6
330
0
100
AcDbSymbolTable
 70
     0
  0
ENDTAB
  0
TABLE
  2
APPID
  5
8
330
0
100
AcDbSymbolTable
 70
     5
  0
APPID
  5
16
330
8
100
AcDbSymbolTableRecord
100
AcDbRegAppTableRecord
  2
ACAD
 70
     0
  0
APPID
  5
139
330
8
100
AcDbSymbolTableRecord
100
AcDbRegAppTableRecord
  2
ACAD_PSEXT
 70
     0
  0
APPID
  5
13E
330
8
100
AcDbSymbolTableRecord
100
AcDbRegAppTableRecord
  2
DCO15
 70
     0
  0
APPID
  5
167
330
8
100
AcDbSymbolTableRecord
100
AcDbRegAppTableRecord
  2
ACAD_MLEADERVER
 70
     0
  0
APPID
  5
186
330
8
100
AcDbSymbolTableRecord
100
AcDbRegAppTableRecord
  2
ACAD_EXEMPT_FROM_CAD_STANDARDS
 70
     0
  0
ENDTAB
  0
TABLE
  2
DIMSTYLE
  5
9
330
0
100
AcDbSymbolTable
 70
     3
100
AcDbDimStyleTable
 71
     1
340
18
  0
DIMSTYLE
105
18
102
{ACAD_REACTORS
330
94
102
}
330
9
100
AcDbSymbolTableRecord
100
AcDbDimStyleTableRecord
  2
Standard
 70
     0
289
     0
340
17
  0
ENDTAB
  0
TABLE
  2
BLOCK_RECORD
  5
1
330
0
100
AcDbSymbolTable
 70
     4
  0
BLOCK_RECORD
  5
A
102
{ACAD_XDICTIONARY
360
183
102
}
330
1
100
AcDbSymbolTableRecord
100
AcDbBlockTableRecord
  2
*MODEL_SPACE
340
20
  0
BLOCK_RECORD
  5
B
330
1
100
AcDbSymbolTableRecord
100
AcDbBlockTableRecord
  2
*PAPER_SPACE
340
21
  0
BLOCK_RECORD
  5
8A
330
1
100
AcDbSymbolTableRecord
100
AcDbBlockTableRecord
  2
*D0
340
0
  0
BLOCK_RECORD
  5
95
330
1
100
AcDbSymbolTableRecord
100
AcDbBlockTableRecord
  2
*D1
340
0
  0
ENDTAB
  0
ENDSEC
  0
SECTION
  2
BLOCKS
  0
BLOCK
  5
D
330
A
100
AcDbEntity
  8
0
100
AcDbBlockBegin
  2
*MODEL_SPACE
 70
     0
 10
0.0
 20
0.0
 30
0.0
  3
*MODEL_SPACE
  1

  0
ENDBLK
  5
E
330
A
100
AcDbEntity
  8
0
100
AcDbBlockEnd
  0
BLOCK
  5
F
330
B
100
AcDbEntity
 67
     1
  8
0
100
AcDbBlockBegin
  2
*PAPER_SPACE
 70
     0
 10
0.0
 20
0.0
 30
0.0
  3
*PAPER_SPACE
  1

  0
ENDBLK
  5
10
330
B
100
AcDbEntity
 67
     1
  8
0
100
AcDbBlockEnd
  0
BLOCK
  5
8B
330
8A
100
AcDbEntity
  8
1
  6
solid
 62
     7
100
AcDbBlockBegin
  2
*D0
 70
     0
 10
0.0
 20
0.0
 30
0.0
  3
*D0
  1

  0
LINE
  5
8C
330
8A
100
AcDbEntity
  8
1
  6
solid
 62
     7
100
AcDbLine
 10
-1.701957583427429
 20
0.2416696250438689
 30
0.0
 11
-0.8199638472577852
 21
0.2416696250438681
 31
0.0
  0
LINE
  5
8D
330
8A
100
AcDbEntity
  8
1
  6
solid
 62
     7
100
AcDbLine
 10
-1.701957583427429
 20
3.366669654846191
 30
0.0
 11
-0.8199638472577831
 21
3.36666965484619
 31
0.0
  0
LINE
  5
8E
330
8A
100
AcDbEntity
  8
1
  6
solid
 62
     7
100
AcDbLine
 10
-0.8824638472577852
 20
0.2416696250438681
 30
0.0
 11
-0.8824638472577841
 21
1.644297043791183
 31
0.0
  0
LINE
  5
8F
330
8A
100
AcDbEntity
  8
1
  6
solid
 62
     7
100
AcDbLine
 10
-0.8824638472577831
 20
3.36666965484619
 30
0.0
 11
-0.882463847257784
 21
1.964042236098875
 31
0.0
  0
MTEXT
  5
90
330
8A
100
AcDbEntity
  8
1
  6
solid
 62
     7
100
AcDbMText
 10
-0.8824638472577841
 20
1.804169639945029
 30
0.0
 40
0.125
 41
0.0
 71
     5
 72
     1
  1
{\H0.125000;3 1/8}
 73
     1
 44
1.0
  0
SOLID
  5
91
330
8A
100
AcDbEntity
  8
1
  6
solid
 62
     7
100
AcDbTrace
 10
-0.894963847257785
 20
0.2666696250438682
 30
0.0
 11
-0.869963847257785
 21
0.2666696250438681
 31
0.0
 12
-0.8824638472577852
 22
0.2416696250438681
 32
0.0
 13
-0.8824638472577852
 23
0.2416696250438681
 33
0.0
  0
SOLID
  5
92
330
8A
100
AcDbEntity
  8
1
  6
solid
 62
     7
100
AcDbTrace
 10
-0.8699638472577831
 20
3.34166965484619
 30
0.0
 11
-0.8949638472577829
 21
3.34166965484619
 31
0.0
 12
-0.8824638472577831
 22
3.36666965484619
 32
0.0
 13
-0.8824638472577831
 23
3.36666965484619
 33
0.0
  0
ENDBLK
  5
93
330
8A
100
AcDbEntity
  8
1
  6
solid
 62
     7
100
AcDbBlockEnd
  0
BLOCK
  5
96
330
95
100
AcDbEntity
  8
1
  6
solid
 62
     7
100
AcDbBlockBegin
  2
*D1
 70
     0
 10
0.0
 20
0.0
 30
0.0
  3
*D1
  1

  0
LINE
  5
97
330
95
100
AcDbEntity
  8
1
  6
solid
 62
     7
100
AcDbLine
 10
-2.952686786651611
 20
1.855330824851989
 30
0.0
 11
-2.952686786651611
 21
-0.0675521757300005
 31
0.0
  0
LINE
  5
98
330
95
100
AcDbEntity
  8
1
  6
solid
 62
     7
100
AcDbLine
 10
-1.826957583427429
 20
0.116669625043869
 30
0.0
 11
-1.826957583427429
 21
-0.0675521757300005
 31
0.0
  0
LINE
  5
99
330
95
100
AcDbEntity
  8
1
  6
solid
 62
     7
100
AcDbLine
 10
-2.952686786651611
 20
-0.0050521757300005
 30
0.0
 11
-2.599836890921872
 21
-0.0050521757300005
 31
0.0
  0
LINE
  5
9A
330
95
100
AcDbEntity
  8
1
  6
solid
 62
     7
100
AcDbLine
 10
-1.826957583427429
 20
-0.0050521757300005
 30
0.0
 11
-2.179807479157167
 21
-0.0050521757300005
 31
0.0
  0
MTEXT
  5
9B
330
95
100
AcDbEntity
  8
1
  6
solid
 62
     7
100
AcDbMText
 10
-2.38982218503952
 20
-0.0050521757300005
 30
0.0
 40
0.125
 41
0.0
 71
     5
 72
     1
  1
{\H0.125000;1 1/8}
 73
     1
 44
1.0
  0
SOLID
  5
9C
330
95
100
AcDbEntity
  8
1
  6
solid
 62
     7
100
AcDbTrace
 10
-2.927686786651611
 20
0.0074478242699995
 30
0.0
 11
-2.927686786651611
 21
-0.0175521757300005
 31
0.0
 12
-2.952686786651611
 22
-0.0050521757300005
 32
0.0
 13
-2.952686786651611
 23
-0.0050521757300005
 33
0.0
  0
SOLID
  5
9D
330
95
100
AcDbEntity
  8
1
  6
solid
 62
     7
100
AcDbTrace
 10
-1.851957583427429
 20
-0.0175521757300005
 30
0.0
 11
-1.851957583427429
 21
0.0074478242699995
 31
0.0
 12
-1.826957583427429
 22
-0.0050521757300005
 32
0.0
 13
-1.826957583427429
 23
-0.0050521757300005
 33
0.0
  0
ENDBLK
  5
9E
330
95
100
AcDbEntity
  8
1
  6
solid
 62
     7
100
AcDbBlockEnd
  0
ENDSEC
  0
SECTION
  2
ENTITIES
  0
ARC
  5
28
330
A
100
AcDbEntity
  8
1
  6
solid
 62
     7
100
AcDbCircle
 10
1.319958428080508
 20
2.737951983664093
 30
0.0
 40
0.3848611181035811
100
AcDbArc
 50
123.369096696789
 51
204.9622774043912
  0
ARC
  5
29
330
A
100
AcDbEntity
  8
1
  6
solid
 62
     7
100
AcDbCircle
 10
1.042609931664098
 20
2.410466685265719
 30
0.0
 40
0.1799102799429765
100
AcDbArc
 50
113.4382651186411
 51
173.8610577592716
  0
ARC
  5
2A
330
A
100
AcDbEntity
  8
1
  6
solid
 62
     7
100
AcDbCircle
 10
0.9566858054610367
 20
1.939954115884501
 30
0.0
 40
0.4984955091818574
100
AcDbArc
 50
100.746861256181
 51
258.4194594559546
  0
ARC
  5
2B
330
A
100
AcDbEntity
  8
1
  6
solid
 62
     7
100
AcDbCircle
 10
0.9517189584136325
 20
1.408623580491329
 30
0.0
 40
0.1043659087198677
100
AcDbArc
 50
155.6791518428648
 51
272.727784256926
  0
ARC
  5
2C
330
A
100
AcDbEntity
  8
1
  6
solid
 62
     7
100
AcDbCircle
 10
1.187303161823751
 20
1.230911989356004
 30
0.0
 40
0.2420356886525853
100
AcDbArc
 50
162.3305535961356
 51
227.528853080089
  0
ARC
  5
2D
330
A
100
AcDbEntity
  8
1
  6
solid
 62
     7
100
AcDbCircle
 10
0.6074119051015732
 20
0.616852555948724
 30
0.0
 40
0.6026014150547298
100
AcDbArc
 50
15.75778312520539
 51
46.2819241998272
  0
ARC
  5
2E
330
A
100
AcDbEntity
  8
1
  6
solid
 62
     7
100
AcDbCircle
 10
1.221765022786668
 20
0.5808944667905708
 30
0.0
 40
0.2025495410671251
100
AcDbArc
 50
99.77778195555924
 51
254.7731371088189
  0
LINE
  5
2F
330
A
100
AcDbEntity
  8
1
  6
solid
 62
     7
100
AcDbLine
 10
1.308515253315959
 20
3.329919561639134
 30
0.0
 11
1.583932613435259
 21
3.329919561639134
 31
0.0
  0
ARC
  5
30
330
A
100
AcDbEntity
  8
1
  6
solid
 62
     7
100
AcDbCircle
 10
0.6479566327725395
 20
3.609435083447374
 30
0.0
 40
0.7172632836734073
100
AcDbArc
 50
309.9237750602097
 51
337.0643379122185
  0
LINE
  5
31
330
A
100
AcDbEntity
  8
1
  6
solid
 62
     7
100
AcDbLine
 10
1.583932613435259
 20
0.2049195616391346
 30
0.0
 11
1.165490073688343
 21
0.2049195616391346
 31
0.0
  0
LINE
  5
32
330
A
100
AcDbEntity
  8
1
  6
solid
 62
     7
100
AcDbLine
 10
1.16856703670849
 20
0.3854557403422707
 30
0.0
 11
1.168567117479504
 21
0.2048933404480434
 31
0.0
  0
LINE
  5
33
330
A
100
AcDbEntity
  8
1
  6
solid
 62
     7
100
AcDbLine
 10
1.583932613435259
 20
3.329919561639134
 30
0.0
 11
1.583932613435259
 21
2.829919561639134
 31
0.0
  0
LINE
  5
34
330
A
100
AcDbEntity
  8
1
  6
solid
 62
     7
100
AcDbLine
 10
1.583932613435259
 20
0.7049195616391346
 30
0.0
 11
1.583932613435259
 21
0.2049195616391346
 31
0.0
  0
LINE
  5
35
330
A
100
AcDbEntity
  8
1
  6
solid
 62
     7
100
AcDbLine
 10
1.552682613435259
 20
2.829919561639134
 30
0.0
 11
1.583932613435259
 21
2.829919561639134
 31
0.0
  0
ARC
  5
36
330
A
100
AcDbEntity
  8
1
  6
solid
 62
     7
100
AcDbCircle
 10
1.552682613435259
 20
2.767419561639134
 30
0.0
 40
0.0625
100
AcDbArc
 50
90.0
 51
180.0
  0
LINE
  5
37
330
A
100
AcDbEntity
  8
1
  6
solid
 62
     7
100
AcDbLine
 10
1.583932613435259
 20
0.7049195616391346
 30
0.0
 11
1.552682613435259
 21
0.7049195616391346
 31
0.0
  0
LINE
  5
38
330
A
100
AcDbEntity
  8
1
  6
solid
 62
     7
100
AcDbLine
 10
1.490182613435259
 20
0.7674195616391346
 30
0.0
 11
1.490182613435259
 21
2.767419561639134
 31
0.0
  0
ARC
  5
39
330
A
100
AcDbEntity
  8
1
  6
solid
 62
     7
100
AcDbCircle
 10
1.552682613435259
 20
0.7674195616391346
 30
0.0
 40
0.0625
100
AcDbArc
 50
180.0
 51
269.9999999999999
  0
ARC
  5
3A
330
A
100
AcDbEntity
  8
1
  6
solid
 62
     7
100
AcDbCircle
 10
0.7833804906622863
 20
3.140224164938468
 30
0.0
 40
0.3848611181035811
100
AcDbArc
 50
123.369096696789
 51
204.9622774043912
  0
ARC
  5
3B
330
A
100
AcDbEntity
  8
1
  6
solid
 62
     7
100
AcDbCircle
 10
0.5060319942458767
 20
2.812738866540094
 30
0.0
 40
0.1799102799429765
100
AcDbArc
 50
113.4382651186411
 51
173.8610577592716
  0
ARC
  5
3C
330
A
100
AcDbEntity
  8
1
  6
solid
 62
     7
100
AcDbCircle
 10
0.4201078680428151
 20
2.342226297158876
 30
0.0
 40
0.4984955091818574
100
AcDbArc
 50
100.746861256181
 51
224.6079584595079
  0
ARC
  5
3D
330
A
100
AcDbEntity
  8
1
  6
solid
 62
     7
100
AcDbCircle
 10
0.4151410209954108
 20
1.810895761765704
 30
0.0
 40
0.1043659087198677
100
AcDbArc
 50
172.8543850819587
 51
272.727784256926
  0
ARC
  5
3E
330
A
100
AcDbEntity
  8
1
  6
solid
 62
     7
100
AcDbCircle
 10
0.65072522440553
 20
1.633184170630378
 30
0.0
 40
0.2420356886525853
100
AcDbArc
 50
162.3305535961356
 51
227.528853080089
  0
ARC
  5
3F
330
A
100
AcDbEntity
  8
1
  6
solid
 62
     7
100
AcDbCircle
 10
0.0708339676833514
 20
1.019124737223098
 30
0.0
 40
0.6026014150547298
100
AcDbArc
 50
15.75778312520539
 51
46.2819241998272
  0
ARC
  5
40
330
A
100
AcDbEntity
  8
1
  6
solid
 62
     7
100
AcDbCircle
 10
0.6851870853684467
 20
0.9831666480649452
 30
0.0
 40
0.2025495410671251
100
AcDbArc
 50
99.77778195555924
 51
254.7731371088189
  0
LINE
  5
41
330
A
100
AcDbEntity
  8
1
  6
solid
 62
     7
100
AcDbLine
 10
0.7719373158977378
 20
3.732191742913509
 30
0.0
 11
1.047354676017037
 21
3.732191742913509
 31
0.0
  0
ARC
  5
42
330
A
100
AcDbEntity
  8
1
  6
solid
 62
     7
100
AcDbCircle
 10
0.1113786953543177
 20
4.011707264721749
 30
0.0
 40
0.7172632836734073
100
AcDbArc
 50
309.9237750602097
 51
337.0643379122185
  0
LINE
  5
43
330
A
100
AcDbEntity
  8
1
  6
solid
 62
     7
100
AcDbLine
 10
0.6319890992902691
 20
0.7877279216166454
 30
0.0
 11
0.631989180061283
 21
0.607165521722418
 31
0.0
  0
LINE
  5
44
330
A
100
AcDbEntity
  8
1
  6
solid
 62
     7
100
AcDbLine
 10
1.047354698181152
 20
3.732191801071166
 30
0.0
 11
1.583932638168334
 21
3.329919576644897
 31
0.0
  0
LINE
  5
45
330
A
100
AcDbEntity
  8
1
  6
solid
 62
     7
100
AcDbLine
 10
0.7719373106956482
 20
3.732191801071166
 30
0.0
 11
1.308515310287475
 21
3.329919576644897
 31
0.0
  0
LINE
  5
46
330
A
100
AcDbEntity
  8
1
  6
solid
 62
     7
100
AcDbLine
 10
0.9710487723350524
 20
2.575532436370849
 30
0.0
 11
0.4344708621501923
 21
2.97780442237854
 31
0.0
  0
LINE
  5
47
330
A
100
AcDbEntity
  8
1
  6
solid
 62
     7
100
AcDbLine
 10
0.8637313246726989
 20
2.429706335067749
 30
0.0
 11
0.3271534144878387
 21
2.831978559494018
 31
0.0
  0
LINE
  5
48
330
A
100
AcDbEntity
  8
1
  6
solid
 62
     7
100
AcDbLine
 10
0.850259900252119
 20
1.384163359316891
 30
0.0
 11
0.4201078712940216
 21
1.706648111343383
 31
0.0
  0
LINE
  5
49
330
A
100
AcDbEntity
  8
1
  6
solid
 62
     7
100
AcDbLine
 10
1.187366604804992
 20
0.7805017232894898
 30
0.0
 11
0.6507886052131653
 21
1.182773947715759
 31
0.0
  0
LINE
  5
4A
330
A
100
AcDbEntity
  8
1
  6
solid
 62
     7
100
AcDbLine
 10
1.049080024469134
 20
0.4750350886392873
 30
0.0
 11
0.6319891214370728
 21
0.7877278923988343
 31
0.0
  0
LINE
  5
4B
330
A
100
AcDbEntity
  8
1
  6
solid
 62
     7
100
AcDbLine
 10
1.168567061424255
 20
0.2048933357000351
 30
0.0
 11
0.6319891810417176
 21
0.6071655154228211
 31
0.0
  0
LINE
  5
4C
330
A
100
AcDbEntity
  8
1
  6
solid
 62
     7
100
AcDbLine
 10
0.5381958123096736
 20
1.669096407287069
 30
0.0
 11
0.0652147033802948
 21
1.992156854975899
 31
0.0
  0
LINE
  5
4D
330
A
100
AcDbEntity
  8
1
  6
solid
 62
     7
100
AcDbLine
 10
0.8356279335742772
 20
1.973178836872652
 30
0.0
 11
0.8356279335742772
 21
1.94846953454707
 31
0.0
  0
LINE
  5
4E
330
A
100
AcDbEntity
  8
1
  6
solid
 62
     7
100
AcDbLine
 10
0.8356279335742772
 20
1.94846953454707
 30
0.0
 11
0.752779096364975
 21
1.94846953454707
 31
0.0
  0
SPLINE
  5
4F
330
A
100
AcDbEntity
  8
1
  6
solid
 62
     7
100
AcDbSpline
210
0.0
220
0.0
230
1.0
 70
     8
 71
     2
 72
     7
 73
     4
 74
     0
 42
0.0000000001
 43
0.0000000001
 40
0.0
 40
0.0
 40
0.0
 40
1.0
 40
2.0
 40
2.0
 40
2.0
 10
0.752779096364975
 20
1.94846953454707
 30
0.0
 10
0.7536423521789285
 20
1.960558836872652
 30
0.0
 10
0.7673288638068354
 20
1.98253976710521
 30
0.0
 10
0.786626073109161
 20
2.001003488035443
 30
0.0
  0
SPLINE
  5
50
330
A
100
AcDbEntity
  8
1
  6
solid
 62
     7
100
AcDbSpline
210
0.0
220
0.0
230
1.0
 70
     8
 71
     2
 72
     6
 73
     3
 74
     0
 42
0.0000000001
 43
0.0000000001
 40
0.0
 40
0.0
 40
0.0
 40
1.0
 40
1.0
 40
1.0
 10
0.786626073109161
 20
2.001003488035443
 30
0.0
 10
0.8024358405510215
 20
2.015672325244745
 30
0.0
 10
0.8057744452021841
 20
2.020613255477303
 30
0.0
  0
SPLINE
  5
51
330
A
100
AcDbEntity
  8
1
  6
solid
 62
     7
100
AcDbSpline
210
0.0
220
0.0
230
1.0
 70
     8
 71
     2
 72
     6
 73
     3
 74
     0
 42
0.0000000001
 43
0.0000000001
 40
0.0
 40
0.0
 40
0.0
 40
1.0
 40
1.0
 40
1.0
 10
0.8057744452021841
 20
2.020613255477303
 30
0.0
 10
0.8109186312486958
 20
2.027865813616838
 30
0.0
 10
0.8109186312486958
 20
2.035014185709861
 30
0.0
  0
SPLINE
  5
52
330
A
100
AcDbEntity
  8
1
  6
solid
 62
     7
100
AcDbSpline
210
0.0
220
0.0
230
1.0
 70
     8
 71
     2
 72
     7
 73
     4
 74
     0
 42
0.0000000001
 43
0.0000000001
 40
0.0
 40
0.0
 40
0.0
 40
1.0
 40
2.0
 40
2.0
 40
2.0
 10
0.8109186312486958
 20
2.035014185709861
 30
0.0
 10
0.8109186312486958
 20
2.04315465082614
 30
0.0
 10
0.8027335149696261
 20
2.051667208965675
 30
0.0
 10
0.7956595614812541
 20
2.051667208965675
 30
0.0
  0
SPLINE
  5
53
330
A
100
AcDbEntity
  8
1
  6
solid
 62
     7
100
AcDbSpline
210
0.0
220
0.0
230
1.0
 70
     8
 71
     2
 72
     7
 73
     4
 74
     0
 42
0.0000000001
 43
0.0000000001
 40
0.0
 40
0.0
 40
0.0
 40
1.0
 40
2.0
 40
2.0
 40
2.0
 10
0.7956595614812541
 20
2.051667208965675
 30
0.0
 10
0.789146073109161
 20
2.051667208965675
 30
0.0
 10
0.7808121196207889
 20
2.042430464779628
 30
0.0
 10
0.7803953754347424
 20
2.032771860128466
 30
0.0
  0
LINE
  5
54
330
A
100
AcDbEntity
  8
1
  6
solid
 62
     7
100
AcDbLine
 10
0.7803953754347424
 20
2.032771860128466
 30
0.0
 11
0.7556860731091611
 21
2.034790929895907
 31
0.0
  0
SPLINE
  5
55
330
A
100
AcDbEntity
  8
1
  6
solid
 62
     7
100
AcDbSpline
210
0.0
220
0.0
230
1.0
 70
     8
 71
     2
 72
     7
 73
     4
 74
     0
 42
0.0000000001
 43
0.0000000001
 40
0.0
 40
0.0
 40
0.0
 40
1.0
 40
2.0
 40
2.0
 40
2.0
 10
0.7556860731091611
 20
2.034790929895907
 30
0.0
 10
0.7575563056673006
 20
2.055243953151721
 30
0.0
 10
0.7796116545045099
 20
2.07346953454707
 30
0.0
 10
0.7965177010161378
 20
2.07346953454707
 30
0.0
  0
SPLINE
  5
56
330
A
100
AcDbEntity
  8
1
  6
solid
 62
     7
100
AcDbSpline
210
0.0
220
0.0
230
1.0
 70
     8
 71
     2
 72
     7
 73
     4
 74
     0
 42
0.0000000001
 43
0.0000000001
 40
0.0
 40
0.0
 40
0.0
 40
1.0
 40
2.0
 40
2.0
 40
2.0
 10
0.7965177010161378
 20
2.07346953454707
 30
0.0
 10
0.8144656079928818
 20
2.07346953454707
 30
0.0
 10
0.8356279335742772
 20
2.053760697337768
 30
0.0
 10
0.8356279335742772
 20
2.039300232221489
 30
0.0
  0
SPLINE
  5
57
330
A
100
AcDbEntity
  8
1
  6
solid
 62
     7
100
AcDbSpline
210
0.0
220
0.0
230
1.0
 70
     8
 71
     2
 72
     7
 73
     4
 74
     0
 42
0.0000000001
 43
0.0000000001
 40
0.0
 40
0.0
 40
0.0
 40
1.0
 40
2.0
 40
2.0
 40
2.0
 10
0.8356279335742772
 20
2.039300232221489
 30
0.0
 10
0.8356279335742772
 20
2.031422557802884
 30
0.0
 10
0.8292535149696259
 20
2.016193255477303
 30
0.0
 10
0.8230377010161376
 20
2.008375115942419
 30
0.0
  0
SPLINE
  5
58
330
A
100
AcDbEntity
  8
1
  6
solid
 62
     7
100
AcDbSpline
210
0.0
220
0.0
230
1.0
 70
     8
 71
     2
 72
     8
 73
     5
 74
     0
 42
0.0000000001
 43
0.0000000001
 40
0.0
 40
0.0
 40
0.0
 40
1.0
 40
2.0
 40
3.0
 40
3.0
 40
3.0
 10
0.8230377010161376
 20
2.008375115942419
 30
0.0
 10
0.8187516545045097
 20
2.002843953151721
 30
0.0
 10
0.7957488638068355
 20
1.982584418268
 30
0.0
 10
0.7898753754347424
 20
1.97624953454707
 30
0.0
 10
0.7881688638068355
 20
1.973178836872652
 30
0.0
  0
LINE
  5
59
330
A
100
AcDbEntity
  8
1
  6
solid
 62
     7
100
AcDbLine
 10
0.8356279335742772
 20
1.973178836872652
 30
0.0
 11
0.7881688638068355
 21
1.973178836872652
 31
0.0
  0
LINE
  5
5A
330
A
100
AcDbEntity
  8
1
  6
solid
 62
     7
100
AcDbLine
 10
0.8530649103184632
 20
1.980595115942419
 30
0.0
 11
0.8777742126440447
 21
1.983353255477303
 31
0.0
  0
SPLINE
  5
5B
330
A
100
AcDbEntity
  8
1
  6
solid
 62
     7
100
AcDbSpline
210
0.0
220
0.0
230
1.0
 70
     8
 71
     2
 72
     7
 73
     4
 74
     0
 42
0.0000000001
 43
0.0000000001
 40
0.0
 40
0.0
 40
0.0
 40
1.0
 40
2.0
 40
2.0
 40
2.0
 10
0.8777742126440447
 20
1.983353255477303
 30
0.0
 10
0.8783249103184632
 20
1.975495581058698
 30
0.0
 10
0.8854286312486959
 20
1.968818371756373
 30
0.0
 10
0.8911979335742772
 20
1.968818371756373
 30
0.0
  0
SPLINE
  5
5C
330
A
100
AcDbEntity
  8
1
  6
solid
 62
     7
100
AcDbSpline
210
0.0
220
0.0
230
1.0
 70
     8
 71
     2
 72
     7
 73
     4
 74
     0
 42
0.0000000001
 43
0.0000000001
 40
0.0
 40
0.0
 40
0.0
 40
1.0
 40
2.0
 40
2.0
 40
2.0
 10
0.8911979335742772
 20
1.968818371756373
 30
0.0
 10
0.8984653754347423
 20
1.968818371756373
 30
0.0
 10
0.9086546777603237
 20
1.982822557802884
 30
0.0
 10
0.9100783986905563
 20
2.005363953151722
 30
0.0
  0
SPLINE
  5
5D
330
A
100
AcDbEntity
  8
1
  6
solid
 62
     7
100
AcDbSpline
210
0.0
220
0.0
230
1.0
 70
     8
 71
     2
 72
     6
 73
     3
 74
     0
 42
0.0000000001
 43
0.0000000001
 40
0.0
 40
0.0
 40
0.0
 40
1.0
 40
1.0
 40
1.0
 10
0.9100783986905563
 20
2.005363953151722
 30
0.0
 10
0.9005142126440446
 20
1.994981162454047
 30
0.0
 10
0.8869118870626493
 20
1.994981162454047
 30
0.0
  0
SPLINE
  5
5E
330
A
100
AcDbEntity
  8
1
  6
solid
 62
     7
100
AcDbSpline
210
0.0
220
0.0
230
1.0
 70
     8
 71
     2
 72
     7
 73
     4
 74
     0
 42
0.0000000001
 43
0.0000000001
 40
0.0
 40
0.0
 40
0.0
 40
1.0
 40
2.0
 40
2.0
 40
2.0
 10
0.8869118870626493
 20
1.994981162454047
 30
0.0
 10
0.8720197940393935
 20
1.994981162454047
 30
0.0
 10
0.8501579335742771
 20
2.016044418268001
 30
0.0
 10
0.8501579335742771
 20
2.033322557802884
 30
0.0
  0
SPLINE
  5
5F
330
A
100
AcDbEntity
  8
1
  6
solid
 62
     7
100
AcDbSpline
210
0.0
220
0.0
230
1.0
 70
     8
 71
     2
 72
     7
 73
     4
 74
     0
 42
0.0000000001
 43
0.0000000001
 40
0.0
 40
0.0
 40
0.0
 40
1.0
 40
2.0
 40
2.0
 40
2.0
 10
0.8501579335742771
 20
2.033322557802884
 30
0.0
 10
0.8501579335742771
 20
2.051076976407535
 30
0.0
 10
0.8723621196207888
 20
2.07346953454707
 30
0.0
 10
0.8897444452021842
 20
2.07346953454707
 30
0.0
  0
SPLINE
  5
60
330
A
100
AcDbEntity
  8
1
  6
solid
 62
     7
100
AcDbSpline
210
0.0
220
0.0
230
1.0
 70
     8
 71
     2
 72
     7
 73
     4
 74
     0
 42
0.0000000001
 43
0.0000000001
 40
0.0
 40
0.0
 40
0.0
 40
1.0
 40
2.0
 40
2.0
 40
2.0
 10
0.8897444452021842
 20
2.07346953454707
 30
0.0
 10
0.9086249103184632
 20
2.07346953454707
 30
0.0
 10
0.9330067707835796
 20
2.043869069430791
 30
0.0
 10
0.9330067707835796
 20
2.010984418268001
 30
0.0
  0
SPLINE
  5
61
330
A
100
AcDbEntity
  8
1
  6
solid
 62
     7
100
AcDbSpline
210
0.0
220
0.0
230
1.0
 70
     8
 71
     2
 72
     7
 73
     4
 74
     0
 42
0.0000000001
 43
0.0000000001
 40
0.0
 40
0.0
 40
0.0
 40
1.0
 40
2.0
 40
2.0
 40
2.0
 10
0.9330067707835796
 20
2.010984418268001
 30
0.0
 10
0.9330067707835796
 20
1.976725813616838
 30
0.0
 10
0.9075732824114865
 20
1.947016046174977
 30
0.0
 10
0.8873881661324167
 20
1.947016046174977
 30
0.0
  0
SPLINE
  5
62
330
A
100
AcDbEntity
  8
1
  6
solid
 62
     7
100
AcDbSpline
210
0.0
220
0.0
230
1.0
 70
     8
 71
     2
 72
     7
 73
     4
 74
     0
 42
0.0000000001
 43
0.0000000001
 40
0.0
 40
0.0
 40
0.0
 40
1.0
 40
2.0
 40
2.0
 40
2.0
 10
0.8873881661324167
 20
1.947016046174977
 30
0.0
 10
0.8734137475277655
 20
1.947016046174977
 30
0.0
 10
0.8552179335742772
 20
1.96358488338428
 30
0.0
 10
0.8530649103184632
 20
1.980595115942419
 30
0.0
  0
SPLINE
  5
63
330
A
100
AcDbEntity
  8
1
  6
solid
 62
     7
100
AcDbSpline
210
0.0
220
0.0
230
1.0
 70
     8
 71
     2
 72
     7
 73
     4
 74
     0
 42
0.0000000001
 43
0.0000000001
 40
0.0
 40
0.0
 40
0.0
 40
1.0
 40
2.0
 40
2.0
 40
2.0
 10
0.9082974684579982
 20
2.032995115942419
 30
0.0
 10
0.9082974684579982
 20
2.041790464779628
 30
0.0
 10
0.8972351428766028
 20
2.051667208965675
 30
0.0
 10
0.8901016545045099
 20
2.051667208965675
 30
0.0
  0
SPLINE
  5
64
330
A
100
AcDbEntity
  8
1
  6
solid
 62
     7
100
AcDbSpline
210
0.0
220
0.0
230
1.0
 70
     8
 71
     2
 72
     7
 73
     4
 74
     0
 42
0.0000000001
 43
0.0000000001
 40
0.0
 40
0.0
 40
0.0
 40
1.0
 40
2.0
 40
2.0
 40
2.0
 10
0.8901016545045099
 20
2.051667208965675
 30
0.0
 10
0.8836923521789284
 20
2.051667208965675
 30
0.0
 10
0.8748672358998586
 20
2.043437441523814
 30
0.0
 10
0.8748672358998586
 20
2.034478371756373
 30
0.0
  0
SPLINE
  5
65
330
A
100
AcDbEntity
  8
1
  6
solid
 62
     7
100
AcDbSpline
210
0.0
220
0.0
230
1.0
 70
     8
 71
     2
 72
     7
 73
     4
 74
     0
 42
0.0000000001
 43
0.0000000001
 40
0.0
 40
0.0
 40
0.0
 40
1.0
 40
2.0
 40
2.0
 40
2.0
 10
0.8748672358998586
 20
2.034478371756373
 30
0.0
 10
0.8748672358998586
 20
2.024943953151721
 30
0.0
 10
0.8841983986905564
 20
2.016783488035442
 30
0.0
 10
0.8914509568300912
 20
2.016783488035442
 30
0.0
  0
SPLINE
  5
66
330
A
100
AcDbEntity
  8
1
  6
solid
 62
     7
100
AcDbSpline
210
0.0
220
0.0
230
1.0
 70
     8
 71
     2
 72
     7
 73
     4
 74
     0
 42
0.0000000001
 43
0.0000000001
 40
0.0
 40
0.0
 40
0.0
 40
1.0
 40
2.0
 40
2.0
 40
2.0
 10
0.8914509568300912
 20
2.016783488035442
 30
0.0
 10
0.8985249103184631
 20
2.016783488035442
 30
0.0
 10
0.9082974684579982
 20
2.024720697337768
 30
0.0
 10
0.9082974684579982
 20
2.032995115942419
 30
0.0
  0
LINE
  5
67
330
A
100
AcDbEntity
  8
1
  6
solid
 62
     7
100
AcDbLine
 10
0.9475367707835795
 20
1.984806743849396
 30
0.0
 11
0.9722460731091608
 21
1.987713720593582
 31
0.0
  0
SPLINE
  5
68
330
A
100
AcDbEntity
  8
1
  6
solid
 62
     7
100
AcDbSpline
210
0.0
220
0.0
230
1.0
 70
     8
 71
     2
 72
     7
 73
     4
 74
     0
 42
0.0000000001
 43
0.0000000001
 40
0.0
 40
0.0
 40
0.0
 40
1.0
 40
2.0
 40
2.0
 40
2.0
 10
0.9722460731091608
 20
1.987713720593582
 30
0.0
 10
0.9729307242719515
 20
1.978194185709861
 30
0.0
 10
0.982480026597533
 20
1.968818371756373
 30
0.0
 10
0.9887702591556726
 20
1.968818371756373
 30
0.0
  0
SPLINE
  5
69
330
A
100
AcDbEntity
  8
1
  6
solid
 62
     7
100
AcDbSpline
210
0.0
220
0.0
230
1.0
 70
     8
 71
     2
 72
     7
 73
     4
 74
     0
 42
0.0000000001
 43
0.0000000001
 40
0.0
 40
0.0
 40
0.0
 40
1.0
 40
2.0
 40
2.0
 40
2.0
 10
0.9887702591556726
 20
1.968818371756373
 30
0.0
 10
0.9958739800859051
 20
1.968818371756373
 30
0.0
 10
1.0056763056673
 20
1.978462092686605
 30
0.0
 10
1.0056763056673
 20
1.987093720593582
 30
0.0
  0
SPLINE
  5
6A
330
A
100
AcDbEntity
  8
1
  6
solid
 62
     7
100
AcDbSpline
210
0.0
220
0.0
230
1.0
 70
     8
 71
     2
 72
     7
 73
     4
 74
     0
 42
0.0000000001
 43
0.0000000001
 40
0.0
 40
0.0
 40
0.0
 40
1.0
 40
2.0
 40
2.0
 40
2.0
 10
1.0056763056673
 20
1.987093720593582
 30
0.0
 10
1.0056763056673
 20
1.995412790361024
 30
0.0
 10
0.9969851428766027
 20
2.005155581058698
 30
0.0
 10
0.9904023521789284
 20
2.005155581058698
 30
0.0
  0
SPLINE
  5
6B
330
A
100
AcDbEntity
  8
1
  6
solid
 62
     7
100
AcDbSpline
210
0.0
220
0.0
230
1.0
 70
     8
 71
     2
 72
     6
 73
     3
 74
     0
 42
0.0000000001
 43
0.0000000001
 40
0.0
 40
0.0
 40
0.0
 40
1.0
 40
1.0
 40
1.0
 10
0.9904023521789284
 20
2.005155581058698
 30
0.0
 10
0.9862056079928819
 20
2.005155581058698
 30
0.0
 10
0.9809670033417191
 20
2.002977906640094
 30
0.0
  0
LINE
  5
6C
330
A
100
AcDbEntity
  8
1
  6
solid
 62
     7
100
AcDbLine
 10
0.9809670033417191
 20
2.002977906640094
 30
0.0
 11
0.9829116545045097
 21
2.024050929895908
 31
0.0
  0
SPLINE
  5
6D
330
A
100
AcDbEntity
  8
1
  6
solid
 62
     7
100
AcDbSpline
210
0.0
220
0.0
230
1.0
 70
     8
 71
     2
 72
     7
 73
     4
 74
     0
 42
0.0000000001
 43
0.0000000001
 40
0.0
 40
0.0
 40
0.0
 40
1.0
 40
2.0
 40
2.0
 40
2.0
 10
0.9829116545045097
 20
2.024050929895908
 30
0.0
 10
0.9912456079928817
 20
2.023371395012186
 30
0.0
 10
0.9998623521789284
 20
2.031809534547071
 30
0.0
 10
0.9998623521789284
 20
2.038809069430791
 30
0.0
  0
SPLINE
  5
6E
330
A
100
AcDbEntity
  8
1
  6
solid
 62
     7
100
AcDbSpline
210
0.0
220
0.0
230
1.0
 70
     8
 71
     2
 72
     7
 73
     4
 74
     0
 42
0.0000000001
 43
0.0000000001
 40
0.0
 40
0.0
 40
0.0
 40
1.0
 40
2.0
 40
2.0
 40
2.0
 10
0.9998623521789284
 20
2.038809069430791
 30
0.0
 10
0.9998623521789284
 20
2.044623022919163
 30
0.0
 10
0.9932349103184632
 20
2.051667208965675
 30
0.0
 10
0.9883237475277656
 20
2.051667208965675
 30
0.0
  0
SPLINE
  5
6F
330
A
100
AcDbEntity
  8
1
  6
solid
 62
     7
100
AcDbSpline
210
0.0
220
0.0
230
1.0
 70
     8
 71
     2
 72
     7
 73
     4
 74
     0
 42
0.0000000001
 43
0.0000000001
 40
0.0
 40
0.0
 40
0.0
 40
1.0
 40
2.0
 40
2.0
 40
2.0
 10
0.9883237475277656
 20
2.051667208965675
 30
0.0
 10
0.9829414219463702
 20
2.051667208965675
 30
0.0
 10
0.9756739800859051
 20
2.043318371756372
 30
0.0
 10
0.9751530498533469
 20
2.035678836872652
 30
0.0
  0
LINE
  5
70
330
A
100
AcDbEntity
  8
1
  6
solid
 62
     7
100
AcDbLine
 10
0.9751530498533469
 20
2.035678836872652
 30
0.0
 11
0.9504437475277656
 21
2.039032325244745
 31
0.0
  0
SPLINE
  5
71
330
A
100
AcDbEntity
  8
1
  6
solid
 62
     7
100
AcDbSpline
210
0.0
220
0.0
230
1.0
 70
     8
 71
     2
 72
     8
 73
     5
 74
     0
 42
0.0000000001
 43
0.0000000001
 40
0.0
 40
0.0
 40
0.0
 40
1.0
 40
2.0
 40
3.0
 40
3.0
 40
3.0
 10
0.9504437475277656
 20
2.039032325244745
 30
0.0
 10
0.9524181661324167
 20
2.050823953151721
 30
0.0
 10
0.9613921196207888
 20
2.065135581058698
 30
0.0
 10
0.9780897940393934
 20
2.07346953454707
 30
0.0
 10
0.9877186312486958
 20
2.07346953454707
 30
0.0
  0
SPLINE
  5
72
330
A
100
AcDbEntity
  8
1
  6
solid
 62
     7
100
AcDbSpline
210
0.0
220
0.0
230
1.0
 70
     8
 71
     2
 72
     6
 73
     3
 74
     0
 42
0.0000000001
 43
0.0000000001
 40
0.0
 40
0.0
 40
0.0
 40
1.0
 40
1.0
 40
1.0
 10
0.9877186312486958
 20
2.07346953454707
 30
0.0
 10
1.00507118938823
 20
2.07346953454707
 30
0.0
 10
1.015925142876602
 20
2.062035115942419
 30
0.0
  0
SPLINE
  5
73
330
A
100
AcDbEntity
  8
1
  6
solid
 62
     7
100
AcDbSpline
210
0.0
220
0.0
230
1.0
 70
     8
 71
     2
 72
     6
 73
     3
 74
     0
 42
0.0000000001
 43
0.0000000001
 40
0.0
 40
0.0
 40
0.0
 40
1.0
 40
1.0
 40
1.0
 10
1.015925142876602
 20
2.062035115942419
 30
0.0
 10
1.024571654504509
 20
2.052456046174977
 30
0.0
 10
1.024571654504509
 20
2.040813255477303
 30
0.0
  0
SPLINE
  5
74
330
A
100
AcDbEntity
  8
1
  6
solid
 62
     7
100
AcDbSpline
210
0.0
220
0.0
230
1.0
 70
     8
 71
     2
 72
     6
 73
     3
 74
     0
 42
0.0000000001
 43
0.0000000001
 40
0.0
 40
0.0
 40
0.0
 40
1.0
 40
1.0
 40
1.0
 10
1.024571654504509
 20
2.040813255477303
 30
0.0
 10
1.024571654504509
 20
2.024437906640093
 30
0.0
 10
1.005944212644044
 20
2.014471860128466
 30
0.0
  0
SPLINE
  5
75
330
A
100
AcDbEntity
  8
1
  6
solid
 62
     7
100
AcDbSpline
210
0.0
220
0.0
230
1.0
 70
     8
 71
     2
 72
     7
 73
     4
 74
     0
 42
0.0000000001
 43
0.0000000001
 40
0.0
 40
0.0
 40
0.0
 40
1.0
 40
2.0
 40
2.0
 40
2.0
 10
1.005944212644044
 20
2.014471860128466
 30
0.0
 10
1.016699096364974
 20
2.012497441523815
 30
0.0
 10
1.030385607992881
 20
1.996717441523815
 30
0.0
 10
1.030385607992881
 20
1.985446743849396
 30
0.0
  0
SPLINE
  5
76
330
A
100
AcDbEntity
  8
1
  6
solid
 62
     7
100
AcDbSpline
210
0.0
220
0.0
230
1.0
 70
     8
 71
     2
 72
     7
 73
     4
 74
     0
 42
0.0000000001
 43
0.0000000001
 40
0.0
 40
0.0
 40
0.0
 40
1.0
 40
2.0
 40
2.0
 40
2.0
 10
1.030385607992881
 20
1.985446743849396
 30
0.0
 10
1.030385607992881
 20
1.969383953151722
 30
0.0
 10
1.006152584737067
 20
1.947016046174977
 30
0.0
 10
0.9884279335742773
 20
1.947016046174977
 30
0.0
  0
SPLINE
  5
77
330
A
100
AcDbEntity
  8
1
  6
solid
 62
     7
100
AcDbSpline
210
0.0
220
0.0
230
1.0
 70
     8
 71
     2
 72
     7
 73
     4
 74
     0
 42
0.0000000001
 43
0.0000000001
 40
0.0
 40
0.0
 40
0.0
 40
1.0
 40
2.0
 40
2.0
 40
2.0
 10
0.9884279335742773
 20
1.947016046174977
 30
0.0
 10
0.9713283986905562
 20
1.947016046174977
 30
0.0
 10
0.949213514969626
 20
1.967722092686605
 30
0.0
 10
0.9475367707835795
 20
1.984806743849396
 30
0.0
  0
ARC
  5
78
330
A
100
AcDbEntity
  8
1
  6
solid
 62
     7
100
AcDbCircle
 10
-2.090931826507033
 20
2.774702054152613
 30
0.0
 40
0.3848611181035811
100
AcDbArc
 50
123.369096696789
 51
204.9622774043912
  0
ARC
  5
79
330
A
100
AcDbEntity
  8
1
  6
solid
 62
     7
100
AcDbCircle
 10
-2.368280322923443
 20
2.447216755754238
 30
0.0
 40
0.1799102799429765
100
AcDbArc
 50
113.4382651186411
 51
173.8610577592716
  0
ARC
  5
7A
330
A
100
AcDbEntity
  8
1
  6
solid
 62
     7
100
AcDbCircle
 10
-2.454204449126504
 20
1.97670418637302
 30
0.0
 40
0.4984955091818574
100
AcDbArc
 50
100.746861256181
 51
258.4194594559546
  0
ARC
  5
7B
330
A
100
AcDbEntity
  8
1
  6
solid
 62
     7
100
AcDbCircle
 10
-2.459171296173908
 20
1.445373650979848
 30
0.0
 40
0.1043659087198677
100
AcDbArc
 50
155.6791518428648
 51
272.727784256926
  0
ARC
  5
7C
330
A
100
AcDbEntity
  8
1
  6
solid
 62
     7
100
AcDbCircle
 10
-2.223587092763789
 20
1.267662059844523
 30
0.0
 40
0.2420356886525853
100
AcDbArc
 50
162.3305535961356
 51
227.528853080089
  0
ARC
  5
7D
330
A
100
AcDbEntity
  8
1
  6
solid
 62
     7
100
AcDbCircle
 10
-2.803478349485968
 20
0.653602626437243
 30
0.0
 40
0.6026014150547298
100
AcDbArc
 50
15.75778312520539
 51
46.2819241998272
  0
ARC
  5
7E
330
A
100
AcDbEntity
  8
1
  6
solid
 62
     7
100
AcDbCircle
 10
-2.189125231800872
 20
0.6176445372790899
 30
0.0
 40
0.2025495410671251
100
AcDbArc
 50
99.77778195555924
 51
254.7731371088189
  0
LINE
  5
7F
330
A
100
AcDbEntity
  8
1
  6
solid
 62
     7
100
AcDbLine
 10
-2.102375001271581
 20
3.366669632127653
 30
0.0
 11
-1.826957641152282
 21
3.366669632127653
 31
0.0
  0
ARC
  5
80
330
A
100
AcDbEntity
  8
1
  6
solid
 62
     7
100
AcDbCircle
 10
-2.762933621815002
 20
3.646185153935893
 30
0.0
 40
0.7172632836734073
100
AcDbArc
 50
309.9237750602097
 51
337.0643379122185
  0
LINE
  5
81
330
A
100
AcDbEntity
  8
1
  6
solid
 62
     7
100
AcDbLine
 10
-1.826957641152282
 20
0.2416696321276537
 30
0.0
 11
-2.245400180899198
 21
0.2416696321276537
 31
0.0
  0
LINE
  5
82
330
A
100
AcDbEntity
  8
1
  6
solid
 62
     7
100
AcDbLine
 10
-2.24232321787905
 20
0.4222058108307899
 30
0.0
 11
-2.242323137108036
 21
0.2416434109365625
 31
0.0
  0
LINE
  5
83
330
A
100
AcDbEntity
  8
1
  6
solid
 62
     7
100
AcDbLine
 10
-1.826957641152282
 20
3.366669632127653
 30
0.0
 11
-1.826957641152282
 21
2.866669632127653
 31
0.0
  0
LINE
  5
84
330
A
100
AcDbEntity
  8
1
  6
solid
 62
     7
100
AcDbLine
 10
-1.826957641152282
 20
0.7416696321276537
 30
0.0
 11
-1.826957641152282
 21
0.2416696321276537
 31
0.0
  0
LINE
  5
85
330
A
100
AcDbEntity
  8
1
  6
solid
 62
     7
100
AcDbLine
 10
-1.858207641152282
 20
2.866669632127653
 30
0.0
 11
-1.826957641152282
 21
2.866669632127653
 31
0.0
  0
ARC
  5
86
330
A
100
AcDbEntity
  8
1
  6
solid
 62
     7
100
AcDbCircle
 10
-1.858207641152282
 20
2.804169632127653
 30
0.0
 40
0.0625
100
AcDbArc
 50
90.0
 51
180.0
  0
LINE
  5
87
330
A
100
AcDbEntity
  8
1
  6
solid
 62
     7
100
AcDbLine
 10
-1.826957641152282
 20
0.7416696321276537
 30
0.0
 11
-1.858207641152282
 21
0.7416696321276537
 31
0.0
  0
LINE
  5
88
330
A
100
AcDbEntity
  8
1
  6
solid
 62
     7
100
AcDbLine
 10
-1.920707641152282
 20
0.8041696321276535
 30
0.0
 11
-1.920707641152282
 21
2.804169632127653
 31
0.0
  0
ARC
  5
89
330
A
100
AcDbEntity
  8
1
  6
solid
 62
     7
100
AcDbCircle
 10
-1.858207641152282
 20
0.8041696321276535
 30
0.0
 40
0.0625
100
AcDbArc
 50
180.0
 51
269.9999999999999
  0
DIMENSION
  5
94
330
A
100
AcDbEntity
  8
1
  6
solid
 62
     7
100
AcDbDimension
  2
*D0
 10
-0.8824638472577841
 20
1.804169639945029
 30
0.0
 11
-0.8824638472577841
 21
1.804169639945029
 31
0.0
 70
    33
 71
     5
 42
3.125000029802322
  3
Standard
100
AcDbAlignedDimension
 13
-1.826957583427429
 23
3.366669654846191
 33
0.0
 14
-1.826957583427429
 24
0.241669625043869
 34
0.0
1001
ACAD
1000
DSTYLE
1002
{
1070
    41
1040
0.025
1070
    42
1040
0.125
1070
    44
1040
0.0625
1070
    47
1040
0.0005
1070
    48
1040
0.0005
1070
    75
1070
     1
1070
    76
1070
     1
1070
   140
1040
0.125
1070
   146
1040
0.5
1070
   270
1070
     5
1070
   271
1070
     3
1070
   272
1070
     3
1070
   277
1070
     5
1002
}
  0
LINE
  5
A0
330
A
100
AcDbEntity
  8
1
  6
solid
 62
     7
100
AcDbLine
 10
0.6358237120708524
 20
-0.1704123742526233
 30
0.0
 11
0.6049370841638757
 21
-0.1704123742526233
 31
0.0
  0
LINE
  5
A1
330
A
100
AcDbEntity
  8
1
  6
solid
 62
     7
100
AcDbLine
 10
0.6049370841638757
 20
-0.1704123742526233
 30
0.0
 11
0.6049370841638757
 21
-0.0593420254154141
 31
0.0
  0
SPLINE
  5
A2
330
A
100
AcDbEntity
  8
1
  6
solid
 62
     7
100
AcDbSpline
210
0.0
220
0.0
230
1.0
 70
     8
 71
     2
 72
     6
 73
     3
 74
     0
 42
0.0000000001
 43
0.0000000001
 40
0.0
 40
0.0
 40
0.0
 40
1.0
 40
1.0
 40
1.0
 10
0.6049370841638757
 20
-0.0593420254154141
 30
0.0
 10
0.5886969678848059
 20
-0.0770455137875071
 30
0.0
 10
0.5667830143964339
 20
-0.0850199323921582
 30
0.0
  0
LINE
  5
A3
330
A
100
AcDbEntity
  8
1
  6
solid
 62
     7
100
AcDbLine
 10
0.5667830143964339
 20
-0.0850199323921582
 30
0.0
 11
0.5667830143964339
 21
-0.0541333044851815
 31
0.0
  0
SPLINE
  5
A4
330
A
100
AcDbEntity
  8
1
  6
solid
 62
     7
100
AcDbSpline
210
0.0
220
0.0
230
1.0
 70
     8
 71
     2
 72
     7
 73
     4
 74
     0
 42
0.0000000001
 43
0.0000000001
 40
0.0
 40
0.0
 40
0.0
 40
1.0
 40
2.0
 40
2.0
 40
2.0
 10
0.5667830143964339
 20
-0.0541333044851815
 30
0.0
 10
0.578260921373178
 20
-0.0503321416944838
 30
0.0
 10
0.6057928981173641
 20
-0.0286414440200652
 30
0.0
 10
0.6110388283499222
 20
-0.0141623742526234
 30
0.0
  0
LINE
  5
A5
330
A
100
AcDbEntity
  8
1
  6
solid
 62
     7
100
AcDbLine
 10
0.6110388283499222
 20
-0.0141623742526234
 30
0.0
 11
0.6358237120708524
 21
-0.0141623742526234
 31
0.0
  0
LINE
  5
A6
330
A
100
AcDbEntity
  8
1
  6
solid
 62
     7
100
AcDbLine
 10
0.6358237120708524
 20
-0.1704123742526233
 30
0.0
 11
0.6358237120708524
 21
-0.0141623742526234
 31
0.0
  0
LINE
  5
A7
330
A
100
AcDbEntity
  8
1
  6
solid
 62
     7
100
AcDbLine
 10
0.6633837120708524
 20
-0.1286245835549489
 30
0.0
 11
0.6633837120708524
 21
-0.1013716765782047
 31
0.0
  0
LINE
  5
A8
330
A
100
AcDbEntity
  8
1
  6
solid
 62
     7
100
AcDbLine
 10
0.6633837120708524
 20
-0.1013716765782047
 30
0.0
 11
0.7233401074196896
 21
-0.1013716765782047
 31
0.0
  0
LINE
  5
A9
330
A
100
AcDbEntity
  8
1
  6
solid
 62
     7
100
AcDbLine
 10
0.7233401074196896
 20
-0.1013716765782047
 30
0.0
 11
0.7233401074196896
 21
-0.1286245835549489
 31
0.0
  0
LINE
  5
AA
330
A
100
AcDbEntity
  8
1
  6
solid
 62
     7
100
AcDbLine
 10
0.6633837120708524
 20
-0.1286245835549489
 30
0.0
 11
0.7233401074196896
 21
-0.1286245835549489
 31
0.0
  0
LINE
  5
AB
330
A
100
AcDbEntity
  8
1
  6
solid
 62
     7
100
AcDbLine
 10
0.819940805094108
 20
-0.1704123742526233
 30
0.0
 11
0.7890541771871314
 21
-0.1704123742526233
 31
0.0
  0
LINE
  5
AC
330
A
100
AcDbEntity
  8
1
  6
solid
 62
     7
100
AcDbLine
 10
0.7890541771871314
 20
-0.1704123742526233
 30
0.0
 11
0.7890541771871314
 21
-0.0593420254154141
 31
0.0
  0
SPLINE
  5
AD
330
A
100
AcDbEntity
  8
1
  6
solid
 62
     7
100
AcDbSpline
210
0.0
220
0.0
230
1.0
 70
     8
 71
     2
 72
     6
 73
     3
 74
     0
 42
0.0000000001
 43
0.0000000001
 40
0.0
 40
0.0
 40
0.0
 40
1.0
 40
1.0
 40
1.0
 10
0.7890541771871314
 20
-0.0593420254154141
 30
0.0
 10
0.7728140609080615
 20
-0.0770455137875071
 30
0.0
 10
0.7509001074196896
 20
-0.0850199323921582
 30
0.0
  0
LINE
  5
AE
330
A
100
AcDbEntity
  8
1
  6
solid
 62
     7
100
AcDbLine
 10
0.7509001074196896
 20
-0.0850199323921582
 30
0.0
 11
0.7509001074196896
 21
-0.0541333044851815
 31
0.0
  0
SPLINE
  5
AF
330
A
100
AcDbEntity
  8
1
  6
solid
 62
     7
100
AcDbSpline
210
0.0
220
0.0
230
1.0
 70
     8
 71
     2
 72
     7
 73
     4
 74
     0
 42
0.0000000001
 43
0.0000000001
 40
0.0
 40
0.0
 40
0.0
 40
1.0
 40
2.0
 40
2.0
 40
2.0
 10
0.7509001074196896
 20
-0.0541333044851815
 30
0.0
 10
0.7623780143964336
 20
-0.0503321416944838
 30
0.0
 10
0.7899099911406197
 20
-0.0286414440200652
 30
0.0
 10
0.7951559213731779
 20
-0.0141623742526234
 30
0.0
  0
LINE
  5
B0
330
A
100
AcDbEntity
  8
1
  6
solid
 62
     7
100
AcDbLine
 10
0.7951559213731779
 20
-0.0141623742526234
 30
0.0
 11
0.819940805094108
 21
-0.0141623742526234
 31
0.0
  0
LINE
  5
B1
330
A
100
AcDbEntity
  8
1
  6
solid
 62
     7
100
AcDbLine
 10
0.819940805094108
 20
-0.1704123742526233
 30
0.0
 11
0.819940805094108
 21
-0.0141623742526234
 31
0.0
  0
LINE
  5
B2
330
A
100
AcDbEntity
  8
1
  6
solid
 62
     7
100
AcDbLine
 10
0.846465339977829
 20
-0.1704123742526233
 30
0.0
 11
0.8828211539313173
 21
-0.0141623742526234
 31
0.0
  0
LINE
  5
B3
330
A
100
AcDbEntity
  8
1
  6
solid
 62
     7
100
AcDbLine
 10
0.8828211539313173
 20
-0.0141623742526234
 30
0.0
 11
0.9074572004429452
 21
-0.0141623742526234
 31
0.0
  0
LINE
  5
B4
330
A
100
AcDbEntity
  8
1
  6
solid
 62
     7
100
AcDbLine
 10
0.9074572004429452
 20
-0.0141623742526234
 30
0.0
 11
0.8711199911406197
 21
-0.1704123742526233
 31
0.0
  0
LINE
  5
B5
330
A
100
AcDbEntity
  8
1
  6
solid
 62
     7
100
AcDbLine
 10
0.846465339977829
 20
-0.1704123742526233
 30
0.0
 11
0.8711199911406197
 21
-0.1704123742526233
 31
0.0
  0
SPLINE
  5
B6
330
A
100
AcDbEntity
  8
1
  6
solid
 62
     7
100
AcDbSpline
210
0.0
220
0.0
230
1.0
 70
     8
 71
     2
 72
     7
 73
     4
 74
     0
 42
0.0000000001
 43
0.0000000001
 40
0.0
 40
0.0
 40
0.0
 40
1.0
 40
2.0
 40
2.0
 40
2.0
 10
0.9622701074196895
 20
-0.0875373742526234
 30
0.0
 10
0.9497753399778289
 20
-0.0824402812293675
 30
0.0
 10
0.9386509213731779
 20
-0.0649042347177396
 30
0.0
 10
0.9386509213731779
 20
-0.055038537043321
 30
0.0
  0
SPLINE
  5
B7
330
A
100
AcDbEntity
  8
1
  6
solid
 62
     7
100
AcDbSpline
210
0.0
220
0.0
230
1.0
 70
     8
 71
     2
 72
     7
 73
     4
 74
     0
 42
0.0000000001
 43
0.0000000001
 40
0.0
 40
0.0
 40
0.0
 40
1.0
 40
2.0
 40
2.0
 40
2.0
 10
0.9386509213731779
 20
-0.055038537043321
 30
0.0
 10
0.9386509213731779
 20
-0.0372978393689024
 30
0.0
 10
0.9632189446289917
 20
-0.0141623742526234
 30
0.0
 10
0.9864846423034105
 20
-0.0141623742526234
 30
0.0
  0
SPLINE
  5
B8
330
A
100
AcDbEntity
  8
1
  6
solid
 62
     7
100
AcDbSpline
210
0.0
220
0.0
230
1.0
 70
     8
 71
     2
 72
     7
 73
     4
 74
     0
 42
0.0000000001
 43
0.0000000001
 40
0.0
 40
0.0
 40
0.0
 40
1.0
 40
2.0
 40
2.0
 40
2.0
 10
0.9864846423034105
 20
-0.0141623742526234
 30
0.0
 10
1.009620107419689
 20
-0.0141623742526234
 30
0.0
 10
1.03494452602434
 20
-0.0372978393689024
 30
0.0
 10
1.03494452602434
 20
-0.055038537043321
 30
0.0
  0
SPLINE
  5
B9
330
A
100
AcDbEntity
  8
1
  6
solid
 62
     7
100
AcDbSpline
210
0.0
220
0.0
230
1.0
 70
     8
 71
     2
 72
     7
 73
     4
 74
     0
 42
0.0000000001
 43
0.0000000001
 40
0.0
 40
0.0
 40
0.0
 40
1.0
 40
2.0
 40
2.0
 40
2.0
 10
1.03494452602434
 20
-0.055038537043321
 30
0.0
 10
1.03494452602434
 20
-0.0659396998340187
 30
0.0
 10
1.022375339977829
 20
-0.0827193509968094
 30
0.0
 10
1.010568944628991
 20
-0.0875373742526234
 30
0.0
  0
SPLINE
  5
BA
330
A
100
AcDbEntity
  8
1
  6
solid
 62
     7
100
AcDbSpline
210
0.0
220
0.0
230
1.0
 70
     8
 71
     2
 72
     7
 73
     4
 74
     0
 42
0.0000000001
 43
0.0000000001
 40
0.0
 40
0.0
 40
0.0
 40
1.0
 40
2.0
 40
2.0
 40
2.0
 10
1.010568944628991
 20
-0.0875373742526234
 30
0.0
 10
1.024396851605736
 20
-0.092138537043321
 30
0.0
 10
1.038578246954573
 20
-0.1118821416944838
 30
0.0
 10
1.038578246954573
 20
-0.1246931882061117
 30
0.0
  0
SPLINE
  5
BB
330
A
100
AcDbEntity
  8
1
  6
solid
 62
     7
100
AcDbSpline
210
0.0
220
0.0
230
1.0
 70
     8
 71
     2
 72
     7
 73
     4
 74
     0
 42
0.0000000001
 43
0.0000000001
 40
0.0
 40
0.0
 40
0.0
 40
1.0
 40
2.0
 40
2.0
 40
2.0
 10
1.038578246954573
 20
-0.1246931882061117
 30
0.0
 10
1.038578246954573
 20
-0.1460862114619257
 30
0.0
 10
1.010327084163875
 20
-0.1722292347177396
 30
0.0
 10
0.9870427818382941
 20
-0.1722292347177396
 30
0.0
  0
SPLINE
  5
BC
330
A
100
AcDbEntity
  8
1
  6
solid
 62
     7
100
AcDbSpline
210
0.0
220
0.0
230
1.0
 70
     8
 71
     2
 72
     6
 73
     3
 74
     0
 42
0.0000000001
 43
0.0000000001
 40
0.0
 40
0.0
 40
0.0
 40
1.0
 40
1.0
 40
1.0
 10
0.9870427818382941
 20
-0.1722292347177396
 30
0.0
 10
0.9660712702103872
 20
-0.1722292347177396
 30
0.0
 10
0.9517038283499219
 20
-0.1612908626247164
 30
0.0
  0
SPLINE
  5
BD
330
A
100
AcDbEntity
  8
1
  6
solid
 62
     7
100
AcDbSpline
210
0.0
220
0.0
230
1.0
 70
     8
 71
     2
 72
     6
 73
     3
 74
     0
 42
0.0000000001
 43
0.0000000001
 40
0.0
 40
0.0
 40
0.0
 40
1.0
 40
1.0
 40
1.0
 10
0.9517038283499219
 20
-0.1612908626247164
 30
0.0
 10
0.9350172004429452
 20
-0.1484240021596001
 30
0.0
 10
0.9350172004429452
 20
-0.1261379556479722
 30
0.0
  0
SPLINE
  5
BE
330
A
100
AcDbEntity
  8
1
  6
solid
 62
     7
100
AcDbSpline
210
0.0
220
0.0
230
1.0
 70
     8
 71
     2
 72
     7
 73
     4
 74
     0
 42
0.0000000001
 43
0.0000000001
 40
0.0
 40
0.0
 40
0.0
 40
1.0
 40
2.0
 40
2.0
 40
2.0
 10
0.9350172004429452
 20
-0.1261379556479722
 30
0.0
 10
0.9350172004429452
 20
-0.1136059789037861
 30
0.0
 10
0.9479956888150383
 20
-0.0931181882061117
 30
0.0
 10
0.9622701074196895
 20
-0.0875373742526234
 30
0.0
  0
SPLINE
  5
BF
330
A
100
AcDbEntity
  8
1
  6
solid
 62
     7
100
AcDbSpline
210
0.0
220
0.0
230
1.0
 70
     8
 71
     2
 72
     7
 73
     4
 74
     0
 42
0.0000000001
 43
0.0000000001
 40
0.0
 40
0.0
 40
0.0
 40
1.0
 40
2.0
 40
2.0
 40
2.0
 10
0.9695375492801547
 20
-0.057060048671228
 30
0.0
 10
0.9695375492801547
 20
-0.0661443509968094
 30
0.0
 10
0.9788078981173638
 20
-0.0759356300665768
 30
0.0
 10
0.986428828349922
 20
-0.0759356300665768
 30
0.0
  0
SPLINE
  5
C0
330
A
100
AcDbEntity
  8
1
  6
solid
 62
     7
100
AcDbSpline
210
0.0
220
0.0
230
1.0
 70
     8
 71
     2
 72
     7
 73
     4
 74
     0
 42
0.0000000001
 43
0.0000000001
 40
0.0
 40
0.0
 40
0.0
 40
1.0
 40
2.0
 40
2.0
 40
2.0
 10
0.986428828349922
 20
-0.0759356300665768
 30
0.0
 10
0.9940869678848057
 20
-0.0759356300665768
 30
0.0
 10
1.004057898117364
 20
-0.0660699323921582
 30
0.0
 10
1.004057898117364
 20
-0.0569856300665769
 30
0.0
  0
SPLINE
  5
C1
330
A
100
AcDbEntity
  8
1
  6
solid
 62
     7
100
AcDbSpline
210
0.0
220
0.0
230
1.0
 70
     8
 71
     2
 72
     7
 73
     4
 74
     0
 42
0.0000000001
 43
0.0000000001
 40
0.0
 40
0.0
 40
0.0
 40
1.0
 40
2.0
 40
2.0
 40
2.0
 10
1.004057898117364
 20
-0.0569856300665769
 30
0.0
 10
1.004057898117364
 20
-0.0482734207642513
 30
0.0
 10
0.994161386489457
 20
-0.037781560299135
 30
0.0
 10
0.9866148748615499
 20
-0.037781560299135
 30
0.0
  0
SPLINE
  5
C2
330
A
100
AcDbEntity
  8
1
  6
solid
 62
     7
100
AcDbSpline
210
0.0
220
0.0
230
1.0
 70
     8
 71
     2
 72
     7
 73
     4
 74
     0
 42
0.0000000001
 43
0.0000000001
 40
0.0
 40
0.0
 40
0.0
 40
1.0
 40
2.0
 40
2.0
 40
2.0
 10
0.9866148748615499
 20
-0.037781560299135
 30
0.0
 10
0.9788823167220151
 20
-0.037781560299135
 30
0.0
 10
0.9695375492801547
 20
-0.0483478393689024
 30
0.0
 10
0.9695375492801547
 20
-0.057060048671228
 30
0.0
  0
SPLINE
  5
C3
330
A
100
AcDbEntity
  8
1
  6
solid
 62
     7
100
AcDbSpline
210
0.0
220
0.0
230
1.0
 70
     8
 71
     2
 72
     7
 73
     4
 74
     0
 42
0.0000000001
 43
0.0000000001
 40
0.0
 40
0.0
 40
0.0
 40
1.0
 40
2.0
 40
2.0
 40
2.0
 10
0.9659038283499221
 20
-0.1230437696014605
 30
0.0
 10
0.9659038283499221
 20
-0.1353524905316931
 30
0.0
 10
0.9776235957917824
 20
-0.148610048671228
 30
0.0
 10
0.9867265027685267
 20
-0.148610048671228
 30
0.0
  0
SPLINE
  5
C4
330
A
100
AcDbEntity
  8
1
  6
solid
 62
     7
100
AcDbSpline
210
0.0
220
0.0
230
1.0
 70
     8
 71
     2
 72
     7
 73
     4
 74
     0
 42
0.0000000001
 43
0.0000000001
 40
0.0
 40
0.0
 40
0.0
 40
1.0
 40
2.0
 40
2.0
 40
2.0
 10
0.9867265027685267
 20
-0.148610048671228
 30
0.0
 10
0.9956805725359686
 20
-0.148610048671228
 30
0.0
 10
1.007691619047596
 20
-0.1356873742526233
 30
0.0
 10
1.007691619047596
 20
-0.1238745835549489
 30
0.0
  0
SPLINE
  5
C5
330
A
100
AcDbEntity
  8
1
  6
solid
 62
     7
100
AcDbSpline
210
0.0
220
0.0
230
1.0
 70
     8
 71
     2
 72
     7
 73
     4
 74
     0
 42
0.0000000001
 43
0.0000000001
 40
0.0
 40
0.0
 40
0.0
 40
1.0
 40
2.0
 40
2.0
 40
2.0
 10
1.007691619047596
 20
-0.1238745835549489
 30
0.0
 10
1.007691619047596
 20
-0.1131036533223908
 30
0.0
 10
0.995550339977829
 20
-0.0995548161130885
 30
0.0
 10
0.9864474330010848
 20
-0.0995548161130885
 30
0.0
  0
SPLINE
  5
C6
330
A
100
AcDbEntity
  8
1
  6
solid
 62
     7
100
AcDbSpline
210
0.0
220
0.0
230
1.0
 70
     8
 71
     2
 72
     7
 73
     4
 74
     0
 42
0.0000000001
 43
0.0000000001
 40
0.0
 40
0.0
 40
0.0
 40
1.0
 40
2.0
 40
2.0
 40
2.0
 10
0.9864474330010848
 20
-0.0995548161130885
 30
0.0
 10
0.9758067353266662
 20
-0.0995548161130885
 30
0.0
 10
0.9659038283499221
 20
-0.1148833044851815
 30
0.0
 10
0.9659038283499221
 20
-0.1230437696014605
 30
0.0
  0
LINE
  5
C7
330
A
100
AcDbEntity
  8
1
  6
solid
 62
     7
100
AcDbLine
 10
1.096110456256898
 20
-0.1704123742526233
 30
0.0
 11
1.136230223698759
 21
-0.1117333044851815
 31
0.0
  0
LINE
  5
C8
330
A
100
AcDbEntity
  8
1
  6
solid
 62
     7
100
AcDbLine
 10
1.136230223698759
 20
-0.1117333044851815
 30
0.0
 11
1.099744177187131
 21
-0.0559501649502978
 31
0.0
  0
LINE
  5
C9
330
A
100
AcDbEntity
  8
1
  6
solid
 62
     7
100
AcDbLine
 10
1.099744177187131
 20
-0.0559501649502978
 30
0.0
 11
1.136509293466201
 21
-0.0559501649502978
 31
0.0
  0
LINE
  5
CA
330
A
100
AcDbEntity
  8
1
  6
solid
 62
     7
100
AcDbLine
 10
1.136509293466201
 20
-0.0559501649502978
 30
0.0
 11
1.153766270210387
 21
-0.0878536533223908
 31
0.0
  0
LINE
  5
CB
330
A
100
AcDbEntity
  8
1
  6
solid
 62
     7
100
AcDbLine
 10
1.153766270210387
 20
-0.0878536533223908
 30
0.0
 11
1.171972084163875
 21
-0.0559501649502978
 31
0.0
  0
LINE
  5
CC
330
A
100
AcDbEntity
  8
1
  6
solid
 62
     7
100
AcDbLine
 10
1.171972084163875
 20
-0.0559501649502978
 30
0.0
 11
1.208755805094108
 21
-0.0559501649502978
 31
0.0
  0
LINE
  5
CD
330
A
100
AcDbEntity
  8
1
  6
solid
 62
     7
100
AcDbLine
 10
1.208755805094108
 20
-0.0559501649502978
 30
0.0
 11
1.170955223698759
 21
-0.1102699323921582
 31
0.0
  0
LINE
  5
CE
330
A
100
AcDbEntity
  8
1
  6
solid
 62
     7
100
AcDbLine
 10
1.170955223698759
 20
-0.1102699323921582
 30
0.0
 11
1.21238952602434
 21
-0.1704123742526233
 31
0.0
  0
LINE
  5
CF
330
A
100
AcDbEntity
  8
1
  6
solid
 62
     7
100
AcDbLine
 10
1.21238952602434
 20
-0.1704123742526233
 30
0.0
 11
1.175605805094108
 21
-0.1704123742526233
 31
0.0
  0
LINE
  5
D0
330
A
100
AcDbEntity
  8
1
  6
solid
 62
     7
100
AcDbLine
 10
1.175605805094108
 20
-0.1704123742526233
 30
0.0
 11
1.153766270210387
 21
-0.1352780719270419
 31
0.0
  0
LINE
  5
D1
330
A
100
AcDbEntity
  8
1
  6
solid
 62
     7
100
AcDbLine
 10
1.153766270210387
 20
-0.1352780719270419
 30
0.0
 11
1.132875572535968
 21
-0.1704123742526233
 31
0.0
  0
LINE
  5
D2
330
A
100
AcDbEntity
  8
1
  6
solid
 62
     7
100
AcDbLine
 10
1.096110456256898
 20
-0.1704123742526233
 30
0.0
 11
1.132875572535968
 21
-0.1704123742526233
 31
0.0
  0
LINE
  5
D3
330
A
100
AcDbEntity
  8
1
  6
solid
 62
     7
100
AcDbLine
 10
1.270547898117364
 20
-0.1249908626247164
 30
0.0
 11
1.30143452602434
 21
-0.1213571416944838
 31
0.0
  0
SPLINE
  5
D4
330
A
100
AcDbEntity
  8
1
  6
solid
 62
     7
100
AcDbSpline
210
0.0
220
0.0
230
1.0
 70
     8
 71
     2
 72
     7
 73
     4
 74
     0
 42
0.0000000001
 43
0.0000000001
 40
0.0
 40
0.0
 40
0.0
 40
1.0
 40
2.0
 40
2.0
 40
2.0
 10
1.30143452602434
 20
-0.1213571416944838
 30
0.0
 10
1.302290339977829
 20
-0.1332565602991349
 30
0.0
 10
1.314226967884806
 20
-0.1449763277409954
 30
0.0
 10
1.32208975858248
 20
-0.1449763277409954
 30
0.0
  0
SPLINE
  5
D5
330
A
100
AcDbEntity
  8
1
  6
solid
 62
     7
100
AcDbSpline
210
0.0
220
0.0
230
1.0
 70
     8
 71
     2
 72
     7
 73
     4
 74
     0
 42
0.0000000001
 43
0.0000000001
 40
0.0
 40
0.0
 40
0.0
 40
1.0
 40
2.0
 40
2.0
 40
2.0
 10
1.32208975858248
 20
-0.1449763277409954
 30
0.0
 10
1.330969409745271
 20
-0.1449763277409954
 30
0.0
 10
1.343222316722015
 20
-0.1329216765782047
 30
0.0
 10
1.343222316722015
 20
-0.1221321416944838
 30
0.0
  0
SPLINE
  5
D6
330
A
100
AcDbEntity
  8
1
  6
solid
 62
     7
100
AcDbSpline
210
0.0
220
0.0
230
1.0
 70
     8
 71
     2
 72
     7
 73
     4
 74
     0
 42
0.0000000001
 43
0.0000000001
 40
0.0
 40
0.0
 40
0.0
 40
1.0
 40
2.0
 40
2.0
 40
2.0
 10
1.343222316722015
 20
-0.1221321416944838
 30
0.0
 10
1.343222316722015
 20
-0.1117333044851815
 30
0.0
 10
1.332358363233643
 20
-0.0995548161130885
 30
0.0
 10
1.32412987486155
 20
-0.0995548161130885
 30
0.0
  0
SPLINE
  5
D7
330
A
100
AcDbEntity
  8
1
  6
solid
 62
     7
100
AcDbSpline
210
0.0
220
0.0
230
1.0
 70
     8
 71
     2
 72
     6
 73
     3
 74
     0
 42
0.0000000001
 43
0.0000000001
 40
0.0
 40
0.0
 40
0.0
 40
1.0
 40
1.0
 40
1.0
 10
1.32412987486155
 20
-0.0995548161130885
 30
0.0
 10
1.318883944628992
 20
-0.0995548161130885
 30
0.0
 10
1.312335688815038
 20
-0.1022769091363443
 30
0.0
  0
LINE
  5
D8
330
A
100
AcDbEntity
  8
1
  6
solid
 62
     7
100
AcDbLine
 10
1.312335688815038
 20
-0.1022769091363443
 30
0.0
 11
1.314766502768526
 21
-0.0759356300665768
 31
0.0
  0
SPLINE
  5
D9
330
A
100
AcDbEntity
  8
1
  6
solid
 62
     7
100
AcDbSpline
210
0.0
220
0.0
230
1.0
 70
     8
 71
     2
 72
     7
 73
     4
 74
     0
 42
0.0000000001
 43
0.0000000001
 40
0.0
 40
0.0
 40
0.0
 40
1.0
 40
2.0
 40
2.0
 40
2.0
 10
1.314766502768526
 20
-0.0759356300665768
 30
0.0
 10
1.325183944628992
 20
-0.076785048671228
 30
0.0
 10
1.33595487486155
 20
-0.0662373742526234
 30
0.0
 10
1.33595487486155
 20
-0.0574879556479722
 30
0.0
  0
SPLINE
  5
DA
330
A
100
AcDbEntity
  8
1
  6
solid
 62
     7
100
AcDbSpline
210
0.0
220
0.0
230
1.0
 70
     8
 71
     2
 72
     7
 73
     4
 74
     0
 42
0.0000000001
 43
0.0000000001
 40
0.0
 40
0.0
 40
0.0
 40
1.0
 40
2.0
 40
2.0
 40
2.0
 10
1.33595487486155
 20
-0.0574879556479722
 30
0.0
 10
1.33595487486155
 20
-0.0502205137875071
 30
0.0
 10
1.327670572535968
 20
-0.0414152812293675
 30
0.0
 10
1.321531619047596
 20
-0.0414152812293675
 30
0.0
  0
SPLINE
  5
DB
330
A
100
AcDbEntity
  8
1
  6
solid
 62
     7
100
AcDbSpline
210
0.0
220
0.0
230
1.0
 70
     8
 71
     2
 72
     7
 73
     4
 74
     0
 42
0.0000000001
 43
0.0000000001
 40
0.0
 40
0.0
 40
0.0
 40
1.0
 40
2.0
 40
2.0
 40
2.0
 10
1.321531619047596
 20
-0.0414152812293675
 30
0.0
 10
1.314803712070852
 20
-0.0414152812293675
 30
0.0
 10
1.305719409745271
 20
-0.0518513277409954
 30
0.0
 10
1.305068246954573
 20
-0.0614007463456466
 30
0.0
  0
LINE
  5
DC
330
A
100
AcDbEntity
  8
1
  6
solid
 62
     7
100
AcDbLine
 10
1.305068246954573
 20
-0.0614007463456466
 30
0.0
 11
1.274181619047596
 21
-0.0572088858805303
 31
0.0
  0
SPLINE
  5
DD
330
A
100
AcDbEntity
  8
1
  6
solid
 62
     7
100
AcDbSpline
210
0.0
220
0.0
230
1.0
 70
     8
 71
     2
 72
     8
 73
     5
 74
     0
 42
0.0000000001
 43
0.0000000001
 40
0.0
 40
0.0
 40
0.0
 40
1.0
 40
2.0
 40
3.0
 40
3.0
 40
3.0
 10
1.274181619047596
 20
-0.0572088858805303
 30
0.0
 10
1.27664964230341
 20
-0.0424693509968094
 30
0.0
 10
1.287867084163875
 20
-0.0245798161130885
 30
0.0
 10
1.308739177187131
 20
-0.0141623742526234
 30
0.0
 10
1.320775223698759
 20
-0.0141623742526234
 30
0.0
  0
SPLINE
  5
DE
330
A
100
AcDbEntity
  8
1
  6
solid
 62
     7
100
AcDbSpline
210
0.0
220
0.0
230
1.0
 70
     8
 71
     2
 72
     6
 73
     3
 74
     0
 42
0.0000000001
 43
0.0000000001
 40
0.0
 40
0.0
 40
0.0
 40
1.0
 40
1.0
 40
1.0
 10
1.320775223698759
 20
-0.0141623742526234
 30
0.0
 10
1.342465921373178
 20
-0.0141623742526234
 30
0.0
 10
1.356033363233643
 20
-0.0284553975084373
 30
0.0
  0
SPLINE
  5
DF
330
A
100
AcDbEntity
  8
1
  6
solid
 62
     7
100
AcDbSpline
210
0.0
220
0.0
230
1.0
 70
     8
 71
     2
 72
     6
 73
     3
 74
     0
 42
0.0000000001
 43
0.0000000001
 40
0.0
 40
0.0
 40
0.0
 40
1.0
 40
1.0
 40
1.0
 10
1.356033363233643
 20
-0.0284553975084373
 30
0.0
 10
1.366841502768527
 20
-0.0404292347177396
 30
0.0
 10
1.366841502768527
 20
-0.0549827230898327
 30
0.0
  0
SPLINE
  5
E0
330
A
100
AcDbEntity
  8
1
  6
solid
 62
     7
100
AcDbSpline
210
0.0
220
0.0
230
1.0
 70
     8
 71
     2
 72
     6
 73
     3
 74
     0
 42
0.0000000001
 43
0.0000000001
 40
0.0
 40
0.0
 40
0.0
 40
1.0
 40
1.0
 40
1.0
 10
1.366841502768527
 20
-0.0549827230898327
 30
0.0
 10
1.366841502768527
 20
-0.0754519091363443
 30
0.0
 10
1.343557200442945
 20
-0.0879094672758792
 30
0.0
  0
SPLINE
  5
E1
330
A
100
AcDbEntity
  8
1
  6
solid
 62
     7
100
AcDbSpline
210
0.0
220
0.0
230
1.0
 70
     8
 71
     2
 72
     7
 73
     4
 74
     0
 42
0.0000000001
 43
0.0000000001
 40
0.0
 40
0.0
 40
0.0
 40
1.0
 40
2.0
 40
2.0
 40
2.0
 10
1.343557200442945
 20
-0.0879094672758792
 30
0.0
 10
1.357000805094108
 20
-0.0903774905316931
 30
0.0
 10
1.374108944628992
 20
-0.1101024905316931
 30
0.0
 10
1.374108944628992
 20
-0.1241908626247164
 30
0.0
  0
SPLINE
  5
E2
330
A
100
AcDbEntity
  8
1
  6
solid
 62
     7
100
AcDbSpline
210
0.0
220
0.0
230
1.0
 70
     8
 71
     2
 72
     7
 73
     4
 74
     0
 42
0.0000000001
 43
0.0000000001
 40
0.0
 40
0.0
 40
0.0
 40
1.0
 40
2.0
 40
2.0
 40
2.0
 10
1.374108944628992
 20
-0.1241908626247164
 30
0.0
 10
1.374108944628992
 20
-0.1442693509968094
 30
0.0
 10
1.343817665559224
 20
-0.1722292347177396
 30
0.0
 10
1.321661851605736
 20
-0.1722292347177396
 30
0.0
  0
SPLINE
  5
E3
330
A
100
AcDbEntity
  8
1
  6
solid
 62
     7
100
AcDbSpline
210
0.0
220
0.0
230
1.0
 70
     8
 71
     2
 72
     7
 73
     4
 74
     0
 42
0.0000000001
 43
0.0000000001
 40
0.0
 40
0.0
 40
0.0
 40
1.0
 40
2.0
 40
2.0
 40
2.0
 10
1.321661851605736
 20
-0.1722292347177396
 30
0.0
 10
1.300287433001085
 20
-0.1722292347177396
 30
0.0
 10
1.272643828349922
 20
-0.1463466765782047
 30
0.0
 10
1.270547898117364
 20
-0.1249908626247164
 30
0.0
  0
LINE
  5
E4
330
A
100
AcDbEntity
  8
1
  6
solid
 62
     7
100
AcDbLine
 10
1.401668944628992
 20
-0.1286245835549489
 30
0.0
 11
1.401668944628992
 21
-0.1013716765782047
 31
0.0
  0
LINE
  5
E5
330
A
100
AcDbEntity
  8
1
  6
solid
 62
     7
100
AcDbLine
 10
1.401668944628992
 20
-0.1013716765782047
 30
0.0
 11
1.461625339977829
 21
-0.1013716765782047
 31
0.0
  0
LINE
  5
E6
330
A
100
AcDbEntity
  8
1
  6
solid
 62
     7
100
AcDbLine
 10
1.461625339977829
 20
-0.1013716765782047
 30
0.0
 11
1.461625339977829
 21
-0.1286245835549489
 31
0.0
  0
LINE
  5
E7
330
A
100
AcDbEntity
  8
1
  6
solid
 62
     7
100
AcDbLine
 10
1.401668944628992
 20
-0.1286245835549489
 30
0.0
 11
1.461625339977829
 21
-0.1286245835549489
 31
0.0
  0
LINE
  5
E8
330
A
100
AcDbEntity
  8
1
  6
solid
 62
     7
100
AcDbLine
 10
1.558226037652247
 20
-0.1704123742526233
 30
0.0
 11
1.527339409745271
 21
-0.1704123742526233
 31
0.0
  0
LINE
  5
E9
330
A
100
AcDbEntity
  8
1
  6
solid
 62
     7
100
AcDbLine
 10
1.527339409745271
 20
-0.1704123742526233
 30
0.0
 11
1.527339409745271
 21
-0.0593420254154141
 31
0.0
  0
SPLINE
  5
EA
330
A
100
AcDbEntity
  8
1
  6
solid
 62
     7
100
AcDbSpline
210
0.0
220
0.0
230
1.0
 70
     8
 71
     2
 72
     6
 73
     3
 74
     0
 42
0.0000000001
 43
0.0000000001
 40
0.0
 40
0.0
 40
0.0
 40
1.0
 40
1.0
 40
1.0
 10
1.527339409745271
 20
-0.0593420254154141
 30
0.0
 10
1.511099293466201
 20
-0.0770455137875071
 30
0.0
 10
1.489185339977829
 20
-0.0850199323921582
 30
0.0
  0
LINE
  5
EB
330
A
100
AcDbEntity
  8
1
  6
solid
 62
     7
100
AcDbLine
 10
1.489185339977829
 20
-0.0850199323921582
 30
0.0
 11
1.489185339977829
 21
-0.0541333044851815
 31
0.0
  0
SPLINE
  5
EC
330
A
100
AcDbEntity
  8
1
  6
solid
 62
     7
100
AcDbSpline
210
0.0
220
0.0
230
1.0
 70
     8
 71
     2
 72
     7
 73
     4
 74
     0
 42
0.0000000001
 43
0.0000000001
 40
0.0
 40
0.0
 40
0.0
 40
1.0
 40
2.0
 40
2.0
 40
2.0
 10
1.489185339977829
 20
-0.0541333044851815
 30
0.0
 10
1.500663246954573
 20
-0.0503321416944838
 30
0.0
 10
1.528195223698759
 20
-0.0286414440200652
 30
0.0
 10
1.533441153931317
 20
-0.0141623742526234
 30
0.0
  0
LINE
  5
ED
330
A
100
AcDbEntity
  8
1
  6
solid
 62
     7
100
AcDbLine
 10
1.533441153931317
 20
-0.0141623742526234
 30
0.0
 11
1.558226037652247
 21
-0.0141623742526234
 31
0.0
  0
LINE
  5
EE
330
A
100
AcDbEntity
  8
1
  6
solid
 62
     7
100
AcDbLine
 10
1.558226037652247
 20
-0.1704123742526233
 30
0.0
 11
1.558226037652247
 21
-0.0141623742526234
 31
0.0
  0
LINE
  5
EF
330
A
100
AcDbEntity
  8
1
  6
solid
 62
     7
100
AcDbLine
 10
1.584750572535968
 20
-0.1704123742526233
 30
0.0
 11
1.621106386489457
 21
-0.0141623742526234
 31
0.0
  0
LINE
  5
F0
330
A
100
AcDbEntity
  8
1
  6
solid
 62
     7
100
AcDbLine
 10
1.621106386489457
 20
-0.0141623742526234
 30
0.0
 11
1.645742433001085
 21
-0.0141623742526234
 31
0.0
  0
LINE
  5
F1
330
A
100
AcDbEntity
  8
1
  6
solid
 62
     7
100
AcDbLine
 10
1.645742433001085
 20
-0.0141623742526234
 30
0.0
 11
1.609405223698759
 21
-0.1704123742526233
 31
0.0
  0
LINE
  5
F2
330
A
100
AcDbEntity
  8
1
  6
solid
 62
     7
100
AcDbLine
 10
1.584750572535968
 20
-0.1704123742526233
 30
0.0
 11
1.609405223698759
 21
-0.1704123742526233
 31
0.0
  0
SPLINE
  5
F3
330
A
100
AcDbEntity
  8
1
  6
solid
 62
     7
100
AcDbSpline
210
0.0
220
0.0
230
1.0
 70
     8
 71
     2
 72
     7
 73
     4
 74
     0
 42
0.0000000001
 43
0.0000000001
 40
0.0
 40
0.0
 40
0.0
 40
1.0
 40
2.0
 40
2.0
 40
2.0
 10
1.700555339977829
 20
-0.0875373742526234
 30
0.0
 10
1.688060572535968
 20
-0.0824402812293675
 30
0.0
 10
1.676936153931317
 20
-0.0649042347177396
 30
0.0
 10
1.676936153931317
 20
-0.055038537043321
 30
0.0
  0
SPLINE
  5
F4
330
A
100
AcDbEntity
  8
1
  6
solid
 62
     7
100
AcDbSpline
210
0.0
220
0.0
230
1.0
 70
     8
 71
     2
 72
     7
 73
     4
 74
     0
 42
0.0000000001
 43
0.0000000001
 40
0.0
 40
0.0
 40
0.0
 40
1.0
 40
2.0
 40
2.0
 40
2.0
 10
1.676936153931317
 20
-0.055038537043321
 30
0.0
 10
1.676936153931317
 20
-0.0372978393689024
 30
0.0
 10
1.701504177187131
 20
-0.0141623742526234
 30
0.0
 10
1.72476987486155
 20
-0.0141623742526234
 30
0.0
  0
SPLINE
  5
F5
330
A
100
AcDbEntity
  8
1
  6
solid
 62
     7
100
AcDbSpline
210
0.0
220
0.0
230
1.0
 70
     8
 71
     2
 72
     7
 73
     4
 74
     0
 42
0.0000000001
 43
0.0000000001
 40
0.0
 40
0.0
 40
0.0
 40
1.0
 40
2.0
 40
2.0
 40
2.0
 10
1.72476987486155
 20
-0.0141623742526234
 30
0.0
 10
1.747905339977829
 20
-0.0141623742526234
 30
0.0
 10
1.77322975858248
 20
-0.0372978393689024
 30
0.0
 10
1.77322975858248
 20
-0.055038537043321
 30
0.0
  0
SPLINE
  5
F6
330
A
100
AcDbEntity
  8
1
  6
solid
 62
     7
100
AcDbSpline
210
0.0
220
0.0
230
1.0
 70
     8
 71
     2
 72
     7
 73
     4
 74
     0
 42
0.0000000001
 43
0.0000000001
 40
0.0
 40
0.0
 40
0.0
 40
1.0
 40
2.0
 40
2.0
 40
2.0
 10
1.77322975858248
 20
-0.055038537043321
 30
0.0
 10
1.77322975858248
 20
-0.0659396998340187
 30
0.0
 10
1.760660572535968
 20
-0.0827193509968094
 30
0.0
 10
1.748854177187131
 20
-0.0875373742526234
 30
0.0
  0
SPLINE
  5
F7
330
A
100
AcDbEntity
  8
1
  6
solid
 62
     7
100
AcDbSpline
210
0.0
220
0.0
230
1.0
 70
     8
 71
     2
 72
     7
 73
     4
 74
     0
 42
0.0000000001
 43
0.0000000001
 40
0.0
 40
0.0
 40
0.0
 40
1.0
 40
2.0
 40
2.0
 40
2.0
 10
1.748854177187131
 20
-0.0875373742526234
 30
0.0
 10
1.762682084163875
 20
-0.092138537043321
 30
0.0
 10
1.776863479512713
 20
-0.1118821416944838
 30
0.0
 10
1.776863479512713
 20
-0.1246931882061117
 30
0.0
  0
SPLINE
  5
F8
330
A
100
AcDbEntity
  8
1
  6
solid
 62
     7
100
AcDbSpline
210
0.0
220
0.0
230
1.0
 70
     8
 71
     2
 72
     7
 73
     4
 74
     0
 42
0.0000000001
 43
0.0000000001
 40
0.0
 40
0.0
 40
0.0
 40
1.0
 40
2.0
 40
2.0
 40
2.0
 10
1.776863479512713
 20
-0.1246931882061117
 30
0.0
 10
1.776863479512713
 20
-0.1460862114619257
 30
0.0
 10
1.748612316722015
 20
-0.1722292347177396
 30
0.0
 10
1.725328014396434
 20
-0.1722292347177396
 30
0.0
  0
SPLINE
  5
F9
330
A
100
AcDbEntity
  8
1
  6
solid
 62
     7
100
AcDbSpline
210
0.0
220
0.0
230
1.0
 70
     8
 71
     2
 72
     6
 73
     3
 74
     0
 42
0.0000000001
 43
0.0000000001
 40
0.0
 40
0.0
 40
0.0
 40
1.0
 40
1.0
 40
1.0
 10
1.725328014396434
 20
-0.1722292347177396
 30
0.0
 10
1.704356502768527
 20
-0.1722292347177396
 30
0.0
 10
1.689989060908061
 20
-0.1612908626247164
 30
0.0
  0
SPLINE
  5
FA
330
A
100
AcDbEntity
  8
1
  6
solid
 62
     7
100
AcDbSpline
210
0.0
220
0.0
230
1.0
 70
     8
 71
     2
 72
     6
 73
     3
 74
     0
 42
0.0000000001
 43
0.0000000001
 40
0.0
 40
0.0
 40
0.0
 40
1.0
 40
1.0
 40
1.0
 10
1.689989060908061
 20
-0.1612908626247164
 30
0.0
 10
1.673302433001085
 20
-0.1484240021596001
 30
0.0
 10
1.673302433001085
 20
-0.1261379556479722
 30
0.0
  0
SPLINE
  5
FB
330
A
100
AcDbEntity
  8
1
  6
solid
 62
     7
100
AcDbSpline
210
0.0
220
0.0
230
1.0
 70
     8
 71
     2
 72
     7
 73
     4
 74
     0
 42
0.0000000001
 43
0.0000000001
 40
0.0
 40
0.0
 40
0.0
 40
1.0
 40
2.0
 40
2.0
 40
2.0
 10
1.673302433001085
 20
-0.1261379556479722
 30
0.0
 10
1.673302433001085
 20
-0.1136059789037861
 30
0.0
 10
1.686280921373178
 20
-0.0931181882061117
 30
0.0
 10
1.700555339977829
 20
-0.0875373742526234
 30
0.0
  0
SPLINE
  5
FC
330
A
100
AcDbEntity
  8
1
  6
solid
 62
     7
100
AcDbSpline
210
0.0
220
0.0
230
1.0
 70
     8
 71
     2
 72
     7
 73
     4
 74
     0
 42
0.0000000001
 43
0.0000000001
 40
0.0
 40
0.0
 40
0.0
 40
1.0
 40
2.0
 40
2.0
 40
2.0
 10
1.707822781838294
 20
-0.057060048671228
 30
0.0
 10
1.707822781838294
 20
-0.0661443509968094
 30
0.0
 10
1.717093130675503
 20
-0.0759356300665768
 30
0.0
 10
1.724714060908061
 20
-0.0759356300665768
 30
0.0
  0
SPLINE
  5
FD
330
A
100
AcDbEntity
  8
1
  6
solid
 62
     7
100
AcDbSpline
210
0.0
220
0.0
230
1.0
 70
     8
 71
     2
 72
     7
 73
     4
 74
     0
 42
0.0000000001
 43
0.0000000001
 40
0.0
 40
0.0
 40
0.0
 40
1.0
 40
2.0
 40
2.0
 40
2.0
 10
1.724714060908061
 20
-0.0759356300665768
 30
0.0
 10
1.732372200442945
 20
-0.0759356300665768
 30
0.0
 10
1.742343130675503
 20
-0.0660699323921582
 30
0.0
 10
1.742343130675503
 20
-0.0569856300665769
 30
0.0
  0
SPLINE
  5
FE
330
A
100
AcDbEntity
  8
1
  6
solid
 62
     7
100
AcDbSpline
210
0.0
220
0.0
230
1.0
 70
     8
 71
     2
 72
     7
 73
     4
 74
     0
 42
0.0000000001
 43
0.0000000001
 40
0.0
 40
0.0
 40
0.0
 40
1.0
 40
2.0
 40
2.0
 40
2.0
 10
1.742343130675503
 20
-0.0569856300665769
 30
0.0
 10
1.742343130675503
 20
-0.0482734207642513
 30
0.0
 10
1.732446619047596
 20
-0.037781560299135
 30
0.0
 10
1.724900107419689
 20
-0.037781560299135
 30
0.0
  0
SPLINE
  5
FF
330
A
100
AcDbEntity
  8
1
  6
solid
 62
     7
100
AcDbSpline
210
0.0
220
0.0
230
1.0
 70
     8
 71
     2
 72
     7
 73
     4
 74
     0
 42
0.0000000001
 43
0.0000000001
 40
0.0
 40
0.0
 40
0.0
 40
1.0
 40
2.0
 40
2.0
 40
2.0
 10
1.724900107419689
 20
-0.037781560299135
 30
0.0
 10
1.717167549280155
 20
-0.037781560299135
 30
0.0
 10
1.707822781838294
 20
-0.0483478393689024
 30
0.0
 10
1.707822781838294
 20
-0.057060048671228
 30
0.0
  0
SPLINE
  5
100
330
A
100
AcDbEntity
  8
1
  6
solid
 62
     7
100
AcDbSpline
210
0.0
220
0.0
230
1.0
 70
     8
 71
     2
 72
     7
 73
     4
 74
     0
 42
0.0000000001
 43
0.0000000001
 40
0.0
 40
0.0
 40
0.0
 40
1.0
 40
2.0
 40
2.0
 40
2.0
 10
1.704189060908061
 20
-0.1230437696014605
 30
0.0
 10
1.704189060908061
 20
-0.1353524905316931
 30
0.0
 10
1.715908828349922
 20
-0.148610048671228
 30
0.0
 10
1.725011735326666
 20
-0.148610048671228
 30
0.0
  0
SPLINE
  5
101
330
A
100
AcDbEntity
  8
1
  6
solid
 62
     7
100
AcDbSpline
210
0.0
220
0.0
230
1.0
 70
     8
 71
     2
 72
     7
 73
     4
 74
     0
 42
0.0000000001
 43
0.0000000001
 40
0.0
 40
0.0
 40
0.0
 40
1.0
 40
2.0
 40
2.0
 40
2.0
 10
1.725011735326666
 20
-0.148610048671228
 30
0.0
 10
1.733965805094108
 20
-0.148610048671228
 30
0.0
 10
1.745976851605736
 20
-0.1356873742526233
 30
0.0
 10
1.745976851605736
 20
-0.1238745835549489
 30
0.0
  0
SPLINE
  5
102
330
A
100
AcDbEntity
  8
1
  6
solid
 62
     7
100
AcDbSpline
210
0.0
220
0.0
230
1.0
 70
     8
 71
     2
 72
     7
 73
     4
 74
     0
 42
0.0000000001
 43
0.0000000001
 40
0.0
 40
0.0
 40
0.0
 40
1.0
 40
2.0
 40
2.0
 40
2.0
 10
1.745976851605736
 20
-0.1238745835549489
 30
0.0
 10
1.745976851605736
 20
-0.1131036533223908
 30
0.0
 10
1.733835572535968
 20
-0.0995548161130885
 30
0.0
 10
1.724732665559224
 20
-0.0995548161130885
 30
0.0
  0
SPLINE
  5
103
330
A
100
AcDbEntity
  8
1
  6
solid
 62
     7
100
AcDbSpline
210
0.0
220
0.0
230
1.0
 70
     8
 71
     2
 72
     7
 73
     4
 74
     0
 42
0.0000000001
 43
0.0000000001
 40
0.0
 40
0.0
 40
0.0
 40
1.0
 40
2.0
 40
2.0
 40
2.0
 10
1.724732665559224
 20
-0.0995548161130885
 30
0.0
 10
1.714091967884806
 20
-0.0995548161130885
 30
0.0
 10
1.704189060908061
 20
-0.1148833044851815
 30
0.0
 10
1.704189060908061
 20
-0.1230437696014605
 30
0.0
  0
LINE
  5
105
330
A
100
AcDbEntity
  8
0
  6
solid
 62
     7
100
AcDbLine
 10
0.8177172061328789
 20
2.172061328790459
 30
0.0
 11
0.8177172061328789
 21
2.297061328790459
 31
0.0
  0
LINE
  5
106
330
A
100
AcDbEntity
  8
0
  6
solid
 62
     7
100
AcDbLine
 10
0.8177172061328789
 20
2.297061328790459
 30
0.0
 11
0.8412679307705602
 21
2.297061328790459
 31
0.0
  0
LINE
  5
107
330
A
100
AcDbEntity
  8
0
  6
solid
 62
     7
100
AcDbLine
 10
0.8412679307705602
 20
2.297061328790459
 30
0.0
 11
0.8412679307705602
 21
2.193800459225242
 31
0.0
  0
LINE
  5
108
330
A
100
AcDbEntity
  8
0
  6
solid
 62
     7
100
AcDbLine
 10
0.8412679307705602
 20
2.193800459225242
 30
0.0
 11
0.906485322074908
 21
2.193800459225242
 31
0.0
  0
LINE
  5
109
330
A
100
AcDbEntity
  8
0
  6
solid
 62
     7
100
AcDbLine
 10
0.906485322074908
 20
2.193800459225242
 30
0.0
 11
0.906485322074908
 21
2.172061328790459
 31
0.0
  0
LINE
  5
10A
330
A
100
AcDbEntity
  8
0
  6
solid
 62
     7
100
AcDbLine
 10
0.8177172061328789
 20
2.172061328790459
 30
0.0
 11
0.906485322074908
 21
2.172061328790459
 31
0.0
  0
LINE
  5
10B
330
A
100
AcDbEntity
  8
0
  6
solid
 62
     7
100
AcDbLine
 10
0.9246053220749079
 20
2.297061328790459
 30
0.0
 11
0.9705259017850529
 21
2.297061328790459
 31
0.0
  0
SPLINE
  5
10C
330
A
100
AcDbEntity
  8
0
  6
solid
 62
     7
100
AcDbSpline
210
0.0
220
0.0
230
1.0
 70
     8
 71
     2
 72
     6
 73
     3
 74
     0
 42
0.0000000001
 43
0.0000000001
 40
0.0
 40
0.0
 40
0.0
 40
1.0
 40
1.0
 40
1.0
 10
0.9705259017850529
 20
2.297061328790459
 30
0.0
 10
0.9864035829444732
 20
2.297061328790459
 30
0.0
 10
0.9942806843937486
 20
2.29425437226872
 30
0.0
  0
SPLINE
  5
10D
330
A
100
AcDbEntity
  8
0
  6
solid
 62
     7
100
AcDbSpline
210
0.0
220
0.0
230
1.0
 70
     8
 71
     2
 72
     8
 73
     5
 74
     0
 42
0.0000000001
 43
0.0000000001
 40
0.0
 40
0.0
 40
0.0
 40
1.0
 40
2.0
 40
3.0
 40
3.0
 40
3.0
 10
0.9942806843937486
 20
2.29425437226872
 30
0.0
 10
1.005243003234328
 20
2.290872343283213
 30
0.0
 10
1.021176336567661
 20
2.274419589660025
 30
0.0
 10
1.029677785843023
 20
2.250590604152778
 30
0.0
 10
1.029677785843023
 20
2.232845676616546
 30
0.0
  0
SPLINE
  5
10E
330
A
100
AcDbEntity
  8
0
  6
solid
 62
     7
100
AcDbSpline
210
0.0
220
0.0
230
1.0
 70
     8
 71
     2
 72
     6
 73
     3
 74
     0
 42
0.0000000001
 43
0.0000000001
 40
0.0
 40
0.0
 40
0.0
 40
1.0
 40
1.0
 40
1.0
 10
1.029677785843023
 20
2.232845676616546
 30
0.0
 10
1.029677785843023
 20
2.217740749080315
 30
0.0
 10
1.025281843814038
 20
2.206667125891909
 30
0.0
  0
SPLINE
  5
10F
330
A
100
AcDbEntity
  8
0
  6
solid
 62
     7
100
AcDbSpline
210
0.0
220
0.0
230
1.0
 70
     8
 71
     2
 72
     6
 73
     3
 74
     0
 42
0.0000000001
 43
0.0000000001
 40
0.0
 40
0.0
 40
0.0
 40
1.0
 40
1.0
 40
1.0
 10
1.025281843814038
 20
2.206667125891909
 30
0.0
 10
1.020953727872009
 20
2.192730894007851
 30
0.0
 10
1.012118365553168
 20
2.184081038935387
 30
0.0
  0
SPLINE
  5
110
330
A
100
AcDbEntity
  8
0
  6
solid
 62
     7
100
AcDbSpline
210
0.0
220
0.0
230
1.0
 70
     8
 71
     2
 72
     6
 73
     3
 74
     0
 42
0.0000000001
 43
0.0000000001
 40
0.0
 40
0.0
 40
0.0
 40
1.0
 40
1.0
 40
1.0
 10
1.012118365553168
 20
2.184081038935387
 30
0.0
 10
1.005298655408241
 20
2.17801553168901
 30
0.0
 10
0.9942250322198356
 20
2.174410894007851
 30
0.0
  0
SPLINE
  5
111
330
A
100
AcDbEntity
  8
0
  6
solid
 62
     7
100
AcDbSpline
210
0.0
220
0.0
230
1.0
 70
     8
 71
     2
 72
     6
 73
     3
 74
     0
 42
0.0000000001
 43
0.0000000001
 40
0.0
 40
0.0
 40
0.0
 40
1.0
 40
1.0
 40
1.0
 10
0.9942250322198356
 20
2.174410894007851
 30
0.0
 10
0.9862366264227341
 20
2.172061328790459
 30
0.0
 10
0.9720406843937485
 20
2.172061328790459
 30
0.0
  0
LINE
  5
112
330
A
100
AcDbEntity
  8
0
  6
solid
 62
     7
100
AcDbLine
 10
0.9720406843937485
 20
2.172061328790459
 30
0.0
 11
0.9246053220749079
 21
2.172061328790459
 31
0.0
  0
LINE
  5
113
330
A
100
AcDbEntity
  8
0
  6
solid
 62
     7
100
AcDbLine
 10
0.9246053220749079
 20
2.297061328790459
 30
0.0
 11
0.9246053220749079
 21
2.172061328790459
 31
0.0
  0
LINE
  5
114
330
A
100
AcDbEntity
  8
0
  6
solid
 62
     7
100
AcDbLine
 10
0.9481560467125891
 20
2.275322198355677
 30
0.0
 11
0.9481560467125891
 21
2.193800459225242
 31
0.0
  0
LINE
  5
115
330
A
100
AcDbEntity
  8
0
  6
solid
 62
     7
100
AcDbLine
 10
0.9481560467125891
 20
2.193800459225242
 30
0.0
 11
0.9684174959879515
 21
2.193800459225242
 31
0.0
  0
SPLINE
  5
116
330
A
100
AcDbEntity
  8
0
  6
solid
 62
     7
100
AcDbSpline
210
0.0
220
0.0
230
1.0
 70
     8
 71
     2
 72
     6
 73
     3
 74
     0
 42
0.0000000001
 43
0.0000000001
 40
0.0
 40
0.0
 40
0.0
 40
1.0
 40
1.0
 40
1.0
 10
0.9684174959879515
 20
2.193800459225242
 30
0.0
 10
0.979676626422734
 20
2.193800459225242
 30
0.0
 10
0.9848888003357776
 20
2.194579589660025
 30
0.0
  0
SPLINE
  5
117
330
A
100
AcDbEntity
  8
0
  6
solid
 62
     7
100
AcDbSpline
210
0.0
220
0.0
230
1.0
 70
     8
 71
     2
 72
     8
 73
     5
 74
     0
 42
0.0000000001
 43
0.0000000001
 40
0.0
 40
0.0
 40
0.0
 40
1.0
 40
2.0
 40
3.0
 40
3.0
 40
3.0
 10
0.9848888003357776
 20
2.194579589660025
 30
0.0
 10
0.9917456119299805
 20
2.196187125891909
 30
0.0
 10
0.9999937278720095
 20
2.203414951978865
 30
0.0
 10
1.006127061205342
 20
2.219867705602054
 30
0.0
 10
1.006127061205342
 20
2.234230604152778
 30
0.0
  0
SPLINE
  5
118
330
A
100
AcDbEntity
  8
0
  6
solid
 62
     7
100
AcDbSpline
210
0.0
220
0.0
230
1.0
 70
     8
 71
     2
 72
     8
 73
     5
 74
     0
 42
0.0000000001
 43
0.0000000001
 40
0.0
 40
0.0
 40
0.0
 40
1.0
 40
2.0
 40
3.0
 40
3.0
 40
3.0
 10
1.006127061205342
 20
2.234230604152778
 30
0.0
 10
1.006127061205342
 20
2.248574951978865
 30
0.0
 10
0.9999937278720095
 20
2.263587125891909
 30
0.0
 10
0.9903235829444732
 20
2.272311183862923
 30
0.0
 10
0.9827989452633138
 20
2.273918720094807
 30
0.0
  0
SPLINE
  5
119
330
A
100
AcDbEntity
  8
0
  6
solid
 62
     7
100
AcDbSpline
210
0.0
220
0.0
230
1.0
 70
     8
 71
     2
 72
     6
 73
     3
 74
     0
 42
0.0000000001
 43
0.0000000001
 40
0.0
 40
0.0
 40
0.0
 40
1.0
 40
1.0
 40
1.0
 10
0.9827989452633138
 20
2.273918720094807
 30
0.0
 10
0.9771786554082414
 20
2.275322198355677
 30
0.0
 10
0.9599531481618646
 20
2.275322198355677
 30
0.0
  0
LINE
  5
11A
330
A
100
AcDbEntity
  8
0
  6
solid
 62
     7
100
AcDbLine
 10
0.9481560467125891
 20
2.275322198355677
 30
0.0
 11
0.9599531481618646
 21
2.275322198355677
 31
0.0
  0
LINE
  5
17C
330
A
100
AcDbEntity
  8
1
  6
solid
 62
     7
370
     0
100
AcDbLine
 10
-2.952686786651611
 20
1.438294034893344
 30
0.0
 11
-2.952686786651611
 21
-0.0675521757300005
 31
0.0
  0
LINE
  5
17D
330
A
100
AcDbEntity
  8
1
  6
solid
 62
     7
370
     0
100
AcDbLine
 10
-1.826957583427429
 20
0.116669625043869
 30
0.0
 11
-1.826957583427429
 21
-0.0675521757300005
 31
0.0
  0
LINE
  5
17E
330
A
100
AcDbEntity
  8
1
  6
solid
 62
     7
370
     0
100
AcDbLine
 10
-2.952686786651611
 20
-0.0050521757300005
 30
0.0
 11
-2.599836890921872
 21
-0.0050521757300005
 31
0.0
  0
LINE
  5
17F
330
A
100
AcDbEntity
  8
1
  6
solid
 62
     7
370
     0
100
AcDbLine
 10
-1.826957583427429
 20
-0.0050521757300005
 30
0.0
 11
-2.179807479157167
 21
-0.0050521757300005
 31
0.0
  0
MTEXT
  5
180
330
A
100
AcDbEntity
  8
1
  6
solid
 62
     7
370
     0
100
AcDbMText
 10
-2.38982218503952
 20
-0.0050521757300005
 30
0.0
 40
0.125
 41
0.0
 71
     5
 72
     1
  1
{\H0.125000;1 1/8}
 73
     1
 44
1.0
  0
SOLID
  5
181
330
A
100
AcDbEntity
  8
1
  6
solid
 62
     7
370
     0
100
AcDbTrace
 10
-2.927686786651611
 20
0.0074478242699995
 30
0.0
 11
-2.927686786651611
 21
-0.0175521757300005
 31
0.0
 12
-2.952686786651611
 22
-0.0050521757300005
 32
0.0
 13
-2.952686786651611
 23
-0.0050521757300005
 33
0.0
  0
SOLID
  5
182
330
A
100
AcDbEntity
  8
1
  6
solid
 62
     7
370
     0
100
AcDbTrace
 10
-1.851957583427429
 20
-0.0175521757300005
 30
0.0
 11
-1.851957583427429
 21
0.0074478242699995
 31
0.0
 12
-1.826957583427429
 22
-0.0050521757300005
 32
0.0
 13
-1.826957583427429
 23
-0.0050521757300005
 33
0.0
  0
VIEWPORT
  5
138
330
B
100
AcDbEntity
 67
     1
  8
0
  6
Continuous
370
     0
100
AcDbViewport
 10
4.703194064499566
 20
4.296241662283461
 30
0.0
 40
15.14372093563175
 41
8.012634050141958
 68
     1
 69
     1
 12
4.703194064499566
 22
4.296241662283461
 13
0.0
 23
0.0
 14
0.5
 24
0.5
 15
0.5
 25
0.5
 16
0.0
 26
0.0
 36
1.0
 17
0.0
 27
0.0
 37
0.0
 42
50.0
 43
0.0
 44
0.0
 45
8.012634050141958
 50
0.0
 51
0.0
 72
   100
 90
   819232
  1

281
     0
 71
     1
 74
     0
110
0.0
120
0.0
130
0.0
111
1.0
121
0.0
131
0.0
112
0.0
122
1.0
132
0.0
 79
     0
146
0.0
170
     0
  0
VIEWPORT
  5
13B
330
B
100
AcDbEntity
 67
     1
  8
0
  6
Continuous
370
     0
100
AcDbViewport
 10
4.703269727035689
 20
4.296128568839284
 30
0.0
 40
10.43151939086692
 41
7.918591158020195
 68
     2
 69
     2
 12
-0.5436729028374375
 22
1.649363264859556
 13
0.0
 23
0.0
 14
0.5
 24
0.5
 15
0.5
 25
0.5
 16
0.0
 26
0.0
 36
1.0
 17
0.0
 27
0.0
 37
0.0
 42
50.0
 43
0.0
 44
0.0
 45
4.947854800876927
 50
0.0
 51
0.0
 72
   100
 90
   819232
  1

281
     0
 71
     1
 74
     0
110
0.0
120
0.0
130
0.0
111
1.0
121
0.0
131
0.0
112
0.0
122
1.0
132
0.0
 79
     0
146
0.0
170
     0
  0
ENDSEC
  0
SECTION
  2
OBJECTS
  0
DICTIONARY
  5
19
330
0
100
AcDbDictionary
281
     1
  3
ACAD_COLOR
350
131
  3
ACAD_GROUP
350
1A
  3
ACAD_LAYOUT
350
1E
  3
ACAD_MATERIAL
350
11C
  3
ACAD_MLEADERSTYLE
350
165
  3
ACAD_MLINESTYLE
350
1B
  3
ACAD_PLOTSETTINGS
350
22
  3
ACAD_PLOTSTYLENAME
350
1F
  3
ACAD_SCALELIST
350
143
  3
ACAD_TABLESTYLE
350
132
  3
ACAD_VISUALSTYLE
350
120
  3
ACAD_WIPEOUT_VARS
350
23
  3
ACDB_RECOMPOSE_DATA
350
1A2
  3
AcDbVariableDictionary
350
140
  3
ASE_INDEX_DICTIONARY
350
13D
  0
DICTIONARY
  5
16E
330
14
100
AcDbDictionary
280
     1
281
     1
  3
ADSK_XREC_LAYER_RECONCILED
360
16F
  0
DICTIONARY
  5
170
330
27
100
AcDbDictionary
280
     1
281
     1
  3
ADSK_XREC_LAYER_RECONCILED
360
171
  0
DICTIONARY
  5
172
330
104
100
AcDbDictionary
280
     1
281
     1
  3
ADSK_XREC_LAYER_RECONCILED
360
173
  0
DICTIONARY
  5
183
330
A
100
AcDbDictionary
280
     1
281
     1
  3
ACAD_SORTENTS
360
184
  0
DICTIONARY
  5
131
102
{ACAD_REACTORS
330
19
102
}
330
19
100
AcDbDictionary
281
     1
  0
DICTIONARY
  5
1A
102
{ACAD_REACTORS
330
19
102
}
330
19
100
AcDbDictionary
281
     1
  0
DICTIONARY
  5
1E
102
{ACAD_REACTORS
330
19
102
}
330
19
100
AcDbDictionary
281
     1
  3
Layout1
350
21
  3
Model
350
20
  0
DICTIONARY
  5
11C
102
{ACAD_REACTORS
330
19
102
}
330
19
100
AcDbDictionary
281
     1
  3
ByBlock
350
11E
  3
ByLayer
350
11D
  3
Global
350
11F
  0
DICTIONARY
  5
165
102
{ACAD_REACTORS
330
19
102
}
330
19
100
AcDbDictionary
281
     1
  3
Standard
350
166
  0
DICTIONARY
  5
1B
102
{ACAD_REACTORS
330
19
102
}
330
19
100
AcDbDictionary
281
     1
  3
Standard
350
1C
  0
DICTIONARY
  5
22
102
{ACAD_REACTORS
330
19
102
}
330
19
100
AcDbDictionary
281
     1
  0
ACDBDICTIONARYWDFLT
  5
1F
102
{ACAD_REACTORS
330
19
102
}
330
19
100
AcDbDictionary
281
     1
  3
Normal
350
1D
100
AcDbDictionaryWithDefault
340
1D
  0
DICTIONARY
  5
143
102
{ACAD_REACTORS
330
19
102
}
330
19
100
AcDbDictionary
281
     1
  3
A0
350
144
  3
A1
350
145
  3
A2
350
146
  3
A3
350
147
  3
A4
350
148
  3
A5
350
149
  3
A6
350
14A
  3
A7
350
14B
  3
A8
350
14C
  3
A9
350
14D
  3
B0
350
14E
  3
B1
350
14F
  3
B2
350
150
  3
B3
350
151
  3
B4
350
152
  3
B5
350
153
  3
B6
350
154
  3
B7
350
155
  3
B8
350
156
  3
B9
350
157
  3
C0
350
158
  3
C1
350
159
  3
C2
350
15A
  3
C3
350
15B
  3
C4
350
15C
  3
C5
350
15D
  3
C6
350
15E
  3
C7
350
15F
  3
C8
350
160
  3
C9
350
161
  3
D0
350
162
  3
D1
350
163
  3
D2
350
164
  0
DICTIONARY
  5
132
102
{ACAD_REACTORS
330
19
102
}
330
19
100
AcDbDictionary
281
     1
  3
Standard
350
133
  0
DICTIONARY
  5
120
102
{ACAD_REACTORS
330
19
102
}
330
19
100
AcDbDictionary
281
     1
  3
2dWireframe
350
126
  3
3D Hidden
350
128
  3
3dWireframe
350
127
  3
Basic
350
125
  3
Brighten
350
12C
  3
ColorChange
350
130
  3
Conceptual
350
129
  3
Dim
350
12B
  3
Facepattern
350
12F
  3
Flat
350
121
  3
FlatWithEdges
350
122
  3
Gouraud
350
123
  3
GouraudWithEdges
350
124
  3
Linepattern
350
12E
  3
Realistic
350
12A
  3
Thicken
350
12D
  0
WIPEOUTVARIABLES
  5
23
330
19
100
AcDbWipeoutVariables
 70
     1
  0
XRECORD
  5
1A2
102
{ACAD_REACTORS
330
19
102
}
330
19
100
AcDbXrecord
280
     1
 90
        1
330
133
  0
DICTIONARY
  5
140
102
{ACAD_REACTORS
330
19
102
}
330
19
100
AcDbDictionary
281
     1
  3
CANNOSCALE
350
19F
  3
CMLEADERSTYLE
350
19E
  3
CTABLESTYLE
350
141
  0
DICTIONARY
  5
13D
102
{ACAD_REACTORS
330
19
102
}
330
19
100
AcDbDictionary
281
     1
  3
ASEBlockHierarchyIndexRecord
350
13F
1001
DCO15
1040
1645030460.639
  0
XRECORD
  5
16F
102
{ACAD_REACTORS
330
16E
102
}
330
16E
100
AcDbXrecord
280
     1
290
     1
  0
XRECORD
  5
171
102
{ACAD_REACTORS
330
170
102
}
330
170
100
AcDbXrecord
280
     1
290
     1
  0
XRECORD
  5
173
102
{ACAD_REACTORS
330
172
102
}
330
172
100
AcDbXrecord
280
     1
290
     1
  0
SORTENTSTABLE
  5
184
102
{ACAD_REACTORS
330
183
102
}
330
183
100
AcDbSortentsTable
330
A
331
7E
  5
7E
331
A0
  5
A7
331
C2
  5
C9
331
FE
  5
106
331
E4
  5
EB
331
17E
  5
A2
331
6C
  5
6C
331
4A
  5
4A
331
B1
  5
B8
331
10F
  5
116
331
D3
  5
DA
331
5B
  5
5B
331
39
  5
39
331
28
  5
28
331
7C
  5
7C
331
C0
  5
C7
331
FC
  5
103
331
E2
  5
E9
331
17C
  5
A0
331
6A
  5
6A
331
48
  5
48
331
AF
  5
B6
331
10D
  5
114
331
D1
  5
D8
331
59
  5
59
331
37
  5
37
331
7A
  5
7A
331
BE
  5
C5
331
FA
  5
101
331
E0
  5
E7
331
68
  5
68
331
46
  5
46
331
AD
  5
B4
331
10B
  5
112
331
CF
  5
D6
331
57
  5
57
331
35
  5
35
331
78
  5
78
331
BC
  5
C3
331
11A
  5
182
331
F8
  5
FF
331
DE
  5
E5
331
89
  5
89
331
66
  5
66
331
44
  5
44
331
AB
  5
B2
331
CD
  5
D4
331
109
  5
110
331
EF
  5
F6
331
77
  5
77
331
55
  5
55
331
33
  5
33
331
BA
  5
C1
331
118
  5
180
331
F6
  5
FD
331
DC
  5
E3
331
87
  5
87
331
64
  5
64
331
42
  5
42
331
A9
  5
B0
331
CB
  5
D2
331
107
  5
10E
331
ED
  5
F4
331
75
  5
75
331
53
  5
53
331
31
  5
31
331
B8
  5
BF
331
116
  5
17E
331
F4
  5
FB
331
DA
  5
E1
331
85
  5
85
331
62
  5
62
331
40
  5
40
331
A7
  5
AE
331
C9
  5
D0
331
105
  5
10C
331
EB
  5
F2
331
73
  5
73
331
51
  5
51
331
2F
  5
2F
331
114
  5
17C
331
F2
  5
F9
331
D8
  5
DF
331
83
  5
83
331
60
  5
60
331
A5
  5
AC
331
C7
  5
CE
331
103
  5
10B
331
E9
  5
F0
331
94
  5
94
331
71
  5
71
331
4F
  5
4F
331
B6
  5
BD
331
3E
  5
3E
331
2D
  5
2D
331
112
  5
119
331
F0
  5
F7
331
81
  5
81
331
A3
  5
AA
331
C5
  5
CC
331
101
  5
109
331
E7
  5
EE
331
181
  5
A5
331
6F
  5
6F
331
4D
  5
4D
331
B4
  5
BB
331
D6
  5
DD
331
5E
  5
5E
331
3C
  5
3C
331
2B
  5
2B
331
110
  5
117
331
7F
  5
7F
331
A1
  5
A8
331
C3
  5
CA
331
FF
  5
107
331
E5
  5
EC
331
17F
  5
A3
331
6D
  5
6D
331
4B
  5
4B
331
B2
  5
B9
331
D4
  5
DB
331
5C
  5
5C
331
3A
  5
3A
331
29
  5
29
331
7D
  5
7D
331
C1
  5
C8
331
FD
  5
105
331
E3
  5
EA
331
17D
  5
A1
331
6B
  5
6B
331
49
  5
49
331
B0
  5
B7
331
10E
  5
115
331
D2
  5
D9
331
5A
  5
5A
331
38
  5
38
331
7B
  5
7B
331
BF
  5
C6
331
FB
  5
102
331
E1
  5
E8
331
69
  5
69
331
47
  5
47
331
AE
  5
B5
331
10C
  5
113
331
D0
  5
D7
331
58
  5
58
331
36
  5
36
331
79
  5
79
331
BD
  5
C4
331
F9
  5
100
331
DF
  5
E6
331
67
  5
67
331
45
  5
45
331
AC
  5
B3
331
10A
  5
111
331
CE
  5
D5
331
56
  5
56
331
34
  5
34
331
BB
  5
C2
331
119
  5
181
331
F7
  5
FE
331
DD
  5
E4
331
88
  5
88
331
65
  5
65
331
43
  5
43
331
AA
  5
B1
331
CC
  5
D3
331
108
  5
10F
331
EE
  5
F5
331
76
  5
76
331
54
  5
54
331
32
  5
32
331
B9
  5
C0
331
117
  5
17F
331
F5
  5
FC
331
DB
  5
E2
331
86
  5
86
331
63
  5
63
331
41
  5
41
331
A8
  5
AF
331
CA
  5
D1
331
106
  5
10D
331
EC
  5
F3
331
74
  5
74
331
52
  5
52
331
30
  5
30
331
115
  5
17D
331
F3
  5
FA
331
D9
  5
E0
331
84
  5
84
331
61
  5
61
331
A6
  5
AD
331
C8
  5
CF
331
EA
  5
F1
331
72
  5
72
331
50
  5
50
331
B7
  5
BE
331
3F
  5
3F
331
2E
  5
2E
331
113
  5
11A
331
F1
  5
F8
331
82
  5
82
331
A4
  5
AB
331
C6
  5
CD
331
102
  5
10A
331
E8
  5
EF
331
182
  5
A6
331
70
  5
70
331
4E
  5
4E
331
B5
  5
BC
331
D7
  5
DE
331
5F
  5
5F
331
3D
  5
3D
331
2C
  5
2C
331
111
  5
118
331
80
  5
80
331
A2
  5
A9
331
C4
  5
CB
331
100
  5
108
331
E6
  5
ED
331
180
  5
A4
331
6E
  5
6E
331
4C
  5
4C
331
B3
  5
BA
331
D5
  5
DC
331
5D
  5
5D
331
3B
  5
3B
331
2A
  5
2A
  0
LAYOUT
  5
21
102
{ACAD_REACTORS
330
1E
102
}
330
1E
100
AcDbPlotSettings
  1

  2
Foxit PDF Printer
  4
Letter
  6

 40
3.174999952316284
 41
3.174999952316284
 42
3.17498779296875
 43
3.175003051757812
 44
279.3999938964844
 45
215.8999938964844
 46
19.9768870572465
 47
15.34101896164477
 48
0.0
 49
0.0
140
0.0
141
0.0
142
1.0
143
1.0
 70
     4
 72
     0
 73
     0
 74
     1
  7

 75
     0
147
1.0
 76
     0
 77
     2
 78
   300
148
-3.254077666007244
149
-20.16000981431432
100
AcDbLayout
  1
Layout1
 70
     0
 71
     1
 10
-0.7833783206124228
 20
0.06472405119501
 11
10.21662143909169
 21
8.564723810899119
 12
0.0
 22
0.0
 32
0.0
 14
-0.5130610092088759
 24
0.3365097188993538
 34
-0.0015258207003583
 15
9.919449138208005
 25
8.255973605667566
 35
0.0000000349246037
146
0.0
 13
0.0
 23
0.0
 33
0.0
 16
1.0
 26
0.0
 36
0.0
 17
0.0
 27
1.0
 37
0.0
 76
     0
330
B
331
138
1001
ACAD_PSEXT
1000
Foxit PDF Printer
1000
Foxit PDF Printer Driver
1000
FOXIT_PDF
1000

1070
     0
  0
LAYOUT
  5
20
102
{ACAD_REACTORS
330
1E
102
}
330
1E
100
AcDbPlotSettings
  1

  2

  4

  6

 40
0.0
 41
0.0
 42
0.0
 43
0.0
 44
0.0
 45
0.0
 46
0.0
 47
0.0
 48
0.0
 49
0.0
140
0.0
141
0.0
142
1.0
143
1.0
 70
  1024
 72
     0
 73
     0
 74
     0
  7

 75
     0
147
1.0
 76
     0
 77
     2
 78
   300
148
0.0
149
0.0
100
AcDbLayout
  1
Model
 70
     0
 71
     0
 10
0.0
 20
0.0
 11
0.0
 21
0.0
 12
0.0
 22
0.0
 32
0.0
 14
0.0
 24
0.0
 34
0.0
 15
0.0
 25
0.0
 35
0.0
146
0.0
 13
0.0
 23
0.0
 33
0.0
 16
0.0
 26
0.0
 36
0.0
 17
0.0
 27
0.0
 37
0.0
 76
     0
330
A
  0
MATERIAL
  5
11E
102
{ACAD_XDICTIONARY
360
1A5
102
}
102
{ACAD_REACTORS
330
11C
102
}
330
11C
100
AcDbMaterial
  1
ByBlock
 73
     1
 78
     1
172
     1
176
     1
270
     1
274
     1
  0
MATERIAL
  5
11D
102
{ACAD_XDICTIONARY
360
1A3
102
}
102
{ACAD_REACTORS
330
11C
102
}
330
11C
100
AcDbMaterial
  1
ByLayer
 73
     1
 78
     1
172
     1
176
     1
270
     1
274
     1
  0
MATERIAL
  5
11F
102
{ACAD_XDICTIONARY
360
1A7
102
}
102
{ACAD_REACTORS
330
11C
102
}
330
11C
100
AcDbMaterial
  1
Global
 73
     1
 78
     1
172
     1
176
     1
270
     1
274
     1
  0
MLEADERSTYLE
  5
166
102
{ACAD_REACTORS
330
165
102
}
330
165
100
AcDbMLeaderStyle
170
     2
171
     1
172
     0
 90
        2
 40
0.0
 41
0.0
173
     1
 91
-1056964608
340
11
 92
       -2
290
     1
 42
0.09
291
     1
 43
0.36
  3
Standard
 44
0.18
300

342
17
174
     1
178
     6
175
     1
176
     0
 93
-1056964608
 45
0.18
292
     0
297
     0
 46
0.18
 94
-1056964608
 47
1.0
 49
1.0
140
1.0
293
     1
141
0.0
294
     1
177
     0
142
1.0
295
     0
296
     0
143
0.125
1001
ACAD_MLEADERVER
1070
     2
  0
MLINESTYLE
  5
1C
102
{ACAD_REACTORS
330
1B
102
}
330
1B
100
AcDbMlineStyle
  2
STANDARD
 70
     0
  3

 62
     0
 51
90.0
 52
90.0
 71
     2
 49
0.5
 62
   256
  6
BYLAYER
 49
-0.5
 62
   256
  6
BYLAYER
  0
ACDBPLACEHOLDER
  5
1D
102
{ACAD_REACTORS
330
1F
102
}
330
1F
  0
SCALE
  5
144
102
{ACAD_REACTORS
330
143
102
}
330
143
100
AcDbScale
 70
     0
300
1:1
140
1.0
141
1.0
290
     1
  0
SCALE
  5
145
102
{ACAD_REACTORS
330
143
102
}
330
143
100
AcDbScale
 70
     0
300
1:2
140
1.0
141
2.0
290
     0
  0
SCALE
  5
146
102
{ACAD_REACTORS
330
143
102
}
330
143
100
AcDbScale
 70
     0
300
1:4
140
1.0
141
4.0
290
     0
  0
SCALE
  5
147
102
{ACAD_REACTORS
330
143
102
}
330
143
100
AcDbScale
 70
     0
300
1:5
140
1.0
141
5.0
290
     0
  0
SCALE
  5
148
102
{ACAD_REACTORS
330
143
102
}
330
143
100
AcDbScale
 70
     0
300
1:8
140
1.0
141
8.0
290
     0
  0
SCALE
  5
149
102
{ACAD_REACTORS
330
143
102
}
330
143
100
AcDbScale
 70
     0
300
1:10
140
1.0
141
10.0
290
     0
  0
SCALE
  5
14A
102
{ACAD_REACTORS
330
143
102
}
330
143
100
AcDbScale
 70
     0
300
1:16
140
1.0
141
16.0
290
     0
  0
SCALE
  5
14B
102
{ACAD_REACTORS
330
143
102
}
330
143
100
AcDbScale
 70
     0
300
1:20
140
1.0
141
20.0
290
     0
  0
SCALE
  5
14C
102
{ACAD_REACTORS
330
143
102
}
330
143
100
AcDbScale
 70
     0
300
1:30
140
1.0
141
30.0
290
     0
  0
SCALE
  5
14D
102
{ACAD_REACTORS
330
143
102
}
330
143
100
AcDbScale
 70
     0
300
1:40
140
1.0
141
40.0
290
     0
  0
SCALE
  5
14E
102
{ACAD_REACTORS
330
143
102
}
330
143
100
AcDbScale
 70
     0
300
1:50
140
1.0
141
50.0
290
     0
  0
SCALE
  5
14F
102
{ACAD_REACTORS
330
143
102
}
330
143
100
AcDbScale
 70
     0
300
1:100
140
1.0
141
100.0
290
     0
  0
SCALE
  5
150
102
{ACAD_REACTORS
330
143
102
}
330
143
100
AcDbScale
 70
     0
300
2:1
140
2.0
141
1.0
290
     0
  0
SCALE
  5
151
102
{ACAD_REACTORS
330
143
102
}
330
143
100
AcDbScale
 70
     0
300
4:1
140
4.0
141
1.0
290
     0
  0
SCALE
  5
152
102
{ACAD_REACTORS
330
143
102
}
330
143
100
AcDbScale
 70
     0
300
8:1
140
8.0
141
1.0
290
     0
  0
SCALE
  5
153
102
{ACAD_REACTORS
330
143
102
}
330
143
100
AcDbScale
 70
     0
300
10:1
140
10.0
141
1.0
290
     0
  0
SCALE
  5
154
102
{ACAD_REACTORS
330
143
102
}
330
143
100
AcDbScale
 70
     0
300
100:1
140
100.0
141
1.0
290
     0
  0
SCALE
  5
155
102
{ACAD_REACTORS
330
143
102
}
330
143
100
AcDbScale
 70
     0
300
1/128" = 1'-0"
140
0.0078125
141
12.0
290
     0
  0
SCALE
  5
156
102
{ACAD_REACTORS
330
143
102
}
330
143
100
AcDbScale
 70
     0
300
1/64" = 1'-0"
140
0.015625
141
12.0
290
     0
  0
SCALE
  5
157
102
{ACAD_REACTORS
330
143
102
}
330
143
100
AcDbScale
 70
     0
300
1/32" = 1'-0"
140
0.03125
141
12.0
290
     0
  0
SCALE
  5
158
102
{ACAD_REACTORS
330
143
102
}
330
143
100
AcDbScale
 70
     0
300
1/16" = 1'-0"
140
0.0625
141
12.0
290
     0
  0
SCALE
  5
159
102
{ACAD_REACTORS
330
143
102
}
330
143
100
AcDbScale
 70
     0
300
3/32" = 1'-0"
140
0.09375
141
12.0
290
     0
  0
SCALE
  5
15A
102
{ACAD_REACTORS
330
143
102
}
330
143
100
AcDbScale
 70
     0
300
1/8" = 1'-0"
140
0.125
141
12.0
290
     0
  0
SCALE
  5
15B
102
{ACAD_REACTORS
330
143
102
}
330
143
100
AcDbScale
 70
     0
300
3/16" = 1'-0"
140
0.1875
141
12.0
290
     0
  0
SCALE
  5
15C
102
{ACAD_REACTORS
330
143
102
}
330
143
100
AcDbScale
 70
     0
300
1/4" = 1'-0"
140
0.25
141
12.0
290
     0
  0
SCALE
  5
15D
102
{ACAD_REACTORS
330
143
102
}
330
143
100
AcDbScale
 70
     0
300
3/8" = 1'-0"
140
0.375
141
12.0
290
     0
  0
SCALE
  5
15E
102
{ACAD_REACTORS
330
143
102
}
330
143
100
AcDbScale
 70
     0
300
1/2" = 1'-0"
140
0.5
141
12.0
290
     0
  0
SCALE
  5
15F
102
{ACAD_REACTORS
330
143
102
}
330
143
100
AcDbScale
 70
     0
300
3/4" = 1'-0"
140
0.75
141
12.0
290
     0
  0
SCALE
  5
160
102
{ACAD_REACTORS
330
143
102
}
330
143
100
AcDbScale
 70
     0
300
1" = 1'-0"
140
1.0
141
12.0
290
     0
  0
SCALE
  5
161
102
{ACAD_REACTORS
330
143
102
}
330
143
100
AcDbScale
 70
     0
300
1-1/2" = 1'-0"
140
1.5
141
12.0
290
     0
  0
SCALE
  5
162
102
{ACAD_REACTORS
330
143
102
}
330
143
100
AcDbScale
 70
     0
300
3" = 1'-0"
140
3.0
141
12.0
290
     0
  0
SCALE
  5
163
102
{ACAD_REACTORS
330
143
102
}
330
143
100
AcDbScale
 70
     0
300
6" = 1'-0"
140
6.0
141
12.0
290
     0
  0
SCALE
  5
164
102
{ACAD_REACTORS
330
143
102
}
330
143
100
AcDbScale
 70
     0
300
1'-0" = 1'-0"
140
12.0
141
12.0
290
     0
  0
TABLESTYLE
  5
133
102
{ACAD_XDICTIONARY
360
1A0
102
}
102
{ACAD_REACTORS
330
132
102
}
330
132
100
AcDbTableStyle
  3
Standard
 70
     0
 71
     0
 40
0.06
 41
0.06
280
     0
281
     0
  7
Standard
140
0.18
170
     2
 62
     0
 63
     7
283
     0
274
    -2
284
     1
 64
     0
275
    -2
285
     1
 65
     0
276
    -2
286
     1
 66
     0
277
    -2
287
     1
 67
     0
278
    -2
288
     1
 68
     0
279
    -2
289
     1
 69
     0
  7
Standard
140
0.25
170
     5
 62
     0
 63
     7
283
     0
274
    -2
284
     1
 64
     0
275
    -2
285
     1
 65
     0
276
    -2
286
     1
 66
     0
277
    -2
287
     1
 67
     0
278
    -2
288
     1
 68
     0
279
    -2
289
     1
 69
     0
  7
Standard
140
0.18
170
     5
 62
     0
 63
     7
283
     0
274
    -2
284
     1
 64
     0
275
    -2
285
     1
 65
     0
276
    -2
286
     1
 66
     0
277
    -2
287
     1
 67
     0
278
    -2
288
     1
 68
     0
279
    -2
289
     1
 69
     0
  0
VISUALSTYLE
  5
126
102
{ACAD_REACTORS
330
120
102
}
330
120
100
AcDbVisualStyle
  2
2dWireframe
 70
     4
 71
     0
 72
     2
 73
     0
 90
        0
 40
-0.6
 41
-30.0
 62
     5
 63
     7
421
 16777215
 74
     1
 91
        4
 64
     7
 65
   257
 75
     1
175
     1
 42
1.0
 92
        0
 66
   257
 43
1.0
 76
     1
 77
     6
 78
     2
 67
     7
 79
     5
170
     0
171
     0
290
     0
174
     0
 93
        1
 44
0.0
173
     0
291
     0
 45
0.0
1001
ACAD
1000
AcDbSavedByObjectVersion
1070
     0
  0
VISUALSTYLE
  5
128
102
{ACAD_REACTORS
330
120
102
}
330
120
100
AcDbVisualStyle
  2
3D Hidden
 70
     6
 71
     1
 72
     2
 73
     2
 90
        0
 40
-0.6
 41
-30.0
 62
     5
 63
     7
421
 16777215
 74
     2
 91
        2
 64
     7
 65
   257
 75
     2
175
     1
 42
40.0
 92
        0
 66
   257
 43
1.0
 76
     1
 77
     6
 78
     2
 67
     7
 79
     3
170
     0
171
     0
290
     0
174
     0
 93
        1
 44
0.0
173
     0
291
     0
 45
0.0
1001
ACAD
1000
AcDbSavedByObjectVersion
1070
     0
  0
VISUALSTYLE
  5
127
102
{ACAD_REACTORS
330
120
102
}
330
120
100
AcDbVisualStyle
  2
3dWireframe
 70
     5
 71
     0
 72
     2
 73
     0
 90
        0
 40
-0.6
 41
-30.0
 62
     5
 63
     7
421
 16777215
 74
     1
 91
        4
 64
     7
 65
   257
 75
     1
175
     1
 42
1.0
 92
        0
 66
   257
 43
1.0
 76
     1
 77
     6
 78
     2
 67
     7
 79
     5
170
     0
171
     0
290
     0
174
     0
 93
        1
 44
0.0
173
     0
291
     0
 45
0.0
1001
ACAD
1000
AcDbSavedByObjectVersion
1070
     0
  0
VISUALSTYLE
  5
125
102
{ACAD_REACTORS
330
120
102
}
330
120
100
AcDbVisualStyle
  2
Basic
 70
     7
 71
     1
 72
     0
 73
     1
 90
        0
 40
-0.6
 41
-30.0
 62
     5
 63
     7
421
 16777215
 74
     0
 91
        4
 64
     7
 65
   257
 75
     1
175
     1
 42
1.0
 92
        8
 66
     7
 43
1.0
 76
     1
 77
     6
 78
     2
 67
     7
 79
     5
170
     0
171
     0
290
     0
174
     0
 93
        1
 44
0.0
173
     0
291
     1
 45
0.0
1001
ACAD
1000
AcDbSavedByObjectVersion
1070
     0
  0
VISUALSTYLE
  5
12C
102
{ACAD_REACTORS
330
120
102
}
330
120
100
AcDbVisualStyle
  2
Brighten
 70
    12
 71
     2
 72
     2
 73
     0
 90
        0
 40
-0.6
 41
-30.0
 62
     5
 63
     7
421
 16777215
 74
     1
 91
        4
 64
     7
 65
   257
 75
     1
175
     1
 42
1.0
 92
        8
 66
     7
 43
1.0
 76
     1
 77
     6
 78
     2
 67
     7
 79
     5
170
     0
171
     0
290
     0
174
     0
 93
        1
 44
50.0
173
     0
291
     1
 45
0.0
1001
ACAD
1000
AcDbSavedByObjectVersion
1070
     0
  0
VISUALSTYLE
  5
130
102
{ACAD_REACTORS
330
120
102
}
330
120
100
AcDbVisualStyle
  2
ColorChange
 70
    16
 71
     2
 72
     2
 73
     3
 90
        0
 40
-0.6
 41
-30.0
 62
     5
 63
     8
421
  8421504
 74
     1
 91
        4
 64
     7
 65
   257
 75
     1
175
     1
 42
1.0
 92
        8
 66
     8
424
  8421504
 43
1.0
 76
     1
 77
     6
 78
     2
 67
     7
 79
     5
170
     0
171
     0
290
     0
174
     0
 93
        1
 44
0.0
173
     0
291
     1
 45
0.0
1001
ACAD
1000
AcDbSavedByObjectVersion
1070
     0
  0
VISUALSTYLE
  5
129
102
{ACAD_REACTORS
330
120
102
}
330
120
100
AcDbVisualStyle
  2
Conceptual
 70
     9
 71
     3
 72
     2
 73
     0
 90
        0
 40
-0.6
 41
-30.0
 62
     5
 63
     7
421
 16777215
 74
     2
 91
        2
 64
     7
 65
   257
 75
     1
175
     1
 42
40.0
 92
        8
 66
     7
 43
1.0
 76
     1
 77
     6
 78
     2
 67
     7
 79
     3
170
     0
171
     0
290
     0
174
     0
 93
        1
 44
0.0
173
     0
291
     0
 45
0.0
1001
ACAD
1000
AcDbSavedByObjectVersion
1070
     0
  0
VISUALSTYLE
  5
12B
102
{ACAD_REACTORS
330
120
102
}
330
120
100
AcDbVisualStyle
  2
Dim
 70
    11
 71
     2
 72
     2
 73
     0
 90
        0
 40
-0.6
 41
-30.0
 62
     5
 63
     7
421
 16777215
 74
     1
 91
        4
 64
     7
 65
   257
 75
     1
175
     1
 42
1.0
 92
        8
 66
     7
 43
1.0
 76
     1
 77
     6
 78
     2
 67
     7
 79
     5
170
     0
171
     0
290
     0
174
     0
 93
        1
 44
-50.0
173
     0
291
     1
 45
0.0
1001
ACAD
1000
AcDbSavedByObjectVersion
1070
     0
  0
VISUALSTYLE
  5
12F
102
{ACAD_REACTORS
330
120
102
}
330
120
100
AcDbVisualStyle
  2
Facepattern
 70
    15
 71
     2
 72
     2
 73
     0
 90
        0
 40
-0.6
 41
-30.0
 62
     5
 63
     7
421
 16777215
 74
     1
 91
        4
 64
     7
 65
   257
 75
     1
175
     1
 42
1.0
 92
        8
 66
     7
 43
1.0
 76
     1
 77
     6
 78
     2
 67
     7
 79
     5
170
     0
171
     0
290
     0
174
     0
 93
        1
 44
0.0
173
     0
291
     1
 45
0.0
1001
ACAD
1000
AcDbSavedByObjectVersion
1070
     0
  0
VISUALSTYLE
  5
121
102
{ACAD_REACTORS
330
120
102
}
330
120
100
AcDbVisualStyle
  2
Flat
 70
     0
 71
     2
 72
     1
 73
     1
 90
        2
 40
-0.6
 41
30.0
 62
     5
 63
     7
421
 16777215
 74
     0
 91
        4
 64
     7
 65
   257
 75
     1
175
     1
 42
1.0
 92
        8
 66
     7
 43
1.0
 76
     1
 77
     6
 78
     2
 67
     7
 79
     5
170
     0
171
     0
290
     0
174
     0
 93
       13
 44
0.0
173
     0
291
     1
 45
0.0
1001
ACAD
1000
AcDbSavedByObjectVersion
1070
     0
  0
VISUALSTYLE
  5
122
102
{ACAD_REACTORS
330
120
102
}
330
120
100
AcDbVisualStyle
  2
FlatWithEdges
 70
     1
 71
     2
 72
     1
 73
     1
 90
        2
 40
-0.6
 41
30.0
 62
     5
 63
     7
421
 16777215
 74
     1
 91
        4
 64
     7
 65
   257
 75
     1
175
     1
 42
1.0
 92
        0
 66
   257
 43
1.0
 76
     1
 77
     6
 78
     2
 67
     7
 79
     5
170
     0
171
     0
290
     0
174
     0
 93
       13
 44
0.0
173
     0
291
     1
 45
0.0
1001
ACAD
1000
AcDbSavedByObjectVersion
1070
     0
  0
VISUALSTYLE
  5
123
102
{ACAD_REACTORS
330
120
102
}
330
120
100
AcDbVisualStyle
  2
Gouraud
 70
     2
 71
     2
 72
     2
 73
     1
 90
        2
 40
-0.6
 41
30.0
 62
     5
 63
     7
421
 16777215
 74
     0
 91
        4
 64
     7
 65
   257
 75
     1
175
     1
 42
1.0
 92
        0
 66
     7
 43
1.0
 76
     1
 77
     6
 78
     2
 67
     7
 79
     5
170
     0
171
     0
290
     0
174
     0
 93
       13
 44
0.0
173
     0
291
     1
 45
0.0
1001
ACAD
1000
AcDbSavedByObjectVersion
1070
     0
  0
VISUALSTYLE
  5
124
102
{ACAD_REACTORS
330
120
102
}
330
120
100
AcDbVisualStyle
  2
GouraudWithEdges
 70
     3
 71
     2
 72
     2
 73
     1
 90
        2
 40
-0.6
 41
30.0
 62
     5
 63
     7
421
 16777215
 74
     1
 91
        4
 64
     7
 65
   257
 75
     1
175
     1
 42
1.0
 92
        0
 66
   257
 43
1.0
 76
     1
 77
     6
 78
     2
 67
     7
 79
     5
170
     0
171
     0
290
     0
174
     0
 93
       13
 44
0.0
173
     0
291
     1
 45
0.0
1001
ACAD
1000
AcDbSavedByObjectVersion
1070
     0
  0
VISUALSTYLE
  5
12E
102
{ACAD_REACTORS
330
120
102
}
330
120
100
AcDbVisualStyle
  2
Linepattern
 70
    14
 71
     2
 72
     2
 73
     0
 90
        0
 40
-0.6
 41
-30.0
 62
     5
 63
     7
421
 16777215
 74
     1
 91
        4
 64
     7
 65
   257
 75
     7
175
     7
 42
1.0
 92
        8
 66
     7
 43
1.0
 76
     1
 77
     6
 78
     2
 67
     7
 79
     5
170
     0
171
     0
290
     0
174
     0
 93
        1
 44
0.0
173
     0
291
     1
 45
0.0
1001
ACAD
1000
AcDbSavedByObjectVersion
1070
     0
  0
VISUALSTYLE
  5
12A
102
{ACAD_REACTORS
330
120
102
}
330
120
100
AcDbVisualStyle
  2
Realistic
 70
     8
 71
     2
 72
     2
 73
     0
 90
        0
 40
-0.6
 41
-30.0
 62
     5
 63
     7
421
 16777215
 74
     1
 91
        0
 64
     7
 65
   257
 75
     1
175
     1
 42
1.0
 92
        8
 66
     8
424
  7895160
 43
1.0
 76
     1
 77
     6
 78
     2
 67
     7
 79
     5
170
     0
171
     0
290
     0
174
     0
 93
       13
 44
0.0
173
     0
291
     0
 45
0.0
1001
ACAD
1000
AcDbSavedByObjectVersion
1070
     0
  0
VISUALSTYLE
  5
12D
102
{ACAD_REACTORS
330
120
102
}
330
120
100
AcDbVisualStyle
  2
Thicken
 70
    13
 71
     2
 72
     2
 73
     0
 90
        0
 40
-0.6
 41
-30.0
 62
     5
 63
     7
421
 16777215
 74
     1
 91
        4
 64
     7
 65
   257
 75
     1
175
     1
 42
1.0
 92
       12
 66
     7
 43
1.0
 76
     1
 77
     6
 78
     2
 67
     7
 79
     5
170
     0
171
     0
290
     0
174
     0
 93
        1
 44
0.0
173
     0
291
     1
 45
0.0
1001
ACAD
1000
AcDbSavedByObjectVersion
1070
     0
  0
DICTIONARYVAR
  5
19F
102
{ACAD_REACTORS
330
140
102
}
330
140
100
DictionaryVariables
280
     0
  1
1:1
  0
DICTIONARYVAR
  5
19E
102
{ACAD_REACTORS
330
140
102
}
330
140
100
DictionaryVariables
280
     0
  1
STANDARD
  0
DICTIONARYVAR
  5
141
102
{ACAD_REACTORS
330
140
102
}
330
140
100
DictionaryVariables
280
     0
  1
STANDARD
  0
XRECORD
  5
13F
102
{ACAD_REACTORS
330
13D
102
}
330
13D
100
AcDbXrecord
280
     1
  0
DICTIONARY
  5
1A5
330
11E
100
AcDbDictionary
280
     1
281
     1
  3
ACAD_XREC_ROUNDTRIP
360
1A6
  0
DICTIONARY
  5
1A3
330
11D
100
AcDbDictionary
280
     1
281
     1
  3
ACAD_XREC_ROUNDTRIP
360
1A4
  0
DICTIONARY
  5
1A7
330
11F
100
AcDbDictionary
280
     1
281
     1
  3
ACAD_XREC_ROUNDTRIP
360
1A8
  0
DICTIONARY
  5
1A0
330
133
100
AcDbDictionary
280
     1
281
     1
  3
ACAD_ROUNDTRIP_2008_TABLESTYLE_CELLSTYLEMAP
360
1A1
  3
ACAD_XREC_ROUNDTRIP
360
1A9
  0
XRECORD
  5
1A6
102
{ACAD_REACTORS
330
1A5
102
}
330
1A5
100
AcDbXrecord
280
     1
102
MATERIAL
148
0.0
149
0.0
149
0.0
 93
        0
 94
       63
282
     0
 72
     1
 77
     1
171
     1
175
     1
179
     1
273
     0
  0
XRECORD
  5
1A4
102
{ACAD_REACTORS
330
1A3
102
}
330
1A3
100
AcDbXrecord
280
     1
102
MATERIAL
148
0.0
149
0.0
149
0.0
 93
        0
 94
       63
282
     0
 72
     1
 77
     1
171
     1
175
     1
179
     1
273
     0
  0
XRECORD
  5
1A8
102
{ACAD_REACTORS
330
1A7
102
}
330
1A7
100
AcDbXrecord
280
     1
102
MATERIAL
148
0.0
149
0.0
149
0.0
 93
        0
 94
       63
282
     0
 72
     1
 77
     1
171
     1
175
     1
179
     1
273
     0
  0
CELLSTYLEMAP
  5
1A1
102
{ACAD_REACTORS
330
1A0
102
}
330
1A0
100
AcDbCellStyleMap
 90
        3
300
CELLSTYLE
  1
TABLEFORMAT_BEGIN
 90
        5
170
     1
 91
        0
 92
    32768
 62
   257
 93
        1
300
CONTENTFORMAT
  1
CONTENTFORMAT_BEGIN
 90
        0
 91
        0
 92
      512
 93
        0
300

 40
0.0
140
1.0
 94
        5
 62
     0
340
17
144
0.25
309
CONTENTFORMAT_END
171
     0
 94
        6
 95
        1
302
GRIDFORMAT
  1
GRIDFORMAT_BEGIN
 90
        0
 91
        1
 62
     0
 92
       -2
340
0
 93
        0
 40
0.045
309
GRIDFORMAT_END
 95
        2
302
GRIDFORMAT
  1
GRIDFORMAT_BEGIN
 90
        0
 91
        1
 62
     0
 92
       -2
340
0
 93
        0
 40
0.045
309
GRIDFORMAT_END
 95
        4
302
GRIDFORMAT
  1
GRIDFORMAT_BEGIN
 90
        0
 91
        1
 62
     0
 92
       -2
340
0
 93
        0
 40
0.045
309
GRIDFORMAT_END
 95
        8
302
GRIDFORMAT
  1
GRIDFORMAT_BEGIN
 90
        0
 91
        1
 62
     0
 92
       -2
340
0
 93
        0
 40
0.045
309
GRIDFORMAT_END
 95
       16
302
GRIDFORMAT
  1
GRIDFORMAT_BEGIN
 90
        0
 91
        1
 62
     0
 92
       -2
340
0
 93
        0
 40
0.045
309
GRIDFORMAT_END
 95
       32
302
GRIDFORMAT
  1
GRIDFORMAT_BEGIN
 90
        0
 91
        1
 62
     0
 92
       -2
340
0
 93
        0
 40
0.045
309
GRIDFORMAT_END
309
TABLEFORMAT_END
  1
CELLSTYLE_BEGIN
 90
        1
 91
        1
300
_TITLE
309
CELLSTYLE_END
300
CELLSTYLE
  1
TABLEFORMAT_BEGIN
 90
        5
170
     1
 91
        0
 92
        0
 62
   257
 93
        1
300
CONTENTFORMAT
  1
CONTENTFORMAT_BEGIN
 90
        0
 91
        0
 92
      512
 93
        0
300

 40
0.0
140
1.0
 94
        5
 62
     0
340
17
144
0.18
309
CONTENTFORMAT_END
171
     0
 94
        6
 95
        1
302
GRIDFORMAT
  1
GRIDFORMAT_BEGIN
 90
        0
 91
        1
 62
     0
 92
       -2
340
0
 93
        0
 40
0.045
309
GRIDFORMAT_END
 95
        2
302
GRIDFORMAT
  1
GRIDFORMAT_BEGIN
 90
        0
 91
        1
 62
     0
 92
       -2
340
0
 93
        0
 40
0.045
309
GRIDFORMAT_END
 95
        4
302
GRIDFORMAT
  1
GRIDFORMAT_BEGIN
 90
        0
 91
        1
 62
     0
 92
       -2
340
0
 93
        0
 40
0.045
309
GRIDFORMAT_END
 95
        8
302
GRIDFORMAT
  1
GRIDFORMAT_BEGIN
 90
        0
 91
        1
 62
     0
 92
       -2
340
0
 93
        0
 40
0.045
309
GRIDFORMAT_END
 95
       16
302
GRIDFORMAT
  1
GRIDFORMAT_BEGIN
 90
        0
 91
        1
 62
     0
 92
       -2
340
0
 93
        0
 40
0.045
309
GRIDFORMAT_END
 95
       32
302
GRIDFORMAT
  1
GRIDFORMAT_BEGIN
 90
        0
 91
        1
 62
     0
 92
       -2
340
0
 93
        0
 40
0.045
309
GRIDFORMAT_END
309
TABLEFORMAT_END
  1
CELLSTYLE_BEGIN
 90
        2
 91
        1
300
_HEADER
309
CELLSTYLE_END
300
CELLSTYLE
  1
TABLEFORMAT_BEGIN
 90
        5
170
     1
 91
        0
 92
        0
 62
   257
 93
        1
300
CONTENTFORMAT
  1
CONTENTFORMAT_BEGIN
 90
        0
 91
        0
 92
      512
 93
        0
300

 40
0.0
140
1.0
 94
        2
 62
     0
340
17
144
0.18
309
CONTENTFORMAT_END
171
     0
 94
        6
 95
        1
302
GRIDFORMAT
  1
GRIDFORMAT_BEGIN
 90
        0
 91
        1
 62
     0
 92
       -2
340
0
 93
        0
 40
0.045
309
GRIDFORMAT_END
 95
        2
302
GRIDFORMAT
  1
GRIDFORMAT_BEGIN
 90
        0
 91
        1
 62
     0
 92
       -2
340
0
 93
        0
 40
0.045
309
GRIDFORMAT_END
 95
        4
302
GRIDFORMAT
  1
GRIDFORMAT_BEGIN
 90
        0
 91
        1
 62
     0
 92
       -2
340
0
 93
        0
 40
0.045
309
GRIDFORMAT_END
 95
        8
302
GRIDFORMAT
  1
GRIDFORMAT_BEGIN
 90
        0
 91
        1
 62
     0
 92
       -2
340
0
 93
        0
 40
0.045
309
GRIDFORMAT_END
 95
       16
302
GRIDFORMAT
  1
GRIDFORMAT_BEGIN
 90
        0
 91
        1
 62
     0
 92
       -2
340
0
 93
        0
 40
0.045
309
GRIDFORMAT_END
 95
       32
302
GRIDFORMAT
  1
GRIDFORMAT_BEGIN
 90
        0
 91
        1
 62
     0
 92
       -2
340
0
 93
        0
 40
0.045
309
GRIDFORMAT_END
309
TABLEFORMAT_END
  1
CELLSTYLE_BEGIN
 90
        3
 91
        2
300
_DATA
309
CELLSTYLE_END
  0
XRECORD
  5
1A9
102
{ACAD_REACTORS
330
1A0
102
}
330
1A0
100
AcDbXrecord
280
     1
102
ACAD_ROUNDTRIP_PRE2007_TABLESTYLE
 90
      512
 91
        0
  1

 92
      512
 93
        0
  2

 94
      512
 95
        0
  3

  0
ENDSEC
  0
EOF
