  0
SECTION
  2
HEADER
  9
$ACADVER
  1
AC1018
  9
$ACADMAINTVER
 70
   104
  9
$DWGCODEPAGE
  3
ANSI_1252
  9
$LASTSAVEDBY
  1
EARL
  9
$INSBASE
 10
0.0
 20
0.0
 30
0.0
  9
$EXTMIN
 10
-3.687825743189183
 20
-0.3594764778306686
 30
0.0
  9
$EXTMAX
 10
1.062856582208732
 20
4.38139533996582
 30
0.0
  9
$LIMMIN
 10
0.0
 20
0.0
  9
$LIMMAX
 10
0.0
 20
0.0
  9
$ORTHOMODE
 70
     0
  9
$REGENMODE
 70
     1
  9
$FILLMODE
 70
     1
  9
$QTEXTMODE
 70
     0
  9
$MIRRTEXT
 70
     1
  9
$LTSCALE
 40
1.0
  9
$ATTMODE
 70
     1
  9
$TEXTSIZE
 40
0.0
  9
$TRACEWID
 40
0.05
  9
$TEXTSTYLE
  7
Standard
  9
$CLAYER
  8
0
  9
$CELTYPE
  6
Continuous
  9
$CECOLOR
 62
   256
  9
$CELTSCALE
 40
1.0
  9
$DISPSILH
 70
     0
  9
$DIMSCALE
 40
1.0
  9
$DIMASZ
 40
0.18
  9
$DIMEXO
 40
0.0625
  9
$DIMDLI
 40
0.38
  9
$DIMRND
 40
0.0
  9
$DIMDLE
 40
0.0
  9
$DIMEXE
 40
0.18
  9
$DIMTP
 40
0.0
  9
$DIMTM
 40
0.0
  9
$DIMTXT
 40
0.18
  9
$DIMCEN
 40
0.09
  9
$DIMTSZ
 40
0.0
  9
$DIMTOL
 70
     0
  9
$DIMLIM
 70
     0
  9
$DIMTIH
 70
     1
  9
$DIMTOH
 70
     1
  9
$DIMSE1
 70
     0
  9
$DIMSE2
 70
     0
  9
$DIMTAD
 70
     0
  9
$DIMZIN
 70
     0
  9
$DIMBLK
  1

  9
$DIMASO
 70
     1
  9
$DIMSHO
 70
     1
  9
$DIMPOST
  1

  9
$DIMAPOST
  1

  9
$DIMALT
 70
     0
  9
$DIMALTD
 70
     2
  9
$DIMALTF
 40
25.4
  9
$DIMLFAC
 40
1.0
  9
$DIMTOFL
 70
     0
  9
$DIMTVP
 40
0.0
  9
$DIMTIX
 70
     0
  9
$DIMSOXD
 70
     0
  9
$DIMSAH
 70
     0
  9
$DIMBLK1
  1

  9
$DIMBLK2
  1

  9
$DIMSTYLE
  2
Standard
  9
$DIMCLRD
 70
     0
  9
$DIMCLRE
 70
     0
  9
$DIMCLRT
 70
     0
  9
$DIMTFAC
 40
1.0
  9
$DIMGAP
 40
0.09
  9
$DIMJUST
 70
     0
  9
$DIMSD1
 70
     0
  9
$DIMSD2
 70
     0
  9
$DIMTOLJ
 70
     1
  9
$DIMTZIN
 70
     0
  9
$DIMALTZ
 70
     0
  9
$DIMALTTZ
 70
     0
  9
$DIMUPT
 70
     0
  9
$DIMDEC
 70
     4
  9
$DIMTDEC
 70
     4
  9
$DIMALTU
 70
     2
  9
$DIMALTTD
 70
     2
  9
$DIMTXSTY
  7
Standard
  9
$DIMAUNIT
 70
     0
  9
$DIMADEC
 70
     0
  9
$DIMALTRND
 40
0.0
  9
$DIMAZIN
 70
     0
  9
$DIMDSEP
 70
    46
  9
$DIMATFIT
 70
     0
  9
$DIMFRAC
 70
     0
  9
$DIMLDRBLK
  1

  9
$DIMLUNIT
 70
     2
  9
$DIMLWD
 70
    -2
  9
$DIMLWE
 70
    -2
  9
$DIMTMOVE
 70
     0
  9
$LUNITS
 70
     2
  9
$LUPREC
 70
     4
  9
$SKETCHINC
 40
0.1
  9
$FILLETRAD
 40
0.0
  9
$AUNITS
 70
     0
  9
$AUPREC
 70
     0
  9
$MENU
  1
acad
  9
$ELEVATION
 40
0.0
  9
$PELEVATION
 40
0.0
  9
$THICKNESS
 40
0.0
  9
$LIMCHECK
 70
     0
  9
$CHAMFERA
 40
0.0
  9
$CHAMFERB
 40
0.0
  9
$CHAMFERC
 40
0.0
  9
$CHAMFERD
 40
0.0
  9
$SKPOLY
 70
     0
  9
$TDCREATE
 40
2454842.746111111
  9
$TDUCREATE
 40
2454842.912777778
  9
$TDUPDATE
 40
2455104.877574143
  9
$TDUUPDATE
 40
2455105.044240810
  9
$TDINDWG
 40
0.0010264236
  9
$TDUSRTIMER
 40
0.0010264236
  9
$USRTIMER
 70
     1
  9
$ANGBASE
 50
0.0
  9
$ANGDIR
 70
     0
  9
$PDMODE
 70
     0
  9
$PDSIZE
 40
0.0
  9
$PLINEWID
 40
0.0
  9
$SPLFRAME
 70
     0
  9
$SPLINETYPE
 70
     6
  9
$SPLINESEGS
 70
     8
  9
$HANDSEED
  5
19E
  9
$SURFTAB1
 70
     6
  9
$SURFTAB2
 70
     6
  9
$SURFTYPE
 70
     6
  9
$SURFU
 70
     6
  9
$SURFV
 70
     6
  9
$UCSBASE
  2

  9
$UCSNAME
  2

  9
$UCSORG
 10
0.0
 20
0.0
 30
0.0
  9
$UCSXDIR
 10
1.0
 20
0.0
 30
0.0
  9
$UCSYDIR
 10
0.0
 20
1.0
 30
0.0
  9
$UCSORTHOREF
  2

  9
$UCSORTHOVIEW
 70
     0
  9
$UCSORGTOP
 10
0.0
 20
0.0
 30
0.0
  9
$UCSORGBOTTOM
 10
0.0
 20
0.0
 30
0.0
  9
$UCSORGLEFT
 10
0.0
 20
0.0
 30
0.0
  9
$UCSORGRIGHT
 10
0.0
 20
0.0
 30
0.0
  9
$UCSORGFRONT
 10
0.0
 20
0.0
 30
0.0
  9
$UCSORGBACK
 10
0.0
 20
0.0
 30
0.0
  9
$PUCSBASE
  2

  9
$PUCSNAME
  2

  9
$PUCSORG
 10
0.0
 20
0.0
 30
0.0
  9
$PUCSXDIR
 10
1.0
 20
0.0
 30
0.0
  9
$PUCSYDIR
 10
0.0
 20
1.0
 30
0.0
  9
$PUCSORTHOREF
  2

  9
$PUCSORTHOVIEW
 70
     0
  9
$PUCSORGTOP
 10
0.0
 20
0.0
 30
0.0
  9
$PUCSORGBOTTOM
 10
0.0
 20
0.0
 30
0.0
  9
$PUCSORGLEFT
 10
0.0
 20
0.0
 30
0.0
  9
$PUCSORGRIGHT
 10
0.0
 20
0.0
 30
0.0
  9
$PUCSORGFRONT
 10
0.0
 20
0.0
 30
0.0
  9
$PUCSORGBACK
 10
0.0
 20
0.0
 30
0.0
  9
$USERI1
 70
     0
  9
$USERI2
 70
     0
  9
$USERI3
 70
     0
  9
$USERI4
 70
     0
  9
$USERI5
 70
     0
  9
$USERR1
 40
0.0
  9
$USERR2
 40
0.0
  9
$USERR3
 40
0.0
  9
$USERR4
 40
0.0
  9
$USERR5
 40
0.0
  9
$WORLDVIEW
 70
     1
  9
$SHADEDGE
 70
     3
  9
$SHADEDIF
 70
    70
  9
$TILEMODE
 70
     0
  9
$MAXACTVP
 70
    16
  9
$PINSBASE
 10
0.0
 20
0.0
 30
0.0
  9
$PLIMCHECK
 70
     0
  9
$PEXTMIN
 10
-0.1437983215330725
 20
-0.078529332350616
 30
-0.0015258207003583
  9
$PEXTMAX
 10
10.42970303390548
 20
7.980361735696885
 30
0.0000000349246037
  9
$PLIMMIN
 10
-0.3306119115190196
 20
-0.2812499079328949
  9
$PLIMMAX
 10
10.66938784818509
 20
8.218749851771214
  9
$UNITMODE
 70
     0
  9
$VISRETAIN
 70
     0
  9
$PLINEGEN
 70
     1
  9
$PSLTSCALE
 70
     0
  9
$TREEDEPTH
 70
  3020
  9
$CMLSTYLE
  2
Standard
  9
$CMLJUST
 70
     0
  9
$CMLSCALE
 40
1.0
  9
$PROXYGRAPHICS
 70
     0
  9
$MEASUREMENT
 70
     0
  9
$CELWEIGHT
370
     0
  9
$ENDCAPS
280
     0
  9
$JOINSTYLE
280
     0
  9
$LWDISPLAY
290
     0
  9
$INSUNITS
 70
     0
  9
$HYPERLINKBASE
  1

  9
$STYLESHEET
  1

  9
$XEDIT
290
     1
  9
$CEPSNTYPE
380
     0
  9
$PSTYLEMODE
290
     1
  9
$FINGERPRINTGUID
  2

  9
$VERSIONGUID
  2
{C30691E0-4E8E-4578-8B78-02901539132A}
  9
$EXTNAMES
290
     1
  9
$PSVPSCALE
 40
0.0
  9
$OLESTARTUP
290
     0
  9
$SORTENTS
280
   127
  9
$INDEXCTL
280
     0
  9
$HIDETEXT
280
     0
  9
$XCLIPFRAME
290
     0
  9
$HALOGAP
280
     0
  9
$OBSCOLOR
 70
   257
  9
$OBSLTYPE
280
     0
  9
$INTERSECTIONDISPLAY
280
     0
  9
$INTERSECTIONCOLOR
 70
   257
  9
$DIMASSOC
280
     1
  9
$PROJECTNAME
  1

  0
ENDSEC
  0
SECTION
  2
CLASSES
  0
CLASS
  1
IMAGE
  2
AcDbRasterImage
  3
ISM
 90
     2175
 91
        0
280
     0
281
     1
  0
CLASS
  1
DICTIONARYVAR
  2
AcDbDictionaryVar
  3
ObjectDBX Classes
 90
        0
 91
        5
280
     0
281
     0
  0
CLASS
  1
RASTERVARIABLES
  2
AcDbRasterVariables
  3
ISM
 90
        0
 91
        0
280
     0
281
     0
  0
CLASS
  1
IMAGEDEF
  2
AcDbRasterImageDef
  3
ISM
 90
        0
 91
        0
280
     0
281
     0
  0
CLASS
  1
IMAGEDEF_REACTOR
  2
AcDbRasterImageDefReactor
  3
ISM
 90
        1
 91
        0
280
     0
281
     0
  0
CLASS
  1
IDBUFFER
  2
AcDbIdBuffer
  3
ObjectDBX Classes
 90
        0
 91
        0
280
     0
281
     0
  0
CLASS
  1
SPATIAL_FILTER
  2
AcDbSpatialFilter
  3
ObjectDBX Classes
 90
        0
 91
        0
280
     0
281
     0
  0
CLASS
  1
SORTENTSTABLE
  2
AcDbSortentsTable
  3
ObjectDBX Classes
 90
        0
 91
        1
280
     0
281
     0
  0
CLASS
  1
LAYER_INDEX
  2
AcDbLayerIndex
  3
ObjectDBX Classes
 90
        0
 91
        0
280
     0
281
     0
  0
CLASS
  1
SPATIAL_INDEX
  2
AcDbSpatialIndex
  3
ObjectDBX Classes
 90
        0
 91
        0
280
     0
281
     0
  0
CLASS
  1
OBJECT_PTR
  2
CAseDLPNTableRecord
  3
ASE-LPNTableRecord
 90
        1
 91
        0
280
     0
281
     0
  0
CLASS
  1
PLOTSETTINGS
  2
AcDbPlotSettings
  3
ObjectDBX Classes
 90
        0
 91
        0
280
     0
281
     0
  0
CLASS
  1
ACDBDICTIONARYWDFLT
  2
AcDbDictionaryWithDefault
  3
ObjectDBX Classes
 90
        0
 91
        1
280
     0
281
     0
  0
CLASS
  1
WIPEOUT
  2
AcDbWipeout
  3
"WipeOut|Product Desc: Object Enabler for WipeOut entity                        |Company: Autodesk, Inc.                        |WEB Address: www.autodesk.com"
 90
     2175
 91
        0
280
     0
281
     1
  0
CLASS
  1
WIPEOUTVARIABLES
  2
AcDbWipeoutVariables
  3
"WipeOut|Product Desc:     WipeOut Dbx Application|Company:          Autodesk, Inc.|WEB Address:      www.autodesk.com"
 90
        0
 91
        1
280
     0
281
     0
  0
CLASS
  1
RTEXT
  2
RText
  3
RText|AutoCAD Express Tool|expresstools@autodesk.com
 90
     3071
 91
        0
280
     0
281
     1
  0
CLASS
  1
ARCALIGNEDTEXT
  2
AcDbArcAlignedText
  3
ATEXT|AutoCAD Express Tool|expresstools@autodesk.com
 90
        0
 91
        0
280
     0
281
     1
  0
CLASS
  1
MATERIAL
  2
AcDbMaterial
  3
ObjectDBX Classes
 90
     1153
 91
        3
280
     0
281
     0
  0
CLASS
  1
VISUALSTYLE
  2
AcDbVisualStyle
  3
ObjectDBX Classes
 90
     4095
 91
       16
280
     0
281
     0
  0
CLASS
  1
TABLESTYLE
  2
AcDbTableStyle
  3
ObjectDBX Classes
 90
     4095
 91
        1
280
     0
281
     0
  0
CLASS
  1
SCALE
  2
AcDbScale
  3
ObjectDBX Classes
 90
     1153
 91
       33
280
     0
281
     0
  0
CLASS
  1
MLEADERSTYLE
  2
AcDbMLeaderStyle
  3
ACDB_MLEADERSTYLE_CLASS
 90
     4095
 91
        1
280
     0
281
     0
  0
CLASS
  1
CELLSTYLEMAP
  2
AcDbCellStyleMap
  3
ObjectDBX Classes
 90
     1152
 91
        2
280
     0
281
     0
  0
ENDSEC
  0
SECTION
  2
TABLES
  0
TABLE
  2
VPORT
  5
7
330
0
100
AcDbSymbolTable
 70
     1
  0
VPORT
  5
15
330
7
100
AcDbSymbolTableRecord
100
AcDbViewportTableRecord
  2
*ACTIVE
 70
     0
 10
0.0
 20
0.0
 11
1.0
 21
1.0
 12
13.89621157632295
 22
4.579183999999999
 13
0.0
 23
0.0
 14
1.0
 24
1.0
 15
0.0
 25
0.0
 16
0.0
 26
0.0
 36
1.0
 17
0.0
 27
0.0
 37
0.0
 40
9.158369
 41
2.283809523809523
 42
50.0
 43
0.0
 44
0.0
 50
0.0
 51
0.0
 71
     0
 72
   100
 73
     1
 74
     1
 75
     0
 76
     0
 77
     0
 78
     0
281
     0
 65
     0
110
0.0
120
0.0
130
0.0
111
1.0
121
0.0
131
0.0
112
0.0
122
1.0
132
0.0
 79
     0
146
0.0
  0
ENDTAB
  0
TABLE
  2
LTYPE
  5
4
330
0
100
AcDbSymbolTable
 70
     5
  0
LTYPE
  5
11
330
4
100
AcDbSymbolTableRecord
100
AcDbLinetypeTableRecord
  2
ByBlock
 70
     0
  3

 72
    65
 73
     0
 40
0.0
  0
LTYPE
  5
12
330
4
100
AcDbSymbolTableRecord
100
AcDbLinetypeTableRecord
  2
ByLayer
 70
     0
  3

 72
    65
 73
     0
 40
0.0
  0
LTYPE
  5
13
330
4
100
AcDbSymbolTableRecord
100
AcDbLinetypeTableRecord
  2
Continuous
 70
     0
  3
Solid line
 72
    65
 73
     0
 40
0.0
  0
LTYPE
  5
24
330
4
100
AcDbSymbolTableRecord
100
AcDbLinetypeTableRecord
  2
solid
 70
     0
  3

 72
    65
 73
     0
 40
0.0
  0
LTYPE
  5
25
330
4
100
AcDbSymbolTableRecord
100
AcDbLinetypeTableRecord
  2
dashed
 70
     0
  3

 72
    65
 73
     0
 40
0.0
  0
LTYPE
  5
26
330
4
100
AcDbSymbolTableRecord
100
AcDbLinetypeTableRecord
  2
center
 70
     0
  3

 72
    65
 73
     0
 40
0.0
  0
ENDTAB
  0
TABLE
  2
LAYER
  5
2
330
0
100
AcDbSymbolTable
 70
     3
  0
LAYER
  5
14
102
{ACAD_XDICTIONARY
360
163
102
}
330
2
100
AcDbSymbolTableRecord
100
AcDbLayerTableRecord
  2
0
 70
     0
 62
     7
  6
Continuous
370
    -3
390
1D
  0
LAYER
  5
27
102
{ACAD_XDICTIONARY
360
165
102
}
330
2
100
AcDbSymbolTableRecord
100
AcDbLayerTableRecord
  2
1
 70
     0
 62
     1
  6
solid
370
    -3
390
1D
  0
LAYER
  5
D4
102
{ACAD_XDICTIONARY
360
167
102
}
330
2
100
AcDbSymbolTableRecord
100
AcDbLayerTableRecord
  2
0
 70
     0
 62
     1
  6
solid
370
    -3
390
1D
  0
ENDTAB
  0
TABLE
  2
STYLE
  5
3
330
0
100
AcDbSymbolTable
 70
     2
  0
STYLE
  5
17
330
3
100
AcDbSymbolTableRecord
100
AcDbTextStyleTableRecord
  2
Standard
 70
     0
 40
0.0
 41
1.0
 50
0.0
 71
     0
 42
0.0
  3
txt
  4

  0
ENDTAB
  0
TABLE
  2
VIEW
  5
5
330
0
100
AcDbSymbolTable
 70
     0
  0
ENDTAB
  0
TABLE
  2
UCS
  5
6
330
0
100
AcDbSymbolTable
 70
     0
  0
ENDTAB
  0
TABLE
  2
APPID
  5
8
330
0
100
AcDbSymbolTable
 70
     4
  0
APPID
  5
16
330
8
100
AcDbSymbolTableRecord
100
AcDbRegAppTableRecord
  2
ACAD
 70
     0
  0
APPID
  5
12E
330
8
100
AcDbSymbolTableRecord
100
AcDbRegAppTableRecord
  2
ACAD_PSEXT
 70
     0
  0
APPID
  5
133
330
8
100
AcDbSymbolTableRecord
100
AcDbRegAppTableRecord
  2
DCO15
 70
     0
  0
APPID
  5
15C
330
8
100
AcDbSymbolTableRecord
100
AcDbRegAppTableRecord
  2
ACAD_MLEADERVER
 70
     0
  0
ENDTAB
  0
TABLE
  2
DIMSTYLE
  5
9
330
0
100
AcDbSymbolTable
 70
     3
100
AcDbDimStyleTable
 71
     1
340
18
  0
DIMSTYLE
105
18
102
{ACAD_REACTORS
330
64
102
}
330
9
100
AcDbSymbolTableRecord
100
AcDbDimStyleTableRecord
  2
Standard
 70
     0
289
     0
340
17
  0
ENDTAB
  0
TABLE
  2
BLOCK_RECORD
  5
1
330
0
100
AcDbSymbolTable
 70
     4
  0
BLOCK_RECORD
  5
A
102
{ACAD_XDICTIONARY
360
178
102
}
330
1
100
AcDbSymbolTableRecord
100
AcDbBlockTableRecord
  2
*MODEL_SPACE
340
20
  0
BLOCK_RECORD
  5
B
330
1
100
AcDbSymbolTableRecord
100
AcDbBlockTableRecord
  2
*PAPER_SPACE
340
21
  0
BLOCK_RECORD
  5
5A
330
1
100
AcDbSymbolTableRecord
100
AcDbBlockTableRecord
  2
*D0
340
0
  0
BLOCK_RECORD
  5
65
330
1
100
AcDbSymbolTableRecord
100
AcDbBlockTableRecord
  2
*D1
340
0
  0
ENDTAB
  0
ENDSEC
  0
SECTION
  2
BLOCKS
  0
BLOCK
  5
D
330
A
100
AcDbEntity
  8
0
100
AcDbBlockBegin
  2
*MODEL_SPACE
 70
     0
 10
0.0
 20
0.0
 30
0.0
  3
*MODEL_SPACE
  1

  0
ENDBLK
  5
E
330
A
100
AcDbEntity
  8
0
100
AcDbBlockEnd
  0
BLOCK
  5
F
330
B
100
AcDbEntity
 67
     1
  8
0
100
AcDbBlockBegin
  2
*PAPER_SPACE
 70
     0
 10
0.0
 20
0.0
 30
0.0
  3
*PAPER_SPACE
  1

  0
ENDBLK
  5
10
330
B
100
AcDbEntity
 67
     1
  8
0
100
AcDbBlockEnd
  0
BLOCK
  5
5B
330
5A
100
AcDbEntity
  8
1
  6
solid
 62
     7
100
AcDbBlockBegin
  2
*D0
 70
     0
 10
0.0
 20
0.0
 30
0.0
  3
*D0
  1

  0
LINE
  5
5C
330
5A
100
AcDbEntity
  8
1
  6
solid
 62
     7
100
AcDbLine
 10
-2.500325679779052
 20
0.0171167273074388
 30
0.0
 11
-1.303834149536276
 21
0.0171167273074379
 31
0.0
  0
LINE
  5
5D
330
5A
100
AcDbEntity
  8
1
  6
solid
 62
     7
100
AcDbLine
 10
-2.500325679779052
 20
4.142116546630859
 30
0.0
 11
-1.303834149536273
 21
4.142116546630858
 31
0.0
  0
LINE
  5
5E
330
5A
100
AcDbEntity
  8
1
  6
solid
 62
     7
100
AcDbLine
 10
-1.366334149536276
 20
0.017116727307438
 30
0.0
 11
-1.366334149536275
 21
1.919744040815302
 31
0.0
  0
LINE
  5
5F
330
5A
100
AcDbEntity
  8
1
  6
solid
 62
     7
100
AcDbLine
 10
-1.366334149536273
 20
4.142116546630858
 30
0.0
 11
-1.366334149536275
 21
2.239489233122994
 31
0.0
  0
MTEXT
  5
60
330
5A
100
AcDbEntity
  8
1
  6
solid
 62
     7
100
AcDbMText
 10
-1.366334149536275
 20
2.079616636969148
 30
0.0
 40
0.125
 41
0.0
 71
     5
 72
     1
  1
{\H0.125000;4 1/8}
 73
     1
 44
1.0
  0
SOLID
  5
61
330
5A
100
AcDbEntity
  8
1
  6
solid
 62
     7
100
AcDbTrace
 10
-1.378834149536276
 20
0.0421167273074381
 30
0.0
 11
-1.353834149536276
 21
0.0421167273074379
 31
0.0
 12
-1.366334149536276
 22
0.017116727307438
 32
0.0
 13
-1.366334149536276
 23
0.017116727307438
 33
0.0
  0
SOLID
  5
62
330
5A
100
AcDbEntity
  8
1
  6
solid
 62
     7
100
AcDbTrace
 10
-1.353834149536273
 20
4.117116546630858
 30
0.0
 11
-1.378834149536273
 21
4.117116546630858
 31
0.0
 12
-1.366334149536273
 22
4.142116546630858
 32
0.0
 13
-1.366334149536273
 23
4.142116546630858
 33
0.0
  0
ENDBLK
  5
63
330
5A
100
AcDbEntity
  8
1
  6
solid
 62
     7
100
AcDbBlockEnd
  0
BLOCK
  5
66
330
65
100
AcDbEntity
  8
1
  6
solid
 62
     7
100
AcDbBlockBegin
  2
*D1
 70
     0
 10
0.0
 20
0.0
 30
0.0
  3
*D1
  1

  0
LINE
  5
67
330
65
100
AcDbEntity
  8
1
  6
solid
 62
     7
100
AcDbLine
 10
-3.687825679779052
 20
-0.1078832726925611
 30
0.0
 11
-3.687825679779052
 21
-0.3594764778306686
 31
0.0
  0
LINE
  5
68
330
65
100
AcDbEntity
  8
1
  6
solid
 62
     7
100
AcDbLine
 10
-2.625325679779052
 20
-0.1078832726925611
 30
0.0
 11
-2.625325679779052
 21
-0.3594764778306686
 31
0.0
  0
LINE
  5
69
330
65
100
AcDbEntity
  8
1
  6
solid
 62
     7
100
AcDbLine
 10
-3.687825679779052
 20
-0.2969764778306686
 30
0.0
 11
-3.383060973896699
 21
-0.2969764778306686
 31
0.0
  0
LINE
  5
6A
330
65
100
AcDbEntity
  8
1
  6
solid
 62
     7
100
AcDbLine
 10
-2.625325679779052
 20
-0.2969764778306686
 30
0.0
 11
-2.930090385661405
 21
-0.2969764778306686
 31
0.0
  0
MTEXT
  5
6B
330
65
100
AcDbEntity
  8
1
  6
solid
 62
     7
100
AcDbMText
 10
-3.156575679779052
 20
-0.2969764778306686
 30
0.0
 40
0.125
 41
0.0
 71
     5
 72
     1
  1
{\H0.125000;1 1/16}
 73
     1
 44
1.0
  0
SOLID
  5
6C
330
65
100
AcDbEntity
  8
1
  6
solid
 62
     7
100
AcDbTrace
 10
-3.662825679779052
 20
-0.2844764778306686
 30
0.0
 11
-3.662825679779052
 21
-0.3094764778306686
 31
0.0
 12
-3.687825679779052
 22
-0.2969764778306686
 32
0.0
 13
-3.687825679779052
 23
-0.2969764778306686
 33
0.0
  0
SOLID
  5
6D
330
65
100
AcDbEntity
  8
1
  6
solid
 62
     7
100
AcDbTrace
 10
-2.650325679779052
 20
-0.3094764778306686
 30
0.0
 11
-2.650325679779052
 21
-0.2844764778306686
 31
0.0
 12
-2.625325679779052
 22
-0.2969764778306686
 32
0.0
 13
-2.625325679779052
 23
-0.2969764778306686
 33
0.0
  0
ENDBLK
  5
6E
330
65
100
AcDbEntity
  8
1
  6
solid
 62
     7
100
AcDbBlockEnd
  0
ENDSEC
  0
SECTION
  2
ENTITIES
  0
LINE
  5
28
330
A
100
AcDbEntity
  8
1
  6
solid
 62
     7
100
AcDbLine
 10
0.9401041025999999
 20
4.140499298801258
 30
0.0
 11
1.062856582208732
 21
4.140499298801258
 31
0.0
  0
LINE
  5
29
330
A
100
AcDbEntity
  8
1
  6
solid
 62
     7
100
AcDbLine
 10
1.062856582208732
 20
4.140499298801258
 30
0.0
 11
1.062856582208732
 21
0.0154992988012586
 31
0.0
  0
LINE
  5
2A
330
A
100
AcDbEntity
  8
1
  6
solid
 62
     7
100
AcDbLine
 10
1.062856582208732
 20
0.0154992988012586
 30
0.0
 11
0.0003565822087324
 21
0.0154992988012586
 31
0.0
  0
LINE
  5
2B
330
A
100
AcDbEntity
  8
1
  6
solid
 62
     7
100
AcDbLine
 10
0.0003565822087324
 20
0.0154992988012586
 30
0.0
 11
0.0003565822087324
 21
0.7105516074352768
 31
0.0
  0
ARC
  5
2C
330
A
100
AcDbEntity
  8
1
  6
solid
 62
     7
100
AcDbCircle
 10
0.1419472065340067
 20
0.6530608267165052
 30
0.0
 40
0.1528171939425497
100
AcDbArc
 50
81.5810484857452
 51
157.9011150263007
  0
ARC
  5
2D
330
A
100
AcDbEntity
  8
1
  6
solid
 62
     7
100
AcDbCircle
 10
0.4733844182257903
 20
0.9521301949217908
 30
0.0
 40
0.3426282992930271
100
AcDbArc
 50
89.29567915790075
 51
205.5729498955094
  0
ARC
  5
2E
330
A
100
AcDbEntity
  8
1
  6
solid
 62
     7
100
AcDbCircle
 10
0.6946297062428741
 20
1.329583664686803
 30
0.0
 40
0.2198139446419057
100
AcDbArc
 50
86.9777224919928
 51
189.1226356396892
  0
LINE
  5
2F
330
A
100
AcDbEntity
  8
1
  6
solid
 62
     7
100
AcDbLine
 10
0.7062192559
 20
1.549091815948486
 30
0.0
 11
0.7062192559
 21
2.487256131172264
 31
0.0
  0
ARC
  5
30
330
A
100
AcDbEntity
  8
1
  6
solid
 62
     7
100
AcDbCircle
 10
0.8334182468621945
 20
3.000544077525223
 30
0.0
 40
0.5288139392863898
100
AcDbArc
 50
216.2912967278449
 51
256.081799871514
  0
ARC
  5
31
330
A
100
AcDbEntity
  8
1
  6
solid
 62
     7
100
AcDbCircle
 10
0.7541393895986366
 20
2.888397041618193
 30
0.0
 40
0.4008983993714321
100
AcDbArc
 50
143.3687130896765
 51
210.066649899093
  0
ARC
  5
32
330
A
100
AcDbEntity
  8
1
  6
solid
 62
     7
100
AcDbCircle
 10
1.215339264494759
 20
2.601721909475782
 30
0.0
 40
0.9431361798868477
100
AcDbArc
 50
108.5733955576573
 51
146.1112133945385
  0
LINE
  5
33
330
A
100
AcDbEntity
  8
1
  6
solid
 62
     7
100
AcDbLine
 10
0.9149322897999999
 20
3.495736172989554
 30
0.0
 11
0.9149322897999999
 21
3.580588337288845
 31
0.0
  0
ARC
  5
34
330
A
100
AcDbEntity
  8
1
  6
solid
 62
     7
100
AcDbCircle
 10
0.9788941644930975
 20
3.765941892715575
 30
0.0
 40
0.1960792135303029
100
AcDbArc
 50
101.4100058116919
 51
250.9614557575066
  0
LINE
  5
35
330
A
100
AcDbEntity
  8
1
  6
solid
 62
     7
100
AcDbLine
 10
0.9401041025999999
 20
3.958145922535136
 30
0.0
 11
0.9401041025999999
 21
4.140499298801258
 31
0.0
  0
ARC
  5
36
330
A
100
AcDbEntity
  8
1
  6
solid
 62
     7
100
AcDbCircle
 10
-0.0682594709830622
 20
1.193026112954405
 30
0.0
 40
0.3426282992930271
100
AcDbArc
 50
89.29567915790075
 51
205.5729498955094
  0
ARC
  5
37
330
A
100
AcDbEntity
  8
1
  6
solid
 62
     7
100
AcDbCircle
 10
0.1529858170340217
 20
1.570479582719417
 30
0.0
 40
0.2198139446419057
100
AcDbArc
 50
86.9777224919928
 51
189.1226356396892
  0
LINE
  5
38
330
A
100
AcDbEntity
  8
1
  6
solid
 62
     7
100
AcDbLine
 10
0.1645753666911476
 20
1.7899877339811
 30
0.0
 11
0.1645753666911476
 21
2.728152049204878
 31
0.0
  0
ARC
  5
39
330
A
100
AcDbEntity
  8
1
  6
solid
 62
     7
100
AcDbCircle
 10
0.291774357653342
 20
3.241439995557838
 30
0.0
 40
0.5288139392863898
100
AcDbArc
 50
216.2912967278449
 51
256.081799871514
  0
ARC
  5
3A
330
A
100
AcDbEntity
  8
1
  6
solid
 62
     7
100
AcDbCircle
 10
0.2124955003897841
 20
3.129292959650808
 30
0.0
 40
0.4008983993714321
100
AcDbArc
 50
143.3687130896765
 51
210.066649899093
  0
ARC
  5
3B
330
A
100
AcDbEntity
  8
1
  6
solid
 62
     7
100
AcDbCircle
 10
0.6736953752859069
 20
2.842617827508397
 30
0.0
 40
0.9431361798868477
100
AcDbArc
 50
108.5733955576573
 51
146.1112133945385
  0
LINE
  5
3C
330
A
100
AcDbEntity
  8
1
  6
solid
 62
     7
100
AcDbLine
 10
0.3732884005911475
 20
3.736632091022168
 30
0.0
 11
0.3732884005911475
 21
3.821484255321459
 31
0.0
  0
ARC
  5
3D
330
A
100
AcDbEntity
  8
1
  6
solid
 62
     7
100
AcDbCircle
 10
0.4372502752842453
 20
4.00683781074819
 30
0.0
 40
0.1960792135303029
100
AcDbArc
 50
101.4100058116919
 51
250.9614557575066
  0
LINE
  5
3E
330
A
100
AcDbEntity
  8
1
  6
solid
 62
     7
100
AcDbLine
 10
0.3984602133911475
 20
4.381395216833873
 30
0.0
 11
0.52121269299988
 21
4.381395216833873
 31
0.0
  0
LINE
  5
3F
330
A
100
AcDbEntity
  8
1
  6
solid
 62
     7
100
AcDbLine
 10
0.3984602133911475
 20
4.199041840567751
 30
0.0
 11
0.3984602133911475
 21
4.381395216833873
 31
0.0
  0
ARC
  5
40
330
A
100
AcDbEntity
  8
1
  6
solid
 62
     7
100
AcDbCircle
 10
-0.3996966826748457
 20
0.8939567447491199
 30
0.0
 40
0.1528171939425497
100
AcDbArc
 50
81.5810484857452
 51
157.9011150263007
  0
LINE
  5
41
330
A
100
AcDbEntity
  8
1
  6
solid
 62
     7
100
AcDbLine
 10
-0.5412873070001201
 20
0.2563952168338732
 30
0.0
 11
-0.5412873070001201
 21
0.9514475254678915
 31
0.0
  0
LINE
  5
42
330
A
100
AcDbEntity
  8
1
  6
solid
 62
     7
100
AcDbLine
 10
0.5212126970291138
 20
4.38139533996582
 30
0.0
 11
1.062856554985046
 21
4.140499114990234
 31
0.0
  0
LINE
  5
43
330
A
100
AcDbEntity
  8
1
  6
solid
 62
     7
100
AcDbLine
 10
0.3984602093696594
 20
4.199041843414306
 30
0.0
 11
0.9401041269302368
 21
3.958145856857299
 31
0.0
  0
LINE
  5
44
330
A
100
AcDbEntity
  8
1
  6
solid
 62
     7
100
AcDbLine
 10
0.3732884228229523
 20
3.821484327316284
 30
0.0
 11
0.8840856637206954
 21
3.594307379403271
 31
0.0
  0
LINE
  5
45
330
A
100
AcDbEntity
  8
1
  6
solid
 62
     7
100
AcDbLine
 10
0.3732883930206299
 20
3.736632108688354
 30
0.0
 11
0.9149323105812072
 21
3.495736122131347
 31
0.0
  0
LINE
  5
46
330
A
100
AcDbEntity
  8
1
  6
solid
 62
     7
100
AcDbLine
 10
0.1645753681659698
 20
2.72815203666687
 30
0.0
 11
0.5374339231812636
 21
2.562323285550753
 31
0.0
  0
LINE
  5
47
330
A
100
AcDbEntity
  8
1
  6
solid
 62
     7
100
AcDbLine
 10
0.1645753681659698
 20
1.789987683296203
 30
0.0
 11
0.7062192559242249
 21
1.549091815948486
 31
0.0
  0
LINE
  5
48
330
A
100
AcDbEntity
  8
1
  6
solid
 62
     7
100
AcDbLine
 10
-0.0640477538108826
 20
1.53562843799591
 30
0.0
 11
0.4775961339473725
 21
1.294732570648193
 31
0.0
  0
LINE
  5
49
330
A
100
AcDbEntity
  8
1
  6
solid
 62
     7
100
AcDbLine
 10
-0.3773226737976074
 20
1.045127153396606
 30
0.0
 11
0.1643212139606476
 21
0.8042312860488891
 31
0.0
  0
LINE
  5
4A
330
A
100
AcDbEntity
  8
1
  6
solid
 62
     7
100
AcDbLine
 10
-0.5412873029708863
 20
0.2563952207565308
 30
0.0
 11
0.0003565821971279
 21
0.0154992984607816
 31
0.0
  0
LINE
  5
4B
330
A
100
AcDbEntity
  8
1
  6
solid
 62
     7
100
AcDbLine
 10
0.9401041269302368
 20
4.140499114990234
 30
0.0
 11
0.3984602093696594
 21
4.38139533996582
 31
0.0
  0
LINE
  5
4C
330
A
100
AcDbEntity
  8
1
  6
solid
 62
     7
100
AcDbLine
 10
-2.625325743189183
 20
4.142116726591519
 30
0.0
 11
-2.625325743189183
 21
0.0171167265915195
 31
0.0
  0
LINE
  5
4D
330
A
100
AcDbEntity
  8
1
  6
solid
 62
     7
100
AcDbLine
 10
-2.625325743189183
 20
0.0171167265915195
 30
0.0
 11
-3.687825743189183
 21
0.0171167265915195
 31
0.0
  0
ARC
  5
4E
330
A
100
AcDbEntity
  8
1
  6
solid
 62
     7
100
AcDbCircle
 10
-3.214797907172125
 20
0.9537476227120517
 30
0.0
 40
0.3426282992930271
100
AcDbArc
 50
89.29567915790075
 51
205.5729498955094
  0
ARC
  5
4F
330
A
100
AcDbEntity
  8
1
  6
solid
 62
     7
100
AcDbCircle
 10
-2.993552619155041
 20
1.331201092477064
 30
0.0
 40
0.2198139446419057
100
AcDbArc
 50
86.9777224919928
 51
189.1226356396892
  0
LINE
  5
50
330
A
100
AcDbEntity
  8
1
  6
solid
 62
     7
100
AcDbLine
 10
-2.981963069497915
 20
1.550709243738747
 30
0.0
 11
-2.981963069497915
 21
2.488873558962525
 31
0.0
  0
ARC
  5
51
330
A
100
AcDbEntity
  8
1
  6
solid
 62
     7
100
AcDbCircle
 10
-2.854764078535721
 20
3.002161505315484
 30
0.0
 40
0.5288139392863898
100
AcDbArc
 50
216.2912967278449
 51
256.081799871514
  0
ARC
  5
52
330
A
100
AcDbEntity
  8
1
  6
solid
 62
     7
100
AcDbCircle
 10
-2.934042935799278
 20
2.890014469408454
 30
0.0
 40
0.4008983993714321
100
AcDbArc
 50
143.3687130896765
 51
210.066649899093
  0
ARC
  5
53
330
A
100
AcDbEntity
  8
1
  6
solid
 62
     7
100
AcDbCircle
 10
-2.472843060903156
 20
2.603339337266043
 30
0.0
 40
0.9431361798868477
100
AcDbArc
 50
108.5733955576573
 51
146.1112133945385
  0
LINE
  5
54
330
A
100
AcDbEntity
  8
1
  6
solid
 62
     7
100
AcDbLine
 10
-2.773250035597915
 20
3.497353600779815
 30
0.0
 11
-2.773250035597915
 21
3.582205765079106
 31
0.0
  0
ARC
  5
55
330
A
100
AcDbEntity
  8
1
  6
solid
 62
     7
100
AcDbCircle
 10
-2.709288160904817
 20
3.767559320505836
 30
0.0
 40
0.1960792135303029
100
AcDbArc
 50
101.4100058116919
 51
250.9614557575066
  0
LINE
  5
56
330
A
100
AcDbEntity
  8
1
  6
solid
 62
     7
100
AcDbLine
 10
-2.748078222797915
 20
4.142116726591519
 30
0.0
 11
-2.625325743189183
 21
4.142116726591519
 31
0.0
  0
LINE
  5
57
330
A
100
AcDbEntity
  8
1
  6
solid
 62
     7
100
AcDbLine
 10
-2.748078222797915
 20
3.959763350325397
 30
0.0
 11
-2.748078222797915
 21
4.142116726591519
 31
0.0
  0
ARC
  5
58
330
A
100
AcDbEntity
  8
1
  6
solid
 62
     7
100
AcDbCircle
 10
-3.546235118863908
 20
0.6546782545067663
 30
0.0
 40
0.1528171939425497
100
AcDbArc
 50
81.5810484857452
 51
157.9011150263007
  0
LINE
  5
59
330
A
100
AcDbEntity
  8
1
  6
solid
 62
     7
100
AcDbLine
 10
-3.687825743189183
 20
0.0171167265915195
 30
0.0
 11
-3.687825743189183
 21
0.7121690352255378
 31
0.0
  0
DIMENSION
  5
64
330
A
100
AcDbEntity
  8
1
  6
solid
 62
     7
100
AcDbDimension
  2
*D0
 10
-1.366334149536275
 20
2.079616636969148
 30
0.0
 11
-1.366334149536275
 21
2.079616636969148
 31
0.0
 70
    33
 71
     5
 42
4.12499981932342
  3
Standard
100
AcDbAlignedDimension
 13
-2.625325679779052
 23
4.142116546630859
 33
0.0
 14
-2.625325679779052
 24
0.0171167273074389
 34
0.0
1001
ACAD
1000
DSTYLE
1002
{
1070
    41
1040
0.025
1070
    42
1040
0.125
1070
    44
1040
0.0625
1070
    47
1040
0.0005
1070
    48
1040
0.0005
1070
    75
1070
     1
1070
    76
1070
     1
1070
   140
1040
0.125
1070
   146
1040
0.5
1070
   270
1070
     5
1070
   271
1070
     3
1070
   272
1070
     3
1070
   277
1070
     5
1002
}
  0
LINE
  5
70
330
A
100
AcDbEntity
  8
1
  6
solid
 62
     7
100
AcDbLine
 10
-0.3436939690954264
 20
-0.2643373868658236
 30
0.0
 11
-0.3745805970024032
 21
-0.2643373868658236
 31
0.0
  0
LINE
  5
71
330
A
100
AcDbEntity
  8
1
  6
solid
 62
     7
100
AcDbLine
 10
-0.3745805970024032
 20
-0.2643373868658236
 30
0.0
 11
-0.3745805970024032
 21
-0.1532670380286143
 31
0.0
  0
SPLINE
  5
72
330
A
100
AcDbEntity
  8
1
  6
solid
 62
     7
100
AcDbSpline
210
0.0
220
0.0
230
1.0
 70
     8
 71
     2
 72
     6
 73
     3
 74
     0
 42
0.0000000001
 43
0.0000000001
 40
0.0
 40
0.0
 40
0.0
 40
1.0
 40
1.0
 40
1.0
 10
-0.3745805970024032
 20
-0.1532670380286143
 30
0.0
 10
-0.3908207132814729
 20
-0.1709705264007074
 30
0.0
 10
-0.4127346667698451
 20
-0.1789449450053585
 30
0.0
  0
LINE
  5
73
330
A
100
AcDbEntity
  8
1
  6
solid
 62
     7
100
AcDbLine
 10
-0.4127346667698451
 20
-0.1789449450053585
 30
0.0
 11
-0.4127346667698451
 21
-0.1480583170983818
 31
0.0
  0
SPLINE
  5
74
330
A
100
AcDbEntity
  8
1
  6
solid
 62
     7
100
AcDbSpline
210
0.0
220
0.0
230
1.0
 70
     8
 71
     2
 72
     7
 73
     4
 74
     0
 42
0.0000000001
 43
0.0000000001
 40
0.0
 40
0.0
 40
0.0
 40
1.0
 40
2.0
 40
2.0
 40
2.0
 10
-0.4127346667698451
 20
-0.1480583170983818
 30
0.0
 10
-0.4012567597931009
 20
-0.1442571543076841
 30
0.0
 10
-0.3737247830489148
 20
-0.1225664566332655
 30
0.0
 10
-0.3684788528163567
 20
-0.1080873868658236
 30
0.0
  0
LINE
  5
75
330
A
100
AcDbEntity
  8
1
  6
solid
 62
     7
100
AcDbLine
 10
-0.3684788528163567
 20
-0.1080873868658236
 30
0.0
 11
-0.3436939690954264
 21
-0.1080873868658236
 31
0.0
  0
LINE
  5
76
330
A
100
AcDbEntity
  8
1
  6
solid
 62
     7
100
AcDbLine
 10
-0.3436939690954264
 20
-0.2643373868658236
 30
0.0
 11
-0.3436939690954264
 21
-0.1080873868658236
 31
0.0
  0
LINE
  5
77
330
A
100
AcDbEntity
  8
1
  6
solid
 62
     7
100
AcDbLine
 10
-0.3151839690954264
 20
-0.2225495961681492
 30
0.0
 11
-0.3151839690954264
 21
-0.195296689191405
 31
0.0
  0
LINE
  5
78
330
A
100
AcDbEntity
  8
1
  6
solid
 62
     7
100
AcDbLine
 10
-0.3151839690954264
 20
-0.195296689191405
 30
0.0
 11
-0.2552275737465893
 21
-0.195296689191405
 31
0.0
  0
LINE
  5
79
330
A
100
AcDbEntity
  8
1
  6
solid
 62
     7
100
AcDbLine
 10
-0.2552275737465893
 20
-0.195296689191405
 30
0.0
 11
-0.2552275737465893
 21
-0.2225495961681492
 31
0.0
  0
LINE
  5
7A
330
A
100
AcDbEntity
  8
1
  6
solid
 62
     7
100
AcDbLine
 10
-0.3151839690954264
 20
-0.2225495961681492
 30
0.0
 11
-0.2552275737465893
 21
-0.2225495961681492
 31
0.0
  0
LINE
  5
7B
330
A
100
AcDbEntity
  8
1
  6
solid
 62
     7
100
AcDbLine
 10
-0.1576768760721706
 20
-0.2643373868658236
 30
0.0
 11
-0.1885635039791474
 21
-0.2643373868658236
 31
0.0
  0
LINE
  5
7C
330
A
100
AcDbEntity
  8
1
  6
solid
 62
     7
100
AcDbLine
 10
-0.1885635039791474
 20
-0.2643373868658236
 30
0.0
 11
-0.1885635039791474
 21
-0.1532670380286143
 31
0.0
  0
SPLINE
  5
7D
330
A
100
AcDbEntity
  8
1
  6
solid
 62
     7
100
AcDbSpline
210
0.0
220
0.0
230
1.0
 70
     8
 71
     2
 72
     6
 73
     3
 74
     0
 42
0.0000000001
 43
0.0000000001
 40
0.0
 40
0.0
 40
0.0
 40
1.0
 40
1.0
 40
1.0
 10
-0.1885635039791474
 20
-0.1532670380286143
 30
0.0
 10
-0.2048036202582171
 20
-0.1709705264007074
 30
0.0
 10
-0.2267175737465892
 20
-0.1789449450053585
 30
0.0
  0
LINE
  5
7E
330
A
100
AcDbEntity
  8
1
  6
solid
 62
     7
100
AcDbLine
 10
-0.2267175737465892
 20
-0.1789449450053585
 30
0.0
 11
-0.2267175737465892
 21
-0.1480583170983818
 31
0.0
  0
SPLINE
  5
7F
330
A
100
AcDbEntity
  8
1
  6
solid
 62
     7
100
AcDbSpline
210
0.0
220
0.0
230
1.0
 70
     8
 71
     2
 72
     7
 73
     4
 74
     0
 42
0.0000000001
 43
0.0000000001
 40
0.0
 40
0.0
 40
0.0
 40
1.0
 40
2.0
 40
2.0
 40
2.0
 10
-0.2267175737465892
 20
-0.1480583170983818
 30
0.0
 10
-0.215239666769845
 20
-0.1442571543076841
 30
0.0
 10
-0.187707690025659
 20
-0.1225664566332655
 30
0.0
 10
-0.1824617597931009
 20
-0.1080873868658236
 30
0.0
  0
LINE
  5
80
330
A
100
AcDbEntity
  8
1
  6
solid
 62
     7
100
AcDbLine
 10
-0.1824617597931009
 20
-0.1080873868658236
 30
0.0
 11
-0.1576768760721706
 21
-0.1080873868658236
 31
0.0
  0
LINE
  5
81
330
A
100
AcDbEntity
  8
1
  6
solid
 62
     7
100
AcDbLine
 10
-0.1576768760721706
 20
-0.2643373868658236
 30
0.0
 11
-0.1576768760721706
 21
-0.1080873868658236
 31
0.0
  0
LINE
  5
82
330
A
100
AcDbEntity
  8
1
  6
solid
 62
     7
100
AcDbLine
 10
-0.1302023411884497
 20
-0.2643373868658236
 30
0.0
 11
-0.0938465272349614
 21
-0.1080873868658236
 31
0.0
  0
LINE
  5
83
330
A
100
AcDbEntity
  8
1
  6
solid
 62
     7
100
AcDbLine
 10
-0.0938465272349614
 20
-0.1080873868658236
 30
0.0
 11
-0.0692104807233335
 21
-0.1080873868658236
 31
0.0
  0
LINE
  5
84
330
A
100
AcDbEntity
  8
1
  6
solid
 62
     7
100
AcDbLine
 10
-0.0692104807233335
 20
-0.1080873868658236
 30
0.0
 11
-0.105547690025659
 21
-0.2643373868658236
 31
0.0
  0
LINE
  5
85
330
A
100
AcDbEntity
  8
1
  6
solid
 62
     7
100
AcDbLine
 10
-0.1302023411884497
 20
-0.2643373868658236
 30
0.0
 11
-0.105547690025659
 21
-0.2643373868658236
 31
0.0
  0
LINE
  5
86
330
A
100
AcDbEntity
  8
1
  6
solid
 62
     7
100
AcDbLine
 10
0.0283402169510852
 20
-0.2643373868658236
 30
0.0
 11
-0.0025464109558916
 21
-0.2643373868658236
 31
0.0
  0
LINE
  5
87
330
A
100
AcDbEntity
  8
1
  6
solid
 62
     7
100
AcDbLine
 10
-0.0025464109558916
 20
-0.2643373868658236
 30
0.0
 11
-0.0025464109558916
 21
-0.1532670380286143
 31
0.0
  0
SPLINE
  5
88
330
A
100
AcDbEntity
  8
1
  6
solid
 62
     7
100
AcDbSpline
210
0.0
220
0.0
230
1.0
 70
     8
 71
     2
 72
     6
 73
     3
 74
     0
 42
0.0000000001
 43
0.0000000001
 40
0.0
 40
0.0
 40
0.0
 40
1.0
 40
1.0
 40
1.0
 10
-0.0025464109558916
 20
-0.1532670380286143
 30
0.0
 10
-0.0187865272349614
 20
-0.1709705264007074
 30
0.0
 10
-0.0407004807233334
 20
-0.1789449450053585
 30
0.0
  0
LINE
  5
89
330
A
100
AcDbEntity
  8
1
  6
solid
 62
     7
100
AcDbLine
 10
-0.0407004807233334
 20
-0.1789449450053585
 30
0.0
 11
-0.0407004807233334
 21
-0.1480583170983818
 31
0.0
  0
SPLINE
  5
8A
330
A
100
AcDbEntity
  8
1
  6
solid
 62
     7
100
AcDbSpline
210
0.0
220
0.0
230
1.0
 70
     8
 71
     2
 72
     7
 73
     4
 74
     0
 42
0.0000000001
 43
0.0000000001
 40
0.0
 40
0.0
 40
0.0
 40
1.0
 40
2.0
 40
2.0
 40
2.0
 10
-0.0407004807233334
 20
-0.1480583170983818
 30
0.0
 10
-0.0292225737465893
 20
-0.1442571543076841
 30
0.0
 10
-0.0016905970024032
 20
-0.1225664566332655
 30
0.0
 10
0.0035553332301549
 20
-0.1080873868658236
 30
0.0
  0
LINE
  5
8B
330
A
100
AcDbEntity
  8
1
  6
solid
 62
     7
100
AcDbLine
 10
0.0035553332301549
 20
-0.1080873868658236
 30
0.0
 11
0.0283402169510852
 21
-0.1080873868658236
 31
0.0
  0
LINE
  5
8C
330
A
100
AcDbEntity
  8
1
  6
solid
 62
     7
100
AcDbLine
 10
0.0283402169510852
 20
-0.2643373868658236
 30
0.0
 11
0.0283402169510852
 21
-0.1080873868658236
 31
0.0
  0
LINE
  5
8D
330
A
100
AcDbEntity
  8
1
  6
solid
 62
     7
100
AcDbLine
 10
0.1567775425324805
 20
-0.1507059915169864
 30
0.0
 11
0.1258909146255038
 21
-0.1535088984937306
 31
0.0
  0
SPLINE
  5
8E
330
A
100
AcDbEntity
  8
1
  6
solid
 62
     7
100
AcDbSpline
210
0.0
220
0.0
230
1.0
 70
     8
 71
     2
 72
     7
 73
     4
 74
     0
 42
0.0000000001
 43
0.0000000001
 40
0.0
 40
0.0
 40
0.0
 40
1.0
 40
2.0
 40
2.0
 40
2.0
 10
0.1258909146255038
 20
-0.1535088984937306
 30
0.0
 10
0.1245763797417828
 20
-0.1442757589588469
 30
0.0
 10
0.1157153332301549
 20
-0.1353402938425678
 30
0.0
 10
0.1086339378813177
 20
-0.1353402938425678
 30
0.0
  0
SPLINE
  5
8F
330
A
100
AcDbEntity
  8
1
  6
solid
 62
     7
100
AcDbSpline
210
0.0
220
0.0
230
1.0
 70
     8
 71
     2
 72
     7
 73
     4
 74
     0
 42
0.0000000001
 43
0.0000000001
 40
0.0
 40
0.0
 40
0.0
 40
1.0
 40
2.0
 40
2.0
 40
2.0
 10
0.1086339378813177
 20
-0.1353402938425678
 30
0.0
 10
0.0994380076487596
 20
-0.1353402938425678
 30
0.0
 10
0.0866641704394573
 20
-0.153471689191405
 30
0.0
 10
0.084940333230155
 20
-0.1817042473309399
 30
0.0
  0
SPLINE
  5
90
330
A
100
AcDbEntity
  8
1
  6
solid
 62
     7
100
AcDbSpline
210
0.0
220
0.0
230
1.0
 70
     8
 71
     2
 72
     6
 73
     3
 74
     0
 42
0.0000000001
 43
0.0000000001
 40
0.0
 40
0.0
 40
0.0
 40
1.0
 40
1.0
 40
1.0
 10
0.084940333230155
 20
-0.1817042473309399
 30
0.0
 10
0.0968211471836433
 20
-0.1680437822146608
 30
0.0
 10
0.1136194029975968
 20
-0.1680437822146608
 30
0.0
  0
SPLINE
  5
91
330
A
100
AcDbEntity
  8
1
  6
solid
 62
     7
100
AcDbSpline
210
0.0
220
0.0
230
1.0
 70
     8
 71
     2
 72
     7
 73
     4
 74
     0
 42
0.0000000001
 43
0.0000000001
 40
0.0
 40
0.0
 40
0.0
 40
1.0
 40
2.0
 40
2.0
 40
2.0
 10
0.1136194029975968
 20
-0.1680437822146608
 30
0.0
 10
0.1324577750906201
 20
-0.1680437822146608
 30
0.0
 10
0.1604112634627131
 20
-0.1950734333774515
 30
0.0
 10
0.1604112634627131
 20
-0.2165408752379166
 30
0.0
  0
SPLINE
  5
92
330
A
100
AcDbEntity
  8
1
  6
solid
 62
     7
100
AcDbSpline
210
0.0
220
0.0
230
1.0
 70
     8
 71
     2
 72
     7
 73
     4
 74
     0
 42
0.0000000001
 43
0.0000000001
 40
0.0
 40
0.0
 40
0.0
 40
1.0
 40
2.0
 40
2.0
 40
2.0
 10
0.1604112634627131
 20
-0.2165408752379166
 30
0.0
 10
0.1604112634627131
 20
-0.2388641310518702
 30
0.0
 10
0.1320856820673642
 20
-0.2661542473309399
 30
0.0
 10
0.1102275425324805
 20
-0.2661542473309399
 30
0.0
  0
SPLINE
  5
93
330
A
100
AcDbEntity
  8
1
  6
solid
 62
     7
100
AcDbSpline
210
0.0
220
0.0
230
1.0
 70
     8
 71
     2
 72
     7
 73
     4
 74
     0
 42
0.0000000001
 43
0.0000000001
 40
0.0
 40
0.0
 40
0.0
 40
1.0
 40
2.0
 40
2.0
 40
2.0
 10
0.1102275425324805
 20
-0.2661542473309399
 30
0.0
 10
0.0867013797417829
 20
-0.2661542473309399
 30
0.0
 10
0.0568502169510852
 20
-0.229761224075126
 30
0.0
 10
0.0568502169510852
 20
-0.1887856426797771
 30
0.0
  0
SPLINE
  5
94
330
A
100
AcDbEntity
  8
1
  6
solid
 62
     7
100
AcDbSpline
210
0.0
220
0.0
230
1.0
 70
     8
 71
     2
 72
     7
 73
     4
 74
     0
 42
0.0000000001
 43
0.0000000001
 40
0.0
 40
0.0
 40
0.0
 40
1.0
 40
2.0
 40
2.0
 40
2.0
 10
0.0568502169510852
 20
-0.1887856426797771
 30
0.0
 10
0.0568502169510852
 20
-0.1458693636100097
 30
0.0
 10
0.087997309974341
 20
-0.1080873868658236
 30
0.0
 10
0.1125095192766666
 20
-0.1080873868658236
 30
0.0
  0
SPLINE
  5
95
330
A
100
AcDbEntity
  8
1
  6
solid
 62
     7
100
AcDbSpline
210
0.0
220
0.0
230
1.0
 70
     8
 71
     2
 72
     7
 73
     4
 74
     0
 42
0.0000000001
 43
0.0000000001
 40
0.0
 40
0.0
 40
0.0
 40
1.0
 40
2.0
 40
2.0
 40
2.0
 10
0.1125095192766666
 20
-0.1080873868658236
 30
0.0
 10
0.1302502169510852
 20
-0.1080873868658236
 30
0.0
 10
0.1534601006720154
 20
-0.1297408752379167
 30
0.0
 10
0.1567775425324805
 20
-0.1507059915169864
 30
0.0
  0
SPLINE
  5
96
330
A
100
AcDbEntity
  8
1
  6
solid
 62
     7
100
AcDbSpline
210
0.0
220
0.0
230
1.0
 70
     8
 71
     2
 72
     7
 73
     4
 74
     0
 42
0.0000000001
 43
0.0000000001
 40
0.0
 40
0.0
 40
0.0
 40
1.0
 40
2.0
 40
2.0
 40
2.0
 10
0.0877368448580619
 20
-0.2161687822146608
 30
0.0
 10
0.0877368448580619
 20
-0.2272187822146608
 30
0.0
 10
0.1009944029975968
 20
-0.2389013403541957
 30
0.0
 10
0.1098182402068991
 20
-0.2389013403541957
 30
0.0
  0
SPLINE
  5
97
330
A
100
AcDbEntity
  8
1
  6
solid
 62
     7
100
AcDbSpline
210
0.0
220
0.0
230
1.0
 70
     8
 71
     2
 72
     7
 73
     4
 74
     0
 42
0.0000000001
 43
0.0000000001
 40
0.0
 40
0.0
 40
0.0
 40
1.0
 40
2.0
 40
2.0
 40
2.0
 10
0.1098182402068991
 20
-0.2389013403541957
 30
0.0
 10
0.1178112634627131
 20
-0.2389013403541957
 30
0.0
 10
0.1295246355557363
 20
-0.2292775031448934
 30
0.0
 10
0.1295246355557363
 20
-0.2181158752379167
 30
0.0
  0
SPLINE
  5
98
330
A
100
AcDbEntity
  8
1
  6
solid
 62
     7
100
AcDbSpline
210
0.0
220
0.0
230
1.0
 70
     8
 71
     2
 72
     7
 73
     4
 74
     0
 42
0.0000000001
 43
0.0000000001
 40
0.0
 40
0.0
 40
0.0
 40
1.0
 40
2.0
 40
2.0
 40
2.0
 10
0.1295246355557363
 20
-0.2181158752379167
 30
0.0
 10
0.1295246355557363
 20
-0.2061234333774515
 30
0.0
 10
0.1172531239278293
 20
-0.195296689191405
 30
0.0
 10
0.1082060309045735
 20
-0.195296689191405
 30
0.0
  0
SPLINE
  5
99
330
A
100
AcDbEntity
  8
1
  6
solid
 62
     7
100
AcDbSpline
210
0.0
220
0.0
230
1.0
 70
     8
 71
     2
 72
     7
 73
     4
 74
     0
 42
0.0000000001
 43
0.0000000001
 40
0.0
 40
0.0
 40
0.0
 40
1.0
 40
2.0
 40
2.0
 40
2.0
 10
0.1082060309045735
 20
-0.195296689191405
 30
0.0
 10
0.0993821936952712
 20
-0.195296689191405
 30
0.0
 10
0.0877368448580619
 20
-0.2058071543076841
 30
0.0
 10
0.0877368448580619
 20
-0.2161687822146608
 30
0.0
  0
LINE
  5
9A
330
A
100
AcDbEntity
  8
1
  6
solid
 62
     7
100
AcDbLine
 10
0.2198434727650386
 20
-0.2643373868658236
 30
0.0
 11
0.2737539378813177
 21
-0.182225177563498
 31
0.0
  0
LINE
  5
9B
330
A
100
AcDbEntity
  8
1
  6
solid
 62
     7
100
AcDbLine
 10
0.2737539378813177
 20
-0.182225177563498
 30
0.0
 11
0.2252940541603875
 21
-0.1080873868658236
 31
0.0
  0
LINE
  5
9C
330
A
100
AcDbEntity
  8
1
  6
solid
 62
     7
100
AcDbLine
 10
0.2252940541603875
 20
-0.1080873868658236
 30
0.0
 11
0.2616126588115502
 21
-0.1080873868658236
 31
0.0
  0
LINE
  5
9D
330
A
100
AcDbEntity
  8
1
  6
solid
 62
     7
100
AcDbLine
 10
0.2616126588115502
 20
-0.1080873868658236
 30
0.0
 11
0.2919225425324805
 21
-0.1545443636100097
 31
0.0
  0
LINE
  5
9E
330
A
100
AcDbEntity
  8
1
  6
solid
 62
     7
100
AcDbLine
 10
0.2919225425324805
 20
-0.1545443636100097
 30
0.0
 11
0.3215876588115503
 21
-0.1080873868658236
 31
0.0
  0
LINE
  5
9F
330
A
100
AcDbEntity
  8
1
  6
solid
 62
     7
100
AcDbLine
 10
0.3215876588115503
 20
-0.1080873868658236
 30
0.0
 11
0.3579248681138758
 21
-0.1080873868658236
 31
0.0
  0
LINE
  5
A0
330
A
100
AcDbEntity
  8
1
  6
solid
 62
     7
100
AcDbLine
 10
0.3579248681138758
 20
-0.1080873868658236
 30
0.0
 11
0.3100911471836433
 21
-0.182225177563498
 31
0.0
  0
LINE
  5
A1
330
A
100
AcDbEntity
  8
1
  6
solid
 62
     7
100
AcDbLine
 10
0.3100911471836433
 20
-0.182225177563498
 30
0.0
 11
0.3633754495092247
 21
-0.2643373868658236
 31
0.0
  0
LINE
  5
A2
330
A
100
AcDbEntity
  8
1
  6
solid
 62
     7
100
AcDbLine
 10
0.3633754495092247
 20
-0.2643373868658236
 30
0.0
 11
0.3270382402068992
 21
-0.2643373868658236
 31
0.0
  0
LINE
  5
A3
330
A
100
AcDbEntity
  8
1
  6
solid
 62
     7
100
AcDbLine
 10
0.3270382402068992
 20
-0.2643373868658236
 30
0.0
 11
0.2919225425324805
 21
-0.2105135496565213
 31
0.0
  0
LINE
  5
A4
330
A
100
AcDbEntity
  8
1
  6
solid
 62
     7
100
AcDbLine
 10
0.2919225425324805
 20
-0.2105135496565213
 30
0.0
 11
0.2561620774162014
 21
-0.2643373868658236
 31
0.0
  0
LINE
  5
A5
330
A
100
AcDbEntity
  8
1
  6
solid
 62
     7
100
AcDbLine
 10
0.2198434727650386
 20
-0.2643373868658236
 30
0.0
 11
0.2561620774162014
 21
-0.2643373868658236
 31
0.0
  0
LINE
  5
A6
330
A
100
AcDbEntity
  8
1
  6
solid
 62
     7
100
AcDbLine
 10
0.4852070774162015
 20
-0.2643373868658236
 30
0.0
 11
0.4852070774162015
 21
-0.2334507589588469
 31
0.0
  0
LINE
  5
A7
330
A
100
AcDbEntity
  8
1
  6
solid
 62
     7
100
AcDbLine
 10
0.4852070774162015
 20
-0.2334507589588469
 30
0.0
 11
0.423433821602248
 21
-0.2334507589588469
 31
0.0
  0
LINE
  5
A8
330
A
100
AcDbEntity
  8
1
  6
solid
 62
     7
100
AcDbLine
 10
0.423433821602248
 20
-0.2334507589588469
 30
0.0
 11
0.423433821602248
 21
-0.2087152938425678
 31
0.0
  0
LINE
  5
A9
330
A
100
AcDbEntity
  8
1
  6
solid
 62
     7
100
AcDbLine
 10
0.423433821602248
 20
-0.2087152938425678
 30
0.0
 11
0.4891384727650387
 21
-0.1099042473309399
 31
0.0
  0
LINE
  5
AA
330
A
100
AcDbEntity
  8
1
  6
solid
 62
     7
100
AcDbLine
 10
0.4891384727650387
 20
-0.1099042473309399
 30
0.0
 11
0.5160937053231783
 21
-0.1099042473309399
 31
0.0
  0
LINE
  5
AB
330
A
100
AcDbEntity
  8
1
  6
solid
 62
     7
100
AcDbLine
 10
0.5160937053231783
 20
-0.1099042473309399
 30
0.0
 11
0.5160937053231783
 21
-0.208014712447219
 31
0.0
  0
LINE
  5
AC
330
A
100
AcDbEntity
  8
1
  6
solid
 62
     7
100
AcDbLine
 10
0.5160937053231783
 20
-0.208014712447219
 30
0.0
 11
0.5360791704394573
 21
-0.208014712447219
 31
0.0
  0
LINE
  5
AD
330
A
100
AcDbEntity
  8
1
  6
solid
 62
     7
100
AcDbLine
 10
0.5360791704394573
 20
-0.208014712447219
 30
0.0
 11
0.5360791704394573
 21
-0.2334507589588469
 31
0.0
  0
LINE
  5
AE
330
A
100
AcDbEntity
  8
1
  6
solid
 62
     7
100
AcDbLine
 10
0.5360791704394573
 20
-0.2334507589588469
 30
0.0
 11
0.5160937053231783
 21
-0.2334507589588469
 31
0.0
  0
LINE
  5
AF
330
A
100
AcDbEntity
  8
1
  6
solid
 62
     7
100
AcDbLine
 10
0.5160937053231783
 20
-0.2334507589588469
 30
0.0
 11
0.5160937053231783
 21
-0.2643373868658236
 31
0.0
  0
LINE
  5
B0
330
A
100
AcDbEntity
  8
1
  6
solid
 62
     7
100
AcDbLine
 10
0.4852070774162015
 20
-0.2643373868658236
 30
0.0
 11
0.5160937053231783
 21
-0.2643373868658236
 31
0.0
  0
LINE
  5
B1
330
A
100
AcDbEntity
  8
1
  6
solid
 62
     7
100
AcDbLine
 10
0.4852070774162015
 20
-0.208014712447219
 30
0.0
 11
0.4852070774162015
 21
-0.1582338984937306
 31
0.0
  0
LINE
  5
B2
330
A
100
AcDbEntity
  8
1
  6
solid
 62
     7
100
AcDbLine
 10
0.4852070774162015
 20
-0.1582338984937306
 30
0.0
 11
0.4512634727650388
 21
-0.208014712447219
 31
0.0
  0
LINE
  5
B3
330
A
100
AcDbEntity
  8
1
  6
solid
 62
     7
100
AcDbLine
 10
0.4852070774162015
 20
-0.208014712447219
 30
0.0
 11
0.4512634727650388
 21
-0.208014712447219
 31
0.0
  0
LINE
  5
B4
330
A
100
AcDbEntity
  8
1
  6
solid
 62
     7
100
AcDbLine
 10
0.5645891704394574
 20
-0.2225495961681492
 30
0.0
 11
0.5645891704394574
 21
-0.195296689191405
 31
0.0
  0
LINE
  5
B5
330
A
100
AcDbEntity
  8
1
  6
solid
 62
     7
100
AcDbLine
 10
0.5645891704394574
 20
-0.195296689191405
 30
0.0
 11
0.6245455657882946
 21
-0.195296689191405
 31
0.0
  0
LINE
  5
B6
330
A
100
AcDbEntity
  8
1
  6
solid
 62
     7
100
AcDbLine
 10
0.6245455657882946
 20
-0.195296689191405
 30
0.0
 11
0.6245455657882946
 21
-0.2225495961681492
 31
0.0
  0
LINE
  5
B7
330
A
100
AcDbEntity
  8
1
  6
solid
 62
     7
100
AcDbLine
 10
0.5645891704394574
 20
-0.2225495961681492
 30
0.0
 11
0.6245455657882946
 21
-0.2225495961681492
 31
0.0
  0
LINE
  5
B8
330
A
100
AcDbEntity
  8
1
  6
solid
 62
     7
100
AcDbLine
 10
0.7220962634627132
 20
-0.2643373868658236
 30
0.0
 11
0.6912096355557365
 21
-0.2643373868658236
 31
0.0
  0
LINE
  5
B9
330
A
100
AcDbEntity
  8
1
  6
solid
 62
     7
100
AcDbLine
 10
0.6912096355557365
 20
-0.2643373868658236
 30
0.0
 11
0.6912096355557365
 21
-0.1532670380286143
 31
0.0
  0
SPLINE
  5
BA
330
A
100
AcDbEntity
  8
1
  6
solid
 62
     7
100
AcDbSpline
210
0.0
220
0.0
230
1.0
 70
     8
 71
     2
 72
     6
 73
     3
 74
     0
 42
0.0000000001
 43
0.0000000001
 40
0.0
 40
0.0
 40
0.0
 40
1.0
 40
1.0
 40
1.0
 10
0.6912096355557365
 20
-0.1532670380286143
 30
0.0
 10
0.6749695192766666
 20
-0.1709705264007074
 30
0.0
 10
0.6530555657882946
 20
-0.1789449450053585
 30
0.0
  0
LINE
  5
BB
330
A
100
AcDbEntity
  8
1
  6
solid
 62
     7
100
AcDbLine
 10
0.6530555657882946
 20
-0.1789449450053585
 30
0.0
 11
0.6530555657882946
 21
-0.1480583170983818
 31
0.0
  0
SPLINE
  5
BC
330
A
100
AcDbEntity
  8
1
  6
solid
 62
     7
100
AcDbSpline
210
0.0
220
0.0
230
1.0
 70
     8
 71
     2
 72
     7
 73
     4
 74
     0
 42
0.0000000001
 43
0.0000000001
 40
0.0
 40
0.0
 40
0.0
 40
1.0
 40
2.0
 40
2.0
 40
2.0
 10
0.6530555657882946
 20
-0.1480583170983818
 30
0.0
 10
0.6645334727650388
 20
-0.1442571543076841
 30
0.0
 10
0.6920654495092248
 20
-0.1225664566332655
 30
0.0
 10
0.697311379741783
 20
-0.1080873868658236
 30
0.0
  0
LINE
  5
BD
330
A
100
AcDbEntity
  8
1
  6
solid
 62
     7
100
AcDbLine
 10
0.697311379741783
 20
-0.1080873868658236
 30
0.0
 11
0.7220962634627132
 21
-0.1080873868658236
 31
0.0
  0
LINE
  5
BE
330
A
100
AcDbEntity
  8
1
  6
solid
 62
     7
100
AcDbLine
 10
0.7220962634627132
 20
-0.2643373868658236
 30
0.0
 11
0.7220962634627132
 21
-0.1080873868658236
 31
0.0
  0
LINE
  5
BF
330
A
100
AcDbEntity
  8
1
  6
solid
 62
     7
100
AcDbLine
 10
0.7495707983464342
 20
-0.2643373868658236
 30
0.0
 11
0.7859266122999225
 21
-0.1080873868658236
 31
0.0
  0
LINE
  5
C0
330
A
100
AcDbEntity
  8
1
  6
solid
 62
     7
100
AcDbLine
 10
0.7859266122999225
 20
-0.1080873868658236
 30
0.0
 11
0.8105626588115503
 21
-0.1080873868658236
 31
0.0
  0
LINE
  5
C1
330
A
100
AcDbEntity
  8
1
  6
solid
 62
     7
100
AcDbLine
 10
0.8105626588115503
 20
-0.1080873868658236
 30
0.0
 11
0.7742254495092248
 21
-0.2643373868658236
 31
0.0
  0
LINE
  5
C2
330
A
100
AcDbEntity
  8
1
  6
solid
 62
     7
100
AcDbLine
 10
0.7495707983464342
 20
-0.2643373868658236
 30
0.0
 11
0.7742254495092248
 21
-0.2643373868658236
 31
0.0
  0
SPLINE
  5
C3
330
A
100
AcDbEntity
  8
1
  6
solid
 62
     7
100
AcDbSpline
210
0.0
220
0.0
230
1.0
 70
     8
 71
     2
 72
     7
 73
     4
 74
     0
 42
0.0000000001
 43
0.0000000001
 40
0.0
 40
0.0
 40
0.0
 40
1.0
 40
2.0
 40
2.0
 40
2.0
 10
0.8663255657882945
 20
-0.1814623868658236
 30
0.0
 10
0.8538307983464342
 20
-0.1763652938425678
 30
0.0
 10
0.8427063797417829
 20
-0.1588292473309399
 30
0.0
 10
0.8427063797417829
 20
-0.1489635496565213
 30
0.0
  0
SPLINE
  5
C4
330
A
100
AcDbEntity
  8
1
  6
solid
 62
     7
100
AcDbSpline
210
0.0
220
0.0
230
1.0
 70
     8
 71
     2
 72
     7
 73
     4
 74
     0
 42
0.0000000001
 43
0.0000000001
 40
0.0
 40
0.0
 40
0.0
 40
1.0
 40
2.0
 40
2.0
 40
2.0
 10
0.8427063797417829
 20
-0.1489635496565213
 30
0.0
 10
0.8427063797417829
 20
-0.1312228519821027
 30
0.0
 10
0.8672744029975969
 20
-0.1080873868658236
 30
0.0
 10
0.8905401006720156
 20
-0.1080873868658236
 30
0.0
  0
SPLINE
  5
C5
330
A
100
AcDbEntity
  8
1
  6
solid
 62
     7
100
AcDbSpline
210
0.0
220
0.0
230
1.0
 70
     8
 71
     2
 72
     7
 73
     4
 74
     0
 42
0.0000000001
 43
0.0000000001
 40
0.0
 40
0.0
 40
0.0
 40
1.0
 40
2.0
 40
2.0
 40
2.0
 10
0.8905401006720156
 20
-0.1080873868658236
 30
0.0
 10
0.9136755657882947
 20
-0.1080873868658236
 30
0.0
 10
0.9389999843929457
 20
-0.1312228519821027
 30
0.0
 10
0.9389999843929457
 20
-0.1489635496565213
 30
0.0
  0
SPLINE
  5
C6
330
A
100
AcDbEntity
  8
1
  6
solid
 62
     7
100
AcDbSpline
210
0.0
220
0.0
230
1.0
 70
     8
 71
     2
 72
     7
 73
     4
 74
     0
 42
0.0000000001
 43
0.0000000001
 40
0.0
 40
0.0
 40
0.0
 40
1.0
 40
2.0
 40
2.0
 40
2.0
 10
0.9389999843929457
 20
-0.1489635496565213
 30
0.0
 10
0.9389999843929457
 20
-0.159864712447219
 30
0.0
 10
0.9264307983464341
 20
-0.1766443636100097
 30
0.0
 10
0.9146244029975969
 20
-0.1814623868658236
 30
0.0
  0
SPLINE
  5
C7
330
A
100
AcDbEntity
  8
1
  6
solid
 62
     7
100
AcDbSpline
210
0.0
220
0.0
230
1.0
 70
     8
 71
     2
 72
     7
 73
     4
 74
     0
 42
0.0000000001
 43
0.0000000001
 40
0.0
 40
0.0
 40
0.0
 40
1.0
 40
2.0
 40
2.0
 40
2.0
 10
0.9146244029975969
 20
-0.1814623868658236
 30
0.0
 10
0.9284523099743411
 20
-0.1860635496565213
 30
0.0
 10
0.9426337053231783
 20
-0.2058071543076841
 30
0.0
 10
0.9426337053231783
 20
-0.218618200819312
 30
0.0
  0
SPLINE
  5
C8
330
A
100
AcDbEntity
  8
1
  6
solid
 62
     7
100
AcDbSpline
210
0.0
220
0.0
230
1.0
 70
     8
 71
     2
 72
     7
 73
     4
 74
     0
 42
0.0000000001
 43
0.0000000001
 40
0.0
 40
0.0
 40
0.0
 40
1.0
 40
2.0
 40
2.0
 40
2.0
 10
0.9426337053231783
 20
-0.218618200819312
 30
0.0
 10
0.9426337053231783
 20
-0.2400112240751259
 30
0.0
 10
0.9143825425324807
 20
-0.2661542473309399
 30
0.0
 10
0.8910982402068993
 20
-0.2661542473309399
 30
0.0
  0
SPLINE
  5
C9
330
A
100
AcDbEntity
  8
1
  6
solid
 62
     7
100
AcDbSpline
210
0.0
220
0.0
230
1.0
 70
     8
 71
     2
 72
     6
 73
     3
 74
     0
 42
0.0000000001
 43
0.0000000001
 40
0.0
 40
0.0
 40
0.0
 40
1.0
 40
1.0
 40
1.0
 10
0.8910982402068993
 20
-0.2661542473309399
 30
0.0
 10
0.8701267285789922
 20
-0.2661542473309399
 30
0.0
 10
0.8557592867185272
 20
-0.2552158752379166
 30
0.0
  0
SPLINE
  5
CA
330
A
100
AcDbEntity
  8
1
  6
solid
 62
     7
100
AcDbSpline
210
0.0
220
0.0
230
1.0
 70
     8
 71
     2
 72
     6
 73
     3
 74
     0
 42
0.0000000001
 43
0.0000000001
 40
0.0
 40
0.0
 40
0.0
 40
1.0
 40
1.0
 40
1.0
 10
0.8557592867185272
 20
-0.2552158752379166
 30
0.0
 10
0.8390726588115505
 20
-0.2423490147728004
 30
0.0
 10
0.8390726588115505
 20
-0.2200629682611725
 30
0.0
  0
SPLINE
  5
CB
330
A
100
AcDbEntity
  8
1
  6
solid
 62
     7
100
AcDbSpline
210
0.0
220
0.0
230
1.0
 70
     8
 71
     2
 72
     7
 73
     4
 74
     0
 42
0.0000000001
 43
0.0000000001
 40
0.0
 40
0.0
 40
0.0
 40
1.0
 40
2.0
 40
2.0
 40
2.0
 10
0.8390726588115505
 20
-0.2200629682611725
 30
0.0
 10
0.8390726588115505
 20
-0.2075309915169865
 30
0.0
 10
0.8520511471836435
 20
-0.187043200819312
 30
0.0
 10
0.8663255657882945
 20
-0.1814623868658236
 30
0.0
  0
SPLINE
  5
CC
330
A
100
AcDbEntity
  8
1
  6
solid
 62
     7
100
AcDbSpline
210
0.0
220
0.0
230
1.0
 70
     8
 71
     2
 72
     7
 73
     4
 74
     0
 42
0.0000000001
 43
0.0000000001
 40
0.0
 40
0.0
 40
0.0
 40
1.0
 40
2.0
 40
2.0
 40
2.0
 10
0.8735930076487598
 20
-0.1509850612844283
 30
0.0
 10
0.8735930076487598
 20
-0.1600693636100097
 30
0.0
 10
0.8828633564859689
 20
-0.1698606426797771
 30
0.0
 10
0.8904842867185271
 20
-0.1698606426797771
 30
0.0
  0
SPLINE
  5
CD
330
A
100
AcDbEntity
  8
1
  6
solid
 62
     7
100
AcDbSpline
210
0.0
220
0.0
230
1.0
 70
     8
 71
     2
 72
     7
 73
     4
 74
     0
 42
0.0000000001
 43
0.0000000001
 40
0.0
 40
0.0
 40
0.0
 40
1.0
 40
2.0
 40
2.0
 40
2.0
 10
0.8904842867185271
 20
-0.1698606426797771
 30
0.0
 10
0.8981424262534108
 20
-0.1698606426797771
 30
0.0
 10
0.908113356485969
 20
-0.1599949450053586
 30
0.0
 10
0.908113356485969
 20
-0.1509106426797771
 30
0.0
  0
SPLINE
  5
CE
330
A
100
AcDbEntity
  8
1
  6
solid
 62
     7
100
AcDbSpline
210
0.0
220
0.0
230
1.0
 70
     8
 71
     2
 72
     7
 73
     4
 74
     0
 42
0.0000000001
 43
0.0000000001
 40
0.0
 40
0.0
 40
0.0
 40
1.0
 40
2.0
 40
2.0
 40
2.0
 10
0.908113356485969
 20
-0.1509106426797771
 30
0.0
 10
0.908113356485969
 20
-0.1421984333774515
 30
0.0
 10
0.8982168448580621
 20
-0.1317065729123353
 30
0.0
 10
0.890670333230155
 20
-0.1317065729123353
 30
0.0
  0
SPLINE
  5
CF
330
A
100
AcDbEntity
  8
1
  6
solid
 62
     7
100
AcDbSpline
210
0.0
220
0.0
230
1.0
 70
     8
 71
     2
 72
     7
 73
     4
 74
     0
 42
0.0000000001
 43
0.0000000001
 40
0.0
 40
0.0
 40
0.0
 40
1.0
 40
2.0
 40
2.0
 40
2.0
 10
0.890670333230155
 20
-0.1317065729123353
 30
0.0
 10
0.8829377750906202
 20
-0.1317065729123353
 30
0.0
 10
0.8735930076487598
 20
-0.1422728519821027
 30
0.0
 10
0.8735930076487598
 20
-0.1509850612844283
 30
0.0
  0
SPLINE
  5
D0
330
A
100
AcDbEntity
  8
1
  6
solid
 62
     7
100
AcDbSpline
210
0.0
220
0.0
230
1.0
 70
     8
 71
     2
 72
     7
 73
     4
 74
     0
 42
0.0000000001
 43
0.0000000001
 40
0.0
 40
0.0
 40
0.0
 40
1.0
 40
2.0
 40
2.0
 40
2.0
 10
0.8699592867185272
 20
-0.2169687822146608
 30
0.0
 10
0.8699592867185272
 20
-0.2292775031448934
 30
0.0
 10
0.8816790541603875
 20
-0.2425350612844283
 30
0.0
 10
0.8907819611371317
 20
-0.2425350612844283
 30
0.0
  0
SPLINE
  5
D1
330
A
100
AcDbEntity
  8
1
  6
solid
 62
     7
100
AcDbSpline
210
0.0
220
0.0
230
1.0
 70
     8
 71
     2
 72
     7
 73
     4
 74
     0
 42
0.0000000001
 43
0.0000000001
 40
0.0
 40
0.0
 40
0.0
 40
1.0
 40
2.0
 40
2.0
 40
2.0
 10
0.8907819611371317
 20
-0.2425350612844283
 30
0.0
 10
0.8997360309045737
 20
-0.2425350612844283
 30
0.0
 10
0.9117470774162017
 20
-0.2296123868658237
 30
0.0
 10
0.9117470774162017
 20
-0.2177995961681492
 30
0.0
  0
SPLINE
  5
D2
330
A
100
AcDbEntity
  8
1
  6
solid
 62
     7
100
AcDbSpline
210
0.0
220
0.0
230
1.0
 70
     8
 71
     2
 72
     7
 73
     4
 74
     0
 42
0.0000000001
 43
0.0000000001
 40
0.0
 40
0.0
 40
0.0
 40
1.0
 40
2.0
 40
2.0
 40
2.0
 10
0.9117470774162017
 20
-0.2177995961681492
 30
0.0
 10
0.9117470774162017
 20
-0.2070286659355911
 30
0.0
 10
0.8996057983464341
 20
-0.1934798287262888
 30
0.0
 10
0.8905028913696899
 20
-0.1934798287262888
 30
0.0
  0
SPLINE
  5
D3
330
A
100
AcDbEntity
  8
1
  6
solid
 62
     7
100
AcDbSpline
210
0.0
220
0.0
230
1.0
 70
     8
 71
     2
 72
     7
 73
     4
 74
     0
 42
0.0000000001
 43
0.0000000001
 40
0.0
 40
0.0
 40
0.0
 40
1.0
 40
2.0
 40
2.0
 40
2.0
 10
0.8905028913696899
 20
-0.1934798287262888
 30
0.0
 10
0.8798621936952713
 20
-0.1934798287262888
 30
0.0
 10
0.8699592867185272
 20
-0.2088083170983818
 30
0.0
 10
0.8699592867185272
 20
-0.2169687822146608
 30
0.0
  0
LINE
  5
D5
330
A
100
AcDbEntity
  8
0
  6
solid
 62
     7
100
AcDbLine
 10
0.1873935264054514
 20
0.3321976149914821
 30
0.0
 11
0.1873935264054514
 21
0.4571976149914822
 31
0.0
  0
LINE
  5
D6
330
A
100
AcDbEntity
  8
0
  6
solid
 62
     7
100
AcDbLine
 10
0.1873935264054514
 20
0.4571976149914822
 30
0.0
 11
0.2109442510431326
 21
0.4571976149914822
 31
0.0
  0
LINE
  5
D7
330
A
100
AcDbEntity
  8
0
  6
solid
 62
     7
100
AcDbLine
 10
0.2109442510431326
 20
0.4571976149914822
 30
0.0
 11
0.2109442510431326
 21
0.3539367454262647
 31
0.0
  0
LINE
  5
D8
330
A
100
AcDbEntity
  8
0
  6
solid
 62
     7
100
AcDbLine
 10
0.2109442510431326
 20
0.3539367454262647
 30
0.0
 11
0.2761616423474804
 21
0.3539367454262647
 31
0.0
  0
LINE
  5
D9
330
A
100
AcDbEntity
  8
0
  6
solid
 62
     7
100
AcDbLine
 10
0.2761616423474804
 20
0.3539367454262647
 30
0.0
 11
0.2761616423474804
 21
0.3321976149914821
 31
0.0
  0
LINE
  5
DA
330
A
100
AcDbEntity
  8
0
  6
solid
 62
     7
100
AcDbLine
 10
0.1873935264054514
 20
0.3321976149914821
 30
0.0
 11
0.2761616423474804
 21
0.3321976149914821
 31
0.0
  0
LINE
  5
DB
330
A
100
AcDbEntity
  8
0
  6
solid
 62
     7
100
AcDbLine
 10
0.2902016423474805
 20
0.4571976149914822
 30
0.0
 11
0.3361222220576254
 21
0.4571976149914822
 31
0.0
  0
SPLINE
  5
DC
330
A
100
AcDbEntity
  8
0
  6
solid
 62
     7
100
AcDbSpline
210
0.0
220
0.0
230
1.0
 70
     8
 71
     2
 72
     6
 73
     3
 74
     0
 42
0.0000000001
 43
0.0000000001
 40
0.0
 40
0.0
 40
0.0
 40
1.0
 40
1.0
 40
1.0
 10
0.3361222220576254
 20
0.4571976149914822
 30
0.0
 10
0.3519999032170457
 20
0.4571976149914822
 30
0.0
 10
0.3598770046663211
 20
0.454390658469743
 30
0.0
  0
SPLINE
  5
DD
330
A
100
AcDbEntity
  8
0
  6
solid
 62
     7
100
AcDbSpline
210
0.0
220
0.0
230
1.0
 70
     8
 71
     2
 72
     8
 73
     5
 74
     0
 42
0.0000000001
 43
0.0000000001
 40
0.0
 40
0.0
 40
0.0
 40
1.0
 40
2.0
 40
3.0
 40
3.0
 40
3.0
 10
0.3598770046663211
 20
0.454390658469743
 30
0.0
 10
0.3708393235069007
 20
0.4510086294842358
 30
0.0
 10
0.3867726568402341
 20
0.4345558758610474
 30
0.0
 10
0.3952741061155964
 20
0.410726890353801
 30
0.0
 10
0.3952741061155964
 20
0.3929819628175691
 30
0.0
  0
SPLINE
  5
DE
330
A
100
AcDbEntity
  8
0
  6
solid
 62
     7
100
AcDbSpline
210
0.0
220
0.0
230
1.0
 70
     8
 71
     2
 72
     6
 73
     3
 74
     0
 42
0.0000000001
 43
0.0000000001
 40
0.0
 40
0.0
 40
0.0
 40
1.0
 40
1.0
 40
1.0
 10
0.3952741061155964
 20
0.3929819628175691
 30
0.0
 10
0.3952741061155964
 20
0.3778770352813372
 30
0.0
 10
0.3908781640866109
 20
0.3668034120929314
 30
0.0
  0
SPLINE
  5
DF
330
A
100
AcDbEntity
  8
0
  6
solid
 62
     7
100
AcDbSpline
210
0.0
220
0.0
230
1.0
 70
     8
 71
     2
 72
     6
 73
     3
 74
     0
 42
0.0000000001
 43
0.0000000001
 40
0.0
 40
0.0
 40
0.0
 40
1.0
 40
1.0
 40
1.0
 10
0.3908781640866109
 20
0.3668034120929314
 30
0.0
 10
0.3865500481445819
 20
0.3528671802088735
 30
0.0
 10
0.3777146858257414
 20
0.3442173251364097
 30
0.0
  0
SPLINE
  5
E0
330
A
100
AcDbEntity
  8
0
  6
solid
 62
     7
100
AcDbSpline
210
0.0
220
0.0
230
1.0
 70
     8
 71
     2
 72
     6
 73
     3
 74
     0
 42
0.0000000001
 43
0.0000000001
 40
0.0
 40
0.0
 40
0.0
 40
1.0
 40
1.0
 40
1.0
 10
0.3777146858257414
 20
0.3442173251364097
 30
0.0
 10
0.3708949756808138
 20
0.3381518178900329
 30
0.0
 10
0.359821352492408
 20
0.3345471802088735
 30
0.0
  0
SPLINE
  5
E1
330
A
100
AcDbEntity
  8
0
  6
solid
 62
     7
100
AcDbSpline
210
0.0
220
0.0
230
1.0
 70
     8
 71
     2
 72
     6
 73
     3
 74
     0
 42
0.0000000001
 43
0.0000000001
 40
0.0
 40
0.0
 40
0.0
 40
1.0
 40
1.0
 40
1.0
 10
0.359821352492408
 20
0.3345471802088735
 30
0.0
 10
0.3518329466953066
 20
0.3321976149914821
 30
0.0
 10
0.3376370046663211
 20
0.3321976149914821
 30
0.0
  0
LINE
  5
E2
330
A
100
AcDbEntity
  8
0
  6
solid
 62
     7
100
AcDbLine
 10
0.3376370046663211
 20
0.3321976149914821
 30
0.0
 11
0.2902016423474805
 21
0.3321976149914821
 31
0.0
  0
LINE
  5
E3
330
A
100
AcDbEntity
  8
0
  6
solid
 62
     7
100
AcDbLine
 10
0.2902016423474805
 20
0.4571976149914822
 30
0.0
 11
0.2902016423474805
 21
0.3321976149914821
 31
0.0
  0
LINE
  5
E4
330
A
100
AcDbEntity
  8
0
  6
solid
 62
     7
100
AcDbLine
 10
0.3137523669851616
 20
0.4354584845566995
 30
0.0
 11
0.3137523669851616
 21
0.3539367454262647
 31
0.0
  0
LINE
  5
E5
330
A
100
AcDbEntity
  8
0
  6
solid
 62
     7
100
AcDbLine
 10
0.3137523669851616
 20
0.3539367454262647
 30
0.0
 11
0.3340138162605239
 21
0.3539367454262647
 31
0.0
  0
SPLINE
  5
E6
330
A
100
AcDbEntity
  8
0
  6
solid
 62
     7
100
AcDbSpline
210
0.0
220
0.0
230
1.0
 70
     8
 71
     2
 72
     6
 73
     3
 74
     0
 42
0.0000000001
 43
0.0000000001
 40
0.0
 40
0.0
 40
0.0
 40
1.0
 40
1.0
 40
1.0
 10
0.3340138162605239
 20
0.3539367454262647
 30
0.0
 10
0.3452729466953066
 20
0.3539367454262647
 30
0.0
 10
0.35048512060835
 20
0.3547158758610474
 30
0.0
  0
SPLINE
  5
E7
330
A
100
AcDbEntity
  8
0
  6
solid
 62
     7
100
AcDbSpline
210
0.0
220
0.0
230
1.0
 70
     8
 71
     2
 72
     8
 73
     5
 74
     0
 42
0.0000000001
 43
0.0000000001
 40
0.0
 40
0.0
 40
0.0
 40
1.0
 40
2.0
 40
3.0
 40
3.0
 40
3.0
 10
0.35048512060835
 20
0.3547158758610474
 30
0.0
 10
0.3573419322025529
 20
0.3563234120929315
 30
0.0
 10
0.365590048144582
 20
0.3635512381798879
 30
0.0
 10
0.3717233814779153
 20
0.3800039918030764
 30
0.0
 10
0.3717233814779153
 20
0.394366890353801
 30
0.0
  0
SPLINE
  5
E8
330
A
100
AcDbEntity
  8
0
  6
solid
 62
     7
100
AcDbSpline
210
0.0
220
0.0
230
1.0
 70
     8
 71
     2
 72
     8
 73
     5
 74
     0
 42
0.0000000001
 43
0.0000000001
 40
0.0
 40
0.0
 40
0.0
 40
1.0
 40
2.0
 40
3.0
 40
3.0
 40
3.0
 10
0.3717233814779153
 20
0.394366890353801
 30
0.0
 10
0.3717233814779153
 20
0.408711238179888
 30
0.0
 10
0.365590048144582
 20
0.4237234120929314
 30
0.0
 10
0.3559199032170457
 20
0.4324474700639459
 30
0.0
 10
0.3483952655358863
 20
0.4340550062958301
 30
0.0
  0
SPLINE
  5
E9
330
A
100
AcDbEntity
  8
0
  6
solid
 62
     7
100
AcDbSpline
210
0.0
220
0.0
230
1.0
 70
     8
 71
     2
 72
     6
 73
     3
 74
     0
 42
0.0000000001
 43
0.0000000001
 40
0.0
 40
0.0
 40
0.0
 40
1.0
 40
1.0
 40
1.0
 10
0.3483952655358863
 20
0.4340550062958301
 30
0.0
 10
0.3427749756808138
 20
0.4354584845566995
 30
0.0
 10
0.325549468434437
 20
0.4354584845566995
 30
0.0
  0
LINE
  5
EA
330
A
100
AcDbEntity
  8
0
  6
solid
 62
     7
100
AcDbLine
 10
0.3137523669851616
 20
0.4354584845566995
 30
0.0
 11
0.325549468434437
 21
0.4354584845566995
 31
0.0
  0
LINE
  5
EB
330
A
100
AcDbEntity
  8
0
  6
solid
 62
     7
100
AcDbLine
 10
0.4944590336518283
 20
0.3557483396291633
 30
0.0
 11
0.4944590336518283
 21
0.3321976149914821
 31
0.0
  0
LINE
  5
EC
330
A
100
AcDbEntity
  8
0
  6
solid
 62
     7
100
AcDbLine
 10
0.4944590336518283
 20
0.3321976149914821
 30
0.0
 11
0.4129372945213935
 21
0.3321976149914821
 31
0.0
  0
SPLINE
  5
ED
330
A
100
AcDbEntity
  8
0
  6
solid
 62
     7
100
AcDbSpline
210
0.0
220
0.0
230
1.0
 70
     8
 71
     2
 72
     7
 73
     4
 74
     0
 42
0.0000000001
 43
0.0000000001
 40
0.0
 40
0.0
 40
0.0
 40
1.0
 40
2.0
 40
2.0
 40
2.0
 10
0.4129372945213935
 20
0.3321976149914821
 30
0.0
 10
0.4138091785793645
 20
0.3440318178900329
 30
0.0
 10
0.4274485988692195
 20
0.3666179048465546
 30
0.0
 10
0.4464364249561762
 20
0.3848266004987285
 30
0.0
  0
SPLINE
  5
EE
330
A
100
AcDbEntity
  8
0
  6
solid
 62
     7
100
AcDbSpline
210
0.0
220
0.0
230
1.0
 70
     8
 71
     2
 72
     6
 73
     3
 74
     0
 42
0.0000000001
 43
0.0000000001
 40
0.0
 40
0.0
 40
0.0
 40
1.0
 40
1.0
 40
1.0
 10
0.4464364249561762
 20
0.3848266004987285
 30
0.0
 10
0.4623326568402341
 20
0.3994863106436561
 30
0.0
 10
0.4659001930721181
 20
0.4047912381798879
 30
0.0
  0
SPLINE
  5
EF
330
A
100
AcDbEntity
  8
0
  6
solid
 62
     7
100
AcDbSpline
210
0.0
220
0.0
230
1.0
 70
     8
 71
     2
 72
     6
 73
     3
 74
     0
 42
0.0000000001
 43
0.0000000001
 40
0.0
 40
0.0
 40
0.0
 40
1.0
 40
1.0
 40
1.0
 10
0.4659001930721181
 20
0.4047912381798879
 30
0.0
 10
0.4709083090141471
 20
0.4120561657161198
 30
0.0
 10
0.4709083090141471
 20
0.419191238179888
 30
0.0
  0
SPLINE
  5
F0
330
A
100
AcDbEntity
  8
0
  6
solid
 62
     7
100
AcDbSpline
210
0.0
220
0.0
230
1.0
 70
     8
 71
     2
 72
     7
 73
     4
 74
     0
 42
0.0000000001
 43
0.0000000001
 40
0.0
 40
0.0
 40
0.0
 40
1.0
 40
2.0
 40
2.0
 40
2.0
 10
0.4709083090141471
 20
0.419191238179888
 30
0.0
 10
0.4709083090141471
 20
0.4268271802088735
 30
0.0
 10
0.4622584539416833
 20
0.4354584845566995
 30
0.0
 10
0.4548822220576254
 20
0.4354584845566995
 30
0.0
  0
SPLINE
  5
F1
330
A
100
AcDbEntity
  8
0
  6
solid
 62
     7
100
AcDbSpline
210
0.0
220
0.0
230
1.0
 70
     8
 71
     2
 72
     7
 73
     4
 74
     0
 42
0.0000000001
 43
0.0000000001
 40
0.0
 40
0.0
 40
0.0
 40
1.0
 40
2.0
 40
2.0
 40
2.0
 10
0.4548822220576254
 20
0.4354584845566995
 30
0.0
 10
0.4475616423474805
 20
0.4354584845566995
 30
0.0
 10
0.4387448307532776
 20
0.4268457309335111
 30
0.0
 10
0.4382996133619732
 20
0.4173425425277141
 30
0.0
  0
LINE
  5
F2
330
A
100
AcDbEntity
  8
0
  6
solid
 62
     7
100
AcDbLine
 10
0.4382996133619732
 20
0.4173425425277141
 30
0.0
 11
0.414748888724292
 21
0.4194138468755402
 31
0.0
  0
SPLINE
  5
F3
330
A
100
AcDbEntity
  8
0
  6
solid
 62
     7
100
AcDbSpline
210
0.0
220
0.0
230
1.0
 70
     8
 71
     2
 72
     7
 73
     4
 74
     0
 42
0.0000000001
 43
0.0000000001
 40
0.0
 40
0.0
 40
0.0
 40
1.0
 40
2.0
 40
2.0
 40
2.0
 10
0.414748888724292
 20
0.4194138468755402
 30
0.0
 10
0.4167459901735674
 20
0.439471238179888
 30
0.0
 10
0.4387262800286399
 20
0.4571976149914822
 30
0.0
 10
0.4552161351011037
 20
0.4571976149914822
 30
0.0
  0
SPLINE
  5
F4
330
A
100
AcDbEntity
  8
0
  6
solid
 62
     7
100
AcDbSpline
210
0.0
220
0.0
230
1.0
 70
     8
 71
     2
 72
     7
 73
     4
 74
     0
 42
0.0000000001
 43
0.0000000001
 40
0.0
 40
0.0
 40
0.0
 40
1.0
 40
2.0
 40
2.0
 40
2.0
 10
0.4552161351011037
 20
0.4571976149914822
 30
0.0
 10
0.4733506278547269
 20
0.4571976149914822
 30
0.0
 10
0.4944590336518283
 20
0.4374741367306127
 30
0.0
 10
0.4944590336518283
 20
0.4229442816581488
 30
0.0
  0
SPLINE
  5
F5
330
A
100
AcDbEntity
  8
0
  6
solid
 62
     7
100
AcDbSpline
210
0.0
220
0.0
230
1.0
 70
     8
 71
     2
 72
     7
 73
     4
 74
     0
 42
0.0000000001
 43
0.0000000001
 40
0.0
 40
0.0
 40
0.0
 40
1.0
 40
2.0
 40
2.0
 40
2.0
 10
0.4944590336518283
 20
0.4229442816581488
 30
0.0
 10
0.4944590336518283
 20
0.4143871802088734
 30
0.0
 10
0.4881958452460312
 20
0.3995605135422067
 30
0.0
 10
0.4822230916228428
 20
0.3910590642668445
 30
0.0
  0
SPLINE
  5
F6
330
A
100
AcDbEntity
  8
0
  6
solid
 62
     7
100
AcDbSpline
210
0.0
220
0.0
230
1.0
 70
     8
 71
     2
 72
     8
 73
     5
 74
     0
 42
0.0000000001
 43
0.0000000001
 40
0.0
 40
0.0
 40
0.0
 40
1.0
 40
2.0
 40
3.0
 40
3.0
 40
3.0
 10
0.4822230916228428
 20
0.3910590642668445
 30
0.0
 10
0.4782659901735674
 20
0.3856057309335111
 30
0.0
 10
0.4554201930721181
 20
0.3653442816581488
 30
0.0
 10
0.4497628017677703
 20
0.3584503686146705
 30
0.0
 10
0.4479697582895094
 20
0.3557483396291633
 30
0.0
  0
LINE
  5
F7
330
A
100
AcDbEntity
  8
0
  6
solid
 62
     7
100
AcDbLine
 10
0.4944590336518283
 20
0.3557483396291633
 30
0.0
 11
0.4479697582895094
 21
0.3557483396291633
 31
0.0
  0
LINE
  5
F8
330
A
100
AcDbEntity
  8
0
  6
solid
 62
     7
100
AcDbLine
 10
0.5084990336518283
 20
0.4318352961509025
 30
0.0
 11
0.5084990336518283
 21
0.4553860207885836
 31
0.0
  0
LINE
  5
F9
330
A
100
AcDbEntity
  8
0
  6
solid
 62
     7
100
AcDbLine
 10
0.5084990336518283
 20
0.4553860207885836
 30
0.0
 11
0.5900207727822631
 21
0.4553860207885836
 31
0.0
  0
LINE
  5
FA
330
A
100
AcDbEntity
  8
0
  6
solid
 62
     7
100
AcDbLine
 10
0.5900207727822631
 20
0.4553860207885836
 30
0.0
 11
0.5900207727822631
 21
0.4372700787595982
 31
0.0
  0
SPLINE
  5
FB
330
A
100
AcDbEntity
  8
0
  6
solid
 62
     7
100
AcDbSpline
210
0.0
220
0.0
230
1.0
 70
     8
 71
     2
 72
     8
 73
     5
 74
     0
 42
0.0000000001
 43
0.0000000001
 40
0.0
 40
0.0
 40
0.0
 40
1.0
 40
2.0
 40
3.0
 40
3.0
 40
3.0
 10
0.5900207727822631
 20
0.4372700787595982
 30
0.0
 10
0.5796891785793644
 20
0.427031238179888
 30
0.0
 10
0.5585622220576254
 20
0.3902613831074242
 30
0.0
 10
0.5476741061155963
 20
0.3485761657161198
 30
0.0
 10
0.5483541061155963
 20
0.3321976149914821
 30
0.0
  0
LINE
  5
FC
330
A
100
AcDbEntity
  8
0
  6
solid
 62
     7
100
AcDbLine
 10
0.5483541061155963
 20
0.3321976149914821
 30
0.0
 11
0.5248033814779152
 21
0.3321976149914821
 31
0.0
  0
SPLINE
  5
FD
330
A
100
AcDbEntity
  8
0
  6
solid
 62
     7
100
AcDbSpline
210
0.0
220
0.0
230
1.0
 70
     8
 71
     2
 72
     7
 73
     4
 74
     0
 42
0.0000000001
 43
0.0000000001
 40
0.0
 40
0.0
 40
0.0
 40
1.0
 40
2.0
 40
2.0
 40
2.0
 10
0.5248033814779152
 20
0.3321976149914821
 30
0.0
 10
0.5251929466953066
 20
0.3576897889045256
 30
0.0
 10
0.5454172945213935
 20
0.4106155860059749
 30
0.0
 10
0.5622039611880601
 20
0.4318352961509025
 30
0.0
  0
LINE
  5
FE
330
A
100
AcDbEntity
  8
0
  6
solid
 62
     7
100
AcDbLine
 10
0.5084990336518283
 20
0.4318352961509025
 30
0.0
 11
0.5622039611880601
 21
0.4318352961509025
 31
0.0
  0
LINE
  5
FF
330
A
100
AcDbEntity
  8
0
  6
solid
 62
     7
100
AcDbLine
 10
0.6058723669851616
 20
0.3671558758610474
 30
0.0
 11
0.6294230916228428
 21
0.3702410932523517
 31
0.0
  0
SPLINE
  5
100
330
A
100
AcDbEntity
  8
0
  6
solid
 62
     7
100
AcDbSpline
210
0.0
220
0.0
230
1.0
 70
     8
 71
     2
 72
     7
 73
     4
 74
     0
 42
0.0000000001
 43
0.0000000001
 40
0.0
 40
0.0
 40
0.0
 40
1.0
 40
2.0
 40
2.0
 40
2.0
 10
0.6294230916228428
 20
0.3702410932523517
 30
0.0
 10
0.6301280191590746
 20
0.3613500787595981
 30
0.0
 10
0.6394642510431325
 20
0.3521251512233662
 30
0.0
 10
0.6463767148112485
 20
0.3521251512233662
 30
0.0
  0
SPLINE
  5
101
330
A
100
AcDbEntity
  8
0
  6
solid
 62
     7
100
AcDbSpline
210
0.0
220
0.0
230
1.0
 70
     8
 71
     2
 72
     7
 73
     4
 74
     0
 42
0.0000000001
 43
0.0000000001
 40
0.0
 40
0.0
 40
0.0
 40
1.0
 40
2.0
 40
2.0
 40
2.0
 10
0.6463767148112485
 20
0.3521251512233662
 30
0.0
 10
0.653604540898205
 20
0.3521251512233662
 30
0.0
 10
0.6638433814779151
 20
0.3618509483248155
 30
0.0
 10
0.6638433814779151
 20
0.3705935570204677
 30
0.0
  0
SPLINE
  5
102
330
A
100
AcDbEntity
  8
0
  6
solid
 62
     7
100
AcDbSpline
210
0.0
220
0.0
230
1.0
 70
     8
 71
     2
 72
     7
 73
     4
 74
     0
 42
0.0000000001
 43
0.0000000001
 40
0.0
 40
0.0
 40
0.0
 40
1.0
 40
2.0
 40
2.0
 40
2.0
 10
0.6638433814779151
 20
0.3705935570204677
 30
0.0
 10
0.6638433814779151
 20
0.3783964555711923
 30
0.0
 10
0.6548967148112485
 20
0.3883570352813372
 30
0.0
 10
0.6482068597387847
 20
0.3883570352813372
 30
0.0
  0
SPLINE
  5
103
330
A
100
AcDbEntity
  8
0
  6
solid
 62
     7
100
AcDbSpline
210
0.0
220
0.0
230
1.0
 70
     8
 71
     2
 72
     6
 73
     3
 74
     0
 42
0.0000000001
 43
0.0000000001
 40
0.0
 40
0.0
 40
0.0
 40
1.0
 40
1.0
 40
1.0
 10
0.6482068597387847
 20
0.3883570352813372
 30
0.0
 10
0.6441941061155964
 20
0.3883570352813372
 30
0.0
 10
0.6384810626373354
 20
0.3865639918030763
 30
0.0
  0
LINE
  5
104
330
A
100
AcDbEntity
  8
0
  6
solid
 62
     7
100
AcDbLine
 10
0.6384810626373354
 20
0.3865639918030763
 30
0.0
 11
0.6406265698837123
 21
0.4064729773103228
 31
0.0
  0
SPLINE
  5
105
330
A
100
AcDbEntity
  8
0
  6
solid
 62
     7
100
AcDbSpline
210
0.0
220
0.0
230
1.0
 70
     8
 71
     2
 72
     7
 73
     4
 74
     0
 42
0.0000000001
 43
0.0000000001
 40
0.0
 40
0.0
 40
0.0
 40
1.0
 40
2.0
 40
2.0
 40
2.0
 10
0.6406265698837123
 20
0.4064729773103228
 30
0.0
 10
0.6493691785793644
 20
0.4056816729624967
 30
0.0
 10
0.6584085988692196
 20
0.4144984845566995
 30
0.0
 10
0.6584085988692196
 20
0.4216892091943807
 30
0.0
  0
SPLINE
  5
106
330
A
100
AcDbEntity
  8
0
  6
solid
 62
     7
100
AcDbSpline
210
0.0
220
0.0
230
1.0
 70
     8
 71
     2
 72
     7
 73
     4
 74
     0
 42
0.0000000001
 43
0.0000000001
 40
0.0
 40
0.0
 40
0.0
 40
1.0
 40
2.0
 40
2.0
 40
2.0
 10
0.6584085988692196
 20
0.4216892091943807
 30
0.0
 10
0.6584085988692196
 20
0.4275692091943807
 30
0.0
 10
0.6513848307532775
 20
0.4354584845566995
 30
0.0
 10
0.6457459901735674
 20
0.4354584845566995
 30
0.0
  0
SPLINE
  5
107
330
A
100
AcDbEntity
  8
0
  6
solid
 62
     7
100
AcDbSpline
210
0.0
220
0.0
230
1.0
 70
     8
 71
     2
 72
     7
 73
     4
 74
     0
 42
0.0000000001
 43
0.0000000001
 40
0.0
 40
0.0
 40
0.0
 40
1.0
 40
2.0
 40
2.0
 40
2.0
 10
0.6457459901735674
 20
0.4354584845566995
 30
0.0
 10
0.639557004666321
 20
0.4354584845566995
 30
0.0
 10
0.6318097582895094
 20
0.4268828323827865
 30
0.0
 10
0.6312346858257413
 20
0.4191541367306126
 30
0.0
  0
LINE
  5
108
330
A
100
AcDbEntity
  8
0
  6
solid
 62
     7
100
AcDbLine
 10
0.6312346858257413
 20
0.4191541367306126
 30
0.0
 11
0.6076839611880601
 21
0.4227958758610474
 31
0.0
  0
SPLINE
  5
109
330
A
100
AcDbEntity
  8
0
  6
solid
 62
     7
100
AcDbSpline
210
0.0
220
0.0
230
1.0
 70
     8
 71
     2
 72
     8
 73
     5
 74
     0
 42
0.0000000001
 43
0.0000000001
 40
0.0
 40
0.0
 40
0.0
 40
1.0
 40
2.0
 40
3.0
 40
3.0
 40
3.0
 10
0.6076839611880601
 20
0.4227958758610474
 30
0.0
 10
0.6097923669851615
 20
0.4343703686146706
 30
0.0
 10
0.6188874394489297
 20
0.4487147164407576
 30
0.0
 10
0.6352103379996544
 20
0.4571976149914822
 30
0.0
 10
0.644973236550379
 20
0.4571976149914822
 30
0.0
  0
SPLINE
  5
10A
330
A
100
AcDbEntity
  8
0
  6
solid
 62
     7
100
AcDbSpline
210
0.0
220
0.0
230
1.0
 70
     8
 71
     2
 72
     6
 73
     3
 74
     0
 42
0.0000000001
 43
0.0000000001
 40
0.0
 40
0.0
 40
0.0
 40
1.0
 40
1.0
 40
1.0
 10
0.644973236550379
 20
0.4571976149914822
 30
0.0
 10
0.6625883090141471
 20
0.4571976149914822
 30
0.0
 10
0.6731796133619731
 20
0.4452955860059749
 30
0.0
  0
SPLINE
  5
10B
330
A
100
AcDbEntity
  8
0
  6
solid
 62
     7
100
AcDbSpline
210
0.0
220
0.0
230
1.0
 70
     8
 71
     2
 72
     6
 73
     3
 74
     0
 42
0.0000000001
 43
0.0000000001
 40
0.0
 40
0.0
 40
0.0
 40
1.0
 40
1.0
 40
1.0
 10
0.6731796133619731
 20
0.4452955860059749
 30
0.0
 10
0.6819593235069008
 20
0.4359964555711923
 30
0.0
 10
0.6819593235069008
 20
0.4238532671653952
 30
0.0
  0
SPLINE
  5
10C
330
A
100
AcDbEntity
  8
0
  6
solid
 62
     7
100
AcDbSpline
210
0.0
220
0.0
230
1.0
 70
     8
 71
     2
 72
     6
 73
     3
 74
     0
 42
0.0000000001
 43
0.0000000001
 40
0.0
 40
0.0
 40
0.0
 40
1.0
 40
1.0
 40
1.0
 10
0.6819593235069008
 20
0.4238532671653952
 30
0.0
 10
0.6819593235069008
 20
0.40721500629583
 30
0.0
 10
0.6641587437967558
 20
0.3975263106436561
 30
0.0
  0
SPLINE
  5
10D
330
A
100
AcDbEntity
  8
0
  6
solid
 62
     7
100
AcDbSpline
210
0.0
220
0.0
230
1.0
 70
     8
 71
     2
 72
     7
 73
     4
 74
     0
 42
0.0000000001
 43
0.0000000001
 40
0.0
 40
0.0
 40
0.0
 40
1.0
 40
2.0
 40
2.0
 40
2.0
 10
0.6641587437967558
 20
0.3975263106436561
 30
0.0
 10
0.6747871495938572
 20
0.3948121077451053
 30
0.0
 10
0.6873941061155965
 20
0.3796329773103228
 30
0.0
 10
0.6873941061155965
 20
0.3686892091943807
 30
0.0
  0
SPLINE
  5
10E
330
A
100
AcDbEntity
  8
0
  6
solid
 62
     7
100
AcDbSpline
210
0.0
220
0.0
230
1.0
 70
     8
 71
     2
 72
     7
 73
     4
 74
     0
 42
0.0000000001
 43
0.0000000001
 40
0.0
 40
0.0
 40
0.0
 40
1.0
 40
2.0
 40
2.0
 40
2.0
 10
0.6873941061155965
 20
0.3686892091943807
 30
0.0
 10
0.6873941061155965
 20
0.3526074700639459
 30
0.0
 10
0.6631819322025529
 20
0.3303860207885836
 30
0.0
 10
0.6460428017677702
 20
0.3303860207885836
 30
0.0
  0
SPLINE
  5
10F
330
A
100
AcDbEntity
  8
0
  6
solid
 62
     7
100
AcDbSpline
210
0.0
220
0.0
230
1.0
 70
     8
 71
     2
 72
     7
 73
     4
 74
     0
 42
0.0000000001
 43
0.0000000001
 40
0.0
 40
0.0
 40
0.0
 40
1.0
 40
2.0
 40
2.0
 40
2.0
 10
0.6460428017677702
 20
0.3303860207885836
 30
0.0
 10
0.6295158452460311
 20
0.3303860207885836
 30
0.0
 10
0.6070225119126978
 20
0.3506845715132213
 30
0.0
 10
0.6058723669851616
 20
0.3671558758610474
 30
0.0
  0
LINE
  5
171
330
A
100
AcDbEntity
  8
1
  6
solid
 62
     7
370
     0
100
AcDbLine
 10
-3.687825679779052
 20
-0.1078832726925611
 30
0.0
 11
-3.687825679779052
 21
-0.3594764778306686
 31
0.0
  0
LINE
  5
172
330
A
100
AcDbEntity
  8
1
  6
solid
 62
     7
370
     0
100
AcDbLine
 10
-2.625325679779052
 20
-0.1078832726925611
 30
0.0
 11
-2.625325679779052
 21
-0.3594764778306686
 31
0.0
  0
LINE
  5
173
330
A
100
AcDbEntity
  8
1
  6
solid
 62
     7
370
     0
100
AcDbLine
 10
-3.687825679779052
 20
-0.2969764778306686
 30
0.0
 11
-3.535443326837876
 21
-0.2969764778306686
 31
0.0
  0
LINE
  5
174
330
A
100
AcDbEntity
  8
1
  6
solid
 62
     7
370
     0
100
AcDbLine
 10
-2.625325679779052
 20
-0.2969764778306686
 30
0.0
 11
-2.777708032720229
 21
-0.2969764778306686
 31
0.0
  0
MTEXT
  5
175
330
A
100
AcDbEntity
  8
1
  6
solid
 62
     7
370
     0
100
AcDbMText
 10
-3.156575679779052
 20
-0.2969764778306686
 30
0.0
 40
0.125
 41
0.0
 71
     5
 72
     1
  1
{\H0.125000;1 1/16}
 73
     1
 44
1.0
  0
SOLID
  5
176
330
A
100
AcDbEntity
  8
1
  6
solid
 62
     7
370
     0
100
AcDbTrace
 10
-3.662825679779052
 20
-0.2844764778306686
 30
0.0
 11
-3.662825679779052
 21
-0.3094764778306686
 31
0.0
 12
-3.687825679779052
 22
-0.2969764778306686
 32
0.0
 13
-3.687825679779052
 23
-0.2969764778306686
 33
0.0
  0
SOLID
  5
177
330
A
100
AcDbEntity
  8
1
  6
solid
 62
     7
370
     0
100
AcDbTrace
 10
-2.650325679779052
 20
-0.3094764778306686
 30
0.0
 11
-2.650325679779052
 21
-0.2844764778306686
 31
0.0
 12
-2.625325679779052
 22
-0.2969764778306686
 32
0.0
 13
-2.625325679779052
 23
-0.2969764778306686
 33
0.0
  0
VIEWPORT
  5
12D
330
B
100
AcDbEntity
 67
     1
  8
0
  6
Continuous
370
     0
100
AcDbViewport
 10
5.142952356186206
 20
3.950916201673133
 30
0.0
 40
15.41033574116967
 41
8.153701551200999
 68
     1
 69
     1
 12
5.142952356186206
 22
3.950916201673133
 13
0.0
 23
0.0
 14
0.5
 24
0.5
 15
0.5
 25
0.5
 16
0.0
 26
0.0
 36
1.0
 17
0.0
 27
0.0
 37
0.0
 42
50.0
 43
0.0
 44
0.0
 45
8.153701551200999
 50
0.0
 51
0.0
 72
   100
 90
   819232
  1

281
     0
 71
     1
 74
     0
110
0.0
120
0.0
130
0.0
111
1.0
121
0.0
131
0.0
112
0.0
122
1.0
132
0.0
 79
     0
146
0.0
170
     0
  0
VIEWPORT
  5
130
330
B
100
AcDbEntity
 67
     1
  8
0
  6
Continuous
370
     0
100
AcDbViewport
 10
5.142913525024141
 20
3.951116639509745
 30
0.0
 40
10.57212785263506
 41
8.058433136795166
 68
     2
 69
     2
 12
-1.332561323297421
 22
1.997580889296022
 13
0.0
 23
0.0
 14
0.5
 24
0.5
 15
0.5
 25
0.5
 16
0.0
 26
0.0
 36
1.0
 17
0.0
 27
0.0
 37
0.0
 42
50.0
 43
0.0
 44
0.0
 45
6.113940413273285
 50
0.0
 51
0.0
 72
   100
 90
   819232
  1

281
     0
 71
     1
 74
     0
110
0.0
120
0.0
130
0.0
111
1.0
121
0.0
131
0.0
112
0.0
122
1.0
132
0.0
 79
     0
146
0.0
170
     0
  0
ENDSEC
  0
SECTION
  2
OBJECTS
  0
DICTIONARY
  5
19
330
0
100
AcDbDictionary
281
     1
  3
ACAD_COLOR
350
126
  3
ACAD_GROUP
350
1A
  3
ACAD_LAYOUT
350
1E
  3
ACAD_MATERIAL
350
111
  3
ACAD_MLEADERSTYLE
350
15A
  3
ACAD_MLINESTYLE
350
1B
  3
ACAD_PLOTSETTINGS
350
22
  3
ACAD_PLOTSTYLENAME
350
1F
  3
ACAD_SCALELIST
350
138
  3
ACAD_TABLESTYLE
350
127
  3
ACAD_VISUALSTYLE
350
115
  3
ACAD_WIPEOUT_VARS
350
23
  3
ACDB_RECOMPOSE_DATA
350
196
  3
AcDbVariableDictionary
350
135
  3
ASE_INDEX_DICTIONARY
350
132
  0
DICTIONARY
  5
163
330
14
100
AcDbDictionary
280
     1
281
     1
  3
ADSK_XREC_LAYER_RECONCILED
360
164
  0
DICTIONARY
  5
165
330
27
100
AcDbDictionary
280
     1
281
     1
  3
ADSK_XREC_LAYER_RECONCILED
360
166
  0
DICTIONARY
  5
167
330
D4
100
AcDbDictionary
280
     1
281
     1
  3
ADSK_XREC_LAYER_RECONCILED
360
168
  0
DICTIONARY
  5
178
330
A
100
AcDbDictionary
280
     1
281
     1
  3
ACAD_SORTENTS
360
179
  0
DICTIONARY
  5
126
102
{ACAD_REACTORS
330
19
102
}
330
19
100
AcDbDictionary
281
     1
  0
DICTIONARY
  5
1A
102
{ACAD_REACTORS
330
19
102
}
330
19
100
AcDbDictionary
281
     1
  0
DICTIONARY
  5
1E
102
{ACAD_REACTORS
330
19
102
}
330
19
100
AcDbDictionary
281
     1
  3
Layout1
350
21
  3
Model
350
20
  0
DICTIONARY
  5
111
102
{ACAD_REACTORS
330
19
102
}
330
19
100
AcDbDictionary
281
     1
  3
ByBlock
350
113
  3
ByLayer
350
112
  3
Global
350
114
  0
DICTIONARY
  5
15A
102
{ACAD_REACTORS
330
19
102
}
330
19
100
AcDbDictionary
281
     1
  3
Standard
350
15B
  0
DICTIONARY
  5
1B
102
{ACAD_REACTORS
330
19
102
}
330
19
100
AcDbDictionary
281
     1
  3
Standard
350
1C
  0
DICTIONARY
  5
22
102
{ACAD_REACTORS
330
19
102
}
330
19
100
AcDbDictionary
281
     1
  0
ACDBDICTIONARYWDFLT
  5
1F
102
{ACAD_REACTORS
330
19
102
}
330
19
100
AcDbDictionary
281
     1
  3
Normal
350
1D
100
AcDbDictionaryWithDefault
340
1D
  0
DICTIONARY
  5
138
102
{ACAD_REACTORS
330
19
102
}
330
19
100
AcDbDictionary
281
     1
  3
A0
350
139
  3
A1
350
13A
  3
A2
350
13B
  3
A3
350
13C
  3
A4
350
13D
  3
A5
350
13E
  3
A6
350
13F
  3
A7
350
140
  3
A8
350
141
  3
A9
350
142
  3
B0
350
143
  3
B1
350
144
  3
B2
350
145
  3
B3
350
146
  3
B4
350
147
  3
B5
350
148
  3
B6
350
149
  3
B7
350
14A
  3
B8
350
14B
  3
B9
350
14C
  3
C0
350
14D
  3
C1
350
14E
  3
C2
350
14F
  3
C3
350
150
  3
C4
350
151
  3
C5
350
152
  3
C6
350
153
  3
C7
350
154
  3
C8
350
155
  3
C9
350
156
  3
D0
350
157
  3
D1
350
158
  3
D2
350
159
  0
DICTIONARY
  5
127
102
{ACAD_REACTORS
330
19
102
}
330
19
100
AcDbDictionary
281
     1
  3
Standard
350
128
  0
DICTIONARY
  5
115
102
{ACAD_REACTORS
330
19
102
}
330
19
100
AcDbDictionary
281
     1
  3
2dWireframe
350
11B
  3
3D Hidden
350
11D
  3
3dWireframe
350
11C
  3
Basic
350
11A
  3
Brighten
350
121
  3
ColorChange
350
125
  3
Conceptual
350
11E
  3
Dim
350
120
  3
Facepattern
350
124
  3
Flat
350
116
  3
FlatWithEdges
350
117
  3
Gouraud
350
118
  3
GouraudWithEdges
350
119
  3
Linepattern
350
123
  3
Realistic
350
11F
  3
Thicken
350
122
  0
WIPEOUTVARIABLES
  5
23
330
19
100
AcDbWipeoutVariables
 70
     1
  0
XRECORD
  5
196
102
{ACAD_REACTORS
330
19
102
}
330
19
100
AcDbXrecord
280
     1
 90
        1
330
128
  0
DICTIONARY
  5
135
102
{ACAD_REACTORS
330
19
102
}
330
19
100
AcDbDictionary
281
     1
  3
CANNOSCALE
350
193
  3
CMLEADERSTYLE
350
192
  3
CTABLESTYLE
350
136
  0
DICTIONARY
  5
132
102
{ACAD_REACTORS
330
19
102
}
330
19
100
AcDbDictionary
281
     1
  3
ASEBlockHierarchyIndexRecord
350
134
1001
DCO15
1040
1645030187.369
  0
XRECORD
  5
164
102
{ACAD_REACTORS
330
163
102
}
330
163
100
AcDbXrecord
280
     1
290
     1
  0
XRECORD
  5
166
102
{ACAD_REACTORS
330
165
102
}
330
165
100
AcDbXrecord
280
     1
290
     1
  0
XRECORD
  5
168
102
{ACAD_REACTORS
330
167
102
}
330
167
100
AcDbXrecord
280
     1
290
     1
  0
SORTENTSTABLE
  5
179
102
{ACAD_REACTORS
330
178
102
}
330
178
100
AcDbSortentsTable
330
A
331
F3
  5
FA
331
D9
  5
E0
331
104
  5
10B
331
EA
  5
F1
331
C8
  5
CF
331
A6
  5
AD
331
84
  5
8B
331
173
  5
72
331
4A
  5
4A
331
B7
  5
BE
331
95
  5
9C
331
39
  5
39
331
28
  5
28
331
F1
  5
F8
331
102
  5
109
331
E8
  5
EF
331
C6
  5
CD
331
A4
  5
AB
331
82
  5
89
331
171
  5
70
331
48
  5
48
331
D7
  5
DE
331
B5
  5
BC
331
93
  5
9A
331
59
  5
59
331
37
  5
37
331
100
  5
107
331
E6
  5
ED
331
C4
  5
CB
331
A2
  5
A9
331
80
  5
87
331
46
  5
46
331
D5
  5
DC
331
B3
  5
BA
331
91
  5
98
331
57
  5
57
331
35
  5
35
331
FE
  5
105
331
E4
  5
EB
331
C2
  5
C9
331
A0
  5
A7
331
7E
  5
85
331
44
  5
44
331
10F
  5
177
331
D3
  5
DB
331
B1
  5
B8
331
8F
  5
96
331
77
  5
7E
331
55
  5
55
331
33
  5
33
331
FC
  5
103
331
E2
  5
E9
331
C0
  5
C7
331
9E
  5
A5
331
7C
  5
83
331
64
  5
64
331
42
  5
42
331
10D
  5
175
331
D1
  5
D9
331
AF
  5
B6
331
8D
  5
94
331
75
  5
7C
331
53
  5
53
331
31
  5
31
331
FA
  5
101
331
E0
  5
E7
331
BE
  5
C5
331
9C
  5
A3
331
7A
  5
81
331
40
  5
40
331
10B
  5
173
331
CF
  5
D7
331
AD
  5
B4
331
8B
  5
92
331
73
  5
7A
331
51
  5
51
331
2F
  5
2F
331
F8
  5
FF
331
DE
  5
E5
331
BC
  5
C3
331
9A
  5
A1
331
78
  5
7F
331
109
  5
171
331
EF
  5
F6
331
CD
  5
D5
331
AB
  5
B2
331
89
  5
90
331
71
  5
78
331
4F
  5
4F
331
3E
  5
3E
331
2D
  5
2D
331
F6
  5
FD
331
DC
  5
E3
331
BA
  5
C1
331
98
  5
9F
331
176
  5
75
331
107
  5
10E
331
ED
  5
F4
331
CB
  5
D2
331
A9
  5
B0
331
87
  5
8E
331
4D
  5
4D
331
3C
  5
3C
331
2B
  5
2B
331
F4
  5
FB
331
DA
  5
E1
331
B8
  5
BF
331
105
  5
10C
331
EB
  5
F2
331
C9
  5
D0
331
A7
  5
AE
331
85
  5
8C
331
174
  5
73
331
4B
  5
4B
331
96
  5
9D
331
3A
  5
3A
331
29
  5
29
331
F2
  5
F9
331
D8
  5
DF
331
103
  5
10A
331
E9
  5
F0
331
C7
  5
CE
331
A5
  5
AC
331
83
  5
8A
331
172
  5
71
331
49
  5
49
331
B6
  5
BD
331
94
  5
9B
331
38
  5
38
331
F0
  5
F7
331
101
  5
108
331
E7
  5
EE
331
C5
  5
CC
331
A3
  5
AA
331
81
  5
88
331
47
  5
47
331
D6
  5
DD
331
B4
  5
BB
331
92
  5
99
331
58
  5
58
331
36
  5
36
331
FF
  5
106
331
E5
  5
EC
331
C3
  5
CA
331
A1
  5
A8
331
7F
  5
86
331
45
  5
45
331
B2
  5
B9
331
90
  5
97
331
56
  5
56
331
34
  5
34
331
FD
  5
104
331
E3
  5
EA
331
C1
  5
C8
331
9F
  5
A6
331
7D
  5
84
331
43
  5
43
331
10E
  5
176
331
D2
  5
DA
331
B0
  5
B7
331
8E
  5
95
331
76
  5
7D
331
54
  5
54
331
32
  5
32
331
FB
  5
102
331
E1
  5
E8
331
BF
  5
C6
331
9D
  5
A4
331
7B
  5
82
331
41
  5
41
331
10C
  5
174
331
D0
  5
D8
331
AE
  5
B5
331
8C
  5
93
331
74
  5
7B
331
52
  5
52
331
30
  5
30
331
F9
  5
100
331
DF
  5
E6
331
BD
  5
C4
331
9B
  5
A2
331
79
  5
80
331
10A
  5
172
331
CE
  5
D6
331
AC
  5
B3
331
8A
  5
91
331
72
  5
79
331
50
  5
50
331
3F
  5
3F
331
2E
  5
2E
331
F7
  5
FE
331
DD
  5
E4
331
BB
  5
C2
331
99
  5
A0
331
108
  5
10F
331
EE
  5
F5
331
CC
  5
D3
331
AA
  5
B1
331
88
  5
8F
331
70
  5
77
331
177
  5
76
331
4E
  5
4E
331
3D
  5
3D
331
2C
  5
2C
331
F5
  5
FC
331
DB
  5
E2
331
B9
  5
C0
331
106
  5
10D
331
EC
  5
F3
331
CA
  5
D1
331
A8
  5
AF
331
86
  5
8D
331
175
  5
74
331
4C
  5
4C
331
97
  5
9E
331
3B
  5
3B
331
2A
  5
2A
  0
LAYOUT
  5
21
102
{ACAD_REACTORS
330
1E
102
}
330
1E
100
AcDbPlotSettings
  1

  2
Foxit PDF Printer
  4
Letter
  6

 40
3.174999952316284
 41
3.174999952316284
 42
3.17498779296875
 43
3.175003051757812
 44
279.3999938964844
 45
215.8999938964844
 46
31.47715384821894
 47
24.12875752349356
 48
0.0
 49
0.0
140
0.0
141
0.0
142
1.0
143
1.0
 70
     4
 72
     0
 73
     0
 74
     1
  7

 75
    16
147
1.0
 76
     1
 77
     2
 78
   300
148
-26.25461124795212
149
-20.16000981431432
100
AcDbLayout
  1
Layout1
 70
     0
 71
     1
 10
-0.3306119115190196
 20
-0.2812499079328949
 11
10.66938784818509
 21
8.218749851771214
 12
0.0
 22
0.0
 32
0.0
 14
-0.1437983215330725
 24
-0.078529332350616
 34
-0.0015258207003583
 15
10.42970303390548
 25
7.980361735696885
 35
0.0000000349246037
146
0.0
 13
0.0
 23
0.0
 33
0.0
 16
1.0
 26
0.0
 36
0.0
 17
0.0
 27
1.0
 37
0.0
 76
     0
330
B
331
12D
1001
ACAD_PSEXT
1000
Foxit PDF Printer
1000
Foxit PDF Printer Driver
1000
FOXIT_PDF
1000

1070
     0
  0
LAYOUT
  5
20
102
{ACAD_REACTORS
330
1E
102
}
330
1E
100
AcDbPlotSettings
  1

  2

  4

  6

 40
0.0
 41
0.0
 42
0.0
 43
0.0
 44
0.0
 45
0.0
 46
0.0
 47
0.0
 48
0.0
 49
0.0
140
0.0
141
0.0
142
1.0
143
1.0
 70
  1024
 72
     0
 73
     0
 74
     0
  7

 75
     0
147
1.0
 76
     0
 77
     2
 78
   300
148
0.0
149
0.0
100
AcDbLayout
  1
Model
 70
     0
 71
     0
 10
0.0
 20
0.0
 11
0.0
 21
0.0
 12
0.0
 22
0.0
 32
0.0
 14
0.0
 24
0.0
 34
0.0
 15
0.0
 25
0.0
 35
0.0
146
0.0
 13
0.0
 23
0.0
 33
0.0
 16
0.0
 26
0.0
 36
0.0
 17
0.0
 27
0.0
 37
0.0
 76
     0
330
A
  0
MATERIAL
  5
113
102
{ACAD_XDICTIONARY
360
199
102
}
102
{ACAD_REACTORS
330
111
102
}
330
111
100
AcDbMaterial
  1
ByBlock
 73
     1
 78
     1
172
     1
176
     1
270
     1
274
     1
  0
MATERIAL
  5
112
102
{ACAD_XDICTIONARY
360
197
102
}
102
{ACAD_REACTORS
330
111
102
}
330
111
100
AcDbMaterial
  1
ByLayer
 73
     1
 78
     1
172
     1
176
     1
270
     1
274
     1
  0
MATERIAL
  5
114
102
{ACAD_XDICTIONARY
360
19B
102
}
102
{ACAD_REACTORS
330
111
102
}
330
111
100
AcDbMaterial
  1
Global
 73
     1
 78
     1
172
     1
176
     1
270
     1
274
     1
  0
MLEADERSTYLE
  5
15B
102
{ACAD_REACTORS
330
15A
102
}
330
15A
100
AcDbMLeaderStyle
170
     2
171
     1
172
     0
 90
        2
 40
0.0
 41
0.0
173
     1
 91
-1056964608
340
11
 92
       -2
290
     1
 42
0.09
291
     1
 43
0.36
  3
Standard
 44
0.18
300

342
17
174
     1
178
     6
175
     1
176
     0
 93
-1056964608
 45
0.18
292
     0
297
     0
 46
0.18
 94
-1056964608
 47
1.0
 49
1.0
140
1.0
293
     1
141
0.0
294
     1
177
     0
142
1.0
295
     0
296
     0
143
0.125
1001
ACAD_MLEADERVER
1070
     2
  0
MLINESTYLE
  5
1C
102
{ACAD_REACTORS
330
1B
102
}
330
1B
100
AcDbMlineStyle
  2
STANDARD
 70
     0
  3

 62
     0
 51
90.0
 52
90.0
 71
     2
 49
0.5
 62
   256
  6
BYLAYER
 49
-0.5
 62
   256
  6
BYLAYER
  0
ACDBPLACEHOLDER
  5
1D
102
{ACAD_REACTORS
330
1F
102
}
330
1F
  0
SCALE
  5
139
102
{ACAD_REACTORS
330
138
102
}
330
138
100
AcDbScale
 70
     0
300
1:1
140
1.0
141
1.0
290
     1
  0
SCALE
  5
13A
102
{ACAD_REACTORS
330
138
102
}
330
138
100
AcDbScale
 70
     0
300
1:2
140
1.0
141
2.0
290
     0
  0
SCALE
  5
13B
102
{ACAD_REACTORS
330
138
102
}
330
138
100
AcDbScale
 70
     0
300
1:4
140
1.0
141
4.0
290
     0
  0
SCALE
  5
13C
102
{ACAD_REACTORS
330
138
102
}
330
138
100
AcDbScale
 70
     0
300
1:5
140
1.0
141
5.0
290
     0
  0
SCALE
  5
13D
102
{ACAD_REACTORS
330
138
102
}
330
138
100
AcDbScale
 70
     0
300
1:8
140
1.0
141
8.0
290
     0
  0
SCALE
  5
13E
102
{ACAD_REACTORS
330
138
102
}
330
138
100
AcDbScale
 70
     0
300
1:10
140
1.0
141
10.0
290
     0
  0
SCALE
  5
13F
102
{ACAD_REACTORS
330
138
102
}
330
138
100
AcDbScale
 70
     0
300
1:16
140
1.0
141
16.0
290
     0
  0
SCALE
  5
140
102
{ACAD_REACTORS
330
138
102
}
330
138
100
AcDbScale
 70
     0
300
1:20
140
1.0
141
20.0
290
     0
  0
SCALE
  5
141
102
{ACAD_REACTORS
330
138
102
}
330
138
100
AcDbScale
 70
     0
300
1:30
140
1.0
141
30.0
290
     0
  0
SCALE
  5
142
102
{ACAD_REACTORS
330
138
102
}
330
138
100
AcDbScale
 70
     0
300
1:40
140
1.0
141
40.0
290
     0
  0
SCALE
  5
143
102
{ACAD_REACTORS
330
138
102
}
330
138
100
AcDbScale
 70
     0
300
1:50
140
1.0
141
50.0
290
     0
  0
SCALE
  5
144
102
{ACAD_REACTORS
330
138
102
}
330
138
100
AcDbScale
 70
     0
300
1:100
140
1.0
141
100.0
290
     0
  0
SCALE
  5
145
102
{ACAD_REACTORS
330
138
102
}
330
138
100
AcDbScale
 70
     0
300
2:1
140
2.0
141
1.0
290
     0
  0
SCALE
  5
146
102
{ACAD_REACTORS
330
138
102
}
330
138
100
AcDbScale
 70
     0
300
4:1
140
4.0
141
1.0
290
     0
  0
SCALE
  5
147
102
{ACAD_REACTORS
330
138
102
}
330
138
100
AcDbScale
 70
     0
300
8:1
140
8.0
141
1.0
290
     0
  0
SCALE
  5
148
102
{ACAD_REACTORS
330
138
102
}
330
138
100
AcDbScale
 70
     0
300
10:1
140
10.0
141
1.0
290
     0
  0
SCALE
  5
149
102
{ACAD_REACTORS
330
138
102
}
330
138
100
AcDbScale
 70
     0
300
100:1
140
100.0
141
1.0
290
     0
  0
SCALE
  5
14A
102
{ACAD_REACTORS
330
138
102
}
330
138
100
AcDbScale
 70
     0
300
1/128" = 1'-0"
140
0.0078125
141
12.0
290
     0
  0
SCALE
  5
14B
102
{ACAD_REACTORS
330
138
102
}
330
138
100
AcDbScale
 70
     0
300
1/64" = 1'-0"
140
0.015625
141
12.0
290
     0
  0
SCALE
  5
14C
102
{ACAD_REACTORS
330
138
102
}
330
138
100
AcDbScale
 70
     0
300
1/32" = 1'-0"
140
0.03125
141
12.0
290
     0
  0
SCALE
  5
14D
102
{ACAD_REACTORS
330
138
102
}
330
138
100
AcDbScale
 70
     0
300
1/16" = 1'-0"
140
0.0625
141
12.0
290
     0
  0
SCALE
  5
14E
102
{ACAD_REACTORS
330
138
102
}
330
138
100
AcDbScale
 70
     0
300
3/32" = 1'-0"
140
0.09375
141
12.0
290
     0
  0
SCALE
  5
14F
102
{ACAD_REACTORS
330
138
102
}
330
138
100
AcDbScale
 70
     0
300
1/8" = 1'-0"
140
0.125
141
12.0
290
     0
  0
SCALE
  5
150
102
{ACAD_REACTORS
330
138
102
}
330
138
100
AcDbScale
 70
     0
300
3/16" = 1'-0"
140
0.1875
141
12.0
290
     0
  0
SCALE
  5
151
102
{ACAD_REACTORS
330
138
102
}
330
138
100
AcDbScale
 70
     0
300
1/4" = 1'-0"
140
0.25
141
12.0
290
     0
  0
SCALE
  5
152
102
{ACAD_REACTORS
330
138
102
}
330
138
100
AcDbScale
 70
     0
300
3/8" = 1'-0"
140
0.375
141
12.0
290
     0
  0
SCALE
  5
153
102
{ACAD_REACTORS
330
138
102
}
330
138
100
AcDbScale
 70
     0
300
1/2" = 1'-0"
140
0.5
141
12.0
290
     0
  0
SCALE
  5
154
102
{ACAD_REACTORS
330
138
102
}
330
138
100
AcDbScale
 70
     0
300
3/4" = 1'-0"
140
0.75
141
12.0
290
     0
  0
SCALE
  5
155
102
{ACAD_REACTORS
330
138
102
}
330
138
100
AcDbScale
 70
     0
300
1" = 1'-0"
140
1.0
141
12.0
290
     0
  0
SCALE
  5
156
102
{ACAD_REACTORS
330
138
102
}
330
138
100
AcDbScale
 70
     0
300
1-1/2" = 1'-0"
140
1.5
141
12.0
290
     0
  0
SCALE
  5
157
102
{ACAD_REACTORS
330
138
102
}
330
138
100
AcDbScale
 70
     0
300
3" = 1'-0"
140
3.0
141
12.0
290
     0
  0
SCALE
  5
158
102
{ACAD_REACTORS
330
138
102
}
330
138
100
AcDbScale
 70
     0
300
6" = 1'-0"
140
6.0
141
12.0
290
     0
  0
SCALE
  5
159
102
{ACAD_REACTORS
330
138
102
}
330
138
100
AcDbScale
 70
     0
300
1'-0" = 1'-0"
140
12.0
141
12.0
290
     0
  0
TABLESTYLE
  5
128
102
{ACAD_XDICTIONARY
360
194
102
}
102
{ACAD_REACTORS
330
127
102
}
330
127
100
AcDbTableStyle
  3
Standard
 70
     0
 71
     0
 40
0.06
 41
0.06
280
     0
281
     0
  7
Standard
140
0.18
170
     2
 62
     0
 63
     7
283
     0
274
    -2
284
     1
 64
     0
275
    -2
285
     1
 65
     0
276
    -2
286
     1
 66
     0
277
    -2
287
     1
 67
     0
278
    -2
288
     1
 68
     0
279
    -2
289
     1
 69
     0
  7
Standard
140
0.25
170
     5
 62
     0
 63
     7
283
     0
274
    -2
284
     1
 64
     0
275
    -2
285
     1
 65
     0
276
    -2
286
     1
 66
     0
277
    -2
287
     1
 67
     0
278
    -2
288
     1
 68
     0
279
    -2
289
     1
 69
     0
  7
Standard
140
0.18
170
     5
 62
     0
 63
     7
283
     0
274
    -2
284
     1
 64
     0
275
    -2
285
     1
 65
     0
276
    -2
286
     1
 66
     0
277
    -2
287
     1
 67
     0
278
    -2
288
     1
 68
     0
279
    -2
289
     1
 69
     0
  0
VISUALSTYLE
  5
11B
102
{ACAD_REACTORS
330
115
102
}
330
115
100
AcDbVisualStyle
  2
2dWireframe
 70
     4
 71
     0
 72
     2
 73
     0
 90
        0
 40
-0.6
 41
-30.0
 62
     5
 63
     7
421
 16777215
 74
     1
 91
        4
 64
     7
 65
   257
 75
     1
175
     1
 42
1.0
 92
        0
 66
   257
 43
1.0
 76
     1
 77
     6
 78
     2
 67
     7
 79
     5
170
     0
171
     0
290
     0
174
     0
 93
        1
 44
0.0
173
     0
291
     0
 45
0.0
1001
ACAD
1000
AcDbSavedByObjectVersion
1070
     0
  0
VISUALSTYLE
  5
11D
102
{ACAD_REACTORS
330
115
102
}
330
115
100
AcDbVisualStyle
  2
3D Hidden
 70
     6
 71
     1
 72
     2
 73
     2
 90
        0
 40
-0.6
 41
-30.0
 62
     5
 63
     7
421
 16777215
 74
     2
 91
        2
 64
     7
 65
   257
 75
     2
175
     1
 42
40.0
 92
        0
 66
   257
 43
1.0
 76
     1
 77
     6
 78
     2
 67
     7
 79
     3
170
     0
171
     0
290
     0
174
     0
 93
        1
 44
0.0
173
     0
291
     0
 45
0.0
1001
ACAD
1000
AcDbSavedByObjectVersion
1070
     0
  0
VISUALSTYLE
  5
11C
102
{ACAD_REACTORS
330
115
102
}
330
115
100
AcDbVisualStyle
  2
3dWireframe
 70
     5
 71
     0
 72
     2
 73
     0
 90
        0
 40
-0.6
 41
-30.0
 62
     5
 63
     7
421
 16777215
 74
     1
 91
        4
 64
     7
 65
   257
 75
     1
175
     1
 42
1.0
 92
        0
 66
   257
 43
1.0
 76
     1
 77
     6
 78
     2
 67
     7
 79
     5
170
     0
171
     0
290
     0
174
     0
 93
        1
 44
0.0
173
     0
291
     0
 45
0.0
1001
ACAD
1000
AcDbSavedByObjectVersion
1070
     0
  0
VISUALSTYLE
  5
11A
102
{ACAD_REACTORS
330
115
102
}
330
115
100
AcDbVisualStyle
  2
Basic
 70
     7
 71
     1
 72
     0
 73
     1
 90
        0
 40
-0.6
 41
-30.0
 62
     5
 63
     7
421
 16777215
 74
     0
 91
        4
 64
     7
 65
   257
 75
     1
175
     1
 42
1.0
 92
        8
 66
     7
 43
1.0
 76
     1
 77
     6
 78
     2
 67
     7
 79
     5
170
     0
171
     0
290
     0
174
     0
 93
        1
 44
0.0
173
     0
291
     1
 45
0.0
1001
ACAD
1000
AcDbSavedByObjectVersion
1070
     0
  0
VISUALSTYLE
  5
121
102
{ACAD_REACTORS
330
115
102
}
330
115
100
AcDbVisualStyle
  2
Brighten
 70
    12
 71
     2
 72
     2
 73
     0
 90
        0
 40
-0.6
 41
-30.0
 62
     5
 63
     7
421
 16777215
 74
     1
 91
        4
 64
     7
 65
   257
 75
     1
175
     1
 42
1.0
 92
        8
 66
     7
 43
1.0
 76
     1
 77
     6
 78
     2
 67
     7
 79
     5
170
     0
171
     0
290
     0
174
     0
 93
        1
 44
50.0
173
     0
291
     1
 45
0.0
1001
ACAD
1000
AcDbSavedByObjectVersion
1070
     0
  0
VISUALSTYLE
  5
125
102
{ACAD_REACTORS
330
115
102
}
330
115
100
AcDbVisualStyle
  2
ColorChange
 70
    16
 71
     2
 72
     2
 73
     3
 90
        0
 40
-0.6
 41
-30.0
 62
     5
 63
     8
421
  8421504
 74
     1
 91
        4
 64
     7
 65
   257
 75
     1
175
     1
 42
1.0
 92
        8
 66
     8
424
  8421504
 43
1.0
 76
     1
 77
     6
 78
     2
 67
     7
 79
     5
170
     0
171
     0
290
     0
174
     0
 93
        1
 44
0.0
173
     0
291
     1
 45
0.0
1001
ACAD
1000
AcDbSavedByObjectVersion
1070
     0
  0
VISUALSTYLE
  5
11E
102
{ACAD_REACTORS
330
115
102
}
330
115
100
AcDbVisualStyle
  2
Conceptual
 70
     9
 71
     3
 72
     2
 73
     0
 90
        0
 40
-0.6
 41
-30.0
 62
     5
 63
     7
421
 16777215
 74
     2
 91
        2
 64
     7
 65
   257
 75
     1
175
     1
 42
40.0
 92
        8
 66
     7
 43
1.0
 76
     1
 77
     6
 78
     2
 67
     7
 79
     3
170
     0
171
     0
290
     0
174
     0
 93
        1
 44
0.0
173
     0
291
     0
 45
0.0
1001
ACAD
1000
AcDbSavedByObjectVersion
1070
     0
  0
VISUALSTYLE
  5
120
102
{ACAD_REACTORS
330
115
102
}
330
115
100
AcDbVisualStyle
  2
Dim
 70
    11
 71
     2
 72
     2
 73
     0
 90
        0
 40
-0.6
 41
-30.0
 62
     5
 63
     7
421
 16777215
 74
     1
 91
        4
 64
     7
 65
   257
 75
     1
175
     1
 42
1.0
 92
        8
 66
     7
 43
1.0
 76
     1
 77
     6
 78
     2
 67
     7
 79
     5
170
     0
171
     0
290
     0
174
     0
 93
        1
 44
-50.0
173
     0
291
     1
 45
0.0
1001
ACAD
1000
AcDbSavedByObjectVersion
1070
     0
  0
VISUALSTYLE
  5
124
102
{ACAD_REACTORS
330
115
102
}
330
115
100
AcDbVisualStyle
  2
Facepattern
 70
    15
 71
     2
 72
     2
 73
     0
 90
        0
 40
-0.6
 41
-30.0
 62
     5
 63
     7
421
 16777215
 74
     1
 91
        4
 64
     7
 65
   257
 75
     1
175
     1
 42
1.0
 92
        8
 66
     7
 43
1.0
 76
     1
 77
     6
 78
     2
 67
     7
 79
     5
170
     0
171
     0
290
     0
174
     0
 93
        1
 44
0.0
173
     0
291
     1
 45
0.0
1001
ACAD
1000
AcDbSavedByObjectVersion
1070
     0
  0
VISUALSTYLE
  5
116
102
{ACAD_REACTORS
330
115
102
}
330
115
100
AcDbVisualStyle
  2
Flat
 70
     0
 71
     2
 72
     1
 73
     1
 90
        2
 40
-0.6
 41
30.0
 62
     5
 63
     7
421
 16777215
 74
     0
 91
        4
 64
     7
 65
   257
 75
     1
175
     1
 42
1.0
 92
        8
 66
     7
 43
1.0
 76
     1
 77
     6
 78
     2
 67
     7
 79
     5
170
     0
171
     0
290
     0
174
     0
 93
       13
 44
0.0
173
     0
291
     1
 45
0.0
1001
ACAD
1000
AcDbSavedByObjectVersion
1070
     0
  0
VISUALSTYLE
  5
117
102
{ACAD_REACTORS
330
115
102
}
330
115
100
AcDbVisualStyle
  2
FlatWithEdges
 70
     1
 71
     2
 72
     1
 73
     1
 90
        2
 40
-0.6
 41
30.0
 62
     5
 63
     7
421
 16777215
 74
     1
 91
        4
 64
     7
 65
   257
 75
     1
175
     1
 42
1.0
 92
        0
 66
   257
 43
1.0
 76
     1
 77
     6
 78
     2
 67
     7
 79
     5
170
     0
171
     0
290
     0
174
     0
 93
       13
 44
0.0
173
     0
291
     1
 45
0.0
1001
ACAD
1000
AcDbSavedByObjectVersion
1070
     0
  0
VISUALSTYLE
  5
118
102
{ACAD_REACTORS
330
115
102
}
330
115
100
AcDbVisualStyle
  2
Gouraud
 70
     2
 71
     2
 72
     2
 73
     1
 90
        2
 40
-0.6
 41
30.0
 62
     5
 63
     7
421
 16777215
 74
     0
 91
        4
 64
     7
 65
   257
 75
     1
175
     1
 42
1.0
 92
        0
 66
     7
 43
1.0
 76
     1
 77
     6
 78
     2
 67
     7
 79
     5
170
     0
171
     0
290
     0
174
     0
 93
       13
 44
0.0
173
     0
291
     1
 45
0.0
1001
ACAD
1000
AcDbSavedByObjectVersion
1070
     0
  0
VISUALSTYLE
  5
119
102
{ACAD_REACTORS
330
115
102
}
330
115
100
AcDbVisualStyle
  2
GouraudWithEdges
 70
     3
 71
     2
 72
     2
 73
     1
 90
        2
 40
-0.6
 41
30.0
 62
     5
 63
     7
421
 16777215
 74
     1
 91
        4
 64
     7
 65
   257
 75
     1
175
     1
 42
1.0
 92
        0
 66
   257
 43
1.0
 76
     1
 77
     6
 78
     2
 67
     7
 79
     5
170
     0
171
     0
290
     0
174
     0
 93
       13
 44
0.0
173
     0
291
     1
 45
0.0
1001
ACAD
1000
AcDbSavedByObjectVersion
1070
     0
  0
VISUALSTYLE
  5
123
102
{ACAD_REACTORS
330
115
102
}
330
115
100
AcDbVisualStyle
  2
Linepattern
 70
    14
 71
     2
 72
     2
 73
     0
 90
        0
 40
-0.6
 41
-30.0
 62
     5
 63
     7
421
 16777215
 74
     1
 91
        4
 64
     7
 65
   257
 75
     7
175
     7
 42
1.0
 92
        8
 66
     7
 43
1.0
 76
     1
 77
     6
 78
     2
 67
     7
 79
     5
170
     0
171
     0
290
     0
174
     0
 93
        1
 44
0.0
173
     0
291
     1
 45
0.0
1001
ACAD
1000
AcDbSavedByObjectVersion
1070
     0
  0
VISUALSTYLE
  5
11F
102
{ACAD_REACTORS
330
115
102
}
330
115
100
AcDbVisualStyle
  2
Realistic
 70
     8
 71
     2
 72
     2
 73
     0
 90
        0
 40
-0.6
 41
-30.0
 62
     5
 63
     7
421
 16777215
 74
     1
 91
        0
 64
     7
 65
   257
 75
     1
175
     1
 42
1.0
 92
        8
 66
     8
424
  7895160
 43
1.0
 76
     1
 77
     6
 78
     2
 67
     7
 79
     5
170
     0
171
     0
290
     0
174
     0
 93
       13
 44
0.0
173
     0
291
     0
 45
0.0
1001
ACAD
1000
AcDbSavedByObjectVersion
1070
     0
  0
VISUALSTYLE
  5
122
102
{ACAD_REACTORS
330
115
102
}
330
115
100
AcDbVisualStyle
  2
Thicken
 70
    13
 71
     2
 72
     2
 73
     0
 90
        0
 40
-0.6
 41
-30.0
 62
     5
 63
     7
421
 16777215
 74
     1
 91
        4
 64
     7
 65
   257
 75
     1
175
     1
 42
1.0
 92
       12
 66
     7
 43
1.0
 76
     1
 77
     6
 78
     2
 67
     7
 79
     5
170
     0
171
     0
290
     0
174
     0
 93
        1
 44
0.0
173
     0
291
     1
 45
0.0
1001
ACAD
1000
AcDbSavedByObjectVersion
1070
     0
  0
DICTIONARYVAR
  5
193
102
{ACAD_REACTORS
330
135
102
}
330
135
100
DictionaryVariables
280
     0
  1
1:1
  0
DICTIONARYVAR
  5
192
102
{ACAD_REACTORS
330
135
102
}
330
135
100
DictionaryVariables
280
     0
  1
STANDARD
  0
DICTIONARYVAR
  5
136
102
{ACAD_REACTORS
330
135
102
}
330
135
100
DictionaryVariables
280
     0
  1
STANDARD
  0
XRECORD
  5
134
102
{ACAD_REACTORS
330
132
102
}
330
132
100
AcDbXrecord
280
     1
  0
DICTIONARY
  5
199
330
113
100
AcDbDictionary
280
     1
281
     1
  3
ACAD_XREC_ROUNDTRIP
360
19A
  0
DICTIONARY
  5
197
330
112
100
AcDbDictionary
280
     1
281
     1
  3
ACAD_XREC_ROUNDTRIP
360
198
  0
DICTIONARY
  5
19B
330
114
100
AcDbDictionary
280
     1
281
     1
  3
ACAD_XREC_ROUNDTRIP
360
19C
  0
DICTIONARY
  5
194
330
128
100
AcDbDictionary
280
     1
281
     1
  3
ACAD_ROUNDTRIP_2008_TABLESTYLE_CELLSTYLEMAP
360
195
  3
ACAD_XREC_ROUNDTRIP
360
19D
  0
XRECORD
  5
19A
102
{ACAD_REACTORS
330
199
102
}
330
199
100
AcDbXrecord
280
     1
102
MATERIAL
148
0.0
149
0.0
149
0.0
 93
        0
 94
       63
282
     0
 72
     1
 77
     1
171
     1
175
     1
179
     1
273
     0
  0
XRECORD
  5
198
102
{ACAD_REACTORS
330
197
102
}
330
197
100
AcDbXrecord
280
     1
102
MATERIAL
148
0.0
149
0.0
149
0.0
 93
        0
 94
       63
282
     0
 72
     1
 77
     1
171
     1
175
     1
179
     1
273
     0
  0
XRECORD
  5
19C
102
{ACAD_REACTORS
330
19B
102
}
330
19B
100
AcDbXrecord
280
     1
102
MATERIAL
148
0.0
149
0.0
149
0.0
 93
        0
 94
       63
282
     0
 72
     1
 77
     1
171
     1
175
     1
179
     1
273
     0
  0
CELLSTYLEMAP
  5
195
102
{ACAD_REACTORS
330
194
102
}
330
194
100
AcDbCellStyleMap
 90
        3
300
CELLSTYLE
  1
TABLEFORMAT_BEGIN
 90
        5
170
     1
 91
        0
 92
    32768
 62
   257
 93
        1
300
CONTENTFORMAT
  1
CONTENTFORMAT_BEGIN
 90
        0
 91
        0
 92
      512
 93
        0
300

 40
0.0
140
1.0
 94
        5
 62
     0
340
17
144
0.25
309
CONTENTFORMAT_END
171
     0
 94
        6
 95
        1
302
GRIDFORMAT
  1
GRIDFORMAT_BEGIN
 90
        0
 91
        1
 62
     0
 92
       -2
340
0
 93
        0
 40
0.045
309
GRIDFORMAT_END
 95
        2
302
GRIDFORMAT
  1
GRIDFORMAT_BEGIN
 90
        0
 91
        1
 62
     0
 92
       -2
340
0
 93
        0
 40
0.045
309
GRIDFORMAT_END
 95
        4
302
GRIDFORMAT
  1
GRIDFORMAT_BEGIN
 90
        0
 91
        1
 62
     0
 92
       -2
340
0
 93
        0
 40
0.045
309
GRIDFORMAT_END
 95
        8
302
GRIDFORMAT
  1
GRIDFORMAT_BEGIN
 90
        0
 91
        1
 62
     0
 92
       -2
340
0
 93
        0
 40
0.045
309
GRIDFORMAT_END
 95
       16
302
GRIDFORMAT
  1
GRIDFORMAT_BEGIN
 90
        0
 91
        1
 62
     0
 92
       -2
340
0
 93
        0
 40
0.045
309
GRIDFORMAT_END
 95
       32
302
GRIDFORMAT
  1
GRIDFORMAT_BEGIN
 90
        0
 91
        1
 62
     0
 92
       -2
340
0
 93
        0
 40
0.045
309
GRIDFORMAT_END
309
TABLEFORMAT_END
  1
CELLSTYLE_BEGIN
 90
        1
 91
        1
300
_TITLE
309
CELLSTYLE_END
300
CELLSTYLE
  1
TABLEFORMAT_BEGIN
 90
        5
170
     1
 91
        0
 92
        0
 62
   257
 93
        1
300
CONTENTFORMAT
  1
CONTENTFORMAT_BEGIN
 90
        0
 91
        0
 92
      512
 93
        0
300

 40
0.0
140
1.0
 94
        5
 62
     0
340
17
144
0.18
309
CONTENTFORMAT_END
171
     0
 94
        6
 95
        1
302
GRIDFORMAT
  1
GRIDFORMAT_BEGIN
 90
        0
 91
        1
 62
     0
 92
       -2
340
0
 93
        0
 40
0.045
309
GRIDFORMAT_END
 95
        2
302
GRIDFORMAT
  1
GRIDFORMAT_BEGIN
 90
        0
 91
        1
 62
     0
 92
       -2
340
0
 93
        0
 40
0.045
309
GRIDFORMAT_END
 95
        4
302
GRIDFORMAT
  1
GRIDFORMAT_BEGIN
 90
        0
 91
        1
 62
     0
 92
       -2
340
0
 93
        0
 40
0.045
309
GRIDFORMAT_END
 95
        8
302
GRIDFORMAT
  1
GRIDFORMAT_BEGIN
 90
        0
 91
        1
 62
     0
 92
       -2
340
0
 93
        0
 40
0.045
309
GRIDFORMAT_END
 95
       16
302
GRIDFORMAT
  1
GRIDFORMAT_BEGIN
 90
        0
 91
        1
 62
     0
 92
       -2
340
0
 93
        0
 40
0.045
309
GRIDFORMAT_END
 95
       32
302
GRIDFORMAT
  1
GRIDFORMAT_BEGIN
 90
        0
 91
        1
 62
     0
 92
       -2
340
0
 93
        0
 40
0.045
309
GRIDFORMAT_END
309
TABLEFORMAT_END
  1
CELLSTYLE_BEGIN
 90
        2
 91
        1
300
_HEADER
309
CELLSTYLE_END
300
CELLSTYLE
  1
TABLEFORMAT_BEGIN
 90
        5
170
     1
 91
        0
 92
        0
 62
   257
 93
        1
300
CONTENTFORMAT
  1
CONTENTFORMAT_BEGIN
 90
        0
 91
        0
 92
      512
 93
        0
300

 40
0.0
140
1.0
 94
        2
 62
     0
340
17
144
0.18
309
CONTENTFORMAT_END
171
     0
 94
        6
 95
        1
302
GRIDFORMAT
  1
GRIDFORMAT_BEGIN
 90
        0
 91
        1
 62
     0
 92
       -2
340
0
 93
        0
 40
0.045
309
GRIDFORMAT_END
 95
        2
302
GRIDFORMAT
  1
GRIDFORMAT_BEGIN
 90
        0
 91
        1
 62
     0
 92
       -2
340
0
 93
        0
 40
0.045
309
GRIDFORMAT_END
 95
        4
302
GRIDFORMAT
  1
GRIDFORMAT_BEGIN
 90
        0
 91
        1
 62
     0
 92
       -2
340
0
 93
        0
 40
0.045
309
GRIDFORMAT_END
 95
        8
302
GRIDFORMAT
  1
GRIDFORMAT_BEGIN
 90
        0
 91
        1
 62
     0
 92
       -2
340
0
 93
        0
 40
0.045
309
GRIDFORMAT_END
 95
       16
302
GRIDFORMAT
  1
GRIDFORMAT_BEGIN
 90
        0
 91
        1
 62
     0
 92
       -2
340
0
 93
        0
 40
0.045
309
GRIDFORMAT_END
 95
       32
302
GRIDFORMAT
  1
GRIDFORMAT_BEGIN
 90
        0
 91
        1
 62
     0
 92
       -2
340
0
 93
        0
 40
0.045
309
GRIDFORMAT_END
309
TABLEFORMAT_END
  1
CELLSTYLE_BEGIN
 90
        3
 91
        2
300
_DATA
309
CELLSTYLE_END
  0
XRECORD
  5
19D
102
{ACAD_REACTORS
330
194
102
}
330
194
100
AcDbXrecord
280
     1
102
ACAD_ROUNDTRIP_PRE2007_TABLESTYLE
 90
      512
 91
        0
  1

 92
      512
 93
        0
  2

 94
      512
 95
        0
  3

  0
ENDSEC
  0
EOF
