  0
SECTION
  2
HEADER
  9
$ACADVER
  1
AC1018
  9
$ACADMAINTVER
 70
   104
  9
$DWGCODEPAGE
  3
ANSI_1252
  9
$LASTSAVEDBY
  1
EARL
  9
$INSBASE
 10
0.0
 20
0.0
 30
0.0
  9
$EXTMIN
 10
-2.026268720626831
 20
-0.0018168604651163
 30
0.0
  9
$EXTMAX
 10
1.326156271055774
 20
5.177416037885873
 30
0.0
  9
$LIMMIN
 10
0.0
 20
0.0
  9
$LIMMAX
 10
0.0
 20
0.0
  9
$ORTHOMODE
 70
     0
  9
$REGENMODE
 70
     1
  9
$FILLMODE
 70
     1
  9
$QTEXTMODE
 70
     0
  9
$MIRRTEXT
 70
     1
  9
$LTSCALE
 40
1.0
  9
$ATTMODE
 70
     1
  9
$TEXTSIZE
 40
0.0
  9
$TRACEWID
 40
0.05
  9
$TEXTSTYLE
  7
Standard
  9
$CLAYER
  8
0
  9
$CELTYPE
  6
Continuous
  9
$CECOLOR
 62
   256
  9
$CELTSCALE
 40
1.0
  9
$DISPSILH
 70
     0
  9
$DIMSCALE
 40
1.0
  9
$DIMASZ
 40
0.18
  9
$DIMEXO
 40
0.0625
  9
$DIMDLI
 40
0.38
  9
$DIMRND
 40
0.0
  9
$DIMDLE
 40
0.0
  9
$DIMEXE
 40
0.18
  9
$DIMTP
 40
0.0
  9
$DIMTM
 40
0.0
  9
$DIMTXT
 40
0.18
  9
$DIMCEN
 40
0.09
  9
$DIMTSZ
 40
0.0
  9
$DIMTOL
 70
     0
  9
$DIMLIM
 70
     0
  9
$DIMTIH
 70
     1
  9
$DIMTOH
 70
     1
  9
$DIMSE1
 70
     0
  9
$DIMSE2
 70
     0
  9
$DIMTAD
 70
     0
  9
$DIMZIN
 70
     0
  9
$DIMBLK
  1

  9
$DIMASO
 70
     1
  9
$DIMSHO
 70
     1
  9
$DIMPOST
  1

  9
$DIMAPOST
  1

  9
$DIMALT
 70
     0
  9
$DIMALTD
 70
     2
  9
$DIMALTF
 40
25.4
  9
$DIMLFAC
 40
1.0
  9
$DIMTOFL
 70
     0
  9
$DIMTVP
 40
0.0
  9
$DIMTIX
 70
     0
  9
$DIMSOXD
 70
     0
  9
$DIMSAH
 70
     0
  9
$DIMBLK1
  1

  9
$DIMBLK2
  1

  9
$DIMSTYLE
  2
Standard
  9
$DIMCLRD
 70
     0
  9
$DIMCLRE
 70
     0
  9
$DIMCLRT
 70
     0
  9
$DIMTFAC
 40
1.0
  9
$DIMGAP
 40
0.09
  9
$DIMJUST
 70
     0
  9
$DIMSD1
 70
     0
  9
$DIMSD2
 70
     0
  9
$DIMTOLJ
 70
     1
  9
$DIMTZIN
 70
     0
  9
$DIMALTZ
 70
     0
  9
$DIMALTTZ
 70
     0
  9
$DIMUPT
 70
     0
  9
$DIMDEC
 70
     4
  9
$DIMTDEC
 70
     4
  9
$DIMALTU
 70
     2
  9
$DIMALTTD
 70
     2
  9
$DIMTXSTY
  7
Standard
  9
$DIMAUNIT
 70
     0
  9
$DIMADEC
 70
     0
  9
$DIMALTRND
 40
0.0
  9
$DIMAZIN
 70
     0
  9
$DIMDSEP
 70
    46
  9
$DIMATFIT
 70
     0
  9
$DIMFRAC
 70
     0
  9
$DIMLDRBLK
  1

  9
$DIMLUNIT
 70
     2
  9
$DIMLWD
 70
    -2
  9
$DIMLWE
 70
    -2
  9
$DIMTMOVE
 70
     0
  9
$LUNITS
 70
     2
  9
$LUPREC
 70
     4
  9
$SKETCHINC
 40
0.1
  9
$FILLETRAD
 40
0.0
  9
$AUNITS
 70
     0
  9
$AUPREC
 70
     0
  9
$MENU
  1
acad
  9
$ELEVATION
 40
0.0
  9
$PELEVATION
 40
0.0
  9
$THICKNESS
 40
0.0
  9
$LIMCHECK
 70
     0
  9
$CHAMFERA
 40
0.0
  9
$CHAMFERB
 40
0.0
  9
$CHAMFERC
 40
0.0
  9
$CHAMFERD
 40
0.0
  9
$SKPOLY
 70
     0
  9
$TDCREATE
 40
2455006.303391204
  9
$TDUCREATE
 40
2455006.470057870
  9
$TDUPDATE
 40
2455104.874314051
  9
$TDUUPDATE
 40
2455105.040980718
  9
$TDINDWG
 40
0.0010966204
  9
$TDUSRTIMER
 40
0.0010966204
  9
$USRTIMER
 70
     1
  9
$ANGBASE
 50
0.0
  9
$ANGDIR
 70
     0
  9
$PDMODE
 70
     0
  9
$PDSIZE
 40
0.0
  9
$PLINEWID
 40
0.0
  9
$SPLFRAME
 70
     0
  9
$SPLINETYPE
 70
     6
  9
$SPLINESEGS
 70
     8
  9
$HANDSEED
  5
1AF
  9
$SURFTAB1
 70
     6
  9
$SURFTAB2
 70
     6
  9
$SURFTYPE
 70
     6
  9
$SURFU
 70
     6
  9
$SURFV
 70
     6
  9
$UCSBASE
  2

  9
$UCSNAME
  2

  9
$UCSORG
 10
0.0
 20
0.0
 30
0.0
  9
$UCSXDIR
 10
1.0
 20
0.0
 30
0.0
  9
$UCSYDIR
 10
0.0
 20
1.0
 30
0.0
  9
$UCSORTHOREF
  2

  9
$UCSORTHOVIEW
 70
     0
  9
$UCSORGTOP
 10
0.0
 20
0.0
 30
0.0
  9
$UCSORGBOTTOM
 10
0.0
 20
0.0
 30
0.0
  9
$UCSORGLEFT
 10
0.0
 20
0.0
 30
0.0
  9
$UCSORGRIGHT
 10
0.0
 20
0.0
 30
0.0
  9
$UCSORGFRONT
 10
0.0
 20
0.0
 30
0.0
  9
$UCSORGBACK
 10
0.0
 20
0.0
 30
0.0
  9
$PUCSBASE
  2

  9
$PUCSNAME
  2

  9
$PUCSORG
 10
0.0
 20
0.0
 30
0.0
  9
$PUCSXDIR
 10
1.0
 20
0.0
 30
0.0
  9
$PUCSYDIR
 10
0.0
 20
1.0
 30
0.0
  9
$PUCSORTHOREF
  2

  9
$PUCSORTHOVIEW
 70
     0
  9
$PUCSORGTOP
 10
0.0
 20
0.0
 30
0.0
  9
$PUCSORGBOTTOM
 10
0.0
 20
0.0
 30
0.0
  9
$PUCSORGLEFT
 10
0.0
 20
0.0
 30
0.0
  9
$PUCSORGRIGHT
 10
0.0
 20
0.0
 30
0.0
  9
$PUCSORGFRONT
 10
0.0
 20
0.0
 30
0.0
  9
$PUCSORGBACK
 10
0.0
 20
0.0
 30
0.0
  9
$USERI1
 70
     0
  9
$USERI2
 70
     0
  9
$USERI3
 70
     0
  9
$USERI4
 70
     0
  9
$USERI5
 70
     0
  9
$USERR1
 40
0.0
  9
$USERR2
 40
0.0
  9
$USERR3
 40
0.0
  9
$USERR4
 40
0.0
  9
$USERR5
 40
0.0
  9
$WORLDVIEW
 70
     1
  9
$SHADEDGE
 70
     3
  9
$SHADEDIF
 70
    70
  9
$TILEMODE
 70
     0
  9
$MAXACTVP
 70
    16
  9
$PINSBASE
 10
0.0
 20
0.0
 30
0.0
  9
$PLIMCHECK
 70
     0
  9
$PEXTMIN
 10
-0.0733027175222354
 20
-0.0960387923252242
 30
-0.0015258207003583
  9
$PEXTMAX
 10
10.44732693490819
 20
7.980361735696885
 30
0.0000000349246037
  9
$PLIMMIN
 10
-0.3306119115190196
 20
-0.2812499079328949
  9
$PLIMMAX
 10
10.66938784818509
 20
8.218749851771214
  9
$UNITMODE
 70
     0
  9
$VISRETAIN
 70
     0
  9
$PLINEGEN
 70
     1
  9
$PSLTSCALE
 70
     0
  9
$TREEDEPTH
 70
  3020
  9
$CMLSTYLE
  2
Standard
  9
$CMLJUST
 70
     0
  9
$CMLSCALE
 40
1.0
  9
$PROXYGRAPHICS
 70
     0
  9
$MEASUREMENT
 70
     0
  9
$CELWEIGHT
370
     0
  9
$ENDCAPS
280
     0
  9
$JOINSTYLE
280
     0
  9
$LWDISPLAY
290
     0
  9
$INSUNITS
 70
     0
  9
$HYPERLINKBASE
  1

  9
$STYLESHEET
  1

  9
$XEDIT
290
     1
  9
$CEPSNTYPE
380
     0
  9
$PSTYLEMODE
290
     1
  9
$FINGERPRINTGUID
  2

  9
$VERSIONGUID
  2
{5E5CD960-0D10-4197-B20A-E0ED61705A18}
  9
$EXTNAMES
290
     1
  9
$PSVPSCALE
 40
0.0
  9
$OLESTARTUP
290
     0
  9
$SORTENTS
280
   127
  9
$INDEXCTL
280
     0
  9
$HIDETEXT
280
     0
  9
$XCLIPFRAME
290
     0
  9
$HALOGAP
280
     0
  9
$OBSCOLOR
 70
   257
  9
$OBSLTYPE
280
     0
  9
$INTERSECTIONDISPLAY
280
     0
  9
$INTERSECTIONCOLOR
 70
   257
  9
$DIMASSOC
280
     1
  9
$PROJECTNAME
  1

  0
ENDSEC
  0
SECTION
  2
CLASSES
  0
CLASS
  1
IMAGE
  2
AcDbRasterImage
  3
ISM
 90
     2175
 91
        0
280
     0
281
     1
  0
CLASS
  1
DICTIONARYVAR
  2
AcDbDictionaryVar
  3
ObjectDBX Classes
 90
        0
 91
        5
280
     0
281
     0
  0
CLASS
  1
RASTERVARIABLES
  2
AcDbRasterVariables
  3
ISM
 90
        0
 91
        0
280
     0
281
     0
  0
CLASS
  1
IMAGEDEF
  2
AcDbRasterImageDef
  3
ISM
 90
        0
 91
        0
280
     0
281
     0
  0
CLASS
  1
IMAGEDEF_REACTOR
  2
AcDbRasterImageDefReactor
  3
ISM
 90
        1
 91
        0
280
     0
281
     0
  0
CLASS
  1
IDBUFFER
  2
AcDbIdBuffer
  3
ObjectDBX Classes
 90
        0
 91
        0
280
     0
281
     0
  0
CLASS
  1
SPATIAL_FILTER
  2
AcDbSpatialFilter
  3
ObjectDBX Classes
 90
        0
 91
        0
280
     0
281
     0
  0
CLASS
  1
SORTENTSTABLE
  2
AcDbSortentsTable
  3
ObjectDBX Classes
 90
        0
 91
        1
280
     0
281
     0
  0
CLASS
  1
LAYER_INDEX
  2
AcDbLayerIndex
  3
ObjectDBX Classes
 90
        0
 91
        0
280
     0
281
     0
  0
CLASS
  1
SPATIAL_INDEX
  2
AcDbSpatialIndex
  3
ObjectDBX Classes
 90
        0
 91
        0
280
     0
281
     0
  0
CLASS
  1
OBJECT_PTR
  2
CAseDLPNTableRecord
  3
"ASE-LPNTableRecord"
 90
        1
 91
        0
280
     0
281
     0
  0
CLASS
  1
PLOTSETTINGS
  2
AcDbPlotSettings
  3
ObjectDBX Classes
 90
        0
 91
        0
280
     0
281
     0
  0
CLASS
  1
ACDBDICTIONARYWDFLT
  2
AcDbDictionaryWithDefault
  3
ObjectDBX Classes
 90
        0
 91
        1
280
     0
281
     0
  0
CLASS
  1
WIPEOUT
  2
AcDbWipeout
  3
"WipeOut|Product Desc: Object Enabler for WipeOut entity                        |Company: Autodesk, Inc.                        |WEB Address: www.autodesk.com"
 90
     2175
 91
        0
280
     0
281
     1
  0
CLASS
  1
WIPEOUTVARIABLES
  2
AcDbWipeoutVariables
  3
"WipeOut|Product Desc:     WipeOut Dbx Application|Company:          Autodesk, Inc.|WEB Address:      www.autodesk.com"
 90
        0
 91
        1
280
     0
281
     0
  0
CLASS
  1
RTEXT
  2
RText
  3
RText|AutoCAD Express Tool|expresstools@autodesk.com
 90
        0
 91
        0
280
     0
281
     1
  0
CLASS
  1
ARCALIGNEDTEXT
  2
AcDbArcAlignedText
  3
ATEXT|AutoCAD Express Tool|expresstools@autodesk.com
 90
        0
 91
        0
280
     0
281
     1
  0
CLASS
  1
MATERIAL
  2
AcDbMaterial
  3
ObjectDBX Classes
 90
     1153
 91
        3
280
     0
281
     0
  0
CLASS
  1
VISUALSTYLE
  2
AcDbVisualStyle
  3
ObjectDBX Classes
 90
     4095
 91
       16
280
     0
281
     0
  0
CLASS
  1
TABLESTYLE
  2
AcDbTableStyle
  3
ObjectDBX Classes
 90
     4095
 91
        1
280
     0
281
     0
  0
CLASS
  1
SCALE
  2
AcDbScale
  3
ObjectDBX Classes
 90
     1153
 91
       33
280
     0
281
     0
  0
CLASS
  1
MLEADERSTYLE
  2
AcDbMLeaderStyle
  3
ACDB_MLEADERSTYLE_CLASS
 90
     4095
 91
        1
280
     0
281
     0
  0
CLASS
  1
CELLSTYLEMAP
  2
AcDbCellStyleMap
  3
ObjectDBX Classes
 90
     1152
 91
        2
280
     0
281
     0
  0
ENDSEC
  0
SECTION
  2
TABLES
  0
TABLE
  2
VPORT
  5
7
330
0
100
AcDbSymbolTable
 70
     1
  0
VPORT
  5
15
330
7
100
AcDbSymbolTableRecord
100
AcDbViewportTableRecord
  2
*ACTIVE
 70
     0
 10
0.0
 20
0.0
 11
1.0
 21
1.0
 12
12.11780667605996
 22
4.579183999999999
 13
0.0
 23
0.0
 14
1.0
 24
1.0
 15
0.0
 25
0.0
 16
0.0
 26
0.0
 36
1.0
 17
0.0
 27
0.0
 37
0.0
 40
9.158369
 41
1.895442359249329
 42
50.0
 43
0.0
 44
0.0
 50
0.0
 51
0.0
 71
     0
 72
   100
 73
     1
 74
     1
 75
     0
 76
     0
 77
     0
 78
     0
281
     0
 65
     0
110
0.0
120
0.0
130
0.0
111
1.0
121
0.0
131
0.0
112
0.0
122
1.0
132
0.0
 79
     0
146
0.0
  0
ENDTAB
  0
TABLE
  2
LTYPE
  5
4
330
0
100
AcDbSymbolTable
 70
     5
  0
LTYPE
  5
11
330
4
100
AcDbSymbolTableRecord
100
AcDbLinetypeTableRecord
  2
ByBlock
 70
     0
  3

 72
    65
 73
     0
 40
0.0
  0
LTYPE
  5
12
330
4
100
AcDbSymbolTableRecord
100
AcDbLinetypeTableRecord
  2
ByLayer
 70
     0
  3

 72
    65
 73
     0
 40
0.0
  0
LTYPE
  5
13
330
4
100
AcDbSymbolTableRecord
100
AcDbLinetypeTableRecord
  2
Continuous
 70
     0
  3
Solid line
 72
    65
 73
     0
 40
0.0
  0
LTYPE
  5
24
330
4
100
AcDbSymbolTableRecord
100
AcDbLinetypeTableRecord
  2
solid
 70
     0
  3

 72
    65
 73
     0
 40
0.0
  0
LTYPE
  5
25
330
4
100
AcDbSymbolTableRecord
100
AcDbLinetypeTableRecord
  2
dashed
 70
     0
  3

 72
    65
 73
     0
 40
0.0
  0
LTYPE
  5
26
330
4
100
AcDbSymbolTableRecord
100
AcDbLinetypeTableRecord
  2
center
 70
     0
  3

 72
    65
 73
     0
 40
0.0
  0
ENDTAB
  0
TABLE
  2
LAYER
  5
2
330
0
100
AcDbSymbolTable
 70
     3
  0
LAYER
  5
14
102
{ACAD_XDICTIONARY
360
174
102
}
330
2
100
AcDbSymbolTableRecord
100
AcDbLayerTableRecord
  2
0
 70
     0
 62
     7
  6
Continuous
370
    -3
390
1D
  0
LAYER
  5
27
102
{ACAD_XDICTIONARY
360
176
102
}
330
2
100
AcDbSymbolTableRecord
100
AcDbLayerTableRecord
  2
1
 70
     0
 62
     1
  6
solid
370
    -3
390
1D
  0
LAYER
  5
10E
102
{ACAD_XDICTIONARY
360
178
102
}
330
2
100
AcDbSymbolTableRecord
100
AcDbLayerTableRecord
  2
0
 70
     0
 62
     1
  6
solid
370
    -3
390
1D
  0
ENDTAB
  0
TABLE
  2
STYLE
  5
3
330
0
100
AcDbSymbolTable
 70
     2
  0
STYLE
  5
17
330
3
100
AcDbSymbolTableRecord
100
AcDbTextStyleTableRecord
  2
Standard
 70
     0
 40
0.0
 41
1.0
 50
0.0
 71
     0
 42
0.0
  3
txt
  4

  0
ENDTAB
  0
TABLE
  2
VIEW
  5
5
330
0
100
AcDbSymbolTable
 70
     0
  0
ENDTAB
  0
TABLE
  2
UCS
  5
6
330
0
100
AcDbSymbolTable
 70
     0
  0
ENDTAB
  0
TABLE
  2
APPID
  5
8
330
0
100
AcDbSymbolTable
 70
     3
  0
APPID
  5
16
330
8
100
AcDbSymbolTableRecord
100
AcDbRegAppTableRecord
  2
ACAD
 70
     0
  0
APPID
  5
143
330
8
100
AcDbSymbolTableRecord
100
AcDbRegAppTableRecord
  2
ACAD_PSEXT
 70
     0
  0
APPID
  5
16D
330
8
100
AcDbSymbolTableRecord
100
AcDbRegAppTableRecord
  2
ACAD_MLEADERVER
 70
     0
  0
ENDTAB
  0
TABLE
  2
DIMSTYLE
  5
9
330
0
100
AcDbSymbolTable
 70
     3
100
AcDbDimStyleTable
 71
     1
340
18
  0
DIMSTYLE
105
18
102
{ACAD_REACTORS
330
A5
102
}
330
9
100
AcDbSymbolTableRecord
100
AcDbDimStyleTableRecord
  2
Standard
 70
     0
289
     0
340
17
  0
ENDTAB
  0
TABLE
  2
BLOCK_RECORD
  5
1
330
0
100
AcDbSymbolTable
 70
     4
  0
BLOCK_RECORD
  5
A
102
{ACAD_XDICTIONARY
360
189
102
}
330
1
100
AcDbSymbolTableRecord
100
AcDbBlockTableRecord
  2
*MODEL_SPACE
340
20
  0
BLOCK_RECORD
  5
B
330
1
100
AcDbSymbolTableRecord
100
AcDbBlockTableRecord
  2
*PAPER_SPACE
340
21
  0
BLOCK_RECORD
  5
9B
330
1
100
AcDbSymbolTableRecord
100
AcDbBlockTableRecord
  2
*D0
340
0
  0
BLOCK_RECORD
  5
A6
330
1
100
AcDbSymbolTableRecord
100
AcDbBlockTableRecord
  2
*D1
340
0
  0
ENDTAB
  0
ENDSEC
  0
SECTION
  2
BLOCKS
  0
BLOCK
  5
D
330
A
100
AcDbEntity
  8
0
100
AcDbBlockBegin
  2
*MODEL_SPACE
 70
     0
 10
0.0
 20
0.0
 30
0.0
  3
*MODEL_SPACE
  1

  0
ENDBLK
  5
E
330
A
100
AcDbEntity
  8
0
100
AcDbBlockEnd
  0
BLOCK
  5
F
330
B
100
AcDbEntity
 67
     1
  8
0
100
AcDbBlockBegin
  2
*PAPER_SPACE
 70
     0
 10
0.0
 20
0.0
 30
0.0
  3
*PAPER_SPACE
  1

  0
ENDBLK
  5
10
330
B
100
AcDbEntity
 67
     1
  8
0
100
AcDbBlockEnd
  0
BLOCK
  5
9C
330
9B
100
AcDbEntity
  8
1
  6
solid
 62
     7
100
AcDbBlockBegin
  2
*D0
 70
     0
 10
0.0
 20
0.0
 30
0.0
  3
*D0
  1

  0
LINE
  5
9D
330
9B
100
AcDbEntity
  8
1
  6
solid
 62
     7
100
AcDbLine
 10
-1.213768720626831
 20
0.4685668349266053
 30
0.0
 11
-0.6241296549081015
 21
0.4685668349266053
 31
0.0
  0
LINE
  5
9E
330
9B
100
AcDbEntity
  8
1
  6
solid
 62
     7
100
AcDbLine
 10
-1.213768720626831
 20
4.71856689453125
 30
0.0
 11
-0.6241296549080984
 21
4.71856689453125
 31
0.0
  0
LINE
  5
9F
330
9B
100
AcDbEntity
  8
1
  6
solid
 62
     7
100
AcDbLine
 10
-0.6866296549081015
 20
0.4685668349266053
 30
0.0
 11
-0.6866296549081001
 21
2.433694268575081
 31
0.0
  0
LINE
  5
A0
330
9B
100
AcDbEntity
  8
1
  6
solid
 62
     7
100
AcDbLine
 10
-0.6866296549080984
 20
4.71856689453125
 30
0.0
 11
-0.6866296549080998
 21
2.753439460882773
 31
0.0
  0
MTEXT
  5
A1
330
9B
100
AcDbEntity
  8
1
  6
solid
 62
     7
100
AcDbMText
 10
-0.6866296549081
 20
2.593566864728927
 30
0.0
 40
0.125
 41
0.0
 71
     5
 72
     1
  1
{\H0.125000;4 1/4}
 73
     1
 44
1.0
  0
SOLID
  5
A2
330
9B
100
AcDbEntity
  8
1
  6
solid
 62
     7
100
AcDbTrace
 10
-0.6991296549081014
 20
0.4935668349266053
 30
0.0
 11
-0.6741296549081014
 21
0.4935668349266053
 31
0.0
 12
-0.6866296549081015
 22
0.4685668349266053
 32
0.0
 13
-0.6866296549081015
 23
0.4685668349266053
 33
0.0
  0
SOLID
  5
A3
330
9B
100
AcDbEntity
  8
1
  6
solid
 62
     7
100
AcDbTrace
 10
-0.6741296549080984
 20
4.693566894531249
 30
0.0
 11
-0.6991296549080985
 21
4.693566894531249
 31
0.0
 12
-0.6866296549080984
 22
4.71856689453125
 32
0.0
 13
-0.6866296549080984
 23
4.71856689453125
 33
0.0
  0
ENDBLK
  5
A4
330
9B
100
AcDbEntity
  8
1
  6
solid
 62
     7
100
AcDbBlockEnd
  0
BLOCK
  5
A7
330
A6
100
AcDbEntity
  8
1
  6
solid
 62
     7
100
AcDbBlockBegin
  2
*D1
 70
     0
 10
0.0
 20
0.0
 30
0.0
  3
*D1
  1

  0
LINE
  5
A8
330
A6
100
AcDbEntity
  8
1
  6
solid
 62
     7
100
AcDbLine
 10
-2.026268720626831
 20
0.3435668349266052
 30
0.0
 11
-2.026268720626831
 21
0.1441313976039037
 31
0.0
  0
LINE
  5
A9
330
A6
100
AcDbEntity
  8
1
  6
solid
 62
     7
100
AcDbLine
 10
-1.338768720626831
 20
0.3435668349266052
 30
0.0
 11
-1.338768720626831
 21
0.1441313976039037
 31
0.0
  0
LINE
  5
AA
330
A6
100
AcDbEntity
  8
1
  6
solid
 62
     7
100
AcDbLine
 10
-2.026268720626831
 20
0.2066313976039037
 30
0.0
 11
-1.879004014744478
 21
0.2066313976039037
 31
0.0
  0
LINE
  5
AB
330
A6
100
AcDbEntity
  8
1
  6
solid
 62
     7
100
AcDbLine
 10
-1.338768720626831
 20
0.2066313976039037
 30
0.0
 11
-1.486033426509183
 21
0.2066313976039037
 31
0.0
  0
MTEXT
  5
AC
330
A6
100
AcDbEntity
  8
1
  6
solid
 62
     7
100
AcDbMText
 10
-1.682518720626831
 20
0.2066313976039037
 30
0.0
 40
0.125
 41
0.0
 71
     5
 72
     1
  1
{\H0.125000;11/16}
 73
     1
 44
1.0
  0
SOLID
  5
AD
330
A6
100
AcDbEntity
  8
1
  6
solid
 62
     7
100
AcDbTrace
 10
-2.001268720626831
 20
0.2191313976039037
 30
0.0
 11
-2.001268720626831
 21
0.1941313976039037
 31
0.0
 12
-2.026268720626831
 22
0.2066313976039037
 32
0.0
 13
-2.026268720626831
 23
0.2066313976039037
 33
0.0
  0
SOLID
  5
AE
330
A6
100
AcDbEntity
  8
1
  6
solid
 62
     7
100
AcDbTrace
 10
-1.36376872062683
 20
0.1941313976039037
 30
0.0
 11
-1.36376872062683
 21
0.2191313976039037
 31
0.0
 12
-1.338768720626831
 22
0.2066313976039037
 32
0.0
 13
-1.338768720626831
 23
0.2066313976039037
 33
0.0
  0
ENDBLK
  5
AF
330
A6
100
AcDbEntity
  8
1
  6
solid
 62
     7
100
AcDbBlockEnd
  0
ENDSEC
  0
SECTION
  2
ENTITIES
  0
LINE
  5
28
330
A
100
AcDbEntity
  8
1
  6
solid
 62
     7
100
AcDbLine
 10
1.326156271018177
 20
0.3494584923090189
 30
0.0
 11
0.6386562710181778
 21
0.3494584923090189
 31
0.0
  0
ARC
  5
29
330
A
100
AcDbEntity
  8
1
  6
solid
 62
     7
100
AcDbCircle
 10
1.023886092981708
 20
3.458397818625829
 30
0.0
 40
0.2932114719751973
100
AcDbArc
 50
188.9610113848742
 51
249.6178023401262
  0
ARC
  5
2A
330
A
100
AcDbEntity
  8
1
  6
solid
 62
     7
100
AcDbCircle
 10
2.153251064880553
 20
2.257360838327262
 30
0.0
 40
1.379094765061675
100
AcDbArc
 50
150.7329504428473
 51
212.2819178985309
  0
LINE
  5
2B
330
A
100
AcDbEntity
  8
1
  6
solid
 62
     7
100
AcDbLine
 10
0.8663885398141362
 20
3.052301397383305
 30
0.0
 11
0.9501969619027592
 21
2.931573858320805
 31
0.0
  0
LINE
  5
2C
330
A
100
AcDbEntity
  8
1
  6
solid
 62
     7
100
AcDbLine
 10
0.987322310947559
 20
1.520806303083989
 30
0.0
 11
0.8865856043777986
 21
1.396975199671229
 31
0.0
  0
LINE
  5
2D
330
A
100
AcDbEntity
  8
1
  6
solid
 62
     7
100
AcDbLine
 10
0.8865856929055668
 20
1.396975269377324
 30
0.0
 11
0.9503840738377471
 21
1.25971095670097
 31
0.0
  0
ARC
  5
2E
330
A
100
AcDbEntity
  8
1
  6
solid
 62
     7
100
AcDbCircle
 10
0.99327048919586
 20
1.019185706040994
 30
0.0
 40
0.2443187797825489
100
AcDbArc
 50
100.1097627338831
 51
181.7217632704261
  0
LINE
  5
2F
330
A
100
AcDbEntity
  8
1
  6
solid
 62
     7
100
AcDbLine
 10
1.326156271018177
 20
4.599458492264067
 30
0.0
 11
0.9949817472352169
 21
4.599458492264067
 31
0.0
  0
ARC
  5
30
330
A
100
AcDbEntity
  8
1
  6
solid
 62
     7
100
AcDbCircle
 10
1.441625678372049
 20
4.060307584365783
 30
0.0
 40
0.7001246336966779
100
AcDbArc
 50
129.6390639366759
 51
177.334717883081
  0
LINE
  5
31
330
A
100
AcDbEntity
  8
1
  6
solid
 62
     7
100
AcDbLine
 10
0.7422584099999883
 20
4.092864027083012
 30
0.0
 11
0.638656271018178
 21
4.081416324797573
 31
0.0
  0
LINE
  5
32
330
A
100
AcDbEntity
  8
1
  6
solid
 62
     7
100
AcDbLine
 10
0.7342533869973638
 20
3.412726392805669
 30
0.0
 11
0.6386562710181778
 21
3.452973033054988
 31
0.0
  0
LINE
  5
33
330
A
100
AcDbEntity
  8
1
  6
solid
 62
     7
100
AcDbLine
 10
0.6386562710181778
 20
3.452973033054988
 30
0.0
 11
0.6386562710181778
 21
4.081416324797573
 31
0.0
  0
LINE
  5
34
330
A
100
AcDbEntity
  8
1
  6
solid
 62
     7
100
AcDbLine
 10
0.74906204178252
 20
1.011844863951299
 30
0.0
 11
0.638656271006568
 21
0.9614618130561678
 31
0.0
  0
LINE
  5
35
330
A
100
AcDbEntity
  8
1
  6
solid
 62
     7
100
AcDbLine
 10
0.638656271006568
 20
0.3494584923090189
 30
0.0
 11
0.6386562710065677
 21
0.9614618130561678
 31
0.0
  0
LINE
  5
36
330
A
100
AcDbEntity
  8
1
  6
solid
 62
     7
100
AcDbLine
 10
1.326156271055774
 20
4.599458492264067
 30
0.0
 11
1.326156271055774
 21
3.599458446562382
 31
0.0
  0
LINE
  5
37
330
A
100
AcDbEntity
  8
1
  6
solid
 62
     7
100
AcDbLine
 10
1.326156239055774
 20
1.099458446562383
 30
0.0
 11
1.326156239055774
 21
0.3494584465623831
 31
0.0
  0
LINE
  5
38
330
A
100
AcDbEntity
  8
1
  6
solid
 62
     7
100
AcDbLine
 10
1.294906239055774
 20
3.599458446562382
 30
0.0
 11
1.326156239055774
 21
3.599458446562382
 31
0.0
  0
ARC
  5
39
330
A
100
AcDbEntity
  8
1
  6
solid
 62
     7
100
AcDbCircle
 10
1.294906239055774
 20
3.536958446562382
 30
0.0
 40
0.0625
100
AcDbArc
 50
90.0
 51
180.0000000000004
  0
LINE
  5
3A
330
A
100
AcDbEntity
  8
1
  6
solid
 62
     7
100
AcDbLine
 10
1.326156239055774
 20
1.099458446562383
 30
0.0
 11
1.294906239055774
 21
1.099458446562383
 31
0.0
  0
LINE
  5
3B
330
A
100
AcDbEntity
  8
1
  6
solid
 62
     7
100
AcDbLine
 10
1.232406239055774
 20
1.161958446562383
 30
0.0
 11
1.232406239055774
 21
3.536958446562382
 31
0.0
  0
ARC
  5
3C
330
A
100
AcDbEntity
  8
1
  6
solid
 62
     7
100
AcDbCircle
 10
1.294906239055774
 20
1.161958446562383
 30
0.0
 40
0.0625
100
AcDbArc
 50
180.0
 51
269.9999999999999
  0
ARC
  5
3D
330
A
100
AcDbEntity
  8
1
  6
solid
 62
     7
100
AcDbCircle
 10
0.3467215018970088
 20
4.036355364247635
 30
0.0
 40
0.2932114719751973
100
AcDbArc
 50
199.6310986796718
 51
249.6178023401262
  0
ARC
  5
3E
330
A
100
AcDbEntity
  8
1
  6
solid
 62
     7
100
AcDbCircle
 10
1.476086473795853
 20
2.835318383949068
 30
0.0
 40
1.379094765061675
100
AcDbArc
 50
150.7329504428473
 51
212.2819178985309
  0
LINE
  5
3F
330
A
100
AcDbEntity
  8
1
  6
solid
 62
     7
100
AcDbLine
 10
0.2446016705159354
 20
3.761501695080307
 30
0.0
 11
0.1892239458893593
 21
3.630258799576652
 31
0.0
  0
LINE
  5
40
330
A
100
AcDbEntity
  8
1
  6
solid
 62
     7
100
AcDbLine
 10
0.1892239487294364
 20
3.630258943005111
 30
0.0
 11
0.2730323708180594
 21
3.509531403942611
 31
0.0
  0
LINE
  5
41
330
A
100
AcDbEntity
  8
1
  6
solid
 62
     7
100
AcDbLine
 10
0.3101577198628592
 20
2.098763848705795
 30
0.0
 11
0.2094210132930988
 21
1.974932745293035
 31
0.0
  0
LINE
  5
42
330
A
100
AcDbEntity
  8
1
  6
solid
 62
     7
100
AcDbLine
 10
0.2094211018208671
 20
1.97493281499913
 30
0.0
 11
0.2732194827530473
 21
1.837668502322776
 31
0.0
  0
ARC
  5
43
330
A
100
AcDbEntity
  8
1
  6
solid
 62
     7
100
AcDbCircle
 10
0.3161058981111603
 20
1.5971432516628
 30
0.0
 40
0.2443187797825489
100
AcDbArc
 50
100.1097627338831
 51
181.7217632704261
  0
LINE
  5
44
330
A
100
AcDbEntity
  8
1
  6
solid
 62
     7
100
AcDbLine
 10
0.648991679933478
 20
5.177416037885873
 30
0.0
 11
0.3178171561505171
 21
5.177416037885873
 31
0.0
  0
ARC
  5
45
330
A
100
AcDbEntity
  8
1
  6
solid
 62
     7
100
AcDbCircle
 10
0.7644610872873496
 20
4.638265129987589
 30
0.0
 40
0.7001246336966779
100
AcDbArc
 50
129.6390639366759
 51
177.334717883081
  0
LINE
  5
46
330
A
100
AcDbEntity
  8
1
  6
solid
 62
     7
100
AcDbLine
 10
0.0650938189152884
 20
4.670821572704818
 30
0.0
 11
-0.0385083200665218
 21
4.659373870419379
 31
0.0
  0
LINE
  5
47
330
A
100
AcDbEntity
  8
1
  6
solid
 62
     7
100
AcDbLine
 10
-0.0385083200665221
 20
4.030930578676794
 30
0.0
 11
-0.0385083200665221
 21
4.659373870419379
 31
0.0
  0
LINE
  5
48
330
A
100
AcDbEntity
  8
1
  6
solid
 62
     7
100
AcDbLine
 10
0.0718974506978202
 20
1.589802409573105
 30
0.0
 11
-0.0385083200781319
 21
1.539419358677973
 31
0.0
  0
LINE
  5
49
330
A
100
AcDbEntity
  8
1
  6
solid
 62
     7
100
AcDbLine
 10
-0.0385083200781319
 20
0.9274160379308248
 30
0.0
 11
-0.0385083200781321
 21
1.539419358677973
 31
0.0
  0
LINE
  5
4A
330
A
100
AcDbEntity
  8
1
  6
solid
 62
     7
100
AcDbLine
 10
0.6489917039871216
 20
5.17741584777832
 30
0.0
 11
1.326156258583068
 21
4.599458694458007
 31
0.0
  0
LINE
  5
4B
330
A
100
AcDbEntity
  8
1
  6
solid
 62
     7
100
AcDbLine
 10
0.9949817657470703
 20
4.599458694458007
 30
0.0
 11
0.3178171515464783
 21
5.17741584777832
 31
0.0
  0
LINE
  5
4C
330
A
100
AcDbEntity
  8
1
  6
solid
 62
     7
100
AcDbLine
 10
0.7422584295272828
 20
4.092864036560058
 30
0.0
 11
0.0650938227772713
 21
4.670821666717529
 31
0.0
  0
LINE
  5
4D
330
A
100
AcDbEntity
  8
1
  6
solid
 62
     7
100
AcDbLine
 10
0.6386562585830689
 20
4.081416130065917
 30
0.0
 11
-0.0385083183646202
 21
4.659373760223388
 31
0.0
  0
LINE
  5
4E
330
A
100
AcDbEntity
  8
1
  6
solid
 62
     7
100
AcDbLine
 10
0.6386562585830689
 20
3.452973127365112
 30
0.0
 11
-0.0385083183646202
 21
4.030930519104003
 31
0.0
  0
LINE
  5
4F
330
A
100
AcDbEntity
  8
1
  6
solid
 62
     7
100
AcDbLine
 10
0.9217661619186401
 20
3.183544158935546
 30
0.0
 11
0.8663885593414306
 21
3.052301406860351
 31
0.0
  0
LINE
  5
50
330
A
100
AcDbEntity
  8
1
  6
solid
 62
     7
100
AcDbLine
 10
0.8663885593414306
 20
3.052301406860351
 30
0.0
 11
0.1892239451408386
 21
3.630259037017822
 31
0.0
  0
LINE
  5
51
330
A
100
AcDbEntity
  8
1
  6
solid
 62
     7
100
AcDbLine
 10
0.2446016669273376
 20
3.761501789093017
 30
0.0
 11
0.7684888412818608
 21
3.314365839114242
 31
0.0
  0
LINE
  5
52
330
A
100
AcDbEntity
  8
1
  6
solid
 62
     7
100
AcDbLine
 10
0.9501969814300537
 20
2.931573867797851
 30
0.0
 11
0.2730323672294617
 21
3.509531497955322
 31
0.0
  0
LINE
  5
53
330
A
100
AcDbEntity
  8
1
  6
solid
 62
     7
100
AcDbLine
 10
0.9873223900794982
 20
1.520806193351745
 30
0.0
 11
0.3101578056812286
 21
2.098763704299926
 31
0.0
  0
LINE
  5
54
330
A
100
AcDbEntity
  8
1
  6
solid
 62
     7
100
AcDbLine
 10
0.8865855932235717
 20
1.39697515964508
 30
0.0
 11
0.2094210982322693
 21
1.974932789802551
 31
0.0
  0
LINE
  5
55
330
A
100
AcDbEntity
  8
1
  6
solid
 62
     7
100
AcDbLine
 10
0.9503840804100036
 20
1.259710907936096
 30
0.0
 11
0.273219496011734
 21
1.837668538093566
 31
0.0
  0
LINE
  5
56
330
A
100
AcDbEntity
  8
1
  6
solid
 62
     7
100
AcDbLine
 10
0.7490620017051697
 20
1.011844873428344
 30
0.0
 11
0.0718974247574806
 21
1.589802503585815
 31
0.0
  0
LINE
  5
57
330
A
100
AcDbEntity
  8
1
  6
solid
 62
     7
100
AcDbLine
 10
0.6386562585830689
 20
0.9614618420600891
 30
0.0
 11
-0.0385083183646202
 21
1.539419412612915
 31
0.0
  0
LINE
  5
58
330
A
100
AcDbEntity
  8
1
  6
solid
 62
     7
100
AcDbLine
 10
0.6386562585830689
 20
0.3494584858417511
 30
0.0
 11
-0.0385083183646202
 21
0.9274160265922546
 31
0.0
  0
LINE
  5
59
330
A
100
AcDbEntity
  8
1
  6
solid
 62
     7
100
AcDbLine
 10
0.8907656470148904
 20
0.6559668333262513
 30
0.0
 11
0.8907656470148904
 21
0.6250802054192746
 31
0.0
  0
LINE
  5
5A
330
A
100
AcDbEntity
  8
1
  6
solid
 62
     7
100
AcDbLine
 10
0.8907656470148904
 20
0.6250802054192746
 30
0.0
 11
0.7872046005032625
 21
0.6250802054192746
 31
0.0
  0
SPLINE
  5
5B
330
A
100
AcDbEntity
  8
1
  6
solid
 62
     7
100
AcDbSpline
210
0.0
220
0.0
230
1.0
 70
     8
 71
     2
 72
     7
 73
     4
 74
     0
 42
0.0000000001
 43
0.0000000001
 40
0.0
 40
0.0
 40
0.0
 40
1.0
 40
2.0
 40
2.0
 40
2.0
 10
0.7872046005032625
 20
0.6250802054192746
 30
0.0
 10
0.7882836702707044
 20
0.6401918333262513
 30
0.0
 10
0.8053918098055879
 20
0.6676679961169489
 30
0.0
 10
0.8295133214334949
 20
0.6907476472797397
 30
0.0
  0
SPLINE
  5
5C
330
A
100
AcDbEntity
  8
1
  6
solid
 62
     7
100
AcDbSpline
210
0.0
220
0.0
230
1.0
 70
     8
 71
     2
 72
     6
 73
     3
 74
     0
 42
0.0000000001
 43
0.0000000001
 40
0.0
 40
0.0
 40
0.0
 40
1.0
 40
1.0
 40
1.0
 10
0.8295133214334949
 20
0.6907476472797397
 30
0.0
 10
0.8492755307358205
 20
0.7090836937913676
 30
0.0
 10
0.8534487865497741
 20
0.7152598565820653
 30
0.0
  0
SPLINE
  5
5D
330
A
100
AcDbEntity
  8
1
  6
solid
 62
     7
100
AcDbSpline
210
0.0
220
0.0
230
1.0
 70
     8
 71
     2
 72
     6
 73
     3
 74
     0
 42
0.0000000001
 43
0.0000000001
 40
0.0
 40
0.0
 40
0.0
 40
1.0
 40
1.0
 40
1.0
 10
0.8534487865497741
 20
0.7152598565820653
 30
0.0
 10
0.8598790191079135
 20
0.7243255542564838
 30
0.0
 10
0.8598790191079135
 20
0.7332610193727629
 30
0.0
  0
SPLINE
  5
5E
330
A
100
AcDbEntity
  8
1
  6
solid
 62
     7
100
AcDbSpline
210
0.0
220
0.0
230
1.0
 70
     8
 71
     2
 72
     7
 73
     4
 74
     0
 42
0.0000000001
 43
0.0000000001
 40
0.0
 40
0.0
 40
0.0
 40
1.0
 40
2.0
 40
2.0
 40
2.0
 10
0.8598790191079135
 20
0.7332610193727629
 30
0.0
 10
0.8598790191079135
 20
0.7434366007681118
 30
0.0
 10
0.8496476237590764
 20
0.7540772984425304
 30
0.0
 10
0.8408051818986113
 20
0.7540772984425304
 30
0.0
  0
SPLINE
  5
5F
330
A
100
AcDbEntity
  8
1
  6
solid
 62
     7
100
AcDbSpline
210
0.0
220
0.0
230
1.0
 70
     8
 71
     2
 72
     7
 73
     4
 74
     0
 42
0.0000000001
 43
0.0000000001
 40
0.0
 40
0.0
 40
0.0
 40
1.0
 40
2.0
 40
2.0
 40
2.0
 10
0.8408051818986113
 20
0.7540772984425304
 30
0.0
 10
0.8326633214334949
 20
0.7540772984425304
 30
0.0
 10
0.8222458795730299
 20
0.7425313682099723
 30
0.0
 10
0.8217249493404718
 20
0.7304581123960188
 30
0.0
  0
LINE
  5
60
330
A
100
AcDbEntity
  8
1
  6
solid
 62
     7
100
AcDbLine
 10
0.8217249493404718
 20
0.7304581123960188
 30
0.0
 11
0.790838321433495
 21
0.7329819496053211
 31
0.0
  0
SPLINE
  5
61
330
A
100
AcDbEntity
  8
1
  6
solid
 62
     7
100
AcDbSpline
210
0.0
220
0.0
230
1.0
 70
     8
 71
     2
 72
     7
 73
     4
 74
     0
 42
0.0000000001
 43
0.0000000001
 40
0.0
 40
0.0
 40
0.0
 40
1.0
 40
2.0
 40
2.0
 40
2.0
 10
0.790838321433495
 20
0.7329819496053211
 30
0.0
 10
0.7931761121311695
 20
0.7585482286750885
 30
0.0
 10
0.820745298177681
 20
0.7813302054192746
 30
0.0
 10
0.8418778563172159
 20
0.7813302054192746
 30
0.0
  0
SPLINE
  5
62
330
A
100
AcDbEntity
  8
1
  6
solid
 62
     7
100
AcDbSpline
210
0.0
220
0.0
230
1.0
 70
     8
 71
     2
 72
     7
 73
     4
 74
     0
 42
0.0000000001
 43
0.0000000001
 40
0.0
 40
0.0
 40
0.0
 40
1.0
 40
2.0
 40
2.0
 40
2.0
 10
0.8418778563172159
 20
0.7813302054192746
 30
0.0
 10
0.8643127400381461
 20
0.7813302054192746
 30
0.0
 10
0.8907656470148904
 20
0.7566941589076467
 30
0.0
 10
0.8907656470148904
 20
0.7386185775122978
 30
0.0
  0
SPLINE
  5
63
330
A
100
AcDbEntity
  8
1
  6
solid
 62
     7
100
AcDbSpline
210
0.0
220
0.0
230
1.0
 70
     8
 71
     2
 72
     7
 73
     4
 74
     0
 42
0.0000000001
 43
0.0000000001
 40
0.0
 40
0.0
 40
0.0
 40
1.0
 40
2.0
 40
2.0
 40
2.0
 10
0.8907656470148904
 20
0.7386185775122978
 30
0.0
 10
0.8907656470148904
 20
0.728771484489042
 30
0.0
 10
0.8827976237590764
 20
0.7097348565820653
 30
0.0
 10
0.8750278563172159
 20
0.6999621821634606
 30
0.0
  0
SPLINE
  5
64
330
A
100
AcDbEntity
  8
1
  6
solid
 62
     7
100
AcDbSpline
210
0.0
220
0.0
230
1.0
 70
     8
 71
     2
 72
     8
 73
     5
 74
     0
 42
0.0000000001
 43
0.0000000001
 40
0.0
 40
0.0
 40
0.0
 40
1.0
 40
2.0
 40
3.0
 40
3.0
 40
3.0
 10
0.8750278563172159
 20
0.6999621821634606
 30
0.0
 10
0.8696702981776811
 20
0.6930482286750886
 30
0.0
 10
0.840916809805588
 20
0.6677238100704374
 30
0.0
 10
0.8335749493404717
 20
0.6598052054192746
 30
0.0
 10
0.8314418098055879
 20
0.6559668333262513
 30
0.0
  0
LINE
  5
65
330
A
100
AcDbEntity
  8
1
  6
solid
 62
     7
100
AcDbLine
 10
0.8907656470148904
 20
0.6559668333262513
 30
0.0
 11
0.8314418098055879
 21
0.6559668333262513
 31
0.0
  0
LINE
  5
66
330
A
100
AcDbEntity
  8
1
  6
solid
 62
     7
100
AcDbLine
 10
0.9661689028288439
 20
0.6250802054192746
 30
0.0
 11
0.9661689028288439
 21
0.6559668333262513
 31
0.0
  0
LINE
  5
67
330
A
100
AcDbEntity
  8
1
  6
solid
 62
     7
100
AcDbLine
 10
0.9661689028288439
 20
0.6559668333262513
 30
0.0
 11
0.9043956470148904
 21
0.6559668333262513
 31
0.0
  0
LINE
  5
68
330
A
100
AcDbEntity
  8
1
  6
solid
 62
     7
100
AcDbLine
 10
0.9043956470148904
 20
0.6559668333262513
 30
0.0
 11
0.9043956470148904
 21
0.6807022984425304
 31
0.0
  0
LINE
  5
69
330
A
100
AcDbEntity
  8
1
  6
solid
 62
     7
100
AcDbLine
 10
0.9043956470148904
 20
0.6807022984425304
 30
0.0
 11
0.9701002981776811
 21
0.7795133449541583
 31
0.0
  0
LINE
  5
6A
330
A
100
AcDbEntity
  8
1
  6
solid
 62
     7
100
AcDbLine
 10
0.9701002981776811
 20
0.7795133449541583
 30
0.0
 11
0.9970555307358207
 21
0.7795133449541583
 31
0.0
  0
LINE
  5
6B
330
A
100
AcDbEntity
  8
1
  6
solid
 62
     7
100
AcDbLine
 10
0.9970555307358207
 20
0.7795133449541583
 30
0.0
 11
0.9970555307358207
 21
0.6814028798378792
 31
0.0
  0
LINE
  5
6C
330
A
100
AcDbEntity
  8
1
  6
solid
 62
     7
100
AcDbLine
 10
0.9970555307358207
 20
0.6814028798378792
 30
0.0
 11
1.017040995852099
 21
0.6814028798378792
 31
0.0
  0
LINE
  5
6D
330
A
100
AcDbEntity
  8
1
  6
solid
 62
     7
100
AcDbLine
 10
1.017040995852099
 20
0.6814028798378792
 30
0.0
 11
1.017040995852099
 21
0.6559668333262513
 31
0.0
  0
LINE
  5
6E
330
A
100
AcDbEntity
  8
1
  6
solid
 62
     7
100
AcDbLine
 10
1.017040995852099
 20
0.6559668333262513
 30
0.0
 11
0.9970555307358207
 21
0.6559668333262513
 31
0.0
  0
LINE
  5
6F
330
A
100
AcDbEntity
  8
1
  6
solid
 62
     7
100
AcDbLine
 10
0.9970555307358207
 20
0.6559668333262513
 30
0.0
 11
0.9970555307358207
 21
0.6250802054192746
 31
0.0
  0
LINE
  5
70
330
A
100
AcDbEntity
  8
1
  6
solid
 62
     7
100
AcDbLine
 10
0.9661689028288439
 20
0.6250802054192746
 30
0.0
 11
0.9970555307358207
 21
0.6250802054192746
 31
0.0
  0
LINE
  5
71
330
A
100
AcDbEntity
  8
1
  6
solid
 62
     7
100
AcDbLine
 10
0.9661689028288439
 20
0.6814028798378792
 30
0.0
 11
0.9661689028288439
 21
0.7311836937913676
 31
0.0
  0
LINE
  5
72
330
A
100
AcDbEntity
  8
1
  6
solid
 62
     7
100
AcDbLine
 10
0.9661689028288439
 20
0.7311836937913676
 30
0.0
 11
0.9322252981776811
 21
0.6814028798378792
 31
0.0
  0
LINE
  5
73
330
A
100
AcDbEntity
  8
1
  6
solid
 62
     7
100
AcDbLine
 10
0.9661689028288439
 20
0.6814028798378792
 30
0.0
 11
0.9322252981776811
 21
0.6814028798378792
 31
0.0
  0
LINE
  5
74
330
A
100
AcDbEntity
  8
1
  6
solid
 62
     7
100
AcDbLine
 10
1.030670995852099
 20
0.6705017170471816
 30
0.0
 11
1.061557623759076
 21
0.6741354379774141
 31
0.0
  0
SPLINE
  5
75
330
A
100
AcDbEntity
  8
1
  6
solid
 62
     7
100
AcDbSpline
210
0.0
220
0.0
230
1.0
 70
     8
 71
     2
 72
     7
 73
     4
 74
     0
 42
0.0000000001
 43
0.0000000001
 40
0.0
 40
0.0
 40
0.0
 40
1.0
 40
2.0
 40
2.0
 40
2.0
 10
1.061557623759076
 20
0.6741354379774141
 30
0.0
 10
1.062413437712564
 20
0.6622360193727629
 30
0.0
 10
1.074350065619541
 20
0.6505162519309025
 30
0.0
 10
1.082212856317215
 20
0.6505162519309025
 30
0.0
  0
SPLINE
  5
76
330
A
100
AcDbEntity
  8
1
  6
solid
 62
     7
100
AcDbSpline
210
0.0
220
0.0
230
1.0
 70
     8
 71
     2
 72
     7
 73
     4
 74
     0
 42
0.0000000001
 43
0.0000000001
 40
0.0
 40
0.0
 40
0.0
 40
1.0
 40
2.0
 40
2.0
 40
2.0
 10
1.082212856317215
 20
0.6505162519309025
 30
0.0
 10
1.091092507480006
 20
0.6505162519309025
 30
0.0
 10
1.10334541445675
 20
0.6625709030936932
 30
0.0
 10
1.10334541445675
 20
0.6733604379774141
 30
0.0
  0
SPLINE
  5
77
330
A
100
AcDbEntity
  8
1
  6
solid
 62
     7
100
AcDbSpline
210
0.0
220
0.0
230
1.0
 70
     8
 71
     2
 72
     7
 73
     4
 74
     0
 42
0.0000000001
 43
0.0000000001
 40
0.0
 40
0.0
 40
0.0
 40
1.0
 40
2.0
 40
2.0
 40
2.0
 10
1.10334541445675
 20
0.6733604379774141
 30
0.0
 10
1.10334541445675
 20
0.6837592751867164
 30
0.0
 10
1.092481460968378
 20
0.6959377635588094
 30
0.0
 10
1.084252972596285
 20
0.6959377635588094
 30
0.0
  0
SPLINE
  5
78
330
A
100
AcDbEntity
  8
1
  6
solid
 62
     7
100
AcDbSpline
210
0.0
220
0.0
230
1.0
 70
     8
 71
     2
 72
     6
 73
     3
 74
     0
 42
0.0000000001
 43
0.0000000001
 40
0.0
 40
0.0
 40
0.0
 40
1.0
 40
1.0
 40
1.0
 10
1.084252972596285
 20
0.6959377635588094
 30
0.0
 10
1.079007042363727
 20
0.6959377635588094
 30
0.0
 10
1.072458786549774
 20
0.6932156705355537
 30
0.0
  0
LINE
  5
79
330
A
100
AcDbEntity
  8
1
  6
solid
 62
     7
100
AcDbLine
 10
1.072458786549774
 20
0.6932156705355537
 30
0.0
 11
1.074889600503262
 21
0.7195569496053212
 31
0.0
  0
SPLINE
  5
7A
330
A
100
AcDbEntity
  8
1
  6
solid
 62
     7
100
AcDbSpline
210
0.0
220
0.0
230
1.0
 70
     8
 71
     2
 72
     7
 73
     4
 74
     0
 42
0.0000000001
 43
0.0000000001
 40
0.0
 40
0.0
 40
0.0
 40
1.0
 40
2.0
 40
2.0
 40
2.0
 10
1.074889600503262
 20
0.7195569496053212
 30
0.0
 10
1.085307042363727
 20
0.7187075310006699
 30
0.0
 10
1.096077972596285
 20
0.7292552054192746
 30
0.0
 10
1.096077972596285
 20
0.7380046240239258
 30
0.0
  0
SPLINE
  5
7B
330
A
100
AcDbEntity
  8
1
  6
solid
 62
     7
100
AcDbSpline
210
0.0
220
0.0
230
1.0
 70
     8
 71
     2
 72
     7
 73
     4
 74
     0
 42
0.0000000001
 43
0.0000000001
 40
0.0
 40
0.0
 40
0.0
 40
1.0
 40
2.0
 40
2.0
 40
2.0
 10
1.096077972596285
 20
0.7380046240239258
 30
0.0
 10
1.096077972596285
 20
0.7452720658843909
 30
0.0
 10
1.087793670270704
 20
0.7540772984425304
 30
0.0
 10
1.081654716782332
 20
0.7540772984425304
 30
0.0
  0
SPLINE
  5
7C
330
A
100
AcDbEntity
  8
1
  6
solid
 62
     7
100
AcDbSpline
210
0.0
220
0.0
230
1.0
 70
     8
 71
     2
 72
     7
 73
     4
 74
     0
 42
0.0000000001
 43
0.0000000001
 40
0.0
 40
0.0
 40
0.0
 40
1.0
 40
2.0
 40
2.0
 40
2.0
 10
1.081654716782332
 20
0.7540772984425304
 30
0.0
 10
1.074926809805588
 20
0.7540772984425304
 30
0.0
 10
1.065842507480006
 20
0.7436412519309025
 30
0.0
 10
1.065191344689309
 20
0.7340918333262513
 30
0.0
  0
LINE
  5
7D
330
A
100
AcDbEntity
  8
1
  6
solid
 62
     7
100
AcDbLine
 10
1.065191344689309
 20
0.7340918333262513
 30
0.0
 11
1.034304716782332
 21
0.7382836937913676
 31
0.0
  0
SPLINE
  5
7E
330
A
100
AcDbEntity
  8
1
  6
solid
 62
     7
100
AcDbSpline
210
0.0
220
0.0
230
1.0
 70
     8
 71
     2
 72
     8
 73
     5
 74
     0
 42
0.0000000001
 43
0.0000000001
 40
0.0
 40
0.0
 40
0.0
 40
1.0
 40
2.0
 40
3.0
 40
3.0
 40
3.0
 10
1.034304716782332
 20
0.7382836937913676
 30
0.0
 10
1.036772740038146
 20
0.7530232286750885
 30
0.0
 10
1.047990181898611
 20
0.7709127635588095
 30
0.0
 10
1.068862274921867
 20
0.7813302054192746
 30
0.0
 10
1.080898321433495
 20
0.7813302054192746
 30
0.0
  0
SPLINE
  5
7F
330
A
100
AcDbEntity
  8
1
  6
solid
 62
     7
100
AcDbSpline
210
0.0
220
0.0
230
1.0
 70
     8
 71
     2
 72
     6
 73
     3
 74
     0
 42
0.0000000001
 43
0.0000000001
 40
0.0
 40
0.0
 40
0.0
 40
1.0
 40
1.0
 40
1.0
 10
1.080898321433495
 20
0.7813302054192746
 30
0.0
 10
1.102589019107913
 20
0.7813302054192746
 30
0.0
 10
1.116156460968378
 20
0.7670371821634606
 30
0.0
  0
SPLINE
  5
80
330
A
100
AcDbEntity
  8
1
  6
solid
 62
     7
100
AcDbSpline
210
0.0
220
0.0
230
1.0
 70
     8
 71
     2
 72
     6
 73
     3
 74
     0
 42
0.0000000001
 43
0.0000000001
 40
0.0
 40
0.0
 40
0.0
 40
1.0
 40
1.0
 40
1.0
 10
1.116156460968378
 20
0.7670371821634606
 30
0.0
 10
1.126964600503262
 20
0.7550633449541583
 30
0.0
 10
1.126964600503262
 20
0.7405098565820653
 30
0.0
  0
SPLINE
  5
81
330
A
100
AcDbEntity
  8
1
  6
solid
 62
     7
100
AcDbSpline
210
0.0
220
0.0
230
1.0
 70
     8
 71
     2
 72
     6
 73
     3
 74
     0
 42
0.0000000001
 43
0.0000000001
 40
0.0
 40
0.0
 40
0.0
 40
1.0
 40
1.0
 40
1.0
 10
1.126964600503262
 20
0.7405098565820653
 30
0.0
 10
1.126964600503262
 20
0.7200406705355537
 30
0.0
 10
1.103680298177681
 20
0.7075831123960188
 30
0.0
  0
SPLINE
  5
82
330
A
100
AcDbEntity
  8
1
  6
solid
 62
     7
100
AcDbSpline
210
0.0
220
0.0
230
1.0
 70
     8
 71
     2
 72
     7
 73
     4
 74
     0
 42
0.0000000001
 43
0.0000000001
 40
0.0
 40
0.0
 40
0.0
 40
1.0
 40
2.0
 40
2.0
 40
2.0
 10
1.103680298177681
 20
0.7075831123960188
 30
0.0
 10
1.117123902828843
 20
0.7051150891402048
 30
0.0
 10
1.134232042363727
 20
0.6853900891402049
 30
0.0
 10
1.134232042363727
 20
0.6713017170471816
 30
0.0
  0
SPLINE
  5
83
330
A
100
AcDbEntity
  8
1
  6
solid
 62
     7
100
AcDbSpline
210
0.0
220
0.0
230
1.0
 70
     8
 71
     2
 72
     7
 73
     4
 74
     0
 42
0.0000000001
 43
0.0000000001
 40
0.0
 40
0.0
 40
0.0
 40
1.0
 40
2.0
 40
2.0
 40
2.0
 10
1.134232042363727
 20
0.6713017170471816
 30
0.0
 10
1.134232042363727
 20
0.6512232286750886
 30
0.0
 10
1.10394076329396
 20
0.6232633449541583
 30
0.0
 10
1.081784949340471
 20
0.6232633449541583
 30
0.0
  0
SPLINE
  5
84
330
A
100
AcDbEntity
  8
1
  6
solid
 62
     7
100
AcDbSpline
210
0.0
220
0.0
230
1.0
 70
     8
 71
     2
 72
     7
 73
     4
 74
     0
 42
0.0000000001
 43
0.0000000001
 40
0.0
 40
0.0
 40
0.0
 40
1.0
 40
2.0
 40
2.0
 40
2.0
 10
1.081784949340471
 20
0.6232633449541583
 30
0.0
 10
1.06041053073582
 20
0.6232633449541583
 30
0.0
 10
1.032766926084657
 20
0.6491459030936931
 30
0.0
 10
1.030670995852099
 20
0.6705017170471816
 30
0.0
  0
LINE
  5
85
330
A
100
AcDbEntity
  8
1
  6
solid
 62
     7
100
AcDbLine
 10
-1.338768693539967
 20
0.4685668396304683
 30
0.0
 11
-2.026268693539967
 21
0.4685668396304683
 31
0.0
  0
ARC
  5
86
330
A
100
AcDbEntity
  8
1
  6
solid
 62
     7
100
AcDbCircle
 10
-1.641038871576436
 20
3.577506165947279
 30
0.0
 40
0.2932114719751973
100
AcDbArc
 50
188.9610113848742
 51
249.6178023401262
  0
ARC
  5
87
330
A
100
AcDbEntity
  8
1
  6
solid
 62
     7
100
AcDbCircle
 10
-0.5116738996775921
 20
2.376469185648712
 30
0.0
 40
1.379094765061675
100
AcDbArc
 50
150.7329504428473
 51
212.2819178985309
  0
LINE
  5
88
330
A
100
AcDbEntity
  8
1
  6
solid
 62
     7
100
AcDbLine
 10
-1.798536424744009
 20
3.171409744704755
 30
0.0
 11
-1.714728002655386
 21
3.050682205642255
 31
0.0
  0
LINE
  5
89
330
A
100
AcDbEntity
  8
1
  6
solid
 62
     7
100
AcDbLine
 10
-1.677602653610586
 20
1.639914650405438
 30
0.0
 11
-1.778339360180346
 21
1.516083546992679
 31
0.0
  0
LINE
  5
8A
330
A
100
AcDbEntity
  8
1
  6
solid
 62
     7
100
AcDbLine
 10
-1.778339271652578
 20
1.516083616698773
 30
0.0
 11
-1.714540890720398
 21
1.378819304022419
 31
0.0
  0
ARC
  5
8B
330
A
100
AcDbEntity
  8
1
  6
solid
 62
     7
100
AcDbCircle
 10
-1.671654475362285
 20
1.138294053362443
 30
0.0
 40
0.2443187797825489
100
AcDbArc
 50
100.1097627338831
 51
181.7217632704261
  0
LINE
  5
8C
330
A
100
AcDbEntity
  8
1
  6
solid
 62
     7
100
AcDbLine
 10
-1.338768693539967
 20
4.718566839585516
 30
0.0
 11
-1.669943217322928
 21
4.718566839585516
 31
0.0
  0
ARC
  5
8D
330
A
100
AcDbEntity
  8
1
  6
solid
 62
     7
100
AcDbCircle
 10
-1.223299286186096
 20
4.179415931687232
 30
0.0
 40
0.7001246336966779
100
AcDbArc
 50
129.6390639366759
 51
177.334717883081
  0
LINE
  5
8E
330
A
100
AcDbEntity
  8
1
  6
solid
 62
     7
100
AcDbLine
 10
-1.922666554558157
 20
4.211972374404462
 30
0.0
 11
-2.026268693539967
 21
4.200524672119023
 31
0.0
  0
LINE
  5
8F
330
A
100
AcDbEntity
  8
1
  6
solid
 62
     7
100
AcDbLine
 10
-1.930671577560781
 20
3.531834740127118
 30
0.0
 11
-2.026268693539967
 21
3.572081380376437
 31
0.0
  0
LINE
  5
90
330
A
100
AcDbEntity
  8
1
  6
solid
 62
     7
100
AcDbLine
 10
-2.026268693539967
 20
3.572081380376437
 30
0.0
 11
-2.026268693539967
 21
4.200524672119023
 31
0.0
  0
LINE
  5
91
330
A
100
AcDbEntity
  8
1
  6
solid
 62
     7
100
AcDbLine
 10
-1.915862922775625
 20
1.130953211272748
 30
0.0
 11
-2.026268693551577
 21
1.080570160377617
 31
0.0
  0
LINE
  5
92
330
A
100
AcDbEntity
  8
1
  6
solid
 62
     7
100
AcDbLine
 10
-2.026268693551577
 20
0.4685668396304683
 30
0.0
 11
-2.026268693551577
 21
1.080570160377617
 31
0.0
  0
LINE
  5
93
330
A
100
AcDbEntity
  8
1
  6
solid
 62
     7
100
AcDbLine
 10
-1.338768693502371
 20
4.718566839585516
 30
0.0
 11
-1.338768693502371
 21
3.718566793883832
 31
0.0
  0
LINE
  5
94
330
A
100
AcDbEntity
  8
1
  6
solid
 62
     7
100
AcDbLine
 10
-1.338768725502371
 20
1.218566793883832
 30
0.0
 11
-1.338768725502371
 21
0.4685667938838325
 31
0.0
  0
LINE
  5
95
330
A
100
AcDbEntity
  8
1
  6
solid
 62
     7
100
AcDbLine
 10
-1.370018725502371
 20
3.718566793883832
 30
0.0
 11
-1.338768725502371
 21
3.718566793883832
 31
0.0
  0
ARC
  5
96
330
A
100
AcDbEntity
  8
1
  6
solid
 62
     7
100
AcDbCircle
 10
-1.370018725502371
 20
3.656066793883832
 30
0.0
 40
0.0625
100
AcDbArc
 50
90.0
 51
180.0000000000004
  0
LINE
  5
97
330
A
100
AcDbEntity
  8
1
  6
solid
 62
     7
100
AcDbLine
 10
-1.338768725502371
 20
1.218566793883832
 30
0.0
 11
-1.370018725502371
 21
1.218566793883832
 31
0.0
  0
LINE
  5
98
330
A
100
AcDbEntity
  8
1
  6
solid
 62
     7
100
AcDbLine
 10
-1.432518725502371
 20
1.281066793883832
 30
0.0
 11
-1.432518725502371
 21
3.656066793883832
 31
0.0
  0
ARC
  5
99
330
A
100
AcDbEntity
  8
1
  6
solid
 62
     7
100
AcDbCircle
 10
-1.370018725502371
 20
1.281066793883832
 30
0.0
 40
0.0625
100
AcDbArc
 50
180.0
 51
269.9999999999999
  0
LINE
  5
9A
330
A
100
AcDbEntity
  8
1
  6
solid
 62
     7
100
AcDbLine
 10
-1.743158802639505
 20
3.302652506256996
 30
0.0
 11
-1.798536405216714
 21
3.171409754181801
 31
0.0
  0
DIMENSION
  5
A5
330
A
100
AcDbEntity
  8
1
  6
solid
 62
     7
100
AcDbDimension
  2
*D0
 10
-0.6866296549081
 20
2.593566864728927
 30
0.0
 11
-0.6866296549081
 21
2.593566864728927
 31
0.0
 70
    33
 71
     5
 42
4.250000059604644
  3
Standard
100
AcDbAlignedDimension
 13
-1.338768720626831
 23
4.71856689453125
 33
0.0
 14
-1.338768720626831
 24
0.4685668349266053
 34
0.0
1001
ACAD
1000
DSTYLE
1002
{
1070
    41
1040
0.025
1070
    42
1040
0.125
1070
    44
1040
0.0625
1070
    47
1040
0.0005
1070
    48
1040
0.0005
1070
    75
1070
     1
1070
    76
1070
     1
1070
   140
1040
0.125
1070
   146
1040
0.5
1070
   270
1070
     5
1070
   271
1070
     3
1070
   272
1070
     3
1070
   277
1070
     5
1002
}
  0
LINE
  5
B1
330
A
100
AcDbEntity
  8
1
  6
solid
 62
     7
100
AcDbLine
 10
0.0690406976744186
 20
0.0
 30
0.0
 11
0.0381540697674419
 21
0.0
 31
0.0
  0
LINE
  5
B2
330
A
100
AcDbEntity
  8
1
  6
solid
 62
     7
100
AcDbLine
 10
0.0381540697674419
 20
0.0
 30
0.0
 11
0.0381540697674419
 21
0.1110703488372093
 31
0.0
  0
SPLINE
  5
B3
330
A
100
AcDbEntity
  8
1
  6
solid
 62
     7
100
AcDbSpline
210
0.0
220
0.0
230
1.0
 70
     8
 71
     2
 72
     6
 73
     3
 74
     0
 42
0.0000000001
 43
0.0000000001
 40
0.0
 40
0.0
 40
0.0
 40
1.0
 40
1.0
 40
1.0
 10
0.0381540697674419
 20
0.1110703488372093
 30
0.0
 10
0.0219139534883721
 20
0.0933668604651163
 30
0.0
 10
0.0
 20
0.0853924418604651
 30
0.0
  0
LINE
  5
B4
330
A
100
AcDbEntity
  8
1
  6
solid
 62
     7
100
AcDbLine
 10
0.0
 20
0.0853924418604651
 30
0.0
 11
0.0
 21
0.1162790697674419
 31
0.0
  0
SPLINE
  5
B5
330
A
100
AcDbEntity
  8
1
  6
solid
 62
     7
100
AcDbSpline
210
0.0
220
0.0
230
1.0
 70
     8
 71
     2
 72
     7
 73
     4
 74
     0
 42
0.0000000001
 43
0.0000000001
 40
0.0
 40
0.0
 40
0.0
 40
1.0
 40
2.0
 40
2.0
 40
2.0
 10
0.0
 20
0.1162790697674419
 30
0.0
 10
0.0114779069767442
 20
0.1200802325581395
 30
0.0
 10
0.0390098837209302
 20
0.1417709302325581
 30
0.0
 10
0.0442558139534884
 20
0.15625
 30
0.0
  0
LINE
  5
B6
330
A
100
AcDbEntity
  8
1
  6
solid
 62
     7
100
AcDbLine
 10
0.0442558139534884
 20
0.15625
 30
0.0
 11
0.0690406976744186
 21
0.15625
 31
0.0
  0
LINE
  5
B7
330
A
100
AcDbEntity
  8
1
  6
solid
 62
     7
100
AcDbLine
 10
0.0690406976744186
 20
0.0
 30
0.0
 11
0.0690406976744186
 21
0.15625
 31
0.0
  0
LINE
  5
B8
330
A
100
AcDbEntity
  8
1
  6
solid
 62
     7
100
AcDbLine
 10
0.1676013953488372
 20
0.0
 30
0.0
 11
0.1367147674418605
 21
0.0
 31
0.0
  0
LINE
  5
B9
330
A
100
AcDbEntity
  8
1
  6
solid
 62
     7
100
AcDbLine
 10
0.1367147674418605
 20
0.0
 30
0.0
 11
0.1367147674418605
 21
0.1110703488372093
 31
0.0
  0
SPLINE
  5
BA
330
A
100
AcDbEntity
  8
1
  6
solid
 62
     7
100
AcDbSpline
210
0.0
220
0.0
230
1.0
 70
     8
 71
     2
 72
     6
 73
     3
 74
     0
 42
0.0000000001
 43
0.0000000001
 40
0.0
 40
0.0
 40
0.0
 40
1.0
 40
1.0
 40
1.0
 10
0.1367147674418605
 20
0.1110703488372093
 30
0.0
 10
0.1204746511627907
 20
0.0933668604651163
 30
0.0
 10
0.0985606976744186
 20
0.0853924418604651
 30
0.0
  0
LINE
  5
BB
330
A
100
AcDbEntity
  8
1
  6
solid
 62
     7
100
AcDbLine
 10
0.0985606976744186
 20
0.0853924418604651
 30
0.0
 11
0.0985606976744186
 21
0.1162790697674419
 31
0.0
  0
SPLINE
  5
BC
330
A
100
AcDbEntity
  8
1
  6
solid
 62
     7
100
AcDbSpline
210
0.0
220
0.0
230
1.0
 70
     8
 71
     2
 72
     7
 73
     4
 74
     0
 42
0.0000000001
 43
0.0000000001
 40
0.0
 40
0.0
 40
0.0
 40
1.0
 40
2.0
 40
2.0
 40
2.0
 10
0.0985606976744186
 20
0.1162790697674419
 30
0.0
 10
0.1100386046511628
 20
0.1200802325581395
 30
0.0
 10
0.1375705813953488
 20
0.1417709302325581
 30
0.0
 10
0.142816511627907
 20
0.15625
 30
0.0
  0
LINE
  5
BD
330
A
100
AcDbEntity
  8
1
  6
solid
 62
     7
100
AcDbLine
 10
0.142816511627907
 20
0.15625
 30
0.0
 11
0.1676013953488372
 21
0.15625
 31
0.0
  0
LINE
  5
BE
330
A
100
AcDbEntity
  8
1
  6
solid
 62
     7
100
AcDbLine
 10
0.1676013953488372
 20
0.0
 30
0.0
 11
0.1676013953488372
 21
0.15625
 31
0.0
  0
LINE
  5
BF
330
A
100
AcDbEntity
  8
1
  6
solid
 62
     7
100
AcDbLine
 10
0.1960859302325581
 20
0.0
 30
0.0
 11
0.2324417441860465
 21
0.15625
 31
0.0
  0
LINE
  5
C0
330
A
100
AcDbEntity
  8
1
  6
solid
 62
     7
100
AcDbLine
 10
0.2324417441860465
 20
0.15625
 30
0.0
 11
0.2570777906976744
 21
0.15625
 31
0.0
  0
LINE
  5
C1
330
A
100
AcDbEntity
  8
1
  6
solid
 62
     7
100
AcDbLine
 10
0.2570777906976744
 20
0.15625
 30
0.0
 11
0.2207405813953489
 21
0.0
 31
0.0
  0
LINE
  5
C2
330
A
100
AcDbEntity
  8
1
  6
solid
 62
     7
100
AcDbLine
 10
0.1960859302325581
 20
0.0
 30
0.0
 11
0.2207405813953489
 21
0.0
 31
0.0
  0
LINE
  5
C3
330
A
100
AcDbEntity
  8
1
  6
solid
 62
     7
100
AcDbLine
 10
0.3556384883720931
 20
0.0
 30
0.0
 11
0.3247518604651163
 21
0.0
 31
0.0
  0
LINE
  5
C4
330
A
100
AcDbEntity
  8
1
  6
solid
 62
     7
100
AcDbLine
 10
0.3247518604651163
 20
0.0
 30
0.0
 11
0.3247518604651163
 21
0.1110703488372093
 31
0.0
  0
SPLINE
  5
C5
330
A
100
AcDbEntity
  8
1
  6
solid
 62
     7
100
AcDbSpline
210
0.0
220
0.0
230
1.0
 70
     8
 71
     2
 72
     6
 73
     3
 74
     0
 42
0.0000000001
 43
0.0000000001
 40
0.0
 40
0.0
 40
0.0
 40
1.0
 40
1.0
 40
1.0
 10
0.3247518604651163
 20
0.1110703488372093
 30
0.0
 10
0.3085117441860465
 20
0.0933668604651163
 30
0.0
 10
0.2865977906976744
 20
0.0853924418604651
 30
0.0
  0
LINE
  5
C6
330
A
100
AcDbEntity
  8
1
  6
solid
 62
     7
100
AcDbLine
 10
0.2865977906976744
 20
0.0853924418604651
 30
0.0
 11
0.2865977906976744
 21
0.1162790697674419
 31
0.0
  0
SPLINE
  5
C7
330
A
100
AcDbEntity
  8
1
  6
solid
 62
     7
100
AcDbSpline
210
0.0
220
0.0
230
1.0
 70
     8
 71
     2
 72
     7
 73
     4
 74
     0
 42
0.0000000001
 43
0.0000000001
 40
0.0
 40
0.0
 40
0.0
 40
1.0
 40
2.0
 40
2.0
 40
2.0
 10
0.2865977906976744
 20
0.1162790697674419
 30
0.0
 10
0.2980756976744186
 20
0.1200802325581395
 30
0.0
 10
0.3256076744186047
 20
0.1417709302325581
 30
0.0
 10
0.3308536046511628
 20
0.15625
 30
0.0
  0
LINE
  5
C8
330
A
100
AcDbEntity
  8
1
  6
solid
 62
     7
100
AcDbLine
 10
0.3308536046511628
 20
0.15625
 30
0.0
 11
0.3556384883720931
 21
0.15625
 31
0.0
  0
LINE
  5
C9
330
A
100
AcDbEntity
  8
1
  6
solid
 62
     7
100
AcDbLine
 10
0.3556384883720931
 20
0.0
 30
0.0
 11
0.3556384883720931
 21
0.15625
 31
0.0
  0
LINE
  5
CA
330
A
100
AcDbEntity
  8
1
  6
solid
 62
     7
100
AcDbLine
 10
0.4850858139534884
 20
0.1136313953488372
 30
0.0
 11
0.4541991860465117
 21
0.110828488372093
 31
0.0
  0
SPLINE
  5
CB
330
A
100
AcDbEntity
  8
1
  6
solid
 62
     7
100
AcDbSpline
210
0.0
220
0.0
230
1.0
 70
     8
 71
     2
 72
     7
 73
     4
 74
     0
 42
0.0000000001
 43
0.0000000001
 40
0.0
 40
0.0
 40
0.0
 40
1.0
 40
2.0
 40
2.0
 40
2.0
 10
0.4541991860465117
 20
0.110828488372093
 30
0.0
 10
0.4528846511627907
 20
0.1200616279069767
 30
0.0
 10
0.4440236046511628
 20
0.1289970930232558
 30
0.0
 10
0.4369422093023256
 20
0.1289970930232558
 30
0.0
  0
SPLINE
  5
CC
330
A
100
AcDbEntity
  8
1
  6
solid
 62
     7
100
AcDbSpline
210
0.0
220
0.0
230
1.0
 70
     8
 71
     2
 72
     7
 73
     4
 74
     0
 42
0.0000000001
 43
0.0000000001
 40
0.0
 40
0.0
 40
0.0
 40
1.0
 40
2.0
 40
2.0
 40
2.0
 10
0.4369422093023256
 20
0.1289970930232558
 30
0.0
 10
0.4277462790697675
 20
0.1289970930232558
 30
0.0
 10
0.4149724418604652
 20
0.1108656976744186
 30
0.0
 10
0.4132486046511629
 20
0.0826331395348837
 30
0.0
  0
SPLINE
  5
CD
330
A
100
AcDbEntity
  8
1
  6
solid
 62
     7
100
AcDbSpline
210
0.0
220
0.0
230
1.0
 70
     8
 71
     2
 72
     6
 73
     3
 74
     0
 42
0.0000000001
 43
0.0000000001
 40
0.0
 40
0.0
 40
0.0
 40
1.0
 40
1.0
 40
1.0
 10
0.4132486046511629
 20
0.0826331395348837
 30
0.0
 10
0.4251294186046512
 20
0.0962936046511628
 30
0.0
 10
0.4419276744186046
 20
0.0962936046511628
 30
0.0
  0
SPLINE
  5
CE
330
A
100
AcDbEntity
  8
1
  6
solid
 62
     7
100
AcDbSpline
210
0.0
220
0.0
230
1.0
 70
     8
 71
     2
 72
     7
 73
     4
 74
     0
 42
0.0000000001
 43
0.0000000001
 40
0.0
 40
0.0
 40
0.0
 40
1.0
 40
2.0
 40
2.0
 40
2.0
 10
0.4419276744186046
 20
0.0962936046511628
 30
0.0
 10
0.4607660465116279
 20
0.0962936046511628
 30
0.0
 10
0.4887195348837209
 20
0.0692639534883721
 30
0.0
 10
0.4887195348837209
 20
0.047796511627907
 30
0.0
  0
SPLINE
  5
CF
330
A
100
AcDbEntity
  8
1
  6
solid
 62
     7
100
AcDbSpline
210
0.0
220
0.0
230
1.0
 70
     8
 71
     2
 72
     7
 73
     4
 74
     0
 42
0.0000000001
 43
0.0000000001
 40
0.0
 40
0.0
 40
0.0
 40
1.0
 40
2.0
 40
2.0
 40
2.0
 10
0.4887195348837209
 20
0.047796511627907
 30
0.0
 10
0.4887195348837209
 20
0.0254732558139535
 30
0.0
 10
0.4603939534883721
 20
-0.0018168604651163
 30
0.0
 10
0.4385358139534885
 20
-0.0018168604651163
 30
0.0
  0
SPLINE
  5
D0
330
A
100
AcDbEntity
  8
1
  6
solid
 62
     7
100
AcDbSpline
210
0.0
220
0.0
230
1.0
 70
     8
 71
     2
 72
     7
 73
     4
 74
     0
 42
0.0000000001
 43
0.0000000001
 40
0.0
 40
0.0
 40
0.0
 40
1.0
 40
2.0
 40
2.0
 40
2.0
 10
0.4385358139534885
 20
-0.0018168604651163
 30
0.0
 10
0.4150096511627907
 20
-0.0018168604651163
 30
0.0
 10
0.385158488372093
 20
0.0345761627906977
 30
0.0
 10
0.385158488372093
 20
0.0755517441860465
 30
0.0
  0
SPLINE
  5
D1
330
A
100
AcDbEntity
  8
1
  6
solid
 62
     7
100
AcDbSpline
210
0.0
220
0.0
230
1.0
 70
     8
 71
     2
 72
     7
 73
     4
 74
     0
 42
0.0000000001
 43
0.0000000001
 40
0.0
 40
0.0
 40
0.0
 40
1.0
 40
2.0
 40
2.0
 40
2.0
 10
0.385158488372093
 20
0.0755517441860465
 30
0.0
 10
0.385158488372093
 20
0.118468023255814
 30
0.0
 10
0.4163055813953489
 20
0.15625
 30
0.0
 10
0.4408177906976745
 20
0.15625
 30
0.0
  0
SPLINE
  5
D2
330
A
100
AcDbEntity
  8
1
  6
solid
 62
     7
100
AcDbSpline
210
0.0
220
0.0
230
1.0
 70
     8
 71
     2
 72
     7
 73
     4
 74
     0
 42
0.0000000001
 43
0.0000000001
 40
0.0
 40
0.0
 40
0.0
 40
1.0
 40
2.0
 40
2.0
 40
2.0
 10
0.4408177906976745
 20
0.15625
 30
0.0
 10
0.458558488372093
 20
0.15625
 30
0.0
 10
0.4817683720930233
 20
0.134596511627907
 30
0.0
 10
0.4850858139534884
 20
0.1136313953488372
 30
0.0
  0
SPLINE
  5
D3
330
A
100
AcDbEntity
  8
1
  6
solid
 62
     7
100
AcDbSpline
210
0.0
220
0.0
230
1.0
 70
     8
 71
     2
 72
     7
 73
     4
 74
     0
 42
0.0000000001
 43
0.0000000001
 40
0.0
 40
0.0
 40
0.0
 40
1.0
 40
2.0
 40
2.0
 40
2.0
 10
0.4160451162790698
 20
0.0481686046511628
 30
0.0
 10
0.4160451162790698
 20
0.0371186046511628
 30
0.0
 10
0.4293026744186047
 20
0.0254360465116279
 30
0.0
 10
0.438126511627907
 20
0.0254360465116279
 30
0.0
  0
SPLINE
  5
D4
330
A
100
AcDbEntity
  8
1
  6
solid
 62
     7
100
AcDbSpline
210
0.0
220
0.0
230
1.0
 70
     8
 71
     2
 72
     7
 73
     4
 74
     0
 42
0.0000000001
 43
0.0000000001
 40
0.0
 40
0.0
 40
0.0
 40
1.0
 40
2.0
 40
2.0
 40
2.0
 10
0.438126511627907
 20
0.0254360465116279
 30
0.0
 10
0.4461195348837209
 20
0.0254360465116279
 30
0.0
 10
0.4578329069767442
 20
0.0350598837209302
 30
0.0
 10
0.4578329069767442
 20
0.046221511627907
 30
0.0
  0
SPLINE
  5
D5
330
A
100
AcDbEntity
  8
1
  6
solid
 62
     7
100
AcDbSpline
210
0.0
220
0.0
230
1.0
 70
     8
 71
     2
 72
     7
 73
     4
 74
     0
 42
0.0000000001
 43
0.0000000001
 40
0.0
 40
0.0
 40
0.0
 40
1.0
 40
2.0
 40
2.0
 40
2.0
 10
0.4578329069767442
 20
0.046221511627907
 30
0.0
 10
0.4578329069767442
 20
0.0582139534883721
 30
0.0
 10
0.4455613953488373
 20
0.0690406976744186
 30
0.0
 10
0.4365143023255814
 20
0.0690406976744186
 30
0.0
  0
SPLINE
  5
D6
330
A
100
AcDbEntity
  8
1
  6
solid
 62
     7
100
AcDbSpline
210
0.0
220
0.0
230
1.0
 70
     8
 71
     2
 72
     7
 73
     4
 74
     0
 42
0.0000000001
 43
0.0000000001
 40
0.0
 40
0.0
 40
0.0
 40
1.0
 40
2.0
 40
2.0
 40
2.0
 10
0.4365143023255814
 20
0.0690406976744186
 30
0.0
 10
0.4276904651162791
 20
0.0690406976744186
 30
0.0
 10
0.4160451162790698
 20
0.0585302325581395
 30
0.0
 10
0.4160451162790698
 20
0.0481686046511628
 30
0.0
  0
LINE
  5
D7
330
A
100
AcDbEntity
  8
1
  6
solid
 62
     7
100
AcDbLine
 10
0.5501717441860467
 20
0.0
 30
0.0
 11
0.6040822093023257
 21
0.0821122093023256
 31
0.0
  0
LINE
  5
D8
330
A
100
AcDbEntity
  8
1
  6
solid
 62
     7
100
AcDbLine
 10
0.6040822093023257
 20
0.0821122093023256
 30
0.0
 11
0.5556223255813955
 21
0.15625
 31
0.0
  0
LINE
  5
D9
330
A
100
AcDbEntity
  8
1
  6
solid
 62
     7
100
AcDbLine
 10
0.5556223255813955
 20
0.15625
 30
0.0
 11
0.5919409302325583
 21
0.15625
 31
0.0
  0
LINE
  5
DA
330
A
100
AcDbEntity
  8
1
  6
solid
 62
     7
100
AcDbLine
 10
0.5919409302325583
 20
0.15625
 30
0.0
 11
0.6222508139534885
 21
0.1097930232558139
 31
0.0
  0
LINE
  5
DB
330
A
100
AcDbEntity
  8
1
  6
solid
 62
     7
100
AcDbLine
 10
0.6222508139534885
 20
0.1097930232558139
 30
0.0
 11
0.6519159302325583
 21
0.15625
 31
0.0
  0
LINE
  5
DC
330
A
100
AcDbEntity
  8
1
  6
solid
 62
     7
100
AcDbLine
 10
0.6519159302325583
 20
0.15625
 30
0.0
 11
0.6882531395348838
 21
0.15625
 31
0.0
  0
LINE
  5
DD
330
A
100
AcDbEntity
  8
1
  6
solid
 62
     7
100
AcDbLine
 10
0.6882531395348838
 20
0.15625
 30
0.0
 11
0.6404194186046512
 21
0.0821122093023256
 31
0.0
  0
LINE
  5
DE
330
A
100
AcDbEntity
  8
1
  6
solid
 62
     7
100
AcDbLine
 10
0.6404194186046512
 20
0.0821122093023256
 30
0.0
 11
0.6937037209302326
 21
0.0
 31
0.0
  0
LINE
  5
DF
330
A
100
AcDbEntity
  8
1
  6
solid
 62
     7
100
AcDbLine
 10
0.6937037209302326
 20
0.0
 30
0.0
 11
0.657366511627907
 21
0.0
 31
0.0
  0
LINE
  5
E0
330
A
100
AcDbEntity
  8
1
  6
solid
 62
     7
100
AcDbLine
 10
0.657366511627907
 20
0.0
 30
0.0
 11
0.6222508139534885
 21
0.0538238372093023
 31
0.0
  0
LINE
  5
E1
330
A
100
AcDbEntity
  8
1
  6
solid
 62
     7
100
AcDbLine
 10
0.6222508139534885
 20
0.0538238372093023
 30
0.0
 11
0.5864903488372094
 21
0.0
 31
0.0
  0
LINE
  5
E2
330
A
100
AcDbEntity
  8
1
  6
solid
 62
     7
100
AcDbLine
 10
0.5501717441860467
 20
0.0
 30
0.0
 11
0.5864903488372094
 21
0.0
 31
0.0
  0
LINE
  5
E3
330
A
100
AcDbEntity
  8
1
  6
solid
 62
     7
100
AcDbLine
 10
0.8175553488372095
 20
0.0
 30
0.0
 11
0.8175553488372095
 21
0.0308866279069768
 31
0.0
  0
LINE
  5
E4
330
A
100
AcDbEntity
  8
1
  6
solid
 62
     7
100
AcDbLine
 10
0.8175553488372095
 20
0.0308866279069768
 30
0.0
 11
0.7557820930232559
 21
0.0308866279069768
 31
0.0
  0
LINE
  5
E5
330
A
100
AcDbEntity
  8
1
  6
solid
 62
     7
100
AcDbLine
 10
0.7557820930232559
 20
0.0308866279069768
 30
0.0
 11
0.7557820930232559
 21
0.0556220930232558
 31
0.0
  0
LINE
  5
E6
330
A
100
AcDbEntity
  8
1
  6
solid
 62
     7
100
AcDbLine
 10
0.7557820930232559
 20
0.0556220930232558
 30
0.0
 11
0.8214867441860466
 21
0.1544331395348837
 31
0.0
  0
LINE
  5
E7
330
A
100
AcDbEntity
  8
1
  6
solid
 62
     7
100
AcDbLine
 10
0.8214867441860466
 20
0.1544331395348837
 30
0.0
 11
0.8484419767441861
 21
0.1544331395348837
 31
0.0
  0
LINE
  5
E8
330
A
100
AcDbEntity
  8
1
  6
solid
 62
     7
100
AcDbLine
 10
0.8484419767441861
 20
0.1544331395348837
 30
0.0
 11
0.8484419767441861
 21
0.0563226744186047
 31
0.0
  0
LINE
  5
E9
330
A
100
AcDbEntity
  8
1
  6
solid
 62
     7
100
AcDbLine
 10
0.8484419767441861
 20
0.0563226744186047
 30
0.0
 11
0.8684274418604653
 21
0.0563226744186047
 31
0.0
  0
LINE
  5
EA
330
A
100
AcDbEntity
  8
1
  6
solid
 62
     7
100
AcDbLine
 10
0.8684274418604653
 20
0.0563226744186047
 30
0.0
 11
0.8684274418604653
 21
0.0308866279069768
 31
0.0
  0
LINE
  5
EB
330
A
100
AcDbEntity
  8
1
  6
solid
 62
     7
100
AcDbLine
 10
0.8684274418604653
 20
0.0308866279069768
 30
0.0
 11
0.8484419767441861
 21
0.0308866279069768
 31
0.0
  0
LINE
  5
EC
330
A
100
AcDbEntity
  8
1
  6
solid
 62
     7
100
AcDbLine
 10
0.8484419767441861
 20
0.0308866279069768
 30
0.0
 11
0.8484419767441861
 21
0.0
 31
0.0
  0
LINE
  5
ED
330
A
100
AcDbEntity
  8
1
  6
solid
 62
     7
100
AcDbLine
 10
0.8175553488372095
 20
0.0
 30
0.0
 11
0.8484419767441861
 21
0.0
 31
0.0
  0
LINE
  5
EE
330
A
100
AcDbEntity
  8
1
  6
solid
 62
     7
100
AcDbLine
 10
0.8175553488372095
 20
0.0563226744186047
 30
0.0
 11
0.8175553488372095
 21
0.106103488372093
 31
0.0
  0
LINE
  5
EF
330
A
100
AcDbEntity
  8
1
  6
solid
 62
     7
100
AcDbLine
 10
0.8175553488372095
 20
0.106103488372093
 30
0.0
 11
0.7836117441860467
 21
0.0563226744186047
 31
0.0
  0
LINE
  5
F0
330
A
100
AcDbEntity
  8
1
  6
solid
 62
     7
100
AcDbLine
 10
0.8175553488372095
 20
0.0563226744186047
 30
0.0
 11
0.7836117441860467
 21
0.0563226744186047
 31
0.0
  0
LINE
  5
F1
330
A
100
AcDbEntity
  8
1
  6
solid
 62
     7
100
AcDbLine
 10
0.8979474418604652
 20
0.0417877906976744
 30
0.0
 11
0.8979474418604652
 21
0.0690406976744186
 31
0.0
  0
LINE
  5
F2
330
A
100
AcDbEntity
  8
1
  6
solid
 62
     7
100
AcDbLine
 10
0.8979474418604652
 20
0.0690406976744186
 30
0.0
 11
0.9579038372093025
 21
0.0690406976744186
 31
0.0
  0
LINE
  5
F3
330
A
100
AcDbEntity
  8
1
  6
solid
 62
     7
100
AcDbLine
 10
0.9579038372093025
 20
0.0690406976744186
 30
0.0
 11
0.9579038372093025
 21
0.0417877906976744
 31
0.0
  0
LINE
  5
F4
330
A
100
AcDbEntity
  8
1
  6
solid
 62
     7
100
AcDbLine
 10
0.8979474418604652
 20
0.0417877906976744
 30
0.0
 11
0.9579038372093025
 21
0.0417877906976744
 31
0.0
  0
LINE
  5
F5
330
A
100
AcDbEntity
  8
1
  6
solid
 62
     7
100
AcDbLine
 10
1.05646453488372
 20
0.0
 30
0.0
 11
1.025577906976744
 21
0.0
 31
0.0
  0
LINE
  5
F6
330
A
100
AcDbEntity
  8
1
  6
solid
 62
     7
100
AcDbLine
 10
1.025577906976744
 20
0.0
 30
0.0
 11
1.025577906976744
 21
0.1110703488372093
 31
0.0
  0
SPLINE
  5
F7
330
A
100
AcDbEntity
  8
1
  6
solid
 62
     7
100
AcDbSpline
210
0.0
220
0.0
230
1.0
 70
     8
 71
     2
 72
     6
 73
     3
 74
     0
 42
0.0000000001
 43
0.0000000001
 40
0.0
 40
0.0
 40
0.0
 40
1.0
 40
1.0
 40
1.0
 10
1.025577906976744
 20
0.1110703488372093
 30
0.0
 10
1.009337790697674
 20
0.0933668604651163
 30
0.0
 10
0.9874238372093024
 20
0.0853924418604651
 30
0.0
  0
LINE
  5
F8
330
A
100
AcDbEntity
  8
1
  6
solid
 62
     7
100
AcDbLine
 10
0.9874238372093024
 20
0.0853924418604651
 30
0.0
 11
0.9874238372093024
 21
0.1162790697674419
 31
0.0
  0
SPLINE
  5
F9
330
A
100
AcDbEntity
  8
1
  6
solid
 62
     7
100
AcDbSpline
210
0.0
220
0.0
230
1.0
 70
     8
 71
     2
 72
     7
 73
     4
 74
     0
 42
0.0000000001
 43
0.0000000001
 40
0.0
 40
0.0
 40
0.0
 40
1.0
 40
2.0
 40
2.0
 40
2.0
 10
0.9874238372093024
 20
0.1162790697674419
 30
0.0
 10
0.9989017441860465
 20
0.1200802325581395
 30
0.0
 10
1.026433720930232
 20
0.1417709302325581
 30
0.0
 10
1.03167965116279
 20
0.15625
 30
0.0
  0
LINE
  5
FA
330
A
100
AcDbEntity
  8
1
  6
solid
 62
     7
100
AcDbLine
 10
1.03167965116279
 20
0.15625
 30
0.0
 11
1.05646453488372
 21
0.15625
 31
0.0
  0
LINE
  5
FB
330
A
100
AcDbEntity
  8
1
  6
solid
 62
     7
100
AcDbLine
 10
1.05646453488372
 20
0.0
 30
0.0
 11
1.05646453488372
 21
0.15625
 31
0.0
  0
LINE
  5
FC
330
A
100
AcDbEntity
  8
1
  6
solid
 62
     7
100
AcDbLine
 10
1.084949069767441
 20
0.0
 30
0.0
 11
1.12130488372093
 21
0.15625
 31
0.0
  0
LINE
  5
FD
330
A
100
AcDbEntity
  8
1
  6
solid
 62
     7
100
AcDbLine
 10
1.12130488372093
 20
0.15625
 30
0.0
 11
1.145940930232558
 21
0.15625
 31
0.0
  0
LINE
  5
FE
330
A
100
AcDbEntity
  8
1
  6
solid
 62
     7
100
AcDbLine
 10
1.145940930232558
 20
0.15625
 30
0.0
 11
1.109603720930232
 21
0.0
 31
0.0
  0
LINE
  5
FF
330
A
100
AcDbEntity
  8
1
  6
solid
 62
     7
100
AcDbLine
 10
1.084949069767441
 20
0.0
 30
0.0
 11
1.109603720930232
 21
0.0
 31
0.0
  0
LINE
  5
100
330
A
100
AcDbEntity
  8
1
  6
solid
 62
     7
100
AcDbLine
 10
1.237234186046511
 20
0.0
 30
0.0
 11
1.237234186046511
 21
0.0308866279069768
 31
0.0
  0
LINE
  5
101
330
A
100
AcDbEntity
  8
1
  6
solid
 62
     7
100
AcDbLine
 10
1.237234186046511
 20
0.0308866279069768
 30
0.0
 11
1.175460930232558
 21
0.0308866279069768
 31
0.0
  0
LINE
  5
102
330
A
100
AcDbEntity
  8
1
  6
solid
 62
     7
100
AcDbLine
 10
1.175460930232558
 20
0.0308866279069768
 30
0.0
 11
1.175460930232558
 21
0.0556220930232558
 31
0.0
  0
LINE
  5
103
330
A
100
AcDbEntity
  8
1
  6
solid
 62
     7
100
AcDbLine
 10
1.175460930232558
 20
0.0556220930232558
 30
0.0
 11
1.241165581395348
 21
0.1544331395348837
 31
0.0
  0
LINE
  5
104
330
A
100
AcDbEntity
  8
1
  6
solid
 62
     7
100
AcDbLine
 10
1.241165581395348
 20
0.1544331395348837
 30
0.0
 11
1.268120813953488
 21
0.1544331395348837
 31
0.0
  0
LINE
  5
105
330
A
100
AcDbEntity
  8
1
  6
solid
 62
     7
100
AcDbLine
 10
1.268120813953488
 20
0.1544331395348837
 30
0.0
 11
1.268120813953488
 21
0.0563226744186047
 31
0.0
  0
LINE
  5
106
330
A
100
AcDbEntity
  8
1
  6
solid
 62
     7
100
AcDbLine
 10
1.268120813953488
 20
0.0563226744186047
 30
0.0
 11
1.288106279069767
 21
0.0563226744186047
 31
0.0
  0
LINE
  5
107
330
A
100
AcDbEntity
  8
1
  6
solid
 62
     7
100
AcDbLine
 10
1.288106279069767
 20
0.0563226744186047
 30
0.0
 11
1.288106279069767
 21
0.0308866279069768
 31
0.0
  0
LINE
  5
108
330
A
100
AcDbEntity
  8
1
  6
solid
 62
     7
100
AcDbLine
 10
1.288106279069767
 20
0.0308866279069768
 30
0.0
 11
1.268120813953488
 21
0.0308866279069768
 31
0.0
  0
LINE
  5
109
330
A
100
AcDbEntity
  8
1
  6
solid
 62
     7
100
AcDbLine
 10
1.268120813953488
 20
0.0308866279069768
 30
0.0
 11
1.268120813953488
 21
0.0
 31
0.0
  0
LINE
  5
10A
330
A
100
AcDbEntity
  8
1
  6
solid
 62
     7
100
AcDbLine
 10
1.237234186046511
 20
0.0
 30
0.0
 11
1.268120813953488
 21
0.0
 31
0.0
  0
LINE
  5
10B
330
A
100
AcDbEntity
  8
1
  6
solid
 62
     7
100
AcDbLine
 10
1.237234186046511
 20
0.0563226744186047
 30
0.0
 11
1.237234186046511
 21
0.106103488372093
 31
0.0
  0
LINE
  5
10C
330
A
100
AcDbEntity
  8
1
  6
solid
 62
     7
100
AcDbLine
 10
1.237234186046511
 20
0.106103488372093
 30
0.0
 11
1.203290581395348
 21
0.0563226744186047
 31
0.0
  0
LINE
  5
10D
330
A
100
AcDbEntity
  8
1
  6
solid
 62
     7
100
AcDbLine
 10
1.237234186046511
 20
0.0563226744186047
 30
0.0
 11
1.203290581395348
 21
0.0563226744186047
 31
0.0
  0
LINE
  5
10F
330
A
100
AcDbEntity
  8
0
  6
solid
 62
     7
100
AcDbLine
 10
0.8338951335243812
 20
0.8720160539140673
 30
0.0
 11
0.8338951335243812
 21
1.028266053914067
 31
0.0
  0
LINE
  5
110
330
A
100
AcDbEntity
  8
0
  6
solid
 62
     7
100
AcDbLine
 10
0.8338951335243812
 20
1.028266053914067
 30
0.0
 11
0.8633335393214828
 21
1.028266053914067
 31
0.0
  0
LINE
  5
111
330
A
100
AcDbEntity
  8
0
  6
solid
 62
     7
100
AcDbLine
 10
0.8633335393214828
 20
1.028266053914067
 30
0.0
 11
0.8633335393214828
 21
0.8991899669575456
 31
0.0
  0
LINE
  5
112
330
A
100
AcDbEntity
  8
0
  6
solid
 62
     7
100
AcDbLine
 10
0.8633335393214828
 20
0.8991899669575456
 30
0.0
 11
0.9448552784519176
 21
0.8991899669575456
 31
0.0
  0
LINE
  5
113
330
A
100
AcDbEntity
  8
0
  6
solid
 62
     7
100
AcDbLine
 10
0.9448552784519176
 20
0.8991899669575456
 30
0.0
 11
0.9448552784519176
 21
0.8720160539140673
 31
0.0
  0
LINE
  5
114
330
A
100
AcDbEntity
  8
0
  6
solid
 62
     7
100
AcDbLine
 10
0.8338951335243812
 20
0.8720160539140673
 30
0.0
 11
0.9448552784519176
 21
0.8720160539140673
 31
0.0
  0
LINE
  5
115
330
A
100
AcDbEntity
  8
0
  6
solid
 62
     7
100
AcDbLine
 10
0.9674952784519176
 20
1.028266053914067
 30
0.0
 11
1.024896003089598
 21
1.028266053914067
 31
0.0
  0
SPLINE
  5
116
330
A
100
AcDbEntity
  8
0
  6
solid
 62
     7
100
AcDbSpline
210
0.0
220
0.0
230
1.0
 70
     8
 71
     2
 72
     6
 73
     3
 74
     0
 42
0.0000000001
 43
0.0000000001
 40
0.0
 40
0.0
 40
0.0
 40
1.0
 40
1.0
 40
1.0
 10
1.024896003089598
 20
1.028266053914067
 30
0.0
 10
1.044743104538874
 20
1.028266053914067
 30
0.0
 10
1.054589481350468
 20
1.024757358261893
 30
0.0
  0
SPLINE
  5
117
330
A
100
AcDbEntity
  8
0
  6
solid
 62
     7
100
AcDbSpline
210
0.0
220
0.0
230
1.0
 70
     8
 71
     2
 72
     8
 73
     5
 74
     0
 42
0.0000000001
 43
0.0000000001
 40
0.0
 40
0.0
 40
0.0
 40
1.0
 40
2.0
 40
3.0
 40
3.0
 40
3.0
 10
1.054589481350468
 20
1.024757358261893
 30
0.0
 10
1.068292379901192
 20
1.020529822030009
 30
0.0
 10
1.088209046567859
 20
0.9999638800010238
 30
0.0
 10
1.098835858162062
 20
0.9701776481169659
 30
0.0
 10
1.098835858162062
 20
0.947996488696676
 30
0.0
  0
SPLINE
  5
118
330
A
100
AcDbEntity
  8
0
  6
solid
 62
     7
100
AcDbSpline
210
0.0
220
0.0
230
1.0
 70
     8
 71
     2
 72
     6
 73
     3
 74
     0
 42
0.0000000001
 43
0.0000000001
 40
0.0
 40
0.0
 40
0.0
 40
1.0
 40
1.0
 40
1.0
 10
1.098835858162062
 20
0.947996488696676
 30
0.0
 10
1.098835858162062
 20
0.9291153292763862
 30
0.0
 10
1.09334093062583
 20
0.9152733002908789
 30
0.0
  0
SPLINE
  5
119
330
A
100
AcDbEntity
  8
0
  6
solid
 62
     7
100
AcDbSpline
210
0.0
220
0.0
230
1.0
 70
     8
 71
     2
 72
     6
 73
     3
 74
     0
 42
0.0000000001
 43
0.0000000001
 40
0.0
 40
0.0
 40
0.0
 40
1.0
 40
1.0
 40
1.0
 10
1.09334093062583
 20
0.9152733002908789
 30
0.0
 10
1.087930785698294
 20
0.8978530104358064
 30
0.0
 10
1.076886582799743
 20
0.8870406915952267
 30
0.0
  0
SPLINE
  5
11A
330
A
100
AcDbEntity
  8
0
  6
solid
 62
     7
100
AcDbSpline
210
0.0
220
0.0
230
1.0
 70
     8
 71
     2
 72
     6
 73
     3
 74
     0
 42
0.0000000001
 43
0.0000000001
 40
0.0
 40
0.0
 40
0.0
 40
1.0
 40
1.0
 40
1.0
 10
1.076886582799743
 20
0.8870406915952267
 30
0.0
 10
1.068361945118584
 20
0.8794588075372557
 30
0.0
 10
1.054519916133076
 20
0.8749530104358063
 30
0.0
  0
SPLINE
  5
11B
330
A
100
AcDbEntity
  8
0
  6
solid
 62
     7
100
AcDbSpline
210
0.0
220
0.0
230
1.0
 70
     8
 71
     2
 72
     6
 73
     3
 74
     0
 42
0.0000000001
 43
0.0000000001
 40
0.0
 40
0.0
 40
0.0
 40
1.0
 40
1.0
 40
1.0
 10
1.054519916133076
 20
0.8749530104358063
 30
0.0
 10
1.0445344088867
 20
0.8720160539140673
 30
0.0
 10
1.026789481350468
 20
0.8720160539140673
 30
0.0
  0
LINE
  5
11C
330
A
100
AcDbEntity
  8
0
  6
solid
 62
     7
100
AcDbLine
 10
1.026789481350468
 20
0.8720160539140673
 30
0.0
 11
0.9674952784519176
 21
0.8720160539140673
 31
0.0
  0
LINE
  5
11D
330
A
100
AcDbEntity
  8
0
  6
solid
 62
     7
100
AcDbLine
 10
0.9674952784519176
 20
1.028266053914067
 30
0.0
 11
0.9674952784519176
 21
0.8720160539140673
 31
0.0
  0
LINE
  5
11E
330
A
100
AcDbEntity
  8
0
  6
solid
 62
     7
100
AcDbLine
 10
0.9969336842490189
 20
1.001092140870589
 30
0.0
 11
0.9969336842490189
 21
0.8991899669575456
 31
0.0
  0
LINE
  5
11F
330
A
100
AcDbEntity
  8
0
  6
solid
 62
     7
100
AcDbLine
 10
0.9969336842490189
 20
0.8991899669575456
 30
0.0
 11
1.022260495843221
 21
0.8991899669575456
 31
0.0
  0
SPLINE
  5
120
330
A
100
AcDbEntity
  8
0
  6
solid
 62
     7
100
AcDbSpline
210
0.0
220
0.0
230
1.0
 70
     8
 71
     2
 72
     6
 73
     3
 74
     0
 42
0.0000000001
 43
0.0000000001
 40
0.0
 40
0.0
 40
0.0
 40
1.0
 40
1.0
 40
1.0
 10
1.022260495843221
 20
0.8991899669575456
 30
0.0
 10
1.0363344088867
 20
0.8991899669575456
 30
0.0
 10
1.042849626278004
 20
0.9001638800010239
 30
0.0
  0
SPLINE
  5
121
330
A
100
AcDbEntity
  8
0
  6
solid
 62
     7
100
AcDbSpline
210
0.0
220
0.0
230
1.0
 70
     8
 71
     2
 72
     8
 73
     5
 74
     0
 42
0.0000000001
 43
0.0000000001
 40
0.0
 40
0.0
 40
0.0
 40
1.0
 40
2.0
 40
3.0
 40
3.0
 40
3.0
 10
1.042849626278004
 20
0.9001638800010239
 30
0.0
 10
1.051420640770758
 20
0.9021733002908788
 30
0.0
 10
1.061730785698294
 20
0.9112080828995745
 30
0.0
 10
1.069397452364961
 20
0.93177402492856
 30
0.0
 10
1.069397452364961
 20
0.9497276481169658
 30
0.0
  0
SPLINE
  5
122
330
A
100
AcDbEntity
  8
0
  6
solid
 62
     7
100
AcDbSpline
210
0.0
220
0.0
230
1.0
 70
     8
 71
     2
 72
     8
 73
     5
 74
     0
 42
0.0000000001
 43
0.0000000001
 40
0.0
 40
0.0
 40
0.0
 40
1.0
 40
2.0
 40
3.0
 40
3.0
 40
3.0
 10
1.069397452364961
 20
0.9497276481169658
 30
0.0
 10
1.069397452364961
 20
0.9676580828995746
 30
0.0
 10
1.061730785698294
 20
0.9864233002908788
 30
0.0
 10
1.049643104538874
 20
0.9973283727546469
 30
0.0
 10
1.040237307437424
 20
0.9993377930445021
 30
0.0
  0
SPLINE
  5
123
330
A
100
AcDbEntity
  8
0
  6
solid
 62
     7
100
AcDbSpline
210
0.0
220
0.0
230
1.0
 70
     8
 71
     2
 72
     6
 73
     3
 74
     0
 42
0.0000000001
 43
0.0000000001
 40
0.0
 40
0.0
 40
0.0
 40
1.0
 40
1.0
 40
1.0
 10
1.040237307437424
 20
0.9993377930445021
 30
0.0
 10
1.033211945118584
 20
1.001092140870589
 30
0.0
 10
1.011680061060613
 20
1.001092140870589
 30
0.0
  0
LINE
  5
124
330
A
100
AcDbEntity
  8
0
  6
solid
 62
     7
100
AcDbLine
 10
0.9969336842490189
 20
1.001092140870589
 30
0.0
 11
1.011680061060613
 21
1.001092140870589
 31
0.0
  0
LINE
  5
182
330
A
100
AcDbEntity
  8
1
  6
solid
 62
     7
370
     0
100
AcDbLine
 10
-2.026268720626831
 20
0.3435668349266052
 30
0.0
 11
-2.026268720626831
 21
0.1441313976039037
 31
0.0
  0
LINE
  5
183
330
A
100
AcDbEntity
  8
1
  6
solid
 62
     7
370
     0
100
AcDbLine
 10
-1.338768720626831
 20
0.3435668349266052
 30
0.0
 11
-1.338768720626831
 21
0.1441313976039037
 31
0.0
  0
LINE
  5
184
330
A
100
AcDbEntity
  8
1
  6
solid
 62
     7
370
     0
100
AcDbLine
 10
-2.026268720626831
 20
0.2066313976039037
 30
0.0
 11
-1.952636367685654
 21
0.2066313976039037
 31
0.0
  0
LINE
  5
185
330
A
100
AcDbEntity
  8
1
  6
solid
 62
     7
370
     0
100
AcDbLine
 10
-1.338768720626831
 20
0.2066313976039037
 30
0.0
 11
-1.412401073568007
 21
0.2066313976039037
 31
0.0
  0
MTEXT
  5
186
330
A
100
AcDbEntity
  8
1
  6
solid
 62
     7
370
     0
100
AcDbMText
 10
-1.682518720626831
 20
0.2066313976039037
 30
0.0
 40
0.125
 41
0.0
 71
     5
 72
     1
  1
{\H0.125000;11/16}
 73
     1
 44
1.0
  0
SOLID
  5
187
330
A
100
AcDbEntity
  8
1
  6
solid
 62
     7
370
     0
100
AcDbTrace
 10
-2.001268720626831
 20
0.2191313976039037
 30
0.0
 11
-2.001268720626831
 21
0.1941313976039037
 31
0.0
 12
-2.026268720626831
 22
0.2066313976039037
 32
0.0
 13
-2.026268720626831
 23
0.2066313976039037
 33
0.0
  0
SOLID
  5
188
330
A
100
AcDbEntity
  8
1
  6
solid
 62
     7
370
     0
100
AcDbTrace
 10
-1.36376872062683
 20
0.1941313976039037
 30
0.0
 11
-1.36376872062683
 21
0.2191313976039037
 31
0.0
 12
-1.338768720626831
 22
0.2066313976039037
 32
0.0
 13
-1.338768720626831
 23
0.2066313976039037
 33
0.0
  0
VIEWPORT
  5
142
330
B
100
AcDbEntity
 67
     1
  8
0
  6
Continuous
370
     0
100
AcDbViewport
 10
5.187012108692979
 20
3.94216147168583
 30
0.0
 40
15.44381760046978
 41
8.171417004822369
 68
     1
 69
     1
 12
5.187012108692979
 22
3.94216147168583
 13
0.0
 23
0.0
 14
0.5
 24
0.5
 15
0.5
 25
0.5
 16
0.0
 26
0.0
 36
1.0
 17
0.0
 27
0.0
 37
0.0
 42
50.0
 43
0.0
 44
0.0
 45
8.171417004822369
 50
0.0
 51
0.0
 72
   100
 90
   819232
  1

281
     0
 71
     1
 74
     0
110
0.0
120
0.0
130
0.0
111
1.0
121
0.0
131
0.0
112
0.0
122
1.0
132
0.0
 79
     0
146
0.0
170
     0
  0
VIEWPORT
  5
145
330
B
100
AcDbEntity
 67
     1
  8
0
  6
Continuous
370
     0
100
AcDbViewport
 10
5.187037601836497
 20
3.942299977770874
 30
0.0
 40
10.5191790128225
 41
8.076066470983544
 68
     2
 69
     2
 12
-0.3353206534109585
 22
2.565732079783712
 13
0.0
 23
0.0
 14
0.5
 24
0.5
 15
0.5
 25
0.5
 16
0.0
 26
0.0
 36
1.0
 17
0.0
 27
0.0
 37
0.0
 42
50.0
 43
0.0
 44
0.0
 45
6.737908191670266
 50
0.0
 51
0.0
 72
   100
 90
   819232
  1

281
     0
 71
     1
 74
     0
110
0.0
120
0.0
130
0.0
111
1.0
121
0.0
131
0.0
112
0.0
122
1.0
132
0.0
 79
     0
146
0.0
170
     0
  0
ENDSEC
  0
SECTION
  2
OBJECTS
  0
DICTIONARY
  5
19
330
0
100
AcDbDictionary
281
     1
  3
ACAD_COLOR
350
13B
  3
ACAD_GROUP
350
1A
  3
ACAD_LAYOUT
350
1E
  3
ACAD_MATERIAL
350
126
  3
ACAD_MLEADERSTYLE
350
16B
  3
ACAD_MLINESTYLE
350
1B
  3
ACAD_PLOTSETTINGS
350
22
  3
ACAD_PLOTSTYLENAME
350
1F
  3
ACAD_SCALELIST
350
149
  3
ACAD_TABLESTYLE
350
13C
  3
ACAD_VISUALSTYLE
350
12A
  3
ACAD_WIPEOUT_VARS
350
23
  3
ACDB_RECOMPOSE_DATA
350
1A7
  3
AcDbVariableDictionary
350
146
  0
DICTIONARY
  5
174
330
14
100
AcDbDictionary
280
     1
281
     1
  3
ADSK_XREC_LAYER_RECONCILED
360
175
  0
DICTIONARY
  5
176
330
27
100
AcDbDictionary
280
     1
281
     1
  3
ADSK_XREC_LAYER_RECONCILED
360
177
  0
DICTIONARY
  5
178
330
10E
100
AcDbDictionary
280
     1
281
     1
  3
ADSK_XREC_LAYER_RECONCILED
360
179
  0
DICTIONARY
  5
189
330
A
100
AcDbDictionary
280
     1
281
     1
  3
ACAD_SORTENTS
360
18A
  0
DICTIONARY
  5
13B
102
{ACAD_REACTORS
330
19
102
}
330
19
100
AcDbDictionary
281
     1
  0
DICTIONARY
  5
1A
102
{ACAD_REACTORS
330
19
102
}
330
19
100
AcDbDictionary
281
     1
  0
DICTIONARY
  5
1E
102
{ACAD_REACTORS
330
19
102
}
330
19
100
AcDbDictionary
281
     1
  3
Layout1
350
21
  3
Model
350
20
  0
DICTIONARY
  5
126
102
{ACAD_REACTORS
330
19
102
}
330
19
100
AcDbDictionary
281
     1
  3
ByBlock
350
128
  3
ByLayer
350
127
  3
Global
350
129
  0
DICTIONARY
  5
16B
102
{ACAD_REACTORS
330
19
102
}
330
19
100
AcDbDictionary
281
     1
  3
Standard
350
16C
  0
DICTIONARY
  5
1B
102
{ACAD_REACTORS
330
19
102
}
330
19
100
AcDbDictionary
281
     1
  3
Standard
350
1C
  0
DICTIONARY
  5
22
102
{ACAD_REACTORS
330
19
102
}
330
19
100
AcDbDictionary
281
     1
  0
ACDBDICTIONARYWDFLT
  5
1F
102
{ACAD_REACTORS
330
19
102
}
330
19
100
AcDbDictionary
281
     1
  3
Normal
350
1D
100
AcDbDictionaryWithDefault
340
1D
  0
DICTIONARY
  5
149
102
{ACAD_REACTORS
330
19
102
}
330
19
100
AcDbDictionary
281
     1
  3
A0
350
14A
  3
A1
350
14B
  3
A2
350
14C
  3
A3
350
14D
  3
A4
350
14E
  3
A5
350
14F
  3
A6
350
150
  3
A7
350
151
  3
A8
350
152
  3
A9
350
153
  3
B0
350
154
  3
B1
350
155
  3
B2
350
156
  3
B3
350
157
  3
B4
350
158
  3
B5
350
159
  3
B6
350
15A
  3
B7
350
15B
  3
B8
350
15C
  3
B9
350
15D
  3
C0
350
15E
  3
C1
350
15F
  3
C2
350
160
  3
C3
350
161
  3
C4
350
162
  3
C5
350
163
  3
C6
350
164
  3
C7
350
165
  3
C8
350
166
  3
C9
350
167
  3
D0
350
168
  3
D1
350
169
  3
D2
350
16A
  0
DICTIONARY
  5
13C
102
{ACAD_REACTORS
330
19
102
}
330
19
100
AcDbDictionary
281
     1
  3
Standard
350
13D
  0
DICTIONARY
  5
12A
102
{ACAD_REACTORS
330
19
102
}
330
19
100
AcDbDictionary
281
     1
  3
2dWireframe
350
130
  3
3D Hidden
350
132
  3
3dWireframe
350
131
  3
Basic
350
12F
  3
Brighten
350
136
  3
ColorChange
350
13A
  3
Conceptual
350
133
  3
Dim
350
135
  3
Facepattern
350
139
  3
Flat
350
12B
  3
FlatWithEdges
350
12C
  3
Gouraud
350
12D
  3
GouraudWithEdges
350
12E
  3
Linepattern
350
138
  3
Realistic
350
134
  3
Thicken
350
137
  0
WIPEOUTVARIABLES
  5
23
330
19
100
AcDbWipeoutVariables
 70
     1
  0
XRECORD
  5
1A7
102
{ACAD_REACTORS
330
19
102
}
330
19
100
AcDbXrecord
280
     1
 90
        1
330
13D
  0
DICTIONARY
  5
146
102
{ACAD_REACTORS
330
19
102
}
330
19
100
AcDbDictionary
281
     1
  3
CANNOSCALE
350
1A4
  3
CMLEADERSTYLE
350
1A3
  3
CTABLESTYLE
350
147
  0
XRECORD
  5
175
102
{ACAD_REACTORS
330
174
102
}
330
174
100
AcDbXrecord
280
     1
290
     1
  0
XRECORD
  5
177
102
{ACAD_REACTORS
330
176
102
}
330
176
100
AcDbXrecord
280
     1
290
     1
  0
XRECORD
  5
179
102
{ACAD_REACTORS
330
178
102
}
330
178
100
AcDbXrecord
280
     1
290
     1
  0
SORTENTSTABLE
  5
18A
102
{ACAD_REACTORS
330
189
102
}
330
189
100
AcDbSortentsTable
330
A
331
117
  5
11E
331
F5
  5
FC
331
DB
  5
E2
331
B9
  5
C0
331
106
  5
10D
331
EC
  5
F3
331
CA
  5
D1
331
86
  5
86
331
6C
  5
6C
331
4A
  5
4A
331
186
  5
B5
331
97
  5
97
331
5B
  5
5B
331
39
  5
39
331
28
  5
28
331
115
  5
11C
331
F3
  5
FA
331
D9
  5
E0
331
104
  5
10B
331
EA
  5
F1
331
C8
  5
CF
331
84
  5
84
331
6A
  5
6A
331
48
  5
48
331
184
  5
B3
331
B7
  5
BE
331
95
  5
95
331
59
  5
59
331
37
  5
37
331
113
  5
11A
331
F1
  5
F8
331
124
  5
188
331
102
  5
109
331
E8
  5
EF
331
C6
  5
CD
331
82
  5
82
331
68
  5
68
331
46
  5
46
331
182
  5
B1
331
D7
  5
DE
331
B5
  5
BC
331
93
  5
93
331
57
  5
57
331
35
  5
35
331
111
  5
118
331
122
  5
186
331
100
  5
107
331
E6
  5
ED
331
C4
  5
CB
331
80
  5
80
331
66
  5
66
331
44
  5
44
331
D5
  5
DC
331
B3
  5
BA
331
91
  5
91
331
77
  5
77
331
55
  5
55
331
33
  5
33
331
120
  5
184
331
FE
  5
105
331
E4
  5
EB
331
C2
  5
C9
331
7E
  5
7E
331
64
  5
64
331
42
  5
42
331
10F
  5
116
331
D3
  5
DA
331
B1
  5
B8
331
8F
  5
8F
331
75
  5
75
331
53
  5
53
331
31
  5
31
331
11E
  5
182
331
FC
  5
103
331
E2
  5
E9
331
C0
  5
C7
331
7C
  5
7C
331
62
  5
62
331
40
  5
40
331
10D
  5
115
331
D1
  5
D8
331
8D
  5
8D
331
73
  5
73
331
51
  5
51
331
2F
  5
2F
331
11C
  5
123
331
FA
  5
101
331
E0
  5
E7
331
BE
  5
C5
331
7A
  5
7A
331
60
  5
60
331
10B
  5
113
331
CF
  5
D6
331
8B
  5
8B
331
71
  5
71
331
4F
  5
4F
331
3E
  5
3E
331
2D
  5
2D
331
11A
  5
121
331
F8
  5
FF
331
DE
  5
E5
331
BC
  5
C3
331
9A
  5
9A
331
78
  5
78
331
109
  5
111
331
EF
  5
F6
331
CD
  5
D4
331
89
  5
89
331
6F
  5
6F
331
4D
  5
4D
331
5E
  5
5E
331
3C
  5
3C
331
2B
  5
2B
331
118
  5
11F
331
F6
  5
FD
331
DC
  5
E3
331
BA
  5
C1
331
98
  5
98
331
107
  5
10F
331
ED
  5
F4
331
CB
  5
D2
331
87
  5
87
331
6D
  5
6D
331
4B
  5
4B
331
187
  5
B6
331
5C
  5
5C
331
3A
  5
3A
331
29
  5
29
331
116
  5
11D
331
F4
  5
FB
331
DA
  5
E1
331
B8
  5
BF
331
105
  5
10C
331
EB
  5
F2
331
C9
  5
D0
331
85
  5
85
331
6B
  5
6B
331
49
  5
49
331
185
  5
B4
331
96
  5
96
331
5A
  5
5A
331
38
  5
38
331
114
  5
11B
331
F2
  5
F9
331
D8
  5
DF
331
103
  5
10A
331
E9
  5
F0
331
C7
  5
CE
331
A5
  5
A5
331
83
  5
83
331
69
  5
69
331
47
  5
47
331
183
  5
B2
331
B6
  5
BD
331
94
  5
94
331
58
  5
58
331
36
  5
36
331
112
  5
119
331
F0
  5
F7
331
123
  5
187
331
101
  5
108
331
E7
  5
EE
331
C5
  5
CC
331
81
  5
81
331
67
  5
67
331
45
  5
45
331
D6
  5
DD
331
B4
  5
BB
331
92
  5
92
331
56
  5
56
331
34
  5
34
331
110
  5
117
331
121
  5
185
331
FF
  5
106
331
E5
  5
EC
331
C3
  5
CA
331
7F
  5
7F
331
65
  5
65
331
43
  5
43
331
D4
  5
DB
331
B2
  5
B9
331
90
  5
90
331
76
  5
76
331
54
  5
54
331
32
  5
32
331
11F
  5
183
331
FD
  5
104
331
E3
  5
EA
331
C1
  5
C8
331
7D
  5
7D
331
63
  5
63
331
41
  5
41
331
D2
  5
D9
331
8E
  5
8E
331
74
  5
74
331
52
  5
52
331
30
  5
30
331
11D
  5
124
331
FB
  5
102
331
E1
  5
E8
331
BF
  5
C6
331
7B
  5
7B
331
61
  5
61
331
10C
  5
114
331
D0
  5
D7
331
8C
  5
8C
331
72
  5
72
331
50
  5
50
331
3F
  5
3F
331
2E
  5
2E
331
11B
  5
122
331
F9
  5
100
331
DF
  5
E6
331
BD
  5
C4
331
79
  5
79
331
10A
  5
112
331
CE
  5
D5
331
8A
  5
8A
331
70
  5
70
331
4E
  5
4E
331
5F
  5
5F
331
3D
  5
3D
331
2C
  5
2C
331
188
  5
B7
331
119
  5
120
331
F7
  5
FE
331
DD
  5
E4
331
BB
  5
C2
331
99
  5
99
331
108
  5
110
331
EE
  5
F5
331
CC
  5
D3
331
88
  5
88
331
6E
  5
6E
331
4C
  5
4C
331
5D
  5
5D
331
3B
  5
3B
331
2A
  5
2A
  0
LAYOUT
  5
21
102
{ACAD_REACTORS
330
1E
102
}
330
1E
100
AcDbPlotSettings
  1

  2
Foxit PDF Printer
  4
Letter
  6

 40
3.174999952316284
 41
3.174999952316284
 42
3.17498779296875
 43
3.175003051757812
 44
279.3999938964844
 45
215.8999938964844
 46
31.47715384821894
 47
24.12875752349356
 48
0.0
 49
0.0
140
0.0
141
0.0
142
1.0
143
1.0
 70
     4
 72
     0
 73
     0
 74
     1
  7

 75
    16
147
1.0
 76
     1
 77
     2
 78
   300
148
-26.25461124795212
149
-20.16000981431432
100
AcDbLayout
  1
Layout1
 70
     0
 71
     1
 10
-0.3306119115190196
 20
-0.2812499079328949
 11
10.66938784818509
 21
8.218749851771214
 12
0.0
 22
0.0
 32
0.0
 14
-0.0733027175222354
 24
-0.0960387923252242
 34
-0.0015258207003583
 15
10.44732693490819
 25
7.980361735696885
 35
0.0000000349246037
146
0.0
 13
0.0
 23
0.0
 33
0.0
 16
1.0
 26
0.0
 36
0.0
 17
0.0
 27
1.0
 37
0.0
 76
     0
330
B
331
142
1001
ACAD_PSEXT
1000
Foxit PDF Printer
1000
Foxit PDF Printer Driver
1000
FOXIT_PDF
1000

1070
     0
  0
LAYOUT
  5
20
102
{ACAD_REACTORS
330
1E
102
}
330
1E
100
AcDbPlotSettings
  1

  2

  4

  6

 40
0.0
 41
0.0
 42
0.0
 43
0.0
 44
0.0
 45
0.0
 46
0.0
 47
0.0
 48
0.0
 49
0.0
140
0.0
141
0.0
142
1.0
143
1.0
 70
  1024
 72
     0
 73
     0
 74
     0
  7

 75
     0
147
1.0
 76
     0
 77
     2
 78
   300
148
0.0
149
0.0
100
AcDbLayout
  1
Model
 70
     0
 71
     0
 10
0.0
 20
0.0
 11
0.0
 21
0.0
 12
0.0
 22
0.0
 32
0.0
 14
0.0
 24
0.0
 34
0.0
 15
0.0
 25
0.0
 35
0.0
146
0.0
 13
0.0
 23
0.0
 33
0.0
 16
0.0
 26
0.0
 36
0.0
 17
0.0
 27
0.0
 37
0.0
 76
     0
330
A
  0
MATERIAL
  5
128
102
{ACAD_XDICTIONARY
360
1AA
102
}
102
{ACAD_REACTORS
330
126
102
}
330
126
100
AcDbMaterial
  1
ByBlock
 73
     1
 78
     1
172
     1
176
     1
270
     1
274
     1
  0
MATERIAL
  5
127
102
{ACAD_XDICTIONARY
360
1A8
102
}
102
{ACAD_REACTORS
330
126
102
}
330
126
100
AcDbMaterial
  1
ByLayer
 73
     1
 78
     1
172
     1
176
     1
270
     1
274
     1
  0
MATERIAL
  5
129
102
{ACAD_XDICTIONARY
360
1AC
102
}
102
{ACAD_REACTORS
330
126
102
}
330
126
100
AcDbMaterial
  1
Global
 73
     1
 78
     1
172
     1
176
     1
270
     1
274
     1
  0
MLEADERSTYLE
  5
16C
102
{ACAD_REACTORS
330
16B
102
}
330
16B
100
AcDbMLeaderStyle
170
     2
171
     1
172
     0
 90
        2
 40
0.0
 41
0.0
173
     1
 91
-1056964608
340
11
 92
       -2
290
     1
 42
0.09
291
     1
 43
0.36
  3
Standard
 44
0.18
300

342
17
174
     1
178
     6
175
     1
176
     0
 93
-1056964608
 45
0.18
292
     0
297
     0
 46
0.18
 94
-1056964608
 47
1.0
 49
1.0
140
1.0
293
     1
141
0.0
294
     1
177
     0
142
1.0
295
     0
296
     0
143
0.125
1001
ACAD_MLEADERVER
1070
     2
  0
MLINESTYLE
  5
1C
102
{ACAD_REACTORS
330
1B
102
}
330
1B
100
AcDbMlineStyle
  2
STANDARD
 70
     0
  3

 62
     0
 51
90.0
 52
90.0
 71
     2
 49
0.5
 62
   256
  6
BYLAYER
 49
-0.5
 62
   256
  6
BYLAYER
  0
ACDBPLACEHOLDER
  5
1D
102
{ACAD_REACTORS
330
1F
102
}
330
1F
  0
SCALE
  5
14A
102
{ACAD_REACTORS
330
149
102
}
330
149
100
AcDbScale
 70
     0
300
1:1
140
1.0
141
1.0
290
     1
  0
SCALE
  5
14B
102
{ACAD_REACTORS
330
149
102
}
330
149
100
AcDbScale
 70
     0
300
1:2
140
1.0
141
2.0
290
     0
  0
SCALE
  5
14C
102
{ACAD_REACTORS
330
149
102
}
330
149
100
AcDbScale
 70
     0
300
1:4
140
1.0
141
4.0
290
     0
  0
SCALE
  5
14D
102
{ACAD_REACTORS
330
149
102
}
330
149
100
AcDbScale
 70
     0
300
1:5
140
1.0
141
5.0
290
     0
  0
SCALE
  5
14E
102
{ACAD_REACTORS
330
149
102
}
330
149
100
AcDbScale
 70
     0
300
1:8
140
1.0
141
8.0
290
     0
  0
SCALE
  5
14F
102
{ACAD_REACTORS
330
149
102
}
330
149
100
AcDbScale
 70
     0
300
1:10
140
1.0
141
10.0
290
     0
  0
SCALE
  5
150
102
{ACAD_REACTORS
330
149
102
}
330
149
100
AcDbScale
 70
     0
300
1:16
140
1.0
141
16.0
290
     0
  0
SCALE
  5
151
102
{ACAD_REACTORS
330
149
102
}
330
149
100
AcDbScale
 70
     0
300
1:20
140
1.0
141
20.0
290
     0
  0
SCALE
  5
152
102
{ACAD_REACTORS
330
149
102
}
330
149
100
AcDbScale
 70
     0
300
1:30
140
1.0
141
30.0
290
     0
  0
SCALE
  5
153
102
{ACAD_REACTORS
330
149
102
}
330
149
100
AcDbScale
 70
     0
300
1:40
140
1.0
141
40.0
290
     0
  0
SCALE
  5
154
102
{ACAD_REACTORS
330
149
102
}
330
149
100
AcDbScale
 70
     0
300
1:50
140
1.0
141
50.0
290
     0
  0
SCALE
  5
155
102
{ACAD_REACTORS
330
149
102
}
330
149
100
AcDbScale
 70
     0
300
1:100
140
1.0
141
100.0
290
     0
  0
SCALE
  5
156
102
{ACAD_REACTORS
330
149
102
}
330
149
100
AcDbScale
 70
     0
300
2:1
140
2.0
141
1.0
290
     0
  0
SCALE
  5
157
102
{ACAD_REACTORS
330
149
102
}
330
149
100
AcDbScale
 70
     0
300
4:1
140
4.0
141
1.0
290
     0
  0
SCALE
  5
158
102
{ACAD_REACTORS
330
149
102
}
330
149
100
AcDbScale
 70
     0
300
8:1
140
8.0
141
1.0
290
     0
  0
SCALE
  5
159
102
{ACAD_REACTORS
330
149
102
}
330
149
100
AcDbScale
 70
     0
300
10:1
140
10.0
141
1.0
290
     0
  0
SCALE
  5
15A
102
{ACAD_REACTORS
330
149
102
}
330
149
100
AcDbScale
 70
     0
300
100:1
140
100.0
141
1.0
290
     0
  0
SCALE
  5
15B
102
{ACAD_REACTORS
330
149
102
}
330
149
100
AcDbScale
 70
     0
300
1/128" = 1'-0"
140
0.0078125
141
12.0
290
     0
  0
SCALE
  5
15C
102
{ACAD_REACTORS
330
149
102
}
330
149
100
AcDbScale
 70
     0
300
1/64" = 1'-0"
140
0.015625
141
12.0
290
     0
  0
SCALE
  5
15D
102
{ACAD_REACTORS
330
149
102
}
330
149
100
AcDbScale
 70
     0
300
1/32" = 1'-0"
140
0.03125
141
12.0
290
     0
  0
SCALE
  5
15E
102
{ACAD_REACTORS
330
149
102
}
330
149
100
AcDbScale
 70
     0
300
1/16" = 1'-0"
140
0.0625
141
12.0
290
     0
  0
SCALE
  5
15F
102
{ACAD_REACTORS
330
149
102
}
330
149
100
AcDbScale
 70
     0
300
3/32" = 1'-0"
140
0.09375
141
12.0
290
     0
  0
SCALE
  5
160
102
{ACAD_REACTORS
330
149
102
}
330
149
100
AcDbScale
 70
     0
300
1/8" = 1'-0"
140
0.125
141
12.0
290
     0
  0
SCALE
  5
161
102
{ACAD_REACTORS
330
149
102
}
330
149
100
AcDbScale
 70
     0
300
3/16" = 1'-0"
140
0.1875
141
12.0
290
     0
  0
SCALE
  5
162
102
{ACAD_REACTORS
330
149
102
}
330
149
100
AcDbScale
 70
     0
300
1/4" = 1'-0"
140
0.25
141
12.0
290
     0
  0
SCALE
  5
163
102
{ACAD_REACTORS
330
149
102
}
330
149
100
AcDbScale
 70
     0
300
3/8" = 1'-0"
140
0.375
141
12.0
290
     0
  0
SCALE
  5
164
102
{ACAD_REACTORS
330
149
102
}
330
149
100
AcDbScale
 70
     0
300
1/2" = 1'-0"
140
0.5
141
12.0
290
     0
  0
SCALE
  5
165
102
{ACAD_REACTORS
330
149
102
}
330
149
100
AcDbScale
 70
     0
300
3/4" = 1'-0"
140
0.75
141
12.0
290
     0
  0
SCALE
  5
166
102
{ACAD_REACTORS
330
149
102
}
330
149
100
AcDbScale
 70
     0
300
1" = 1'-0"
140
1.0
141
12.0
290
     0
  0
SCALE
  5
167
102
{ACAD_REACTORS
330
149
102
}
330
149
100
AcDbScale
 70
     0
300
1-1/2" = 1'-0"
140
1.5
141
12.0
290
     0
  0
SCALE
  5
168
102
{ACAD_REACTORS
330
149
102
}
330
149
100
AcDbScale
 70
     0
300
3" = 1'-0"
140
3.0
141
12.0
290
     0
  0
SCALE
  5
169
102
{ACAD_REACTORS
330
149
102
}
330
149
100
AcDbScale
 70
     0
300
6" = 1'-0"
140
6.0
141
12.0
290
     0
  0
SCALE
  5
16A
102
{ACAD_REACTORS
330
149
102
}
330
149
100
AcDbScale
 70
     0
300
1'-0" = 1'-0"
140
12.0
141
12.0
290
     0
  0
TABLESTYLE
  5
13D
102
{ACAD_XDICTIONARY
360
1A5
102
}
102
{ACAD_REACTORS
330
13C
102
}
330
13C
100
AcDbTableStyle
  3
Standard
 70
     0
 71
     0
 40
0.06
 41
0.06
280
     0
281
     0
  7
Standard
140
0.18
170
     2
 62
     0
 63
     7
283
     0
274
    -2
284
     1
 64
     0
275
    -2
285
     1
 65
     0
276
    -2
286
     1
 66
     0
277
    -2
287
     1
 67
     0
278
    -2
288
     1
 68
     0
279
    -2
289
     1
 69
     0
  7
Standard
140
0.25
170
     5
 62
     0
 63
     7
283
     0
274
    -2
284
     1
 64
     0
275
    -2
285
     1
 65
     0
276
    -2
286
     1
 66
     0
277
    -2
287
     1
 67
     0
278
    -2
288
     1
 68
     0
279
    -2
289
     1
 69
     0
  7
Standard
140
0.18
170
     5
 62
     0
 63
     7
283
     0
274
    -2
284
     1
 64
     0
275
    -2
285
     1
 65
     0
276
    -2
286
     1
 66
     0
277
    -2
287
     1
 67
     0
278
    -2
288
     1
 68
     0
279
    -2
289
     1
 69
     0
  0
VISUALSTYLE
  5
130
102
{ACAD_REACTORS
330
12A
102
}
330
12A
100
AcDbVisualStyle
  2
2dWireframe
 70
     4
 71
     0
 72
     2
 73
     0
 90
        0
 40
-0.6
 41
-30.0
 62
     5
 63
     7
421
 16777215
 74
     1
 91
        4
 64
     7
 65
   257
 75
     1
175
     1
 42
1.0
 92
        0
 66
   257
 43
1.0
 76
     1
 77
     6
 78
     2
 67
     7
 79
     5
170
     0
171
     0
290
     0
174
     0
 93
        1
 44
0.0
173
     0
291
     0
 45
0.0
1001
ACAD
1000
AcDbSavedByObjectVersion
1070
     0
  0
VISUALSTYLE
  5
132
102
{ACAD_REACTORS
330
12A
102
}
330
12A
100
AcDbVisualStyle
  2
3D Hidden
 70
     6
 71
     1
 72
     2
 73
     2
 90
        0
 40
-0.6
 41
-30.0
 62
     5
 63
     7
421
 16777215
 74
     2
 91
        2
 64
     7
 65
   257
 75
     2
175
     1
 42
40.0
 92
        0
 66
   257
 43
1.0
 76
     1
 77
     6
 78
     2
 67
     7
 79
     3
170
     0
171
     0
290
     0
174
     0
 93
        1
 44
0.0
173
     0
291
     0
 45
0.0
1001
ACAD
1000
AcDbSavedByObjectVersion
1070
     0
  0
VISUALSTYLE
  5
131
102
{ACAD_REACTORS
330
12A
102
}
330
12A
100
AcDbVisualStyle
  2
3dWireframe
 70
     5
 71
     0
 72
     2
 73
     0
 90
        0
 40
-0.6
 41
-30.0
 62
     5
 63
     7
421
 16777215
 74
     1
 91
        4
 64
     7
 65
   257
 75
     1
175
     1
 42
1.0
 92
        0
 66
   257
 43
1.0
 76
     1
 77
     6
 78
     2
 67
     7
 79
     5
170
     0
171
     0
290
     0
174
     0
 93
        1
 44
0.0
173
     0
291
     0
 45
0.0
1001
ACAD
1000
AcDbSavedByObjectVersion
1070
     0
  0
VISUALSTYLE
  5
12F
102
{ACAD_REACTORS
330
12A
102
}
330
12A
100
AcDbVisualStyle
  2
Basic
 70
     7
 71
     1
 72
     0
 73
     1
 90
        0
 40
-0.6
 41
-30.0
 62
     5
 63
     7
421
 16777215
 74
     0
 91
        4
 64
     7
 65
   257
 75
     1
175
     1
 42
1.0
 92
        8
 66
     7
 43
1.0
 76
     1
 77
     6
 78
     2
 67
     7
 79
     5
170
     0
171
     0
290
     0
174
     0
 93
        1
 44
0.0
173
     0
291
     1
 45
0.0
1001
ACAD
1000
AcDbSavedByObjectVersion
1070
     0
  0
VISUALSTYLE
  5
136
102
{ACAD_REACTORS
330
12A
102
}
330
12A
100
AcDbVisualStyle
  2
Brighten
 70
    12
 71
     2
 72
     2
 73
     0
 90
        0
 40
-0.6
 41
-30.0
 62
     5
 63
     7
421
 16777215
 74
     1
 91
        4
 64
     7
 65
   257
 75
     1
175
     1
 42
1.0
 92
        8
 66
     7
 43
1.0
 76
     1
 77
     6
 78
     2
 67
     7
 79
     5
170
     0
171
     0
290
     0
174
     0
 93
        1
 44
50.0
173
     0
291
     1
 45
0.0
1001
ACAD
1000
AcDbSavedByObjectVersion
1070
     0
  0
VISUALSTYLE
  5
13A
102
{ACAD_REACTORS
330
12A
102
}
330
12A
100
AcDbVisualStyle
  2
ColorChange
 70
    16
 71
     2
 72
     2
 73
     3
 90
        0
 40
-0.6
 41
-30.0
 62
     5
 63
     8
421
  8421504
 74
     1
 91
        4
 64
     7
 65
   257
 75
     1
175
     1
 42
1.0
 92
        8
 66
     8
424
  8421504
 43
1.0
 76
     1
 77
     6
 78
     2
 67
     7
 79
     5
170
     0
171
     0
290
     0
174
     0
 93
        1
 44
0.0
173
     0
291
     1
 45
0.0
1001
ACAD
1000
AcDbSavedByObjectVersion
1070
     0
  0
VISUALSTYLE
  5
133
102
{ACAD_REACTORS
330
12A
102
}
330
12A
100
AcDbVisualStyle
  2
Conceptual
 70
     9
 71
     3
 72
     2
 73
     0
 90
        0
 40
-0.6
 41
-30.0
 62
     5
 63
     7
421
 16777215
 74
     2
 91
        2
 64
     7
 65
   257
 75
     1
175
     1
 42
40.0
 92
        8
 66
     7
 43
1.0
 76
     1
 77
     6
 78
     2
 67
     7
 79
     3
170
     0
171
     0
290
     0
174
     0
 93
        1
 44
0.0
173
     0
291
     0
 45
0.0
1001
ACAD
1000
AcDbSavedByObjectVersion
1070
     0
  0
VISUALSTYLE
  5
135
102
{ACAD_REACTORS
330
12A
102
}
330
12A
100
AcDbVisualStyle
  2
Dim
 70
    11
 71
     2
 72
     2
 73
     0
 90
        0
 40
-0.6
 41
-30.0
 62
     5
 63
     7
421
 16777215
 74
     1
 91
        4
 64
     7
 65
   257
 75
     1
175
     1
 42
1.0
 92
        8
 66
     7
 43
1.0
 76
     1
 77
     6
 78
     2
 67
     7
 79
     5
170
     0
171
     0
290
     0
174
     0
 93
        1
 44
-50.0
173
     0
291
     1
 45
0.0
1001
ACAD
1000
AcDbSavedByObjectVersion
1070
     0
  0
VISUALSTYLE
  5
139
102
{ACAD_REACTORS
330
12A
102
}
330
12A
100
AcDbVisualStyle
  2
Facepattern
 70
    15
 71
     2
 72
     2
 73
     0
 90
        0
 40
-0.6
 41
-30.0
 62
     5
 63
     7
421
 16777215
 74
     1
 91
        4
 64
     7
 65
   257
 75
     1
175
     1
 42
1.0
 92
        8
 66
     7
 43
1.0
 76
     1
 77
     6
 78
     2
 67
     7
 79
     5
170
     0
171
     0
290
     0
174
     0
 93
        1
 44
0.0
173
     0
291
     1
 45
0.0
1001
ACAD
1000
AcDbSavedByObjectVersion
1070
     0
  0
VISUALSTYLE
  5
12B
102
{ACAD_REACTORS
330
12A
102
}
330
12A
100
AcDbVisualStyle
  2
Flat
 70
     0
 71
     2
 72
     1
 73
     1
 90
        2
 40
-0.6
 41
30.0
 62
     5
 63
     7
421
 16777215
 74
     0
 91
        4
 64
     7
 65
   257
 75
     1
175
     1
 42
1.0
 92
        8
 66
     7
 43
1.0
 76
     1
 77
     6
 78
     2
 67
     7
 79
     5
170
     0
171
     0
290
     0
174
     0
 93
       13
 44
0.0
173
     0
291
     1
 45
0.0
1001
ACAD
1000
AcDbSavedByObjectVersion
1070
     0
  0
VISUALSTYLE
  5
12C
102
{ACAD_REACTORS
330
12A
102
}
330
12A
100
AcDbVisualStyle
  2
FlatWithEdges
 70
     1
 71
     2
 72
     1
 73
     1
 90
        2
 40
-0.6
 41
30.0
 62
     5
 63
     7
421
 16777215
 74
     1
 91
        4
 64
     7
 65
   257
 75
     1
175
     1
 42
1.0
 92
        0
 66
   257
 43
1.0
 76
     1
 77
     6
 78
     2
 67
     7
 79
     5
170
     0
171
     0
290
     0
174
     0
 93
       13
 44
0.0
173
     0
291
     1
 45
0.0
1001
ACAD
1000
AcDbSavedByObjectVersion
1070
     0
  0
VISUALSTYLE
  5
12D
102
{ACAD_REACTORS
330
12A
102
}
330
12A
100
AcDbVisualStyle
  2
Gouraud
 70
     2
 71
     2
 72
     2
 73
     1
 90
        2
 40
-0.6
 41
30.0
 62
     5
 63
     7
421
 16777215
 74
     0
 91
        4
 64
     7
 65
   257
 75
     1
175
     1
 42
1.0
 92
        0
 66
     7
 43
1.0
 76
     1
 77
     6
 78
     2
 67
     7
 79
     5
170
     0
171
     0
290
     0
174
     0
 93
       13
 44
0.0
173
     0
291
     1
 45
0.0
1001
ACAD
1000
AcDbSavedByObjectVersion
1070
     0
  0
VISUALSTYLE
  5
12E
102
{ACAD_REACTORS
330
12A
102
}
330
12A
100
AcDbVisualStyle
  2
GouraudWithEdges
 70
     3
 71
     2
 72
     2
 73
     1
 90
        2
 40
-0.6
 41
30.0
 62
     5
 63
     7
421
 16777215
 74
     1
 91
        4
 64
     7
 65
   257
 75
     1
175
     1
 42
1.0
 92
        0
 66
   257
 43
1.0
 76
     1
 77
     6
 78
     2
 67
     7
 79
     5
170
     0
171
     0
290
     0
174
     0
 93
       13
 44
0.0
173
     0
291
     1
 45
0.0
1001
ACAD
1000
AcDbSavedByObjectVersion
1070
     0
  0
VISUALSTYLE
  5
138
102
{ACAD_REACTORS
330
12A
102
}
330
12A
100
AcDbVisualStyle
  2
Linepattern
 70
    14
 71
     2
 72
     2
 73
     0
 90
        0
 40
-0.6
 41
-30.0
 62
     5
 63
     7
421
 16777215
 74
     1
 91
        4
 64
     7
 65
   257
 75
     7
175
     7
 42
1.0
 92
        8
 66
     7
 43
1.0
 76
     1
 77
     6
 78
     2
 67
     7
 79
     5
170
     0
171
     0
290
     0
174
     0
 93
        1
 44
0.0
173
     0
291
     1
 45
0.0
1001
ACAD
1000
AcDbSavedByObjectVersion
1070
     0
  0
VISUALSTYLE
  5
134
102
{ACAD_REACTORS
330
12A
102
}
330
12A
100
AcDbVisualStyle
  2
Realistic
 70
     8
 71
     2
 72
     2
 73
     0
 90
        0
 40
-0.6
 41
-30.0
 62
     5
 63
     7
421
 16777215
 74
     1
 91
        0
 64
     7
 65
   257
 75
     1
175
     1
 42
1.0
 92
        8
 66
     8
424
  7895160
 43
1.0
 76
     1
 77
     6
 78
     2
 67
     7
 79
     5
170
     0
171
     0
290
     0
174
     0
 93
       13
 44
0.0
173
     0
291
     0
 45
0.0
1001
ACAD
1000
AcDbSavedByObjectVersion
1070
     0
  0
VISUALSTYLE
  5
137
102
{ACAD_REACTORS
330
12A
102
}
330
12A
100
AcDbVisualStyle
  2
Thicken
 70
    13
 71
     2
 72
     2
 73
     0
 90
        0
 40
-0.6
 41
-30.0
 62
     5
 63
     7
421
 16777215
 74
     1
 91
        4
 64
     7
 65
   257
 75
     1
175
     1
 42
1.0
 92
       12
 66
     7
 43
1.0
 76
     1
 77
     6
 78
     2
 67
     7
 79
     5
170
     0
171
     0
290
     0
174
     0
 93
        1
 44
0.0
173
     0
291
     1
 45
0.0
1001
ACAD
1000
AcDbSavedByObjectVersion
1070
     0
  0
DICTIONARYVAR
  5
1A4
102
{ACAD_REACTORS
330
146
102
}
330
146
100
DictionaryVariables
280
     0
  1
1:1
  0
DICTIONARYVAR
  5
1A3
102
{ACAD_REACTORS
330
146
102
}
330
146
100
DictionaryVariables
280
     0
  1
STANDARD
  0
DICTIONARYVAR
  5
147
102
{ACAD_REACTORS
330
146
102
}
330
146
100
DictionaryVariables
280
     0
  1
STANDARD
  0
DICTIONARY
  5
1AA
330
128
100
AcDbDictionary
280
     1
281
     1
  3
ACAD_XREC_ROUNDTRIP
360
1AB
  0
DICTIONARY
  5
1A8
330
127
100
AcDbDictionary
280
     1
281
     1
  3
ACAD_XREC_ROUNDTRIP
360
1A9
  0
DICTIONARY
  5
1AC
330
129
100
AcDbDictionary
280
     1
281
     1
  3
ACAD_XREC_ROUNDTRIP
360
1AD
  0
DICTIONARY
  5
1A5
330
13D
100
AcDbDictionary
280
     1
281
     1
  3
ACAD_ROUNDTRIP_2008_TABLESTYLE_CELLSTYLEMAP
360
1A6
  3
ACAD_XREC_ROUNDTRIP
360
1AE
  0
XRECORD
  5
1AB
102
{ACAD_REACTORS
330
1AA
102
}
330
1AA
100
AcDbXrecord
280
     1
102
MATERIAL
148
0.0
149
0.0
149
0.0
 93
        0
 94
       63
282
     0
 72
     1
 77
     1
171
     1
175
     1
179
     1
273
     0
  0
XRECORD
  5
1A9
102
{ACAD_REACTORS
330
1A8
102
}
330
1A8
100
AcDbXrecord
280
     1
102
MATERIAL
148
0.0
149
0.0
149
0.0
 93
        0
 94
       63
282
     0
 72
     1
 77
     1
171
     1
175
     1
179
     1
273
     0
  0
XRECORD
  5
1AD
102
{ACAD_REACTORS
330
1AC
102
}
330
1AC
100
AcDbXrecord
280
     1
102
MATERIAL
148
0.0
149
0.0
149
0.0
 93
        0
 94
       63
282
     0
 72
     1
 77
     1
171
     1
175
     1
179
     1
273
     0
  0
CELLSTYLEMAP
  5
1A6
102
{ACAD_REACTORS
330
1A5
102
}
330
1A5
100
AcDbCellStyleMap
 90
        3
300
CELLSTYLE
  1
TABLEFORMAT_BEGIN
 90
        5
170
     1
 91
        0
 92
    32768
 62
   257
 93
        1
300
CONTENTFORMAT
  1
CONTENTFORMAT_BEGIN
 90
        0
 91
        0
 92
      512
 93
        0
300

 40
0.0
140
1.0
 94
        5
 62
     0
340
17
144
0.25
309
CONTENTFORMAT_END
171
     0
 94
        6
 95
        1
302
GRIDFORMAT
  1
GRIDFORMAT_BEGIN
 90
        0
 91
        1
 62
     0
 92
       -2
340
0
 93
        0
 40
0.045
309
GRIDFORMAT_END
 95
        2
302
GRIDFORMAT
  1
GRIDFORMAT_BEGIN
 90
        0
 91
        1
 62
     0
 92
       -2
340
0
 93
        0
 40
0.045
309
GRIDFORMAT_END
 95
        4
302
GRIDFORMAT
  1
GRIDFORMAT_BEGIN
 90
        0
 91
        1
 62
     0
 92
       -2
340
0
 93
        0
 40
0.045
309
GRIDFORMAT_END
 95
        8
302
GRIDFORMAT
  1
GRIDFORMAT_BEGIN
 90
        0
 91
        1
 62
     0
 92
       -2
340
0
 93
        0
 40
0.045
309
GRIDFORMAT_END
 95
       16
302
GRIDFORMAT
  1
GRIDFORMAT_BEGIN
 90
        0
 91
        1
 62
     0
 92
       -2
340
0
 93
        0
 40
0.045
309
GRIDFORMAT_END
 95
       32
302
GRIDFORMAT
  1
GRIDFORMAT_BEGIN
 90
        0
 91
        1
 62
     0
 92
       -2
340
0
 93
        0
 40
0.045
309
GRIDFORMAT_END
309
TABLEFORMAT_END
  1
CELLSTYLE_BEGIN
 90
        1
 91
        1
300
_TITLE
309
CELLSTYLE_END
300
CELLSTYLE
  1
TABLEFORMAT_BEGIN
 90
        5
170
     1
 91
        0
 92
        0
 62
   257
 93
        1
300
CONTENTFORMAT
  1
CONTENTFORMAT_BEGIN
 90
        0
 91
        0
 92
      512
 93
        0
300

 40
0.0
140
1.0
 94
        5
 62
     0
340
17
144
0.18
309
CONTENTFORMAT_END
171
     0
 94
        6
 95
        1
302
GRIDFORMAT
  1
GRIDFORMAT_BEGIN
 90
        0
 91
        1
 62
     0
 92
       -2
340
0
 93
        0
 40
0.045
309
GRIDFORMAT_END
 95
        2
302
GRIDFORMAT
  1
GRIDFORMAT_BEGIN
 90
        0
 91
        1
 62
     0
 92
       -2
340
0
 93
        0
 40
0.045
309
GRIDFORMAT_END
 95
        4
302
GRIDFORMAT
  1
GRIDFORMAT_BEGIN
 90
        0
 91
        1
 62
     0
 92
       -2
340
0
 93
        0
 40
0.045
309
GRIDFORMAT_END
 95
        8
302
GRIDFORMAT
  1
GRIDFORMAT_BEGIN
 90
        0
 91
        1
 62
     0
 92
       -2
340
0
 93
        0
 40
0.045
309
GRIDFORMAT_END
 95
       16
302
GRIDFORMAT
  1
GRIDFORMAT_BEGIN
 90
        0
 91
        1
 62
     0
 92
       -2
340
0
 93
        0
 40
0.045
309
GRIDFORMAT_END
 95
       32
302
GRIDFORMAT
  1
GRIDFORMAT_BEGIN
 90
        0
 91
        1
 62
     0
 92
       -2
340
0
 93
        0
 40
0.045
309
GRIDFORMAT_END
309
TABLEFORMAT_END
  1
CELLSTYLE_BEGIN
 90
        2
 91
        1
300
_HEADER
309
CELLSTYLE_END
300
CELLSTYLE
  1
TABLEFORMAT_BEGIN
 90
        5
170
     1
 91
        0
 92
        0
 62
   257
 93
        1
300
CONTENTFORMAT
  1
CONTENTFORMAT_BEGIN
 90
        0
 91
        0
 92
      512
 93
        0
300

 40
0.0
140
1.0
 94
        2
 62
     0
340
17
144
0.18
309
CONTENTFORMAT_END
171
     0
 94
        6
 95
        1
302
GRIDFORMAT
  1
GRIDFORMAT_BEGIN
 90
        0
 91
        1
 62
     0
 92
       -2
340
0
 93
        0
 40
0.045
309
GRIDFORMAT_END
 95
        2
302
GRIDFORMAT
  1
GRIDFORMAT_BEGIN
 90
        0
 91
        1
 62
     0
 92
       -2
340
0
 93
        0
 40
0.045
309
GRIDFORMAT_END
 95
        4
302
GRIDFORMAT
  1
GRIDFORMAT_BEGIN
 90
        0
 91
        1
 62
     0
 92
       -2
340
0
 93
        0
 40
0.045
309
GRIDFORMAT_END
 95
        8
302
GRIDFORMAT
  1
GRIDFORMAT_BEGIN
 90
        0
 91
        1
 62
     0
 92
       -2
340
0
 93
        0
 40
0.045
309
GRIDFORMAT_END
 95
       16
302
GRIDFORMAT
  1
GRIDFORMAT_BEGIN
 90
        0
 91
        1
 62
     0
 92
       -2
340
0
 93
        0
 40
0.045
309
GRIDFORMAT_END
 95
       32
302
GRIDFORMAT
  1
GRIDFORMAT_BEGIN
 90
        0
 91
        1
 62
     0
 92
       -2
340
0
 93
        0
 40
0.045
309
GRIDFORMAT_END
309
TABLEFORMAT_END
  1
CELLSTYLE_BEGIN
 90
        3
 91
        2
300
_DATA
309
CELLSTYLE_END
  0
XRECORD
  5
1AE
102
{ACAD_REACTORS
330
1A5
102
}
330
1A5
100
AcDbXrecord
280
     1
102
ACAD_ROUNDTRIP_PRE2007_TABLESTYLE
 90
      512
 91
        0
  1

 92
      512
 93
        0
  2

 94
      512
 95
        0
  3

  0
ENDSEC
  0
EOF
