  0
SECTION
  2
HEADER
  9
$ACADVER
  1
AC1018
  9
$ACADMAINTVER
 70
   104
  9
$DWGCODEPAGE
  3
ANSI_1252
  9
$LASTSAVEDBY
  1
EARL
  9
$INSBASE
 10
0.0
 20
0.0
 30
0.0
  9
$EXTMIN
 10
-3.521755487849179
 20
-0.0018168604651163
 30
0.0
  9
$EXTMAX
 10
1.751637730640342
 20
5.615062441374051
 30
0.0
  9
$LIMMIN
 10
0.0
 20
0.0
  9
$LIMMAX
 10
0.0
 20
0.0
  9
$ORTHOMODE
 70
     0
  9
$REGENMODE
 70
     1
  9
$FILLMODE
 70
     1
  9
$QTEXTMODE
 70
     0
  9
$MIRRTEXT
 70
     1
  9
$LTSCALE
 40
1.0
  9
$ATTMODE
 70
     1
  9
$TEXTSIZE
 40
0.0
  9
$TRACEWID
 40
0.05
  9
$TEXTSTYLE
  7
Standard
  9
$CLAYER
  8
0
  9
$CELTYPE
  6
Continuous
  9
$CECOLOR
 62
   256
  9
$CELTSCALE
 40
1.0
  9
$DISPSILH
 70
     0
  9
$DIMSCALE
 40
1.0
  9
$DIMASZ
 40
0.18
  9
$DIMEXO
 40
0.0625
  9
$DIMDLI
 40
0.38
  9
$DIMRND
 40
0.0
  9
$DIMDLE
 40
0.0
  9
$DIMEXE
 40
0.18
  9
$DIMTP
 40
0.0
  9
$DIMTM
 40
0.0
  9
$DIMTXT
 40
0.18
  9
$DIMCEN
 40
0.09
  9
$DIMTSZ
 40
0.0
  9
$DIMTOL
 70
     0
  9
$DIMLIM
 70
     0
  9
$DIMTIH
 70
     1
  9
$DIMTOH
 70
     1
  9
$DIMSE1
 70
     0
  9
$DIMSE2
 70
     0
  9
$DIMTAD
 70
     0
  9
$DIMZIN
 70
     0
  9
$DIMBLK
  1

  9
$DIMASO
 70
     1
  9
$DIMSHO
 70
     1
  9
$DIMPOST
  1

  9
$DIMAPOST
  1

  9
$DIMALT
 70
     0
  9
$DIMALTD
 70
     2
  9
$DIMALTF
 40
25.4
  9
$DIMLFAC
 40
1.0
  9
$DIMTOFL
 70
     0
  9
$DIMTVP
 40
0.0
  9
$DIMTIX
 70
     0
  9
$DIMSOXD
 70
     0
  9
$DIMSAH
 70
     0
  9
$DIMBLK1
  1

  9
$DIMBLK2
  1

  9
$DIMSTYLE
  2
Standard
  9
$DIMCLRD
 70
     0
  9
$DIMCLRE
 70
     0
  9
$DIMCLRT
 70
     0
  9
$DIMTFAC
 40
1.0
  9
$DIMGAP
 40
0.09
  9
$DIMJUST
 70
     0
  9
$DIMSD1
 70
     0
  9
$DIMSD2
 70
     0
  9
$DIMTOLJ
 70
     1
  9
$DIMTZIN
 70
     0
  9
$DIMALTZ
 70
     0
  9
$DIMALTTZ
 70
     0
  9
$DIMUPT
 70
     0
  9
$DIMDEC
 70
     4
  9
$DIMTDEC
 70
     4
  9
$DIMALTU
 70
     2
  9
$DIMALTTD
 70
     2
  9
$DIMTXSTY
  7
Standard
  9
$DIMAUNIT
 70
     0
  9
$DIMADEC
 70
     0
  9
$DIMALTRND
 40
0.0
  9
$DIMAZIN
 70
     0
  9
$DIMDSEP
 70
    46
  9
$DIMATFIT
 70
     0
  9
$DIMFRAC
 70
     0
  9
$DIMLDRBLK
  1

  9
$DIMLUNIT
 70
     2
  9
$DIMLWD
 70
    -2
  9
$DIMLWE
 70
    -2
  9
$DIMTMOVE
 70
     0
  9
$LUNITS
 70
     2
  9
$LUPREC
 70
     4
  9
$SKETCHINC
 40
0.1
  9
$FILLETRAD
 40
0.0
  9
$AUNITS
 70
     0
  9
$AUPREC
 70
     0
  9
$MENU
  1
acad
  9
$ELEVATION
 40
0.0
  9
$PELEVATION
 40
0.0
  9
$THICKNESS
 40
0.0
  9
$LIMCHECK
 70
     0
  9
$CHAMFERA
 40
0.0
  9
$CHAMFERB
 40
0.0
  9
$CHAMFERC
 40
0.0
  9
$CHAMFERD
 40
0.0
  9
$SKPOLY
 70
     0
  9
$TDCREATE
 40
2455006.327997685
  9
$TDUCREATE
 40
2455006.494664352
  9
$TDUPDATE
 40
2455104.872986644
  9
$TDUUPDATE
 40
2455105.039653310
  9
$TDINDWG
 40
0.0018436574
  9
$TDUSRTIMER
 40
0.0018436574
  9
$USRTIMER
 70
     1
  9
$ANGBASE
 50
0.0
  9
$ANGDIR
 70
     0
  9
$PDMODE
 70
     0
  9
$PDSIZE
 40
0.0
  9
$PLINEWID
 40
0.0
  9
$SPLFRAME
 70
     0
  9
$SPLINETYPE
 70
     6
  9
$SPLINESEGS
 70
     8
  9
$HANDSEED
  5
1C8
  9
$SURFTAB1
 70
     6
  9
$SURFTAB2
 70
     6
  9
$SURFTYPE
 70
     6
  9
$SURFU
 70
     6
  9
$SURFV
 70
     6
  9
$UCSBASE
  2

  9
$UCSNAME
  2

  9
$UCSORG
 10
0.0
 20
0.0
 30
0.0
  9
$UCSXDIR
 10
1.0
 20
0.0
 30
0.0
  9
$UCSYDIR
 10
0.0
 20
1.0
 30
0.0
  9
$UCSORTHOREF
  2

  9
$UCSORTHOVIEW
 70
     0
  9
$UCSORGTOP
 10
0.0
 20
0.0
 30
0.0
  9
$UCSORGBOTTOM
 10
0.0
 20
0.0
 30
0.0
  9
$UCSORGLEFT
 10
0.0
 20
0.0
 30
0.0
  9
$UCSORGRIGHT
 10
0.0
 20
0.0
 30
0.0
  9
$UCSORGFRONT
 10
0.0
 20
0.0
 30
0.0
  9
$UCSORGBACK
 10
0.0
 20
0.0
 30
0.0
  9
$PUCSBASE
  2

  9
$PUCSNAME
  2

  9
$PUCSORG
 10
0.0
 20
0.0
 30
0.0
  9
$PUCSXDIR
 10
1.0
 20
0.0
 30
0.0
  9
$PUCSYDIR
 10
0.0
 20
1.0
 30
0.0
  9
$PUCSORTHOREF
  2

  9
$PUCSORTHOVIEW
 70
     0
  9
$PUCSORGTOP
 10
0.0
 20
0.0
 30
0.0
  9
$PUCSORGBOTTOM
 10
0.0
 20
0.0
 30
0.0
  9
$PUCSORGLEFT
 10
0.0
 20
0.0
 30
0.0
  9
$PUCSORGRIGHT
 10
0.0
 20
0.0
 30
0.0
  9
$PUCSORGFRONT
 10
0.0
 20
0.0
 30
0.0
  9
$PUCSORGBACK
 10
0.0
 20
0.0
 30
0.0
  9
$USERI1
 70
     0
  9
$USERI2
 70
     0
  9
$USERI3
 70
     0
  9
$USERI4
 70
     0
  9
$USERI5
 70
     0
  9
$USERR1
 40
0.0
  9
$USERR2
 40
0.0
  9
$USERR3
 40
0.0
  9
$USERR4
 40
0.0
  9
$USERR5
 40
0.0
  9
$WORLDVIEW
 70
     1
  9
$SHADEDGE
 70
     3
  9
$SHADEDIF
 70
    70
  9
$TILEMODE
 70
     0
  9
$MAXACTVP
 70
    16
  9
$PINSBASE
 10
0.0
 20
0.0
 30
0.0
  9
$PLIMCHECK
 70
     0
  9
$PEXTMIN
 10
-0.0204310145141093
 20
-0.0837173204912389
 30
-0.0015258207003583
  9
$PEXTMAX
 10
10.40956143275953
 20
7.987495219390243
 30
0.0000000349246037
  9
$PLIMMIN
 10
-0.3306119115190196
 20
-0.2812499079328949
  9
$PLIMMAX
 10
10.66938784818509
 20
8.218749851771214
  9
$UNITMODE
 70
     0
  9
$VISRETAIN
 70
     0
  9
$PLINEGEN
 70
     1
  9
$PSLTSCALE
 70
     0
  9
$TREEDEPTH
 70
  3020
  9
$CMLSTYLE
  2
Standard
  9
$CMLJUST
 70
     0
  9
$CMLSCALE
 40
1.0
  9
$PROXYGRAPHICS
 70
     0
  9
$MEASUREMENT
 70
     0
  9
$CELWEIGHT
370
     0
  9
$ENDCAPS
280
     0
  9
$JOINSTYLE
280
     0
  9
$LWDISPLAY
290
     0
  9
$INSUNITS
 70
     0
  9
$HYPERLINKBASE
  1

  9
$STYLESHEET
  1

  9
$XEDIT
290
     1
  9
$CEPSNTYPE
380
     0
  9
$PSTYLEMODE
290
     1
  9
$FINGERPRINTGUID
  2

  9
$VERSIONGUID
  2
{4FFA16BE-60F1-42C5-90E8-296FC534B507}
  9
$EXTNAMES
290
     1
  9
$PSVPSCALE
 40
0.0
  9
$OLESTARTUP
290
     0
  9
$SORTENTS
280
   127
  9
$INDEXCTL
280
     0
  9
$HIDETEXT
280
     0
  9
$XCLIPFRAME
290
     0
  9
$HALOGAP
280
     0
  9
$OBSCOLOR
 70
   257
  9
$OBSLTYPE
280
     0
  9
$INTERSECTIONDISPLAY
280
     0
  9
$INTERSECTIONCOLOR
 70
   257
  9
$DIMASSOC
280
     1
  9
$PROJECTNAME
  1

  0
ENDSEC
  0
SECTION
  2
CLASSES
  0
CLASS
  1
IMAGE
  2
AcDbRasterImage
  3
ISM
 90
     2175
 91
        0
280
     0
281
     1
  0
CLASS
  1
DICTIONARYVAR
  2
AcDbDictionaryVar
  3
ObjectDBX Classes
 90
        0
 91
        5
280
     0
281
     0
  0
CLASS
  1
RASTERVARIABLES
  2
AcDbRasterVariables
  3
ISM
 90
        0
 91
        0
280
     0
281
     0
  0
CLASS
  1
IMAGEDEF
  2
AcDbRasterImageDef
  3
ISM
 90
        0
 91
        0
280
     0
281
     0
  0
CLASS
  1
IMAGEDEF_REACTOR
  2
AcDbRasterImageDefReactor
  3
ISM
 90
        1
 91
        0
280
     0
281
     0
  0
CLASS
  1
IDBUFFER
  2
AcDbIdBuffer
  3
ObjectDBX Classes
 90
        0
 91
        0
280
     0
281
     0
  0
CLASS
  1
SPATIAL_FILTER
  2
AcDbSpatialFilter
  3
ObjectDBX Classes
 90
        0
 91
        0
280
     0
281
     0
  0
CLASS
  1
SORTENTSTABLE
  2
AcDbSortentsTable
  3
ObjectDBX Classes
 90
        0
 91
        1
280
     0
281
     0
  0
CLASS
  1
LAYER_INDEX
  2
AcDbLayerIndex
  3
ObjectDBX Classes
 90
        0
 91
        0
280
     0
281
     0
  0
CLASS
  1
SPATIAL_INDEX
  2
AcDbSpatialIndex
  3
ObjectDBX Classes
 90
        0
 91
        0
280
     0
281
     0
  0
CLASS
  1
OBJECT_PTR
  2
CAseDLPNTableRecord
  3
"ASE-LPNTableRecord"
 90
        1
 91
        0
280
     0
281
     0
  0
CLASS
  1
PLOTSETTINGS
  2
AcDbPlotSettings
  3
ObjectDBX Classes
 90
        0
 91
        0
280
     0
281
     0
  0
CLASS
  1
ACDBDICTIONARYWDFLT
  2
AcDbDictionaryWithDefault
  3
ObjectDBX Classes
 90
        0
 91
        1
280
     0
281
     0
  0
CLASS
  1
WIPEOUT
  2
AcDbWipeout
  3
"WipeOut|Product Desc: Object Enabler for WipeOut entity                        |Company: Autodesk, Inc.                        |WEB Address: www.autodesk.com"
 90
     2175
 91
        0
280
     0
281
     1
  0
CLASS
  1
WIPEOUTVARIABLES
  2
AcDbWipeoutVariables
  3
"WipeOut|Product Desc:     WipeOut Dbx Application|Company:          Autodesk, Inc.|WEB Address:      www.autodesk.com"
 90
        0
 91
        1
280
     0
281
     0
  0
CLASS
  1
RTEXT
  2
RText
  3
RText|AutoCAD Express Tool|expresstools@autodesk.com
 90
        0
 91
        0
280
     0
281
     1
  0
CLASS
  1
ARCALIGNEDTEXT
  2
AcDbArcAlignedText
  3
ATEXT|AutoCAD Express Tool|expresstools@autodesk.com
 90
        0
 91
        0
280
     0
281
     1
  0
CLASS
  1
MATERIAL
  2
AcDbMaterial
  3
ObjectDBX Classes
 90
     1153
 91
        3
280
     0
281
     0
  0
CLASS
  1
VISUALSTYLE
  2
AcDbVisualStyle
  3
ObjectDBX Classes
 90
     4095
 91
       16
280
     0
281
     0
  0
CLASS
  1
TABLESTYLE
  2
AcDbTableStyle
  3
ObjectDBX Classes
 90
     4095
 91
        1
280
     0
281
     0
  0
CLASS
  1
SCALE
  2
AcDbScale
  3
ObjectDBX Classes
 90
     1153
 91
       33
280
     0
281
     0
  0
CLASS
  1
MLEADERSTYLE
  2
AcDbMLeaderStyle
  3
ACDB_MLEADERSTYLE_CLASS
 90
     4095
 91
        1
280
     0
281
     0
  0
CLASS
  1
CELLSTYLEMAP
  2
AcDbCellStyleMap
  3
ObjectDBX Classes
 90
     1152
 91
        2
280
     0
281
     0
  0
ENDSEC
  0
SECTION
  2
TABLES
  0
TABLE
  2
VPORT
  5
7
330
0
100
AcDbSymbolTable
 70
     1
  0
VPORT
  5
15
330
7
100
AcDbSymbolTableRecord
100
AcDbViewportTableRecord
  2
*ACTIVE
 70
     0
 10
0.0
 20
0.0
 11
1.0
 21
1.0
 12
12.11780667605996
 22
4.579183999999999
 13
0.0
 23
0.0
 14
1.0
 24
1.0
 15
0.0
 25
0.0
 16
0.0
 26
0.0
 36
1.0
 17
0.0
 27
0.0
 37
0.0
 40
9.158369
 41
1.895442359249329
 42
50.0
 43
0.0
 44
0.0
 50
0.0
 51
0.0
 71
     0
 72
   100
 73
     1
 74
     1
 75
     0
 76
     0
 77
     0
 78
     0
281
     0
 65
     0
110
0.0
120
0.0
130
0.0
111
1.0
121
0.0
131
0.0
112
0.0
122
1.0
132
0.0
 79
     0
146
0.0
  0
ENDTAB
  0
TABLE
  2
LTYPE
  5
4
330
0
100
AcDbSymbolTable
 70
     5
  0
LTYPE
  5
11
330
4
100
AcDbSymbolTableRecord
100
AcDbLinetypeTableRecord
  2
ByBlock
 70
     0
  3

 72
    65
 73
     0
 40
0.0
  0
LTYPE
  5
12
330
4
100
AcDbSymbolTableRecord
100
AcDbLinetypeTableRecord
  2
ByLayer
 70
     0
  3

 72
    65
 73
     0
 40
0.0
  0
LTYPE
  5
13
330
4
100
AcDbSymbolTableRecord
100
AcDbLinetypeTableRecord
  2
Continuous
 70
     0
  3
Solid line
 72
    65
 73
     0
 40
0.0
  0
LTYPE
  5
24
330
4
100
AcDbSymbolTableRecord
100
AcDbLinetypeTableRecord
  2
solid
 70
     0
  3

 72
    65
 73
     0
 40
0.0
  0
LTYPE
  5
25
330
4
100
AcDbSymbolTableRecord
100
AcDbLinetypeTableRecord
  2
dashed
 70
     0
  3

 72
    65
 73
     0
 40
0.0
  0
LTYPE
  5
26
330
4
100
AcDbSymbolTableRecord
100
AcDbLinetypeTableRecord
  2
center
 70
     0
  3

 72
    65
 73
     0
 40
0.0
  0
ENDTAB
  0
TABLE
  2
LAYER
  5
2
330
0
100
AcDbSymbolTable
 70
     3
  0
LAYER
  5
14
102
{ACAD_XDICTIONARY
360
18D
102
}
330
2
100
AcDbSymbolTableRecord
100
AcDbLayerTableRecord
  2
0
 70
     0
 62
     7
  6
Continuous
370
    -3
390
1D
  0
LAYER
  5
27
102
{ACAD_XDICTIONARY
360
18F
102
}
330
2
100
AcDbSymbolTableRecord
100
AcDbLayerTableRecord
  2
1
 70
     0
 62
     1
  6
solid
370
    -3
390
1D
  0
LAYER
  5
127
102
{ACAD_XDICTIONARY
360
191
102
}
330
2
100
AcDbSymbolTableRecord
100
AcDbLayerTableRecord
  2
0
 70
     0
 62
     1
  6
solid
370
    -3
390
1D
  0
ENDTAB
  0
TABLE
  2
STYLE
  5
3
330
0
100
AcDbSymbolTable
 70
     2
  0
STYLE
  5
17
330
3
100
AcDbSymbolTableRecord
100
AcDbTextStyleTableRecord
  2
Standard
 70
     0
 40
0.0
 41
1.0
 50
0.0
 71
     0
 42
0.0
  3
txt
  4

  0
ENDTAB
  0
TABLE
  2
VIEW
  5
5
330
0
100
AcDbSymbolTable
 70
     0
  0
ENDTAB
  0
TABLE
  2
UCS
  5
6
330
0
100
AcDbSymbolTable
 70
     0
  0
ENDTAB
  0
TABLE
  2
APPID
  5
8
330
0
100
AcDbSymbolTable
 70
     3
  0
APPID
  5
16
330
8
100
AcDbSymbolTableRecord
100
AcDbRegAppTableRecord
  2
ACAD
 70
     0
  0
APPID
  5
15C
330
8
100
AcDbSymbolTableRecord
100
AcDbRegAppTableRecord
  2
ACAD_PSEXT
 70
     0
  0
APPID
  5
186
330
8
100
AcDbSymbolTableRecord
100
AcDbRegAppTableRecord
  2
ACAD_MLEADERVER
 70
     0
  0
ENDTAB
  0
TABLE
  2
DIMSTYLE
  5
9
330
0
100
AcDbSymbolTable
 70
     3
100
AcDbDimStyleTable
 71
     1
340
18
  0
DIMSTYLE
105
18
102
{ACAD_REACTORS
330
C6
102
}
330
9
100
AcDbSymbolTableRecord
100
AcDbDimStyleTableRecord
  2
Standard
 70
     0
289
     0
340
17
  0
ENDTAB
  0
TABLE
  2
BLOCK_RECORD
  5
1
330
0
100
AcDbSymbolTable
 70
     4
  0
BLOCK_RECORD
  5
A
102
{ACAD_XDICTIONARY
360
1A2
102
}
330
1
100
AcDbSymbolTableRecord
100
AcDbBlockTableRecord
  2
*MODEL_SPACE
340
20
  0
BLOCK_RECORD
  5
B
330
1
100
AcDbSymbolTableRecord
100
AcDbBlockTableRecord
  2
*PAPER_SPACE
340
21
  0
BLOCK_RECORD
  5
B1
330
1
100
AcDbSymbolTableRecord
100
AcDbBlockTableRecord
  2
*D0
340
0
  0
BLOCK_RECORD
  5
BC
330
1
100
AcDbSymbolTableRecord
100
AcDbBlockTableRecord
  2
*D1
340
0
  0
ENDTAB
  0
ENDSEC
  0
SECTION
  2
BLOCKS
  0
BLOCK
  5
D
330
A
100
AcDbEntity
  8
0
100
AcDbBlockBegin
  2
*MODEL_SPACE
 70
     0
 10
0.0
 20
0.0
 30
0.0
  3
*MODEL_SPACE
  1

  0
ENDBLK
  5
E
330
A
100
AcDbEntity
  8
0
100
AcDbBlockEnd
  0
BLOCK
  5
F
330
B
100
AcDbEntity
 67
     1
  8
0
100
AcDbBlockBegin
  2
*PAPER_SPACE
 70
     0
 10
0.0
 20
0.0
 30
0.0
  3
*PAPER_SPACE
  1

  0
ENDBLK
  5
10
330
B
100
AcDbEntity
 67
     1
  8
0
100
AcDbBlockEnd
  0
BLOCK
  5
B2
330
B1
100
AcDbEntity
  8
1
  6
solid
 62
     7
100
AcDbBlockBegin
  2
*D0
 70
     0
 10
0.0
 20
0.0
 30
0.0
  3
*D0
  1

  0
LINE
  5
B3
330
B1
100
AcDbEntity
  8
1
  6
solid
 62
     7
100
AcDbLine
 10
-3.521755456924438
 20
0.4372532963752747
 30
0.0
 11
-3.521755456924438
 21
0.2165556626046464
 31
0.0
  0
LINE
  5
B4
330
B1
100
AcDbEntity
  8
1
  6
solid
 62
     7
100
AcDbLine
 10
-2.459255456924438
 20
0.4372532963752747
 30
0.0
 11
-2.459255456924438
 21
0.2165556626046464
 31
0.0
  0
LINE
  5
B5
330
B1
100
AcDbEntity
  8
1
  6
solid
 62
     7
100
AcDbLine
 10
-3.521755456924438
 20
0.2790556626046464
 30
0.0
 11
-3.216990751042085
 21
0.2790556626046464
 31
0.0
  0
LINE
  5
B6
330
B1
100
AcDbEntity
  8
1
  6
solid
 62
     7
100
AcDbLine
 10
-2.459255456924438
 20
0.2790556626046464
 30
0.0
 11
-2.764020162806791
 21
0.2790556626046464
 31
0.0
  0
MTEXT
  5
B7
330
B1
100
AcDbEntity
  8
1
  6
solid
 62
     7
100
AcDbMText
 10
-2.990505456924438
 20
0.2790556626046464
 30
0.0
 40
0.125
 41
0.0
 71
     5
 72
     1
  1
{\H0.125000;1 1/16}
 73
     1
 44
1.0
  0
SOLID
  5
B8
330
B1
100
AcDbEntity
  8
1
  6
solid
 62
     7
100
AcDbTrace
 10
-3.496755456924438
 20
0.2915556626046465
 30
0.0
 11
-3.496755456924438
 21
0.2665556626046465
 31
0.0
 12
-3.521755456924438
 22
0.2790556626046464
 32
0.0
 13
-3.521755456924438
 23
0.2790556626046464
 33
0.0
  0
SOLID
  5
B9
330
B1
100
AcDbEntity
  8
1
  6
solid
 62
     7
100
AcDbTrace
 10
-2.484255456924438
 20
0.2665556626046465
 30
0.0
 11
-2.484255456924438
 21
0.2915556626046465
 31
0.0
 12
-2.459255456924438
 22
0.2790556626046464
 32
0.0
 13
-2.459255456924438
 23
0.2790556626046464
 33
0.0
  0
ENDBLK
  5
BA
330
B1
100
AcDbEntity
  8
1
  6
solid
 62
     7
100
AcDbBlockEnd
  0
BLOCK
  5
BD
330
BC
100
AcDbEntity
  8
1
  6
solid
 62
     7
100
AcDbBlockBegin
  2
*D1
 70
     0
 10
0.0
 20
0.0
 30
0.0
  3
*D1
  1

  0
LINE
  5
BE
330
BC
100
AcDbEntity
  8
1
  6
solid
 62
     7
100
AcDbLine
 10
-2.334255456924438
 20
0.5622532963752746
 30
0.0
 11
-0.9577891593144588
 21
0.5622532963752738
 31
0.0
  0
LINE
  5
BF
330
BC
100
AcDbEntity
  8
1
  6
solid
 62
     7
100
AcDbLine
 10
-2.334255456924438
 20
5.062253475189208
 30
0.0
 11
-0.9577891593144558
 21
5.062253475189208
 31
0.0
  0
LINE
  5
C0
330
BC
100
AcDbEntity
  8
1
  6
solid
 62
     7
100
AcDbLine
 10
-1.020289159314458
 20
0.5622532963752738
 30
0.0
 11
-1.020289159314457
 21
2.652380789628394
 31
0.0
  0
LINE
  5
C1
330
BC
100
AcDbEntity
  8
1
  6
solid
 62
     7
100
AcDbLine
 10
-1.020289159314455
 20
5.062253475189208
 30
0.0
 11
-1.020289159314457
 21
2.972125981936087
 31
0.0
  0
MTEXT
  5
C2
330
BC
100
AcDbEntity
  8
1
  6
solid
 62
     7
100
AcDbMText
 10
-1.020289159314457
 20
2.81225338578224
 30
0.0
 40
0.125
 41
0.0
 71
     5
 72
     1
  1
{\H0.125000;4 1/2}
 73
     1
 44
1.0
  0
SOLID
  5
C3
330
BC
100
AcDbEntity
  8
1
  6
solid
 62
     7
100
AcDbTrace
 10
-1.032789159314459
 20
0.5872532963752737
 30
0.0
 11
-1.007789159314459
 21
0.587253296375274
 31
0.0
 12
-1.020289159314458
 22
0.5622532963752738
 32
0.0
 13
-1.020289159314458
 23
0.5622532963752738
 33
0.0
  0
SOLID
  5
C4
330
BC
100
AcDbEntity
  8
1
  6
solid
 62
     7
100
AcDbTrace
 10
-1.007789159314455
 20
5.037253475189207
 30
0.0
 11
-1.032789159314455
 21
5.037253475189207
 31
0.0
 12
-1.020289159314455
 22
5.062253475189208
 32
0.0
 13
-1.020289159314455
 23
5.062253475189208
 33
0.0
  0
ENDBLK
  5
C5
330
BC
100
AcDbEntity
  8
1
  6
solid
 62
     7
100
AcDbBlockEnd
  0
ENDSEC
  0
SECTION
  2
ENTITIES
  0
ARC
  5
28
330
A
100
AcDbEntity
  8
1
  6
solid
 62
     7
100
AcDbCircle
 10
0.6892190576537196
 20
2.001762652685407
 30
0.0
 40
0.363210015407036
100
AcDbArc
 50
316.9094495371423
 51
365.4444863526193
  0
ARC
  5
29
330
A
100
AcDbEntity
  8
1
  6
solid
 62
     7
100
AcDbCircle
 10
7.538602327845732
 20
2.04437675352157
 30
0.0
 40
6.487816888678684
100
AcDbArc
 50
178.8361299381219
 51
180.0719956043091
  0
LINE
  5
2A
330
A
100
AcDbEntity
  8
1
  6
solid
 62
     7
100
AcDbLine
 10
1.052123881906996
 20
2.176157122580845
 30
0.0
 11
1.12714395856769
 21
2.189137786061688
 31
0.0
  0
ARC
  5
2B
330
A
100
AcDbEntity
  8
1
  6
solid
 62
     7
100
AcDbCircle
 10
1.335919231737075
 20
2.2895474575774
 30
0.0
 40
0.2316662073992703
100
AcDbArc
 50
128.0852962343639
 51
205.6850569336517
  0
LINE
  5
2C
330
A
100
AcDbEntity
  8
1
  6
solid
 62
     7
100
AcDbLine
 10
1.193019592926807
 20
2.471890436561627
 30
0.0
 11
1.191675423884431
 21
2.575896624354887
 31
0.0
  0
ARC
  5
2D
330
A
100
AcDbEntity
  8
1
  6
solid
 62
     7
100
AcDbCircle
 10
0.9170394060033423
 20
3.092263528001617
 30
0.0
 40
0.5848587524965703
100
AcDbArc
 50
298.0068323158585
 51
351.0587221140407
  0
ARC
  5
2E
330
A
100
AcDbEntity
  8
1
  6
solid
 62
     7
100
AcDbCircle
 10
-0.9051548986837339
 20
3.241957613493761
 30
0.0
 40
2.411975592224543
100
AcDbArc
 50
354.2752373209449
 51
366.624641654719
  0
ARC
  5
2F
330
A
100
AcDbEntity
  8
1
  6
solid
 62
     7
100
AcDbCircle
 10
0.3628737447785446
 20
3.352871610716155
 30
0.0
 40
1.140189682070568
100
AcDbArc
 50
8.439610387744799
 51
38.09879717682748
  0
LINE
  5
30
330
A
100
AcDbEntity
  8
1
  6
solid
 62
     7
100
AcDbLine
 10
1.260143670265104
 20
4.056390830506518
 30
0.0
 11
1.25447015883472
 21
4.164228521838592
 31
0.0
  0
ARC
  5
31
330
A
100
AcDbEntity
  8
1
  6
solid
 62
     7
100
AcDbCircle
 10
1.358789919134499
 20
4.3657088268615
 30
0.0
 40
0.2268852698538531
100
AcDbArc
 50
85.87430711315787
 51
242.6263590259444
  0
ARC
  5
32
330
A
100
AcDbEntity
  8
1
  6
solid
 62
     7
100
AcDbCircle
 10
1.588733459106366
 20
1.355213920499565
 30
0.0
 40
0.7490254444476926
100
AcDbArc
 50
147.8648141900653
 51
194.08044971344
  0
LINE
  5
33
330
A
100
AcDbEntity
  8
1
  6
solid
 62
     7
100
AcDbLine
 10
0.6891377281289315
 20
0.4229879686093847
 30
0.0
 11
0.6891377281289315
 21
1.172987968609384
 31
0.0
  0
LINE
  5
34
330
A
100
AcDbEntity
  8
1
  6
solid
 62
     7
100
AcDbLine
 10
1.751637728128931
 20
0.4229879686093847
 30
0.0
 11
0.6891377281289315
 21
0.4229879686093847
 31
0.0
  0
LINE
  5
35
330
A
100
AcDbEntity
  8
1
  6
solid
 62
     7
100
AcDbLine
 10
1.68086960907653
 20
4.922987968609384
 30
0.0
 11
1.751637728128931
 21
4.922987968609384
 31
0.0
  0
LINE
  5
36
330
A
100
AcDbEntity
  8
1
  6
solid
 62
     7
100
AcDbLine
 10
0.6891377281289315
 20
0.4229879686093847
 30
0.0
 11
0.6891377281289315
 21
1.172987968644174
 31
0.0
  0
LINE
  5
37
330
A
100
AcDbEntity
  8
1
  6
solid
 62
     7
100
AcDbLine
 10
0.6891377281289311
 20
1.172987968644174
 30
0.0
 11
0.8622124209385372
 21
1.172987968644174
 31
0.0
  0
LINE
  5
38
330
A
100
AcDbEntity
  8
1
  6
solid
 62
     7
100
AcDbLine
 10
1.396397633032493
 20
4.688233967908886
 30
0.0
 11
1.68086960907653
 21
4.922987968609384
 31
0.0
  0
LINE
  5
39
330
A
100
AcDbEntity
  8
1
  6
solid
 62
     7
100
AcDbLine
 10
1.375113098012655
 20
4.592006224645644
 30
0.0
 11
1.373707108201765
 21
4.638123963516438
 31
0.0
  0
ARC
  5
3A
330
A
100
AcDbEntity
  8
1
  6
solid
 62
     7
100
AcDbCircle
 10
1.436178082966896
 20
4.640028513829327
 30
0.0
 40
0.0625
100
AcDbArc
 50
129.5303747117208
 51
181.7462334442765
  0
LINE
  5
3B
330
A
100
AcDbEntity
  8
1
  6
solid
 62
     7
100
AcDbLine
 10
1.751637730640342
 20
4.922987954947426
 30
0.0
 11
1.751637730640342
 21
4.047987954947426
 31
0.0
  0
LINE
  5
3C
330
A
100
AcDbEntity
  8
1
  6
solid
 62
     7
100
AcDbLine
 10
1.751637730640342
 20
0.4229879549474261
 30
0.0
 11
1.751637730640342
 21
1.297987954947426
 31
0.0
  0
LINE
  5
3D
330
A
100
AcDbEntity
  8
1
  6
solid
 62
     7
100
AcDbLine
 10
1.720387730640342
 20
4.047987954947426
 30
0.0
 11
1.751637730640342
 21
4.047987954947426
 31
0.0
  0
ARC
  5
3E
330
A
100
AcDbEntity
  8
1
  6
solid
 62
     7
100
AcDbCircle
 10
1.720387730640342
 20
3.985487954947426
 30
0.0
 40
0.0625
100
AcDbArc
 50
90.0
 51
180.0
  0
LINE
  5
3F
330
A
100
AcDbEntity
  8
1
  6
solid
 62
     7
100
AcDbLine
 10
1.751637730640342
 20
1.297987954947426
 30
0.0
 11
1.720387730640342
 21
1.297987954947426
 31
0.0
  0
LINE
  5
40
330
A
100
AcDbEntity
  8
1
  6
solid
 62
     7
100
AcDbLine
 10
1.657887730640342
 20
1.360487954947426
 30
0.0
 11
1.657887730640342
 21
3.985487954947426
 31
0.0
  0
ARC
  5
41
330
A
100
AcDbEntity
  8
1
  6
solid
 62
     7
100
AcDbCircle
 10
1.720387730640342
 20
1.360487954947426
 30
0.0
 40
0.0625
100
AcDbArc
 50
180.0
 51
269.9999999999999
  0
ARC
  5
42
330
A
100
AcDbEntity
  8
1
  6
solid
 62
     7
100
AcDbCircle
 10
-0.1420736809515648
 20
2.693837125450074
 30
0.0
 40
0.363210015407036
100
AcDbArc
 50
316.9094495371423
 51
365.4444863526193
  0
ARC
  5
43
330
A
100
AcDbEntity
  8
1
  6
solid
 62
     7
100
AcDbCircle
 10
6.707309589240448
 20
2.736451226286237
 30
0.0
 40
6.487816888678684
100
AcDbArc
 50
178.8361299381219
 51
180.0719956043091
  0
LINE
  5
44
330
A
100
AcDbEntity
  8
1
  6
solid
 62
     7
100
AcDbLine
 10
0.2208311433017118
 20
2.868231595345513
 30
0.0
 11
0.2958512199624059
 21
2.881212258826355
 31
0.0
  0
ARC
  5
45
330
A
100
AcDbEntity
  8
1
  6
solid
 62
     7
100
AcDbCircle
 10
0.5046264931317915
 20
2.981621930342067
 30
0.0
 40
0.2316662073992703
100
AcDbArc
 50
128.0852962343639
 51
205.6850569336517
  0
LINE
  5
46
330
A
100
AcDbEntity
  8
1
  6
solid
 62
     7
100
AcDbLine
 10
0.3617268543215233
 20
3.163964909326295
 30
0.0
 11
0.3603826852791472
 21
3.267971097119554
 31
0.0
  0
ARC
  5
47
330
A
100
AcDbEntity
  8
1
  6
solid
 62
     7
100
AcDbCircle
 10
0.0857466673980581
 20
3.784338000766285
 30
0.0
 40
0.5848587524965703
100
AcDbArc
 50
298.0068323158585
 51
351.0587221140407
  0
ARC
  5
48
330
A
100
AcDbEntity
  8
1
  6
solid
 62
     7
100
AcDbCircle
 10
-1.736447637289018
 20
3.934032086258429
 30
0.0
 40
2.411975592224543
100
AcDbArc
 50
354.2752373209449
 51
366.624641654719
  0
ARC
  5
49
330
A
100
AcDbEntity
  8
1
  6
solid
 62
     7
100
AcDbCircle
 10
-0.4684189938267398
 20
4.044946083480823
 30
0.0
 40
1.140189682070568
100
AcDbArc
 50
8.439610387744799
 51
38.09879717682748
  0
LINE
  5
4A
330
A
100
AcDbEntity
  8
1
  6
solid
 62
     7
100
AcDbLine
 10
0.4288509316598202
 20
4.748465303271185
 30
0.0
 11
0.4231774202294356
 21
4.856302994603259
 31
0.0
  0
ARC
  5
4B
330
A
100
AcDbEntity
  8
1
  6
solid
 62
     7
100
AcDbCircle
 10
0.5274971805292155
 20
5.057783299626168
 30
0.0
 40
0.2268852698538531
100
AcDbArc
 50
85.87430711315787
 51
242.6263590259444
  0
ARC
  5
4C
330
A
100
AcDbEntity
  8
1
  6
solid
 62
     7
100
AcDbCircle
 10
0.7574407205010823
 20
2.047288393264232
 30
0.0
 40
0.7490254444476926
100
AcDbArc
 50
147.8648141900653
 51
194.08044971344
  0
LINE
  5
4D
330
A
100
AcDbEntity
  8
1
  6
solid
 62
     7
100
AcDbLine
 10
-0.1421550104763529
 20
1.115062441374051
 30
0.0
 11
-0.1421550104763529
 21
1.865062441374051
 31
0.0
  0
LINE
  5
4E
330
A
100
AcDbEntity
  8
1
  6
solid
 62
     7
100
AcDbLine
 10
0.8495768704712457
 20
5.615062441374051
 30
0.0
 11
0.920344989523647
 21
5.615062441374051
 31
0.0
  0
LINE
  5
4F
330
A
100
AcDbEntity
  8
1
  6
solid
 62
     7
100
AcDbLine
 10
-0.1421550104763529
 20
1.115062441374051
 30
0.0
 11
-0.1421550104763529
 21
1.865062441408841
 31
0.0
  0
LINE
  5
50
330
A
100
AcDbEntity
  8
1
  6
solid
 62
     7
100
AcDbLine
 10
-0.1421550104763534
 20
1.865062441408841
 30
0.0
 11
0.0309196823332529
 21
1.865062441408841
 31
0.0
  0
LINE
  5
51
330
A
100
AcDbEntity
  8
1
  6
solid
 62
     7
100
AcDbLine
 10
0.5651048944272095
 20
5.380308440673553
 30
0.0
 11
0.849576870471246
 21
5.615062441374051
 31
0.0
  0
LINE
  5
52
330
A
100
AcDbEntity
  8
1
  6
solid
 62
     7
100
AcDbLine
 10
0.5438203594073708
 20
5.284080697410312
 30
0.0
 11
0.5424143695964812
 21
5.330198436281105
 31
0.0
  0
ARC
  5
53
330
A
100
AcDbEntity
  8
1
  6
solid
 62
     7
100
AcDbCircle
 10
0.6048853443616125
 20
5.332102986593994
 30
0.0
 40
0.0625
100
AcDbArc
 50
129.5303747117208
 51
181.7462334442765
  0
LINE
  5
54
330
A
100
AcDbEntity
  8
1
  6
solid
 62
     7
100
AcDbLine
 10
0.9203450083732604
 20
5.615062236785888
 30
0.0
 11
1.751637697219848
 21
4.922987937927246
 31
0.0
  0
LINE
  5
55
330
A
100
AcDbEntity
  8
1
  6
solid
 62
     7
100
AcDbLine
 10
0.8495768904685974
 20
5.615062236785888
 30
0.0
 11
1.680869579315185
 21
4.922987937927246
 31
0.0
  0
LINE
  5
56
330
A
100
AcDbEntity
  8
1
  6
solid
 62
     7
100
AcDbLine
 10
0.5438203811645508
 20
5.284080505371093
 30
0.0
 11
1.375113129615783
 21
4.592006206512451
 31
0.0
  0
LINE
  5
57
330
A
100
AcDbEntity
  8
1
  6
solid
 62
     7
100
AcDbLine
 10
0.4231774210929871
 20
4.856303215026855
 30
0.0
 11
1.179556739881948
 21
4.226595947760827
 31
0.0
  0
LINE
  5
58
330
A
100
AcDbEntity
  8
1
  6
solid
 62
     7
100
AcDbLine
 10
0.4288509786128998
 20
4.748465061187744
 30
0.0
 11
1.260143637657165
 21
4.056390762329101
 31
0.0
  0
LINE
  5
59
330
A
100
AcDbEntity
  8
1
  6
solid
 62
     7
100
AcDbLine
 10
0.3603827953338623
 20
3.267971038818359
 30
0.0
 11
1.191675424575805
 21
2.575896739959716
 31
0.0
  0
LINE
  5
5A
330
A
100
AcDbEntity
  8
1
  6
solid
 62
     7
100
AcDbLine
 10
0.3617269098758697
 20
3.163964748382568
 30
0.0
 11
1.19301962852478
 21
2.471890449523925
 31
0.0
  0
LINE
  5
5B
330
A
100
AcDbEntity
  8
1
  6
solid
 62
     7
100
AcDbLine
 10
0.2958512306213379
 20
2.88121223449707
 30
0.0
 11
1.12714395690244
 21
2.189137715677104
 31
0.0
  0
LINE
  5
5C
330
A
100
AcDbEntity
  8
1
  6
solid
 62
     7
100
AcDbLine
 10
0.2208311408758163
 20
2.868231534957885
 30
0.0
 11
1.05212390422821
 21
2.176157236099243
 31
0.0
  0
LINE
  5
5D
330
A
100
AcDbEntity
  8
1
  6
solid
 62
     7
100
AcDbLine
 10
0.8622124195098876
 20
1.172987937927246
 30
0.0
 11
0.0309196822345257
 21
1.865062475204467
 31
0.0
  0
LINE
  5
5E
330
A
100
AcDbEntity
  8
1
  6
solid
 62
     7
100
AcDbLine
 10
0.6891377568244934
 20
1.172987937927246
 30
0.0
 11
-0.1421550065279007
 21
1.865062475204467
 31
0.0
  0
LINE
  5
5F
330
A
100
AcDbEntity
  8
1
  6
solid
 62
     7
100
AcDbLine
 10
0.6891377568244934
 20
0.4229879677295685
 30
0.0
 11
-0.1421550065279007
 21
1.115062475204467
 31
0.0
  0
LINE
  5
60
330
A
100
AcDbEntity
  8
1
  6
solid
 62
     7
100
AcDbLine
 10
0.97849587280608
 20
0.9324083882189468
 30
0.0
 11
0.97849587280608
 21
0.9015217603119701
 31
0.0
  0
LINE
  5
61
330
A
100
AcDbEntity
  8
1
  6
solid
 62
     7
100
AcDbLine
 10
0.97849587280608
 20
0.9015217603119701
 30
0.0
 11
0.8749348262944522
 21
0.9015217603119701
 31
0.0
  0
SPLINE
  5
62
330
A
100
AcDbEntity
  8
1
  6
solid
 62
     7
100
AcDbSpline
210
0.0
220
0.0
230
1.0
 70
     8
 71
     2
 72
     7
 73
     4
 74
     0
 42
0.0000000001
 43
0.0000000001
 40
0.0
 40
0.0
 40
0.0
 40
1.0
 40
2.0
 40
2.0
 40
2.0
 10
0.8749348262944522
 20
0.9015217603119701
 30
0.0
 10
0.876013896061894
 20
0.9166333882189467
 30
0.0
 10
0.8931220355967777
 20
0.9441095510096443
 30
0.0
 10
0.9172435472246846
 20
0.9671892021724351
 30
0.0
  0
SPLINE
  5
63
330
A
100
AcDbEntity
  8
1
  6
solid
 62
     7
100
AcDbSpline
210
0.0
220
0.0
230
1.0
 70
     8
 71
     2
 72
     6
 73
     3
 74
     0
 42
0.0000000001
 43
0.0000000001
 40
0.0
 40
0.0
 40
0.0
 40
1.0
 40
1.0
 40
1.0
 10
0.9172435472246846
 20
0.9671892021724351
 30
0.0
 10
0.9370057565270103
 20
0.985525248684063
 30
0.0
 10
0.9411790123409637
 20
0.9917014114747606
 30
0.0
  0
SPLINE
  5
64
330
A
100
AcDbEntity
  8
1
  6
solid
 62
     7
100
AcDbSpline
210
0.0
220
0.0
230
1.0
 70
     8
 71
     2
 72
     6
 73
     3
 74
     0
 42
0.0000000001
 43
0.0000000001
 40
0.0
 40
0.0
 40
0.0
 40
1.0
 40
1.0
 40
1.0
 10
0.9411790123409637
 20
0.9917014114747606
 30
0.0
 10
0.9476092448991034
 20
1.000767109149179
 30
0.0
 10
0.9476092448991034
 20
1.009702574265458
 30
0.0
  0
SPLINE
  5
65
330
A
100
AcDbEntity
  8
1
  6
solid
 62
     7
100
AcDbSpline
210
0.0
220
0.0
230
1.0
 70
     8
 71
     2
 72
     7
 73
     4
 74
     0
 42
0.0000000001
 43
0.0000000001
 40
0.0
 40
0.0
 40
0.0
 40
1.0
 40
2.0
 40
2.0
 40
2.0
 10
0.9476092448991034
 20
1.009702574265458
 30
0.0
 10
0.9476092448991034
 20
1.019878155660807
 30
0.0
 10
0.937377849550266
 20
1.030518853335225
 30
0.0
 10
0.9285354076898009
 20
1.030518853335225
 30
0.0
  0
SPLINE
  5
66
330
A
100
AcDbEntity
  8
1
  6
solid
 62
     7
100
AcDbSpline
210
0.0
220
0.0
230
1.0
 70
     8
 71
     2
 72
     7
 73
     4
 74
     0
 42
0.0000000001
 43
0.0000000001
 40
0.0
 40
0.0
 40
0.0
 40
1.0
 40
2.0
 40
2.0
 40
2.0
 10
0.9285354076898009
 20
1.030518853335225
 30
0.0
 10
0.9203935472246847
 20
1.030518853335225
 30
0.0
 10
0.9099761053642195
 20
1.018972923102667
 30
0.0
 10
0.9094551751316615
 20
1.006899667288714
 30
0.0
  0
LINE
  5
67
330
A
100
AcDbEntity
  8
1
  6
solid
 62
     7
100
AcDbLine
 10
0.9094551751316615
 20
1.006899667288714
 30
0.0
 11
0.8785685472246846
 21
1.009423504498016
 31
0.0
  0
SPLINE
  5
68
330
A
100
AcDbEntity
  8
1
  6
solid
 62
     7
100
AcDbSpline
210
0.0
220
0.0
230
1.0
 70
     8
 71
     2
 72
     7
 73
     4
 74
     0
 42
0.0000000001
 43
0.0000000001
 40
0.0
 40
0.0
 40
0.0
 40
1.0
 40
2.0
 40
2.0
 40
2.0
 10
0.8785685472246846
 20
1.009423504498016
 30
0.0
 10
0.8809063379223591
 20
1.034989783567783
 30
0.0
 10
0.9084755239688707
 20
1.05777176031197
 30
0.0
 10
0.9296080821084055
 20
1.05777176031197
 30
0.0
  0
SPLINE
  5
69
330
A
100
AcDbEntity
  8
1
  6
solid
 62
     7
100
AcDbSpline
210
0.0
220
0.0
230
1.0
 70
     8
 71
     2
 72
     7
 73
     4
 74
     0
 42
0.0000000001
 43
0.0000000001
 40
0.0
 40
0.0
 40
0.0
 40
1.0
 40
2.0
 40
2.0
 40
2.0
 10
0.9296080821084055
 20
1.05777176031197
 30
0.0
 10
0.9520429658293359
 20
1.05777176031197
 30
0.0
 10
0.97849587280608
 20
1.033135713800342
 30
0.0
 10
0.97849587280608
 20
1.015060132404993
 30
0.0
  0
SPLINE
  5
6A
330
A
100
AcDbEntity
  8
1
  6
solid
 62
     7
100
AcDbSpline
210
0.0
220
0.0
230
1.0
 70
     8
 71
     2
 72
     7
 73
     4
 74
     0
 42
0.0000000001
 43
0.0000000001
 40
0.0
 40
0.0
 40
0.0
 40
1.0
 40
2.0
 40
2.0
 40
2.0
 10
0.97849587280608
 20
1.015060132404993
 30
0.0
 10
0.97849587280608
 20
1.005213039381737
 30
0.0
 10
0.970527849550266
 20
0.9861764114747607
 30
0.0
 10
0.9627580821084055
 20
0.9764037370561561
 30
0.0
  0
SPLINE
  5
6B
330
A
100
AcDbEntity
  8
1
  6
solid
 62
     7
100
AcDbSpline
210
0.0
220
0.0
230
1.0
 70
     8
 71
     2
 72
     8
 73
     5
 74
     0
 42
0.0000000001
 43
0.0000000001
 40
0.0
 40
0.0
 40
0.0
 40
1.0
 40
2.0
 40
3.0
 40
3.0
 40
3.0
 10
0.9627580821084055
 20
0.9764037370561561
 30
0.0
 10
0.9574005239688707
 20
0.969489783567784
 30
0.0
 10
0.9286470355967777
 20
0.9441653649631328
 30
0.0
 10
0.9213051751316614
 20
0.93624676031197
 30
0.0
 10
0.9191720355967778
 20
0.9324083882189468
 30
0.0
  0
LINE
  5
6C
330
A
100
AcDbEntity
  8
1
  6
solid
 62
     7
100
AcDbLine
 10
0.97849587280608
 20
0.9324083882189468
 30
0.0
 11
0.9191720355967778
 21
0.9324083882189468
 31
0.0
  0
LINE
  5
6D
330
A
100
AcDbEntity
  8
1
  6
solid
 62
     7
100
AcDbLine
 10
1.069949128620033
 20
0.9015217603119701
 30
0.0
 11
1.069949128620033
 21
0.9324083882189468
 31
0.0
  0
LINE
  5
6E
330
A
100
AcDbEntity
  8
1
  6
solid
 62
     7
100
AcDbLine
 10
1.069949128620033
 20
0.9324083882189468
 30
0.0
 11
1.00817587280608
 21
0.9324083882189468
 31
0.0
  0
LINE
  5
6F
330
A
100
AcDbEntity
  8
1
  6
solid
 62
     7
100
AcDbLine
 10
1.00817587280608
 20
0.9324083882189468
 30
0.0
 11
1.00817587280608
 21
0.9571438533352258
 31
0.0
  0
LINE
  5
70
330
A
100
AcDbEntity
  8
1
  6
solid
 62
     7
100
AcDbLine
 10
1.00817587280608
 20
0.9571438533352258
 30
0.0
 11
1.07388052396887
 21
1.055954899846853
 31
0.0
  0
LINE
  5
71
330
A
100
AcDbEntity
  8
1
  6
solid
 62
     7
100
AcDbLine
 10
1.07388052396887
 20
1.055954899846853
 30
0.0
 11
1.10083575652701
 21
1.055954899846853
 31
0.0
  0
LINE
  5
72
330
A
100
AcDbEntity
  8
1
  6
solid
 62
     7
100
AcDbLine
 10
1.10083575652701
 20
1.055954899846853
 30
0.0
 11
1.10083575652701
 21
0.9578444347305746
 31
0.0
  0
LINE
  5
73
330
A
100
AcDbEntity
  8
1
  6
solid
 62
     7
100
AcDbLine
 10
1.10083575652701
 20
0.9578444347305746
 30
0.0
 11
1.120821221643289
 21
0.9578444347305746
 31
0.0
  0
LINE
  5
74
330
A
100
AcDbEntity
  8
1
  6
solid
 62
     7
100
AcDbLine
 10
1.120821221643289
 20
0.9578444347305746
 30
0.0
 11
1.120821221643289
 21
0.9324083882189468
 31
0.0
  0
LINE
  5
75
330
A
100
AcDbEntity
  8
1
  6
solid
 62
     7
100
AcDbLine
 10
1.120821221643289
 20
0.9324083882189468
 30
0.0
 11
1.10083575652701
 21
0.9324083882189468
 31
0.0
  0
LINE
  5
76
330
A
100
AcDbEntity
  8
1
  6
solid
 62
     7
100
AcDbLine
 10
1.10083575652701
 20
0.9324083882189468
 30
0.0
 11
1.10083575652701
 21
0.9015217603119701
 31
0.0
  0
LINE
  5
77
330
A
100
AcDbEntity
  8
1
  6
solid
 62
     7
100
AcDbLine
 10
1.069949128620033
 20
0.9015217603119701
 30
0.0
 11
1.10083575652701
 21
0.9015217603119701
 31
0.0
  0
LINE
  5
78
330
A
100
AcDbEntity
  8
1
  6
solid
 62
     7
100
AcDbLine
 10
1.069949128620033
 20
0.9578444347305746
 30
0.0
 11
1.069949128620033
 21
1.007625248684063
 31
0.0
  0
LINE
  5
79
330
A
100
AcDbEntity
  8
1
  6
solid
 62
     7
100
AcDbLine
 10
1.069949128620033
 20
1.007625248684063
 30
0.0
 11
1.03600552396887
 21
0.9578444347305746
 31
0.0
  0
LINE
  5
7A
330
A
100
AcDbEntity
  8
1
  6
solid
 62
     7
100
AcDbLine
 10
1.069949128620033
 20
0.9578444347305746
 30
0.0
 11
1.03600552396887
 21
0.9578444347305746
 31
0.0
  0
LINE
  5
7B
330
A
100
AcDbEntity
  8
1
  6
solid
 62
     7
100
AcDbLine
 10
1.219541919317707
 20
0.9015217603119701
 30
0.0
 11
1.188655291410731
 21
0.9015217603119701
 31
0.0
  0
LINE
  5
7C
330
A
100
AcDbEntity
  8
1
  6
solid
 62
     7
100
AcDbLine
 10
1.188655291410731
 20
0.9015217603119701
 30
0.0
 11
1.188655291410731
 21
1.012592109149179
 31
0.0
  0
SPLINE
  5
7D
330
A
100
AcDbEntity
  8
1
  6
solid
 62
     7
100
AcDbSpline
210
0.0
220
0.0
230
1.0
 70
     8
 71
     2
 72
     6
 73
     3
 74
     0
 42
0.0000000001
 43
0.0000000001
 40
0.0
 40
0.0
 40
0.0
 40
1.0
 40
1.0
 40
1.0
 10
1.188655291410731
 20
1.012592109149179
 30
0.0
 10
1.172415175131661
 20
0.9948886207770863
 30
0.0
 10
1.150501221643289
 20
0.9869142021724352
 30
0.0
  0
LINE
  5
7E
330
A
100
AcDbEntity
  8
1
  6
solid
 62
     7
100
AcDbLine
 10
1.150501221643289
 20
0.9869142021724352
 30
0.0
 11
1.150501221643289
 21
1.017800830079411
 31
0.0
  0
SPLINE
  5
7F
330
A
100
AcDbEntity
  8
1
  6
solid
 62
     7
100
AcDbSpline
210
0.0
220
0.0
230
1.0
 70
     8
 71
     2
 72
     7
 73
     4
 74
     0
 42
0.0000000001
 43
0.0000000001
 40
0.0
 40
0.0
 40
0.0
 40
1.0
 40
2.0
 40
2.0
 40
2.0
 10
1.150501221643289
 20
1.017800830079411
 30
0.0
 10
1.161979128620033
 20
1.021601992870109
 30
0.0
 10
1.189511105364219
 20
1.043292690544528
 30
0.0
 10
1.194757035596777
 20
1.05777176031197
 30
0.0
  0
LINE
  5
80
330
A
100
AcDbEntity
  8
1
  6
solid
 62
     7
100
AcDbLine
 10
1.194757035596777
 20
1.05777176031197
 30
0.0
 11
1.219541919317707
 21
1.05777176031197
 31
0.0
  0
LINE
  5
81
330
A
100
AcDbEntity
  8
1
  6
solid
 62
     7
100
AcDbLine
 10
1.219541919317707
 20
0.9015217603119701
 30
0.0
 11
1.219541919317707
 21
1.05777176031197
 31
0.0
  0
LINE
  5
82
330
A
100
AcDbEntity
  8
1
  6
solid
 62
     7
100
AcDbLine
 10
1.249221919317708
 20
1.05777176031197
 30
0.0
 11
1.313388779782824
 21
1.05777176031197
 31
0.0
  0
SPLINE
  5
83
330
A
100
AcDbEntity
  8
1
  6
solid
 62
     7
100
AcDbSpline
210
0.0
220
0.0
230
1.0
 70
     8
 71
     2
 72
     9
 73
     6
 74
     0
 42
0.0000000001
 43
0.0000000001
 40
0.0
 40
0.0
 40
0.0
 40
1.0
 40
2.0
 40
3.0
 40
4.0
 40
4.0
 40
4.0
 10
1.313388779782824
 20
1.05777176031197
 30
0.0
 10
1.332816105364219
 20
1.05777176031197
 30
0.0
 10
1.351412616992126
 20
1.05449152775383
 30
0.0
 10
1.366152151875847
 20
1.044297341707318
 30
0.0
 10
1.376402151875847
 20
1.027945597521272
 30
0.0
 10
1.376402151875847
 20
1.018172923102667
 30
0.0
  0
SPLINE
  5
84
330
A
100
AcDbEntity
  8
1
  6
solid
 62
     7
100
AcDbSpline
210
0.0
220
0.0
230
1.0
 70
     8
 71
     2
 72
     7
 73
     4
 74
     0
 42
0.0000000001
 43
0.0000000001
 40
0.0
 40
0.0
 40
0.0
 40
1.0
 40
2.0
 40
2.0
 40
2.0
 10
1.376402151875847
 20
1.018172923102667
 30
0.0
 10
1.376402151875847
 20
1.007197341707319
 30
0.0
 10
1.364112035596777
 20
0.9888985044980165
 30
0.0
 10
1.353582965829335
 20
0.9840060626375514
 30
0.0
  0
SPLINE
  5
85
330
A
100
AcDbEntity
  8
1
  6
solid
 62
     7
100
AcDbSpline
210
0.0
220
0.0
230
1.0
 70
     8
 71
     2
 72
     7
 73
     4
 74
     0
 42
0.0000000001
 43
0.0000000001
 40
0.0
 40
0.0
 40
0.0
 40
1.0
 40
2.0
 40
2.0
 40
2.0
 10
1.353582965829335
 20
0.9840060626375514
 30
0.0
 10
1.367392268154917
 20
0.9800374579863886
 30
0.0
 10
1.381852733271196
 20
0.9600333882189467
 30
0.0
 10
1.381852733271196
 20
0.9461868765910399
 30
0.0
  0
SPLINE
  5
86
330
A
100
AcDbEntity
  8
1
  6
solid
 62
     7
100
AcDbSpline
210
0.0
220
0.0
230
1.0
 70
     8
 71
     2
 72
     8
 73
     5
 74
     0
 42
0.0000000001
 43
0.0000000001
 40
0.0
 40
0.0
 40
0.0
 40
1.0
 40
2.0
 40
3.0
 40
3.0
 40
3.0
 10
1.381852733271196
 20
0.9461868765910399
 30
0.0
 10
1.381852733271196
 20
0.9360793184515049
 30
0.0
 10
1.371509710015382
 20
0.915393271939877
 30
0.0
 10
1.353862035596777
 20
0.9037479231026676
 30
0.0
 10
1.341125407689801
 20
0.9022101324049934
 30
0.0
  0
SPLINE
  5
87
330
A
100
AcDbEntity
  8
1
  6
solid
 62
     7
100
AcDbSpline
210
0.0
220
0.0
230
1.0
 70
     8
 71
     2
 72
     6
 73
     3
 74
     0
 42
0.0000000001
 43
0.0000000001
 40
0.0
 40
0.0
 40
0.0
 40
1.0
 40
1.0
 40
1.0
 10
1.341125407689801
 20
0.9022101324049934
 30
0.0
 10
1.333374244899103
 20
0.9016519928701095
 30
0.0
 10
1.302692268154917
 20
0.9015217603119701
 30
0.0
  0
LINE
  5
88
330
A
100
AcDbEntity
  8
1
  6
solid
 62
     7
100
AcDbLine
 10
1.302692268154917
 20
0.9015217603119701
 30
0.0
 11
1.249221919317708
 21
0.9015217603119701
 31
0.0
  0
LINE
  5
89
330
A
100
AcDbEntity
  8
1
  6
solid
 62
     7
100
AcDbLine
 10
1.249221919317708
 20
1.05777176031197
 30
0.0
 11
1.249221919317708
 21
0.9015217603119701
 31
0.0
  0
LINE
  5
8A
330
A
100
AcDbEntity
  8
1
  6
solid
 62
     7
100
AcDbLine
 10
1.280108547224684
 20
1.030518853335225
 30
0.0
 11
1.280108547224684
 21
0.9959985044980166
 31
0.0
  0
LINE
  5
8B
330
A
100
AcDbEntity
  8
1
  6
solid
 62
     7
100
AcDbLine
 10
1.280108547224684
 20
0.9959985044980166
 30
0.0
 11
1.302152733271196
 21
0.9959985044980166
 31
0.0
  0
SPLINE
  5
8C
330
A
100
AcDbEntity
  8
1
  6
solid
 62
     7
100
AcDbSpline
210
0.0
220
0.0
230
1.0
 70
     8
 71
     2
 72
     6
 73
     3
 74
     0
 42
0.0000000001
 43
0.0000000001
 40
0.0
 40
0.0
 40
0.0
 40
1.0
 40
1.0
 40
1.0
 10
1.302152733271196
 20
0.9959985044980166
 30
0.0
 10
1.322007965829335
 20
0.9959985044980166
 30
0.0
 10
1.326404477457242
 20
0.9963333882189468
 30
0.0
  0
SPLINE
  5
8D
330
A
100
AcDbEntity
  8
1
  6
solid
 62
     7
100
AcDbSpline
210
0.0
220
0.0
230
1.0
 70
     8
 71
     2
 72
     7
 73
     4
 74
     0
 42
0.0000000001
 43
0.0000000001
 40
0.0
 40
0.0
 40
0.0
 40
1.0
 40
2.0
 40
2.0
 40
2.0
 10
1.326404477457242
 20
0.9963333882189468
 30
0.0
 10
1.335246919317708
 20
0.9969287370561561
 30
0.0
 10
1.34551552396887
 20
1.005864202172435
 30
0.0
 10
1.34551552396887
 20
1.013113039381737
 30
0.0
  0
SPLINE
  5
8E
330
A
100
AcDbEntity
  8
1
  6
solid
 62
     7
100
AcDbSpline
210
0.0
220
0.0
230
1.0
 70
     8
 71
     2
 72
     7
 73
     4
 74
     0
 42
0.0000000001
 43
0.0000000001
 40
0.0
 40
0.0
 40
0.0
 40
1.0
 40
2.0
 40
2.0
 40
2.0
 10
1.34551552396887
 20
1.013113039381737
 30
0.0
 10
1.34551552396887
 20
1.020157225428249
 30
0.0
 10
1.336766105364219
 20
1.028962457986388
 30
0.0
 10
1.328091105364219
 20
1.029557806823597
 30
0.0
  0
SPLINE
  5
8F
330
A
100
AcDbEntity
  8
1
  6
solid
 62
     7
100
AcDbSpline
210
0.0
220
0.0
230
1.0
 70
     8
 71
     2
 72
     6
 73
     3
 74
     0
 42
0.0000000001
 43
0.0000000001
 40
0.0
 40
0.0
 40
0.0
 40
1.0
 40
1.0
 40
1.0
 10
1.328091105364219
 20
1.029557806823597
 30
0.0
 10
1.322919593736312
 20
1.030518853335225
 30
0.0
 10
1.299114361178173
 20
1.030518853335225
 30
0.0
  0
LINE
  5
90
330
A
100
AcDbEntity
  8
1
  6
solid
 62
     7
100
AcDbLine
 10
1.280108547224684
 20
1.030518853335225
 30
0.0
 11
1.299114361178173
 21
1.030518853335225
 31
0.0
  0
LINE
  5
91
330
A
100
AcDbEntity
  8
1
  6
solid
 62
     7
100
AcDbLine
 10
1.280108547224684
 20
0.9687455975212724
 30
0.0
 11
1.280108547224684
 21
0.9287746672887141
 31
0.0
  0
LINE
  5
92
330
A
100
AcDbEntity
  8
1
  6
solid
 62
     7
100
AcDbLine
 10
1.280108547224684
 20
0.9287746672887141
 30
0.0
 11
1.311069593736312
 21
0.9287746672887141
 31
0.0
  0
SPLINE
  5
93
330
A
100
AcDbEntity
  8
1
  6
solid
 62
     7
100
AcDbSpline
210
0.0
220
0.0
230
1.0
 70
     8
 71
     2
 72
     6
 73
     3
 74
     0
 42
0.0000000001
 43
0.0000000001
 40
0.0
 40
0.0
 40
0.0
 40
1.0
 40
1.0
 40
1.0
 10
1.311069593736312
 20
0.9287746672887141
 30
0.0
 10
1.329200989085149
 20
0.9287746672887141
 30
0.0
 10
1.333653314666545
 20
0.9293700161259234
 30
0.0
  0
SPLINE
  5
94
330
A
100
AcDbEntity
  8
1
  6
solid
 62
     7
100
AcDbSpline
210
0.0
220
0.0
230
1.0
 70
     8
 71
     2
 72
     7
 73
     4
 74
     0
 42
0.0000000001
 43
0.0000000001
 40
0.0
 40
0.0
 40
0.0
 40
1.0
 40
2.0
 40
2.0
 40
2.0
 10
1.333653314666545
 20
0.9293700161259234
 30
0.0
 10
1.341050989085149
 20
0.9307961789166212
 30
0.0
 10
1.350966105364219
 20
0.9401409463584815
 30
0.0
 10
1.350966105364219
 20
0.9478735044980165
 30
0.0
  0
SPLINE
  5
95
330
A
100
AcDbEntity
  8
1
  6
solid
 62
     7
100
AcDbSpline
210
0.0
220
0.0
230
1.0
 70
     8
 71
     2
 72
     8
 73
     5
 74
     0
 42
0.0000000001
 43
0.0000000001
 40
0.0
 40
0.0
 40
0.0
 40
1.0
 40
2.0
 40
3.0
 40
3.0
 40
3.0
 10
1.350966105364219
 20
0.9478735044980165
 30
0.0
 10
1.350966105364219
 20
0.9547874579863886
 30
0.0
 10
1.343717268154917
 20
0.964057806823598
 30
0.0
 10
1.329721919317708
 20
0.9687455975212724
 30
0.0
 10
1.306605058852591
 20
0.9687455975212724
 30
0.0
  0
LINE
  5
96
330
A
100
AcDbEntity
  8
1
  6
solid
 62
     7
100
AcDbLine
 10
1.280108547224684
 20
0.9687455975212724
 30
0.0
 11
1.306605058852591
 21
0.9687455975212724
 31
0.0
  0
ARC
  5
97
330
A
100
AcDbEntity
  8
1
  6
solid
 62
     7
100
AcDbCircle
 10
-3.52167415832439
 20
2.141027954016831
 30
0.0
 40
0.363210015407036
100
AcDbArc
 50
316.9094495371423
 51
365.4444863526193
  0
ARC
  5
98
330
A
100
AcDbEntity
  8
1
  6
solid
 62
     7
100
AcDbCircle
 10
3.327709111867622
 20
2.183642054852994
 30
0.0
 40
6.487816888678684
100
AcDbArc
 50
178.8361299381219
 51
180.0719956043091
  0
LINE
  5
99
330
A
100
AcDbEntity
  8
1
  6
solid
 62
     7
100
AcDbLine
 10
-3.158769334071114
 20
2.315422423912269
 30
0.0
 11
-3.08374925741042
 21
2.328403087393112
 31
0.0
  0
ARC
  5
9A
330
A
100
AcDbEntity
  8
1
  6
solid
 62
     7
100
AcDbCircle
 10
-2.874973984241034
 20
2.428812758908824
 30
0.0
 40
0.2316662073992703
100
AcDbArc
 50
128.0852962343639
 51
205.6850569336517
  0
LINE
  5
9B
330
A
100
AcDbEntity
  8
1
  6
solid
 62
     7
100
AcDbLine
 10
-3.017873623051302
 20
2.611155737893051
 30
0.0
 11
-3.019217792093678
 21
2.715161925686311
 31
0.0
  0
ARC
  5
9C
330
A
100
AcDbEntity
  8
1
  6
solid
 62
     7
100
AcDbCircle
 10
-3.293853809974768
 20
3.231528829333041
 30
0.0
 40
0.5848587524965703
100
AcDbArc
 50
298.0068323158585
 51
351.0587221140407
  0
ARC
  5
9D
330
A
100
AcDbEntity
  8
1
  6
solid
 62
     7
100
AcDbCircle
 10
-5.116048114661844
 20
3.381222914825185
 30
0.0
 40
2.411975592224543
100
AcDbArc
 50
354.2752373209449
 51
366.624641654719
  0
ARC
  5
9E
330
A
100
AcDbEntity
  8
1
  6
solid
 62
     7
100
AcDbCircle
 10
-3.848019471199565
 20
3.492136912047579
 30
0.0
 40
1.140189682070568
100
AcDbArc
 50
8.439610387744799
 51
38.09879717682748
  0
LINE
  5
9F
330
A
100
AcDbEntity
  8
1
  6
solid
 62
     7
100
AcDbLine
 10
-2.950749545713005
 20
4.195656131837941
 30
0.0
 11
-2.95642305714339
 21
4.303493823170016
 31
0.0
  0
ARC
  5
A0
330
A
100
AcDbEntity
  8
1
  6
solid
 62
     7
100
AcDbCircle
 10
-2.85210329684361
 20
4.504974128192924
 30
0.0
 40
0.2268852698538531
100
AcDbArc
 50
85.87430711315787
 51
242.6263590259444
  0
ARC
  5
A1
330
A
100
AcDbEntity
  8
1
  6
solid
 62
     7
100
AcDbCircle
 10
-2.622159756871743
 20
1.494479221830989
 30
0.0
 40
0.7490254444476926
100
AcDbArc
 50
147.8648141900653
 51
194.08044971344
  0
LINE
  5
A2
330
A
100
AcDbEntity
  8
1
  6
solid
 62
     7
100
AcDbLine
 10
-3.521755487849179
 20
0.5622532699408085
 30
0.0
 11
-3.521755487849179
 21
1.312253269940808
 31
0.0
  0
LINE
  5
A3
330
A
100
AcDbEntity
  8
1
  6
solid
 62
     7
100
AcDbLine
 10
-2.459255487849179
 20
0.5622532699408085
 30
0.0
 11
-3.521755487849179
 21
0.5622532699408085
 31
0.0
  0
LINE
  5
A4
330
A
100
AcDbEntity
  8
1
  6
solid
 62
     7
100
AcDbLine
 10
-2.53002360690158
 20
5.062253269940808
 30
0.0
 11
-2.459255487849179
 21
5.062253269940808
 31
0.0
  0
LINE
  5
A5
330
A
100
AcDbEntity
  8
1
  6
solid
 62
     7
100
AcDbLine
 10
-3.521755487849179
 20
0.5622532699408085
 30
0.0
 11
-3.521755487849179
 21
1.312253269975598
 31
0.0
  0
LINE
  5
A6
330
A
100
AcDbEntity
  8
1
  6
solid
 62
     7
100
AcDbLine
 10
-3.521755487849179
 20
1.312253269975598
 30
0.0
 11
-3.348680795039573
 21
1.312253269975598
 31
0.0
  0
LINE
  5
A7
330
A
100
AcDbEntity
  8
1
  6
solid
 62
     7
100
AcDbLine
 10
-2.814495582945616
 20
4.82749926924031
 30
0.0
 11
-2.53002360690158
 21
5.062253269940808
 31
0.0
  0
LINE
  5
A8
330
A
100
AcDbEntity
  8
1
  6
solid
 62
     7
100
AcDbLine
 10
-2.835780117965455
 20
4.731271525977068
 30
0.0
 11
-2.837186107776345
 21
4.777389264847862
 31
0.0
  0
ARC
  5
A9
330
A
100
AcDbEntity
  8
1
  6
solid
 62
     7
100
AcDbCircle
 10
-2.774715133011213
 20
4.779293815160751
 30
0.0
 40
0.0625
100
AcDbArc
 50
129.5303747117208
 51
181.7462334442765
  0
LINE
  5
AA
330
A
100
AcDbEntity
  8
1
  6
solid
 62
     7
100
AcDbLine
 10
-2.459255485337767
 20
5.062253256278849
 30
0.0
 11
-2.459255485337767
 21
4.187253256278849
 31
0.0
  0
LINE
  5
AB
330
A
100
AcDbEntity
  8
1
  6
solid
 62
     7
100
AcDbLine
 10
-2.459255485337767
 20
0.5622532562788498
 30
0.0
 11
-2.459255485337767
 21
1.437253256278849
 31
0.0
  0
LINE
  5
AC
330
A
100
AcDbEntity
  8
1
  6
solid
 62
     7
100
AcDbLine
 10
-2.490505485337767
 20
4.187253256278849
 30
0.0
 11
-2.459255485337767
 21
4.187253256278849
 31
0.0
  0
ARC
  5
AD
330
A
100
AcDbEntity
  8
1
  6
solid
 62
     7
100
AcDbCircle
 10
-2.490505485337767
 20
4.124753256278849
 30
0.0
 40
0.0625
100
AcDbArc
 50
90.0
 51
180.0
  0
LINE
  5
AE
330
A
100
AcDbEntity
  8
1
  6
solid
 62
     7
100
AcDbLine
 10
-2.459255485337767
 20
1.437253256278849
 30
0.0
 11
-2.490505485337767
 21
1.437253256278849
 31
0.0
  0
LINE
  5
AF
330
A
100
AcDbEntity
  8
1
  6
solid
 62
     7
100
AcDbLine
 10
-2.553005485337767
 20
1.499753256278849
 30
0.0
 11
-2.553005485337767
 21
4.124753256278849
 31
0.0
  0
ARC
  5
B0
330
A
100
AcDbEntity
  8
1
  6
solid
 62
     7
100
AcDbCircle
 10
-2.490505485337767
 20
1.499753256278849
 30
0.0
 40
0.0625
100
AcDbArc
 50
180.0
 51
269.9999999999999
  0
DIMENSION
  5
C6
330
A
100
AcDbEntity
  8
1
  6
solid
 62
     7
100
AcDbDimension
  2
*D1
 10
-1.020289159314457
 20
2.81225338578224
 30
0.0
 11
-1.020289159314457
 21
2.81225338578224
 31
0.0
 70
    33
 71
     5
 42
4.500000178813934
  3
Standard
100
AcDbAlignedDimension
 13
-2.459255456924438
 23
5.062253475189208
 33
0.0
 14
-2.459255456924438
 24
0.5622532963752747
 34
0.0
1001
ACAD
1000
DSTYLE
1002
{
1070
    41
1040
0.025
1070
    42
1040
0.125
1070
    44
1040
0.0625
1070
    47
1040
0.0005
1070
    48
1040
0.0005
1070
    75
1070
     1
1070
    76
1070
     1
1070
   140
1040
0.125
1070
   146
1040
0.5
1070
   270
1070
     5
1070
   271
1070
     3
1070
   272
1070
     3
1070
   277
1070
     5
1002
}
  0
LINE
  5
C7
330
A
100
AcDbEntity
  8
1
  6
solid
 62
     7
100
AcDbLine
 10
0.0690406976744186
 20
0.0
 30
0.0
 11
0.0381540697674419
 21
0.0
 31
0.0
  0
LINE
  5
C8
330
A
100
AcDbEntity
  8
1
  6
solid
 62
     7
100
AcDbLine
 10
0.0381540697674419
 20
0.0
 30
0.0
 11
0.0381540697674419
 21
0.1110703488372093
 31
0.0
  0
SPLINE
  5
C9
330
A
100
AcDbEntity
  8
1
  6
solid
 62
     7
100
AcDbSpline
210
0.0
220
0.0
230
1.0
 70
     8
 71
     2
 72
     6
 73
     3
 74
     0
 42
0.0000000001
 43
0.0000000001
 40
0.0
 40
0.0
 40
0.0
 40
1.0
 40
1.0
 40
1.0
 10
0.0381540697674419
 20
0.1110703488372093
 30
0.0
 10
0.0219139534883721
 20
0.0933668604651163
 30
0.0
 10
0.0
 20
0.0853924418604651
 30
0.0
  0
LINE
  5
CA
330
A
100
AcDbEntity
  8
1
  6
solid
 62
     7
100
AcDbLine
 10
0.0
 20
0.0853924418604651
 30
0.0
 11
0.0
 21
0.1162790697674419
 31
0.0
  0
SPLINE
  5
CB
330
A
100
AcDbEntity
  8
1
  6
solid
 62
     7
100
AcDbSpline
210
0.0
220
0.0
230
1.0
 70
     8
 71
     2
 72
     7
 73
     4
 74
     0
 42
0.0000000001
 43
0.0000000001
 40
0.0
 40
0.0
 40
0.0
 40
1.0
 40
2.0
 40
2.0
 40
2.0
 10
0.0
 20
0.1162790697674419
 30
0.0
 10
0.0114779069767442
 20
0.1200802325581395
 30
0.0
 10
0.0390098837209302
 20
0.1417709302325581
 30
0.0
 10
0.0442558139534884
 20
0.15625
 30
0.0
  0
LINE
  5
CC
330
A
100
AcDbEntity
  8
1
  6
solid
 62
     7
100
AcDbLine
 10
0.0442558139534884
 20
0.15625
 30
0.0
 11
0.0690406976744186
 21
0.15625
 31
0.0
  0
LINE
  5
CD
330
A
100
AcDbEntity
  8
1
  6
solid
 62
     7
100
AcDbLine
 10
0.0690406976744186
 20
0.0
 30
0.0
 11
0.0690406976744186
 21
0.15625
 31
0.0
  0
LINE
  5
CE
330
A
100
AcDbEntity
  8
1
  6
solid
 62
     7
100
AcDbLine
 10
0.0975506976744186
 20
0.0417877906976744
 30
0.0
 11
0.0975506976744186
 21
0.0690406976744186
 31
0.0
  0
LINE
  5
CF
330
A
100
AcDbEntity
  8
1
  6
solid
 62
     7
100
AcDbLine
 10
0.0975506976744186
 20
0.0690406976744186
 30
0.0
 11
0.1575070930232558
 21
0.0690406976744186
 31
0.0
  0
LINE
  5
D0
330
A
100
AcDbEntity
  8
1
  6
solid
 62
     7
100
AcDbLine
 10
0.1575070930232558
 20
0.0690406976744186
 30
0.0
 11
0.1575070930232558
 21
0.0417877906976744
 31
0.0
  0
LINE
  5
D1
330
A
100
AcDbEntity
  8
1
  6
solid
 62
     7
100
AcDbLine
 10
0.0975506976744186
 20
0.0417877906976744
 30
0.0
 11
0.1575070930232558
 21
0.0417877906976744
 31
0.0
  0
LINE
  5
D2
330
A
100
AcDbEntity
  8
1
  6
solid
 62
     7
100
AcDbLine
 10
0.2550577906976744
 20
0.0
 30
0.0
 11
0.2241711627906977
 21
0.0
 31
0.0
  0
LINE
  5
D3
330
A
100
AcDbEntity
  8
1
  6
solid
 62
     7
100
AcDbLine
 10
0.2241711627906977
 20
0.0
 30
0.0
 11
0.2241711627906977
 21
0.1110703488372093
 31
0.0
  0
SPLINE
  5
D4
330
A
100
AcDbEntity
  8
1
  6
solid
 62
     7
100
AcDbSpline
210
0.0
220
0.0
230
1.0
 70
     8
 71
     2
 72
     6
 73
     3
 74
     0
 42
0.0000000001
 43
0.0000000001
 40
0.0
 40
0.0
 40
0.0
 40
1.0
 40
1.0
 40
1.0
 10
0.2241711627906977
 20
0.1110703488372093
 30
0.0
 10
0.2079310465116279
 20
0.0933668604651163
 30
0.0
 10
0.1860170930232558
 20
0.0853924418604651
 30
0.0
  0
LINE
  5
D5
330
A
100
AcDbEntity
  8
1
  6
solid
 62
     7
100
AcDbLine
 10
0.1860170930232558
 20
0.0853924418604651
 30
0.0
 11
0.1860170930232558
 21
0.1162790697674419
 31
0.0
  0
SPLINE
  5
D6
330
A
100
AcDbEntity
  8
1
  6
solid
 62
     7
100
AcDbSpline
210
0.0
220
0.0
230
1.0
 70
     8
 71
     2
 72
     7
 73
     4
 74
     0
 42
0.0000000001
 43
0.0000000001
 40
0.0
 40
0.0
 40
0.0
 40
1.0
 40
2.0
 40
2.0
 40
2.0
 10
0.1860170930232558
 20
0.1162790697674419
 30
0.0
 10
0.197495
 20
0.1200802325581395
 30
0.0
 10
0.2250269767441861
 20
0.1417709302325581
 30
0.0
 10
0.2302729069767442
 20
0.15625
 30
0.0
  0
LINE
  5
D7
330
A
100
AcDbEntity
  8
1
  6
solid
 62
     7
100
AcDbLine
 10
0.2302729069767442
 20
0.15625
 30
0.0
 11
0.2550577906976744
 21
0.15625
 31
0.0
  0
LINE
  5
D8
330
A
100
AcDbEntity
  8
1
  6
solid
 62
     7
100
AcDbLine
 10
0.2550577906976744
 20
0.0
 30
0.0
 11
0.2550577906976744
 21
0.15625
 31
0.0
  0
LINE
  5
D9
330
A
100
AcDbEntity
  8
1
  6
solid
 62
     7
100
AcDbLine
 10
0.2825323255813954
 20
0.0
 30
0.0
 11
0.3188881395348837
 21
0.15625
 31
0.0
  0
LINE
  5
DA
330
A
100
AcDbEntity
  8
1
  6
solid
 62
     7
100
AcDbLine
 10
0.3188881395348837
 20
0.15625
 30
0.0
 11
0.3435241860465116
 21
0.15625
 31
0.0
  0
LINE
  5
DB
330
A
100
AcDbEntity
  8
1
  6
solid
 62
     7
100
AcDbLine
 10
0.3435241860465116
 20
0.15625
 30
0.0
 11
0.3071869767441861
 21
0.0
 31
0.0
  0
LINE
  5
DC
330
A
100
AcDbEntity
  8
1
  6
solid
 62
     7
100
AcDbLine
 10
0.2825323255813954
 20
0.0
 30
0.0
 11
0.3071869767441861
 21
0.0
 31
0.0
  0
LINE
  5
DD
330
A
100
AcDbEntity
  8
1
  6
solid
 62
     7
100
AcDbLine
 10
0.4410748837209303
 20
0.0
 30
0.0
 11
0.4101882558139535
 21
0.0
 31
0.0
  0
LINE
  5
DE
330
A
100
AcDbEntity
  8
1
  6
solid
 62
     7
100
AcDbLine
 10
0.4101882558139535
 20
0.0
 30
0.0
 11
0.4101882558139535
 21
0.1110703488372093
 31
0.0
  0
SPLINE
  5
DF
330
A
100
AcDbEntity
  8
1
  6
solid
 62
     7
100
AcDbSpline
210
0.0
220
0.0
230
1.0
 70
     8
 71
     2
 72
     6
 73
     3
 74
     0
 42
0.0000000001
 43
0.0000000001
 40
0.0
 40
0.0
 40
0.0
 40
1.0
 40
1.0
 40
1.0
 10
0.4101882558139535
 20
0.1110703488372093
 30
0.0
 10
0.3939481395348837
 20
0.0933668604651163
 30
0.0
 10
0.3720341860465116
 20
0.0853924418604651
 30
0.0
  0
LINE
  5
E0
330
A
100
AcDbEntity
  8
1
  6
solid
 62
     7
100
AcDbLine
 10
0.3720341860465116
 20
0.0853924418604651
 30
0.0
 11
0.3720341860465116
 21
0.1162790697674419
 31
0.0
  0
SPLINE
  5
E1
330
A
100
AcDbEntity
  8
1
  6
solid
 62
     7
100
AcDbSpline
210
0.0
220
0.0
230
1.0
 70
     8
 71
     2
 72
     7
 73
     4
 74
     0
 42
0.0000000001
 43
0.0000000001
 40
0.0
 40
0.0
 40
0.0
 40
1.0
 40
2.0
 40
2.0
 40
2.0
 10
0.3720341860465116
 20
0.1162790697674419
 30
0.0
 10
0.3835120930232558
 20
0.1200802325581395
 30
0.0
 10
0.4110440697674419
 20
0.1417709302325581
 30
0.0
 10
0.41629
 20
0.15625
 30
0.0
  0
LINE
  5
E2
330
A
100
AcDbEntity
  8
1
  6
solid
 62
     7
100
AcDbLine
 10
0.41629
 20
0.15625
 30
0.0
 11
0.4410748837209303
 21
0.15625
 31
0.0
  0
LINE
  5
E3
330
A
100
AcDbEntity
  8
1
  6
solid
 62
     7
100
AcDbLine
 10
0.4410748837209303
 20
0.0
 30
0.0
 11
0.4410748837209303
 21
0.15625
 31
0.0
  0
LINE
  5
E4
330
A
100
AcDbEntity
  8
1
  6
solid
 62
     7
100
AcDbLine
 10
0.5695122093023255
 20
0.1136313953488372
 30
0.0
 11
0.5386255813953488
 21
0.110828488372093
 31
0.0
  0
SPLINE
  5
E5
330
A
100
AcDbEntity
  8
1
  6
solid
 62
     7
100
AcDbSpline
210
0.0
220
0.0
230
1.0
 70
     8
 71
     2
 72
     7
 73
     4
 74
     0
 42
0.0000000001
 43
0.0000000001
 40
0.0
 40
0.0
 40
0.0
 40
1.0
 40
2.0
 40
2.0
 40
2.0
 10
0.5386255813953488
 20
0.110828488372093
 30
0.0
 10
0.5373110465116279
 20
0.1200616279069767
 30
0.0
 10
0.52845
 20
0.1289970930232558
 30
0.0
 10
0.5213686046511628
 20
0.1289970930232558
 30
0.0
  0
SPLINE
  5
E6
330
A
100
AcDbEntity
  8
1
  6
solid
 62
     7
100
AcDbSpline
210
0.0
220
0.0
230
1.0
 70
     8
 71
     2
 72
     7
 73
     4
 74
     0
 42
0.0000000001
 43
0.0000000001
 40
0.0
 40
0.0
 40
0.0
 40
1.0
 40
2.0
 40
2.0
 40
2.0
 10
0.5213686046511628
 20
0.1289970930232558
 30
0.0
 10
0.5121726744186046
 20
0.1289970930232558
 30
0.0
 10
0.4993988372093023
 20
0.1108656976744186
 30
0.0
 10
0.497675
 20
0.0826331395348837
 30
0.0
  0
SPLINE
  5
E7
330
A
100
AcDbEntity
  8
1
  6
solid
 62
     7
100
AcDbSpline
210
0.0
220
0.0
230
1.0
 70
     8
 71
     2
 72
     6
 73
     3
 74
     0
 42
0.0000000001
 43
0.0000000001
 40
0.0
 40
0.0
 40
0.0
 40
1.0
 40
1.0
 40
1.0
 10
0.497675
 20
0.0826331395348837
 30
0.0
 10
0.5095558139534884
 20
0.0962936046511628
 30
0.0
 10
0.5263540697674419
 20
0.0962936046511628
 30
0.0
  0
SPLINE
  5
E8
330
A
100
AcDbEntity
  8
1
  6
solid
 62
     7
100
AcDbSpline
210
0.0
220
0.0
230
1.0
 70
     8
 71
     2
 72
     7
 73
     4
 74
     0
 42
0.0000000001
 43
0.0000000001
 40
0.0
 40
0.0
 40
0.0
 40
1.0
 40
2.0
 40
2.0
 40
2.0
 10
0.5263540697674419
 20
0.0962936046511628
 30
0.0
 10
0.5451924418604652
 20
0.0962936046511628
 30
0.0
 10
0.5731459302325581
 20
0.0692639534883721
 30
0.0
 10
0.5731459302325581
 20
0.047796511627907
 30
0.0
  0
SPLINE
  5
E9
330
A
100
AcDbEntity
  8
1
  6
solid
 62
     7
100
AcDbSpline
210
0.0
220
0.0
230
1.0
 70
     8
 71
     2
 72
     7
 73
     4
 74
     0
 42
0.0000000001
 43
0.0000000001
 40
0.0
 40
0.0
 40
0.0
 40
1.0
 40
2.0
 40
2.0
 40
2.0
 10
0.5731459302325581
 20
0.047796511627907
 30
0.0
 10
0.5731459302325581
 20
0.0254732558139535
 30
0.0
 10
0.5448203488372094
 20
-0.0018168604651163
 30
0.0
 10
0.5229622093023255
 20
-0.0018168604651163
 30
0.0
  0
SPLINE
  5
EA
330
A
100
AcDbEntity
  8
1
  6
solid
 62
     7
100
AcDbSpline
210
0.0
220
0.0
230
1.0
 70
     8
 71
     2
 72
     7
 73
     4
 74
     0
 42
0.0000000001
 43
0.0000000001
 40
0.0
 40
0.0
 40
0.0
 40
1.0
 40
2.0
 40
2.0
 40
2.0
 10
0.5229622093023255
 20
-0.0018168604651163
 30
0.0
 10
0.4994360465116279
 20
-0.0018168604651163
 30
0.0
 10
0.4695848837209303
 20
0.0345761627906977
 30
0.0
 10
0.4695848837209303
 20
0.0755517441860465
 30
0.0
  0
SPLINE
  5
EB
330
A
100
AcDbEntity
  8
1
  6
solid
 62
     7
100
AcDbSpline
210
0.0
220
0.0
230
1.0
 70
     8
 71
     2
 72
     7
 73
     4
 74
     0
 42
0.0000000001
 43
0.0000000001
 40
0.0
 40
0.0
 40
0.0
 40
1.0
 40
2.0
 40
2.0
 40
2.0
 10
0.4695848837209303
 20
0.0755517441860465
 30
0.0
 10
0.4695848837209303
 20
0.118468023255814
 30
0.0
 10
0.5007319767441861
 20
0.15625
 30
0.0
 10
0.5252441860465116
 20
0.15625
 30
0.0
  0
SPLINE
  5
EC
330
A
100
AcDbEntity
  8
1
  6
solid
 62
     7
100
AcDbSpline
210
0.0
220
0.0
230
1.0
 70
     8
 71
     2
 72
     7
 73
     4
 74
     0
 42
0.0000000001
 43
0.0000000001
 40
0.0
 40
0.0
 40
0.0
 40
1.0
 40
2.0
 40
2.0
 40
2.0
 10
0.5252441860465116
 20
0.15625
 30
0.0
 10
0.5429848837209303
 20
0.15625
 30
0.0
 10
0.5661947674418605
 20
0.134596511627907
 30
0.0
 10
0.5695122093023255
 20
0.1136313953488372
 30
0.0
  0
SPLINE
  5
ED
330
A
100
AcDbEntity
  8
1
  6
solid
 62
     7
100
AcDbSpline
210
0.0
220
0.0
230
1.0
 70
     8
 71
     2
 72
     7
 73
     4
 74
     0
 42
0.0000000001
 43
0.0000000001
 40
0.0
 40
0.0
 40
0.0
 40
1.0
 40
2.0
 40
2.0
 40
2.0
 10
0.5004715116279069
 20
0.0481686046511628
 30
0.0
 10
0.5004715116279069
 20
0.0371186046511628
 30
0.0
 10
0.5137290697674418
 20
0.0254360465116279
 30
0.0
 10
0.5225529069767442
 20
0.0254360465116279
 30
0.0
  0
SPLINE
  5
EE
330
A
100
AcDbEntity
  8
1
  6
solid
 62
     7
100
AcDbSpline
210
0.0
220
0.0
230
1.0
 70
     8
 71
     2
 72
     7
 73
     4
 74
     0
 42
0.0000000001
 43
0.0000000001
 40
0.0
 40
0.0
 40
0.0
 40
1.0
 40
2.0
 40
2.0
 40
2.0
 10
0.5225529069767442
 20
0.0254360465116279
 30
0.0
 10
0.5305459302325582
 20
0.0254360465116279
 30
0.0
 10
0.5422593023255815
 20
0.0350598837209302
 30
0.0
 10
0.5422593023255815
 20
0.046221511627907
 30
0.0
  0
SPLINE
  5
EF
330
A
100
AcDbEntity
  8
1
  6
solid
 62
     7
100
AcDbSpline
210
0.0
220
0.0
230
1.0
 70
     8
 71
     2
 72
     7
 73
     4
 74
     0
 42
0.0000000001
 43
0.0000000001
 40
0.0
 40
0.0
 40
0.0
 40
1.0
 40
2.0
 40
2.0
 40
2.0
 10
0.5422593023255815
 20
0.046221511627907
 30
0.0
 10
0.5422593023255815
 20
0.0582139534883721
 30
0.0
 10
0.5299877906976745
 20
0.0690406976744186
 30
0.0
 10
0.5209406976744186
 20
0.0690406976744186
 30
0.0
  0
SPLINE
  5
F0
330
A
100
AcDbEntity
  8
1
  6
solid
 62
     7
100
AcDbSpline
210
0.0
220
0.0
230
1.0
 70
     8
 71
     2
 72
     7
 73
     4
 74
     0
 42
0.0000000001
 43
0.0000000001
 40
0.0
 40
0.0
 40
0.0
 40
1.0
 40
2.0
 40
2.0
 40
2.0
 10
0.5209406976744186
 20
0.0690406976744186
 30
0.0
 10
0.5121168604651163
 20
0.0690406976744186
 30
0.0
 10
0.5004715116279069
 20
0.0585302325581395
 30
0.0
 10
0.5004715116279069
 20
0.0481686046511628
 30
0.0
  0
LINE
  5
F1
330
A
100
AcDbEntity
  8
1
  6
solid
 62
     7
100
AcDbLine
 10
0.6325781395348838
 20
0.0
 30
0.0
 11
0.6864886046511628
 21
0.0821122093023256
 31
0.0
  0
LINE
  5
F2
330
A
100
AcDbEntity
  8
1
  6
solid
 62
     7
100
AcDbLine
 10
0.6864886046511628
 20
0.0821122093023256
 30
0.0
 11
0.6380287209302326
 21
0.15625
 31
0.0
  0
LINE
  5
F3
330
A
100
AcDbEntity
  8
1
  6
solid
 62
     7
100
AcDbLine
 10
0.6380287209302326
 20
0.15625
 30
0.0
 11
0.6743473255813953
 21
0.15625
 31
0.0
  0
LINE
  5
F4
330
A
100
AcDbEntity
  8
1
  6
solid
 62
     7
100
AcDbLine
 10
0.6743473255813953
 20
0.15625
 30
0.0
 11
0.7046572093023256
 21
0.1097930232558139
 31
0.0
  0
LINE
  5
F5
330
A
100
AcDbEntity
  8
1
  6
solid
 62
     7
100
AcDbLine
 10
0.7046572093023256
 20
0.1097930232558139
 30
0.0
 11
0.7343223255813954
 21
0.15625
 31
0.0
  0
LINE
  5
F6
330
A
100
AcDbEntity
  8
1
  6
solid
 62
     7
100
AcDbLine
 10
0.7343223255813954
 20
0.15625
 30
0.0
 11
0.7706595348837208
 21
0.15625
 31
0.0
  0
LINE
  5
F7
330
A
100
AcDbEntity
  8
1
  6
solid
 62
     7
100
AcDbLine
 10
0.7706595348837208
 20
0.15625
 30
0.0
 11
0.7228258139534884
 21
0.0821122093023256
 31
0.0
  0
LINE
  5
F8
330
A
100
AcDbEntity
  8
1
  6
solid
 62
     7
100
AcDbLine
 10
0.7228258139534884
 20
0.0821122093023256
 30
0.0
 11
0.7761101162790699
 21
0.0
 31
0.0
  0
LINE
  5
F9
330
A
100
AcDbEntity
  8
1
  6
solid
 62
     7
100
AcDbLine
 10
0.7761101162790699
 20
0.0
 30
0.0
 11
0.7397729069767442
 21
0.0
 31
0.0
  0
LINE
  5
FA
330
A
100
AcDbEntity
  8
1
  6
solid
 62
     7
100
AcDbLine
 10
0.7397729069767442
 20
0.0
 30
0.0
 11
0.7046572093023256
 21
0.0538238372093023
 31
0.0
  0
LINE
  5
FB
330
A
100
AcDbEntity
  8
1
  6
solid
 62
     7
100
AcDbLine
 10
0.7046572093023256
 20
0.0538238372093023
 30
0.0
 11
0.6688967441860465
 21
0.0
 31
0.0
  0
LINE
  5
FC
330
A
100
AcDbEntity
  8
1
  6
solid
 62
     7
100
AcDbLine
 10
0.6325781395348838
 20
0.0
 30
0.0
 11
0.6688967441860465
 21
0.0
 31
0.0
  0
LINE
  5
FD
330
A
100
AcDbEntity
  8
1
  6
solid
 62
     7
100
AcDbLine
 10
0.8979417441860464
 20
0.0
 30
0.0
 11
0.8979417441860464
 21
0.0308866279069768
 31
0.0
  0
LINE
  5
FE
330
A
100
AcDbEntity
  8
1
  6
solid
 62
     7
100
AcDbLine
 10
0.8979417441860464
 20
0.0308866279069768
 30
0.0
 11
0.8361684883720929
 21
0.0308866279069768
 31
0.0
  0
LINE
  5
FF
330
A
100
AcDbEntity
  8
1
  6
solid
 62
     7
100
AcDbLine
 10
0.8361684883720929
 20
0.0308866279069768
 30
0.0
 11
0.8361684883720929
 21
0.0556220930232558
 31
0.0
  0
LINE
  5
100
330
A
100
AcDbEntity
  8
1
  6
solid
 62
     7
100
AcDbLine
 10
0.8361684883720929
 20
0.0556220930232558
 30
0.0
 11
0.9018731395348837
 21
0.1544331395348837
 31
0.0
  0
LINE
  5
101
330
A
100
AcDbEntity
  8
1
  6
solid
 62
     7
100
AcDbLine
 10
0.9018731395348837
 20
0.1544331395348837
 30
0.0
 11
0.928828372093023
 21
0.1544331395348837
 31
0.0
  0
LINE
  5
102
330
A
100
AcDbEntity
  8
1
  6
solid
 62
     7
100
AcDbLine
 10
0.928828372093023
 20
0.1544331395348837
 30
0.0
 11
0.928828372093023
 21
0.0563226744186047
 31
0.0
  0
LINE
  5
103
330
A
100
AcDbEntity
  8
1
  6
solid
 62
     7
100
AcDbLine
 10
0.928828372093023
 20
0.0563226744186047
 30
0.0
 11
0.9488138372093022
 21
0.0563226744186047
 31
0.0
  0
LINE
  5
104
330
A
100
AcDbEntity
  8
1
  6
solid
 62
     7
100
AcDbLine
 10
0.9488138372093022
 20
0.0563226744186047
 30
0.0
 11
0.9488138372093022
 21
0.0308866279069768
 31
0.0
  0
LINE
  5
105
330
A
100
AcDbEntity
  8
1
  6
solid
 62
     7
100
AcDbLine
 10
0.9488138372093022
 20
0.0308866279069768
 30
0.0
 11
0.928828372093023
 21
0.0308866279069768
 31
0.0
  0
LINE
  5
106
330
A
100
AcDbEntity
  8
1
  6
solid
 62
     7
100
AcDbLine
 10
0.928828372093023
 20
0.0308866279069768
 30
0.0
 11
0.928828372093023
 21
0.0
 31
0.0
  0
LINE
  5
107
330
A
100
AcDbEntity
  8
1
  6
solid
 62
     7
100
AcDbLine
 10
0.8979417441860464
 20
0.0
 30
0.0
 11
0.928828372093023
 21
0.0
 31
0.0
  0
LINE
  5
108
330
A
100
AcDbEntity
  8
1
  6
solid
 62
     7
100
AcDbLine
 10
0.8979417441860464
 20
0.0563226744186047
 30
0.0
 11
0.8979417441860464
 21
0.106103488372093
 31
0.0
  0
LINE
  5
109
330
A
100
AcDbEntity
  8
1
  6
solid
 62
     7
100
AcDbLine
 10
0.8979417441860464
 20
0.106103488372093
 30
0.0
 11
0.8639981395348836
 21
0.0563226744186047
 31
0.0
  0
LINE
  5
10A
330
A
100
AcDbEntity
  8
1
  6
solid
 62
     7
100
AcDbLine
 10
0.8979417441860464
 20
0.0563226744186047
 30
0.0
 11
0.8639981395348836
 21
0.0563226744186047
 31
0.0
  0
LINE
  5
10B
330
A
100
AcDbEntity
  8
1
  6
solid
 62
     7
100
AcDbLine
 10
0.9773238372093022
 20
0.0417877906976744
 30
0.0
 11
0.9773238372093022
 21
0.0690406976744186
 31
0.0
  0
LINE
  5
10C
330
A
100
AcDbEntity
  8
1
  6
solid
 62
     7
100
AcDbLine
 10
0.9773238372093022
 20
0.0690406976744186
 30
0.0
 11
1.037280232558139
 21
0.0690406976744186
 31
0.0
  0
LINE
  5
10D
330
A
100
AcDbEntity
  8
1
  6
solid
 62
     7
100
AcDbLine
 10
1.037280232558139
 20
0.0690406976744186
 30
0.0
 11
1.037280232558139
 21
0.0417877906976744
 31
0.0
  0
LINE
  5
10E
330
A
100
AcDbEntity
  8
1
  6
solid
 62
     7
100
AcDbLine
 10
0.9773238372093022
 20
0.0417877906976744
 30
0.0
 11
1.037280232558139
 21
0.0417877906976744
 31
0.0
  0
LINE
  5
10F
330
A
100
AcDbEntity
  8
1
  6
solid
 62
     7
100
AcDbLine
 10
1.134830930232557
 20
0.0
 30
0.0
 11
1.103944302325581
 21
0.0
 31
0.0
  0
LINE
  5
110
330
A
100
AcDbEntity
  8
1
  6
solid
 62
     7
100
AcDbLine
 10
1.103944302325581
 20
0.0
 30
0.0
 11
1.103944302325581
 21
0.1110703488372093
 31
0.0
  0
SPLINE
  5
111
330
A
100
AcDbEntity
  8
1
  6
solid
 62
     7
100
AcDbSpline
210
0.0
220
0.0
230
1.0
 70
     8
 71
     2
 72
     6
 73
     3
 74
     0
 42
0.0000000001
 43
0.0000000001
 40
0.0
 40
0.0
 40
0.0
 40
1.0
 40
1.0
 40
1.0
 10
1.103944302325581
 20
0.1110703488372093
 30
0.0
 10
1.087704186046511
 20
0.0933668604651163
 30
0.0
 10
1.065790232558139
 20
0.0853924418604651
 30
0.0
  0
LINE
  5
112
330
A
100
AcDbEntity
  8
1
  6
solid
 62
     7
100
AcDbLine
 10
1.065790232558139
 20
0.0853924418604651
 30
0.0
 11
1.065790232558139
 21
0.1162790697674419
 31
0.0
  0
SPLINE
  5
113
330
A
100
AcDbEntity
  8
1
  6
solid
 62
     7
100
AcDbSpline
210
0.0
220
0.0
230
1.0
 70
     8
 71
     2
 72
     7
 73
     4
 74
     0
 42
0.0000000001
 43
0.0000000001
 40
0.0
 40
0.0
 40
0.0
 40
1.0
 40
2.0
 40
2.0
 40
2.0
 10
1.065790232558139
 20
0.1162790697674419
 30
0.0
 10
1.077268139534883
 20
0.1200802325581395
 30
0.0
 10
1.104800116279069
 20
0.1417709302325581
 30
0.0
 10
1.110046046511627
 20
0.15625
 30
0.0
  0
LINE
  5
114
330
A
100
AcDbEntity
  8
1
  6
solid
 62
     7
100
AcDbLine
 10
1.110046046511627
 20
0.15625
 30
0.0
 11
1.134830930232557
 21
0.15625
 31
0.0
  0
LINE
  5
115
330
A
100
AcDbEntity
  8
1
  6
solid
 62
     7
100
AcDbLine
 10
1.134830930232557
 20
0.0
 30
0.0
 11
1.134830930232557
 21
0.15625
 31
0.0
  0
LINE
  5
116
330
A
100
AcDbEntity
  8
1
  6
solid
 62
     7
100
AcDbLine
 10
1.162305465116278
 20
0.0
 30
0.0
 11
1.198661279069767
 21
0.15625
 31
0.0
  0
LINE
  5
117
330
A
100
AcDbEntity
  8
1
  6
solid
 62
     7
100
AcDbLine
 10
1.198661279069767
 20
0.15625
 30
0.0
 11
1.223297325581395
 21
0.15625
 31
0.0
  0
LINE
  5
118
330
A
100
AcDbEntity
  8
1
  6
solid
 62
     7
100
AcDbLine
 10
1.223297325581395
 20
0.15625
 30
0.0
 11
1.186960116279069
 21
0.0
 31
0.0
  0
LINE
  5
119
330
A
100
AcDbEntity
  8
1
  6
solid
 62
     7
100
AcDbLine
 10
1.162305465116278
 20
0.0
 30
0.0
 11
1.186960116279069
 21
0.0
 31
0.0
  0
LINE
  5
11A
330
A
100
AcDbEntity
  8
1
  6
solid
 62
     7
100
AcDbLine
 10
1.355368372093022
 20
0.0308866279069768
 30
0.0
 11
1.355368372093022
 21
0.0
 31
0.0
  0
LINE
  5
11B
330
A
100
AcDbEntity
  8
1
  6
solid
 62
     7
100
AcDbLine
 10
1.355368372093022
 20
0.0
 30
0.0
 11
1.251807325581395
 21
0.0
 31
0.0
  0
SPLINE
  5
11C
330
A
100
AcDbEntity
  8
1
  6
solid
 62
     7
100
AcDbSpline
210
0.0
220
0.0
230
1.0
 70
     8
 71
     2
 72
     7
 73
     4
 74
     0
 42
0.0000000001
 43
0.0000000001
 40
0.0
 40
0.0
 40
0.0
 40
1.0
 40
2.0
 40
2.0
 40
2.0
 10
1.251807325581395
 20
0.0
 30
0.0
 10
1.252886395348836
 20
0.0151116279069768
 30
0.0
 10
1.26999453488372
 20
0.0425877906976744
 30
0.0
 10
1.294116046511627
 20
0.0656674418604651
 30
0.0
  0
SPLINE
  5
11D
330
A
100
AcDbEntity
  8
1
  6
solid
 62
     7
100
AcDbSpline
210
0.0
220
0.0
230
1.0
 70
     8
 71
     2
 72
     6
 73
     3
 74
     0
 42
0.0000000001
 43
0.0000000001
 40
0.0
 40
0.0
 40
0.0
 40
1.0
 40
1.0
 40
1.0
 10
1.294116046511627
 20
0.0656674418604651
 30
0.0
 10
1.313878255813953
 20
0.084003488372093
 30
0.0
 10
1.318051511627906
 20
0.0901796511627907
 30
0.0
  0
SPLINE
  5
11E
330
A
100
AcDbEntity
  8
1
  6
solid
 62
     7
100
AcDbSpline
210
0.0
220
0.0
230
1.0
 70
     8
 71
     2
 72
     6
 73
     3
 74
     0
 42
0.0000000001
 43
0.0000000001
 40
0.0
 40
0.0
 40
0.0
 40
1.0
 40
1.0
 40
1.0
 10
1.318051511627906
 20
0.0901796511627907
 30
0.0
 10
1.324481744186046
 20
0.0992453488372093
 30
0.0
 10
1.324481744186046
 20
0.1081808139534884
 30
0.0
  0
SPLINE
  5
11F
330
A
100
AcDbEntity
  8
1
  6
solid
 62
     7
100
AcDbSpline
210
0.0
220
0.0
230
1.0
 70
     8
 71
     2
 72
     7
 73
     4
 74
     0
 42
0.0000000001
 43
0.0000000001
 40
0.0
 40
0.0
 40
0.0
 40
1.0
 40
2.0
 40
2.0
 40
2.0
 10
1.324481744186046
 20
0.1081808139534884
 30
0.0
 10
1.324481744186046
 20
0.1183563953488372
 30
0.0
 10
1.314250348837209
 20
0.1289970930232558
 30
0.0
 10
1.305407906976743
 20
0.1289970930232558
 30
0.0
  0
SPLINE
  5
120
330
A
100
AcDbEntity
  8
1
  6
solid
 62
     7
100
AcDbSpline
210
0.0
220
0.0
230
1.0
 70
     8
 71
     2
 72
     7
 73
     4
 74
     0
 42
0.0000000001
 43
0.0000000001
 40
0.0
 40
0.0
 40
0.0
 40
1.0
 40
2.0
 40
2.0
 40
2.0
 10
1.305407906976743
 20
0.1289970930232558
 30
0.0
 10
1.297266046511627
 20
0.1289970930232558
 30
0.0
 10
1.286848604651162
 20
0.1174511627906977
 30
0.0
 10
1.286327674418604
 20
0.1053779069767442
 30
0.0
  0
LINE
  5
121
330
A
100
AcDbEntity
  8
1
  6
solid
 62
     7
100
AcDbLine
 10
1.286327674418604
 20
0.1053779069767442
 30
0.0
 11
1.255441046511627
 21
0.1079017441860465
 31
0.0
  0
SPLINE
  5
122
330
A
100
AcDbEntity
  8
1
  6
solid
 62
     7
100
AcDbSpline
210
0.0
220
0.0
230
1.0
 70
     8
 71
     2
 72
     7
 73
     4
 74
     0
 42
0.0000000001
 43
0.0000000001
 40
0.0
 40
0.0
 40
0.0
 40
1.0
 40
2.0
 40
2.0
 40
2.0
 10
1.255441046511627
 20
0.1079017441860465
 30
0.0
 10
1.257778837209302
 20
0.133468023255814
 30
0.0
 10
1.285348023255813
 20
0.15625
 30
0.0
 10
1.306480581395348
 20
0.15625
 30
0.0
  0
SPLINE
  5
123
330
A
100
AcDbEntity
  8
1
  6
solid
 62
     7
100
AcDbSpline
210
0.0
220
0.0
230
1.0
 70
     8
 71
     2
 72
     7
 73
     4
 74
     0
 42
0.0000000001
 43
0.0000000001
 40
0.0
 40
0.0
 40
0.0
 40
1.0
 40
2.0
 40
2.0
 40
2.0
 10
1.306480581395348
 20
0.15625
 30
0.0
 10
1.328915465116278
 20
0.15625
 30
0.0
 10
1.355368372093022
 20
0.1316139534883721
 30
0.0
 10
1.355368372093022
 20
0.1135383720930232
 30
0.0
  0
SPLINE
  5
124
330
A
100
AcDbEntity
  8
1
  6
solid
 62
     7
100
AcDbSpline
210
0.0
220
0.0
230
1.0
 70
     8
 71
     2
 72
     7
 73
     4
 74
     0
 42
0.0000000001
 43
0.0000000001
 40
0.0
 40
0.0
 40
0.0
 40
1.0
 40
2.0
 40
2.0
 40
2.0
 10
1.355368372093022
 20
0.1135383720930232
 30
0.0
 10
1.355368372093022
 20
0.1036912790697674
 30
0.0
 10
1.347400348837209
 20
0.0846546511627907
 30
0.0
 10
1.339630581395348
 20
0.0748819767441861
 30
0.0
  0
SPLINE
  5
125
330
A
100
AcDbEntity
  8
1
  6
solid
 62
     7
100
AcDbSpline
210
0.0
220
0.0
230
1.0
 70
     8
 71
     2
 72
     8
 73
     5
 74
     0
 42
0.0000000001
 43
0.0000000001
 40
0.0
 40
0.0
 40
0.0
 40
1.0
 40
2.0
 40
3.0
 40
3.0
 40
3.0
 10
1.339630581395348
 20
0.0748819767441861
 30
0.0
 10
1.334273023255813
 20
0.067968023255814
 30
0.0
 10
1.30551953488372
 20
0.0426436046511628
 30
0.0
 10
1.298177674418604
 20
0.034725
 30
0.0
 10
1.29604453488372
 20
0.0308866279069768
 30
0.0
  0
LINE
  5
126
330
A
100
AcDbEntity
  8
1
  6
solid
 62
     7
100
AcDbLine
 10
1.355368372093022
 20
0.0308866279069768
 30
0.0
 11
1.29604453488372
 21
0.0308866279069768
 31
0.0
  0
LINE
  5
128
330
A
100
AcDbEntity
  8
0
  6
solid
 62
     7
100
AcDbLine
 10
1.070840854165246
 20
1.302374011822596
 30
0.0
 11
1.070840854165246
 21
1.458624011822596
 31
0.0
  0
LINE
  5
129
330
A
100
AcDbEntity
  8
0
  6
solid
 62
     7
100
AcDbLine
 10
1.070840854165246
 20
1.458624011822596
 30
0.0
 11
1.100279259962347
 21
1.458624011822596
 31
0.0
  0
LINE
  5
12A
330
A
100
AcDbEntity
  8
0
  6
solid
 62
     7
100
AcDbLine
 10
1.100279259962347
 20
1.458624011822596
 30
0.0
 11
1.100279259962347
 21
1.329547924866075
 31
0.0
  0
LINE
  5
12B
330
A
100
AcDbEntity
  8
0
  6
solid
 62
     7
100
AcDbLine
 10
1.100279259962347
 20
1.329547924866075
 30
0.0
 11
1.181800999092782
 21
1.329547924866075
 31
0.0
  0
LINE
  5
12C
330
A
100
AcDbEntity
  8
0
  6
solid
 62
     7
100
AcDbLine
 10
1.181800999092782
 20
1.329547924866075
 30
0.0
 11
1.181800999092782
 21
1.302374011822596
 31
0.0
  0
LINE
  5
12D
330
A
100
AcDbEntity
  8
0
  6
solid
 62
     7
100
AcDbLine
 10
1.070840854165246
 20
1.302374011822596
 30
0.0
 11
1.181800999092782
 21
1.302374011822596
 31
0.0
  0
LINE
  5
12E
330
A
100
AcDbEntity
  8
0
  6
solid
 62
     7
100
AcDbLine
 10
1.204440999092782
 20
1.458624011822596
 30
0.0
 11
1.261841723730463
 21
1.458624011822596
 31
0.0
  0
SPLINE
  5
12F
330
A
100
AcDbEntity
  8
0
  6
solid
 62
     7
100
AcDbSpline
210
0.0
220
0.0
230
1.0
 70
     8
 71
     2
 72
     6
 73
     3
 74
     0
 42
0.0000000001
 43
0.0000000001
 40
0.0
 40
0.0
 40
0.0
 40
1.0
 40
1.0
 40
1.0
 10
1.261841723730463
 20
1.458624011822596
 30
0.0
 10
1.281688825179739
 20
1.458624011822596
 30
0.0
 10
1.291535201991333
 20
1.455115316170422
 30
0.0
  0
SPLINE
  5
130
330
A
100
AcDbEntity
  8
0
  6
solid
 62
     7
100
AcDbSpline
210
0.0
220
0.0
230
1.0
 70
     8
 71
     2
 72
     8
 73
     5
 74
     0
 42
0.0000000001
 43
0.0000000001
 40
0.0
 40
0.0
 40
0.0
 40
1.0
 40
2.0
 40
3.0
 40
3.0
 40
3.0
 10
1.291535201991333
 20
1.455115316170422
 30
0.0
 10
1.305238100542058
 20
1.450887779938538
 30
0.0
 10
1.325154767208724
 20
1.430321837909553
 30
0.0
 10
1.335781578802927
 20
1.400535606025495
 30
0.0
 10
1.335781578802927
 20
1.378354446605205
 30
0.0
  0
SPLINE
  5
131
330
A
100
AcDbEntity
  8
0
  6
solid
 62
     7
100
AcDbSpline
210
0.0
220
0.0
230
1.0
 70
     8
 71
     2
 72
     6
 73
     3
 74
     0
 42
0.0000000001
 43
0.0000000001
 40
0.0
 40
0.0
 40
0.0
 40
1.0
 40
1.0
 40
1.0
 10
1.335781578802927
 20
1.378354446605205
 30
0.0
 10
1.335781578802927
 20
1.359473287184915
 30
0.0
 10
1.330286651266695
 20
1.345631258199408
 30
0.0
  0
SPLINE
  5
132
330
A
100
AcDbEntity
  8
0
  6
solid
 62
     7
100
AcDbSpline
210
0.0
220
0.0
230
1.0
 70
     8
 71
     2
 72
     6
 73
     3
 74
     0
 42
0.0000000001
 43
0.0000000001
 40
0.0
 40
0.0
 40
0.0
 40
1.0
 40
1.0
 40
1.0
 10
1.330286651266695
 20
1.345631258199408
 30
0.0
 10
1.324876506339159
 20
1.328210968344335
 30
0.0
 10
1.313832303440608
 20
1.317398649503756
 30
0.0
  0
SPLINE
  5
133
330
A
100
AcDbEntity
  8
0
  6
solid
 62
     7
100
AcDbSpline
210
0.0
220
0.0
230
1.0
 70
     8
 71
     2
 72
     6
 73
     3
 74
     0
 42
0.0000000001
 43
0.0000000001
 40
0.0
 40
0.0
 40
0.0
 40
1.0
 40
1.0
 40
1.0
 10
1.313832303440608
 20
1.317398649503756
 30
0.0
 10
1.305307665759449
 20
1.309816765445785
 30
0.0
 10
1.291465636773942
 20
1.305310968344336
 30
0.0
  0
SPLINE
  5
134
330
A
100
AcDbEntity
  8
0
  6
solid
 62
     7
100
AcDbSpline
210
0.0
220
0.0
230
1.0
 70
     8
 71
     2
 72
     6
 73
     3
 74
     0
 42
0.0000000001
 43
0.0000000001
 40
0.0
 40
0.0
 40
0.0
 40
1.0
 40
1.0
 40
1.0
 10
1.291465636773942
 20
1.305310968344336
 30
0.0
 10
1.281480129527565
 20
1.302374011822596
 30
0.0
 10
1.263735201991333
 20
1.302374011822596
 30
0.0
  0
LINE
  5
135
330
A
100
AcDbEntity
  8
0
  6
solid
 62
     7
100
AcDbLine
 10
1.263735201991333
 20
1.302374011822596
 30
0.0
 11
1.204440999092782
 21
1.302374011822596
 31
0.0
  0
LINE
  5
136
330
A
100
AcDbEntity
  8
0
  6
solid
 62
     7
100
AcDbLine
 10
1.204440999092782
 20
1.458624011822596
 30
0.0
 11
1.204440999092782
 21
1.302374011822596
 31
0.0
  0
LINE
  5
137
330
A
100
AcDbEntity
  8
0
  6
solid
 62
     7
100
AcDbLine
 10
1.233879404889884
 20
1.431450098779118
 30
0.0
 11
1.233879404889884
 21
1.329547924866075
 31
0.0
  0
LINE
  5
138
330
A
100
AcDbEntity
  8
0
  6
solid
 62
     7
100
AcDbLine
 10
1.233879404889884
 20
1.329547924866075
 30
0.0
 11
1.259206216484087
 21
1.329547924866075
 31
0.0
  0
SPLINE
  5
139
330
A
100
AcDbEntity
  8
0
  6
solid
 62
     7
100
AcDbSpline
210
0.0
220
0.0
230
1.0
 70
     8
 71
     2
 72
     6
 73
     3
 74
     0
 42
0.0000000001
 43
0.0000000001
 40
0.0
 40
0.0
 40
0.0
 40
1.0
 40
1.0
 40
1.0
 10
1.259206216484087
 20
1.329547924866075
 30
0.0
 10
1.273280129527565
 20
1.329547924866075
 30
0.0
 10
1.279795346918869
 20
1.330521837909553
 30
0.0
  0
SPLINE
  5
13A
330
A
100
AcDbEntity
  8
0
  6
solid
 62
     7
100
AcDbSpline
210
0.0
220
0.0
230
1.0
 70
     8
 71
     2
 72
     8
 73
     5
 74
     0
 42
0.0000000001
 43
0.0000000001
 40
0.0
 40
0.0
 40
0.0
 40
1.0
 40
2.0
 40
3.0
 40
3.0
 40
3.0
 10
1.279795346918869
 20
1.330521837909553
 30
0.0
 10
1.288366361411623
 20
1.332531258199408
 30
0.0
 10
1.298676506339159
 20
1.341566040808104
 30
0.0
 10
1.306343173005826
 20
1.362131982837089
 30
0.0
 10
1.306343173005826
 20
1.380085606025495
 30
0.0
  0
SPLINE
  5
13B
330
A
100
AcDbEntity
  8
0
  6
solid
 62
     7
100
AcDbSpline
210
0.0
220
0.0
230
1.0
 70
     8
 71
     2
 72
     8
 73
     5
 74
     0
 42
0.0000000001
 43
0.0000000001
 40
0.0
 40
0.0
 40
0.0
 40
1.0
 40
2.0
 40
3.0
 40
3.0
 40
3.0
 10
1.306343173005826
 20
1.380085606025495
 30
0.0
 10
1.306343173005826
 20
1.398016040808104
 30
0.0
 10
1.298676506339159
 20
1.416781258199408
 30
0.0
 10
1.286588825179739
 20
1.427686330663176
 30
0.0
 10
1.277183028078289
 20
1.429695750953031
 30
0.0
  0
SPLINE
  5
13C
330
A
100
AcDbEntity
  8
0
  6
solid
 62
     7
100
AcDbSpline
210
0.0
220
0.0
230
1.0
 70
     8
 71
     2
 72
     6
 73
     3
 74
     0
 42
0.0000000001
 43
0.0000000001
 40
0.0
 40
0.0
 40
0.0
 40
1.0
 40
1.0
 40
1.0
 10
1.277183028078289
 20
1.429695750953031
 30
0.0
 10
1.270157665759449
 20
1.431450098779118
 30
0.0
 10
1.248625781701478
 20
1.431450098779118
 30
0.0
  0
LINE
  5
13D
330
A
100
AcDbEntity
  8
0
  6
solid
 62
     7
100
AcDbLine
 10
1.233879404889884
 20
1.431450098779118
 30
0.0
 11
1.248625781701478
 21
1.431450098779118
 31
0.0
  0
LINE
  5
19B
330
A
100
AcDbEntity
  8
1
  6
solid
 62
     7
370
     0
100
AcDbLine
 10
-3.521755456924438
 20
0.4372532963752747
 30
0.0
 11
-3.521755456924438
 21
0.2165556626046464
 31
0.0
  0
LINE
  5
19C
330
A
100
AcDbEntity
  8
1
  6
solid
 62
     7
370
     0
100
AcDbLine
 10
-2.459255456924438
 20
0.4372532963752747
 30
0.0
 11
-2.459255456924438
 21
0.2165556626046464
 31
0.0
  0
LINE
  5
19D
330
A
100
AcDbEntity
  8
1
  6
solid
 62
     7
370
     0
100
AcDbLine
 10
-3.521755456924438
 20
0.2790556626046464
 30
0.0
 11
-3.350603888893033
 21
0.2790556626046464
 31
0.0
  0
LINE
  5
19E
330
A
100
AcDbEntity
  8
1
  6
solid
 62
     7
370
     0
100
AcDbLine
 10
-2.459255456924438
 20
0.2790556626046464
 30
0.0
 11
-2.611637809865615
 21
0.2790556626046464
 31
0.0
  0
MTEXT
  5
19F
330
A
100
AcDbEntity
  8
1
  6
solid
 62
     7
370
     0
100
AcDbMText
 10
-2.990505456924438
 20
0.2790556626046464
 30
0.0
 40
0.125
 41
0.0
 71
     5
 72
     1
  1
{\H0.125000;1 1/16}
 73
     1
 44
1.0
  0
SOLID
  5
1A0
330
A
100
AcDbEntity
  8
1
  6
solid
 62
     7
370
     0
100
AcDbTrace
 10
-3.496755456924438
 20
0.2915556626046465
 30
0.0
 11
-3.496755456924438
 21
0.2665556626046465
 31
0.0
 12
-3.521755456924438
 22
0.2790556626046464
 32
0.0
 13
-3.521755456924438
 23
0.2790556626046464
 33
0.0
  0
SOLID
  5
1A1
330
A
100
AcDbEntity
  8
1
  6
solid
 62
     7
370
     0
100
AcDbTrace
 10
-2.484255456924438
 20
0.2665556626046465
 30
0.0
 11
-2.484255456924438
 21
0.2915556626046465
 31
0.0
 12
-2.459255456924438
 22
0.2790556626046464
 32
0.0
 13
-2.459255456924438
 23
0.2790556626046464
 33
0.0
  0
VIEWPORT
  5
15B
330
B
100
AcDbEntity
 67
     1
  8
0
  6
Continuous
370
     0
100
AcDbViewport
 10
5.194565209122709
 20
3.951888949449501
 30
0.0
 40
15.43389704956604
 41
8.166167981527145
 68
     1
 69
     1
 12
5.194565209122709
 22
3.951888949449501
 13
0.0
 23
0.0
 14
0.5
 24
0.5
 15
0.5
 25
0.5
 16
0.0
 26
0.0
 36
1.0
 17
0.0
 27
0.0
 37
0.0
 42
50.0
 43
0.0
 44
0.0
 45
8.166167981527145
 50
0.0
 51
0.0
 72
   100
 90
   819232
  1

281
     0
 71
     1
 74
     0
110
0.0
120
0.0
130
0.0
111
1.0
121
0.0
131
0.0
112
0.0
122
1.0
132
0.0
 79
     0
146
0.0
170
     0
  0
VIEWPORT
  5
15E
330
B
100
AcDbEntity
 67
     1
  8
0
  6
Continuous
370
     0
100
AcDbViewport
 10
5.194578194385091
 20
3.95197197779286
 30
0.0
 40
10.42875758528773
 41
8.070210613950816
 68
     2
 69
     2
 12
-0.8622553842717968
 22
2.791441843038374
 13
0.0
 23
0.0
 14
0.5
 24
0.5
 15
0.5
 25
0.5
 16
0.0
 26
0.0
 36
1.0
 17
0.0
 27
0.0
 37
0.0
 42
50.0
 43
0.0
 44
0.0
 45
7.301964618619536
 50
0.0
 51
0.0
 72
   100
 90
   819232
  1

281
     0
 71
     1
 74
     0
110
0.0
120
0.0
130
0.0
111
1.0
121
0.0
131
0.0
112
0.0
122
1.0
132
0.0
 79
     0
146
0.0
170
     0
  0
ENDSEC
  0
SECTION
  2
OBJECTS
  0
DICTIONARY
  5
19
330
0
100
AcDbDictionary
281
     1
  3
ACAD_COLOR
350
154
  3
ACAD_GROUP
350
1A
  3
ACAD_LAYOUT
350
1E
  3
ACAD_MATERIAL
350
13F
  3
ACAD_MLEADERSTYLE
350
184
  3
ACAD_MLINESTYLE
350
1B
  3
ACAD_PLOTSETTINGS
350
22
  3
ACAD_PLOTSTYLENAME
350
1F
  3
ACAD_SCALELIST
350
162
  3
ACAD_TABLESTYLE
350
155
  3
ACAD_VISUALSTYLE
350
143
  3
ACAD_WIPEOUT_VARS
350
23
  3
ACDB_RECOMPOSE_DATA
350
1C0
  3
AcDbVariableDictionary
350
15F
  0
DICTIONARY
  5
18D
330
14
100
AcDbDictionary
280
     1
281
     1
  3
ADSK_XREC_LAYER_RECONCILED
360
18E
  0
DICTIONARY
  5
18F
330
27
100
AcDbDictionary
280
     1
281
     1
  3
ADSK_XREC_LAYER_RECONCILED
360
190
  0
DICTIONARY
  5
191
330
127
100
AcDbDictionary
280
     1
281
     1
  3
ADSK_XREC_LAYER_RECONCILED
360
192
  0
DICTIONARY
  5
1A2
330
A
100
AcDbDictionary
280
     1
281
     1
  3
ACAD_SORTENTS
360
1A3
  0
DICTIONARY
  5
154
102
{ACAD_REACTORS
330
19
102
}
330
19
100
AcDbDictionary
281
     1
  0
DICTIONARY
  5
1A
102
{ACAD_REACTORS
330
19
102
}
330
19
100
AcDbDictionary
281
     1
  0
DICTIONARY
  5
1E
102
{ACAD_REACTORS
330
19
102
}
330
19
100
AcDbDictionary
281
     1
  3
Layout1
350
21
  3
Model
350
20
  0
DICTIONARY
  5
13F
102
{ACAD_REACTORS
330
19
102
}
330
19
100
AcDbDictionary
281
     1
  3
ByBlock
350
141
  3
ByLayer
350
140
  3
Global
350
142
  0
DICTIONARY
  5
184
102
{ACAD_REACTORS
330
19
102
}
330
19
100
AcDbDictionary
281
     1
  3
Standard
350
185
  0
DICTIONARY
  5
1B
102
{ACAD_REACTORS
330
19
102
}
330
19
100
AcDbDictionary
281
     1
  3
Standard
350
1C
  0
DICTIONARY
  5
22
102
{ACAD_REACTORS
330
19
102
}
330
19
100
AcDbDictionary
281
     1
  0
ACDBDICTIONARYWDFLT
  5
1F
102
{ACAD_REACTORS
330
19
102
}
330
19
100
AcDbDictionary
281
     1
  3
Normal
350
1D
100
AcDbDictionaryWithDefault
340
1D
  0
DICTIONARY
  5
162
102
{ACAD_REACTORS
330
19
102
}
330
19
100
AcDbDictionary
281
     1
  3
A0
350
163
  3
A1
350
164
  3
A2
350
165
  3
A3
350
166
  3
A4
350
167
  3
A5
350
168
  3
A6
350
169
  3
A7
350
16A
  3
A8
350
16B
  3
A9
350
16C
  3
B0
350
16D
  3
B1
350
16E
  3
B2
350
16F
  3
B3
350
170
  3
B4
350
171
  3
B5
350
172
  3
B6
350
173
  3
B7
350
174
  3
B8
350
175
  3
B9
350
176
  3
C0
350
177
  3
C1
350
178
  3
C2
350
179
  3
C3
350
17A
  3
C4
350
17B
  3
C5
350
17C
  3
C6
350
17D
  3
C7
350
17E
  3
C8
350
17F
  3
C9
350
180
  3
D0
350
181
  3
D1
350
182
  3
D2
350
183
  0
DICTIONARY
  5
155
102
{ACAD_REACTORS
330
19
102
}
330
19
100
AcDbDictionary
281
     1
  3
Standard
350
156
  0
DICTIONARY
  5
143
102
{ACAD_REACTORS
330
19
102
}
330
19
100
AcDbDictionary
281
     1
  3
2dWireframe
350
149
  3
3D Hidden
350
14B
  3
3dWireframe
350
14A
  3
Basic
350
148
  3
Brighten
350
14F
  3
ColorChange
350
153
  3
Conceptual
350
14C
  3
Dim
350
14E
  3
Facepattern
350
152
  3
Flat
350
144
  3
FlatWithEdges
350
145
  3
Gouraud
350
146
  3
GouraudWithEdges
350
147
  3
Linepattern
350
151
  3
Realistic
350
14D
  3
Thicken
350
150
  0
WIPEOUTVARIABLES
  5
23
330
19
100
AcDbWipeoutVariables
 70
     1
  0
XRECORD
  5
1C0
102
{ACAD_REACTORS
330
19
102
}
330
19
100
AcDbXrecord
280
     1
 90
        1
330
156
  0
DICTIONARY
  5
15F
102
{ACAD_REACTORS
330
19
102
}
330
19
100
AcDbDictionary
281
     1
  3
CANNOSCALE
350
1BD
  3
CMLEADERSTYLE
350
1BC
  3
CTABLESTYLE
350
160
  0
XRECORD
  5
18E
102
{ACAD_REACTORS
330
18D
102
}
330
18D
100
AcDbXrecord
280
     1
290
     1
  0
XRECORD
  5
190
102
{ACAD_REACTORS
330
18F
102
}
330
18F
100
AcDbXrecord
280
     1
290
     1
  0
XRECORD
  5
192
102
{ACAD_REACTORS
330
191
102
}
330
191
100
AcDbXrecord
280
     1
290
     1
  0
SORTENTSTABLE
  5
1A3
102
{ACAD_REACTORS
330
1A2
102
}
330
1A2
100
AcDbSortentsTable
330
A
331
137
  5
19B
331
115
  5
11C
331
F3
  5
FA
331
D9
  5
E0
331
126
  5
12E
331
104
  5
10B
331
EA
  5
F1
331
C8
  5
CF
331
A6
  5
A6
331
84
  5
84
331
6C
  5
6C
331
4A
  5
4A
331
95
  5
95
331
5B
  5
5B
331
39
  5
39
331
28
  5
28
331
135
  5
13C
331
113
  5
11A
331
F1
  5
F8
331
124
  5
12C
331
102
  5
109
331
E8
  5
EF
331
C6
  5
CD
331
A4
  5
A4
331
82
  5
82
331
6A
  5
6A
331
48
  5
48
331
D7
  5
DE
331
93
  5
93
331
59
  5
59
331
37
  5
37
331
133
  5
13A
331
111
  5
118
331
122
  5
12A
331
100
  5
107
331
E6
  5
ED
331
A2
  5
A2
331
80
  5
80
331
68
  5
68
331
46
  5
46
331
D5
  5
DC
331
91
  5
91
331
57
  5
57
331
35
  5
35
331
131
  5
138
331
120
  5
128
331
FE
  5
105
331
E4
  5
EB
331
A0
  5
A0
331
7E
  5
7E
331
66
  5
66
331
44
  5
44
331
10F
  5
116
331
D3
  5
DA
331
1A0
  5
CB
331
8F
  5
8F
331
77
  5
77
331
55
  5
55
331
33
  5
33
331
11E
  5
125
331
FC
  5
103
331
E2
  5
E9
331
9E
  5
9E
331
7C
  5
7C
331
64
  5
64
331
42
  5
42
331
19E
  5
C9
331
12F
  5
136
331
10D
  5
114
331
D1
  5
D8
331
AF
  5
AF
331
8D
  5
8D
331
75
  5
75
331
53
  5
53
331
31
  5
31
331
11C
  5
123
331
FA
  5
101
331
E0
  5
E7
331
9C
  5
9C
331
7A
  5
7A
331
62
  5
62
331
40
  5
40
331
19C
  5
C7
331
12D
  5
134
331
10B
  5
112
331
CF
  5
D6
331
AD
  5
AD
331
8B
  5
8B
331
73
  5
73
331
51
  5
51
331
2F
  5
2F
331
13C
  5
1A0
331
11A
  5
121
331
F8
  5
FF
331
DE
  5
E5
331
9A
  5
9A
331
78
  5
78
331
60
  5
60
331
12B
  5
132
331
109
  5
110
331
EF
  5
F6
331
CD
  5
D4
331
AB
  5
AB
331
89
  5
89
331
71
  5
71
331
4F
  5
4F
331
3E
  5
3E
331
2D
  5
2D
331
13A
  5
19E
331
118
  5
11F
331
F6
  5
FD
331
DC
  5
E3
331
98
  5
98
331
129
  5
130
331
107
  5
10E
331
ED
  5
F4
331
CB
  5
D2
331
A9
  5
A9
331
87
  5
87
331
6F
  5
6F
331
4D
  5
4D
331
5E
  5
5E
331
3C
  5
3C
331
2B
  5
2B
331
138
  5
19C
331
116
  5
11D
331
F4
  5
FB
331
DA
  5
E1
331
105
  5
10C
331
EB
  5
F2
331
C9
  5
D0
331
A7
  5
A7
331
85
  5
85
331
6D
  5
6D
331
4B
  5
4B
331
96
  5
96
331
5C
  5
5C
331
3A
  5
3A
331
29
  5
29
331
136
  5
13D
331
114
  5
11B
331
F2
  5
F9
331
D8
  5
DF
331
125
  5
12D
331
103
  5
10A
331
E9
  5
F0
331
C7
  5
CE
331
A5
  5
A5
331
83
  5
83
331
6B
  5
6B
331
49
  5
49
331
94
  5
94
331
5A
  5
5A
331
38
  5
38
331
134
  5
13B
331
112
  5
119
331
F0
  5
F7
331
123
  5
12B
331
101
  5
108
331
E7
  5
EE
331
A3
  5
A3
331
81
  5
81
331
69
  5
69
331
47
  5
47
331
D6
  5
DD
331
92
  5
92
331
58
  5
58
331
36
  5
36
331
132
  5
139
331
110
  5
117
331
121
  5
129
331
FF
  5
106
331
E5
  5
EC
331
A1
  5
A1
331
7F
  5
7F
331
67
  5
67
331
45
  5
45
331
D4
  5
DB
331
1A1
  5
CC
331
90
  5
90
331
56
  5
56
331
34
  5
34
331
130
  5
137
331
11F
  5
126
331
FD
  5
104
331
E3
  5
EA
331
9F
  5
9F
331
7D
  5
7D
331
65
  5
65
331
43
  5
43
331
19F
  5
CA
331
10E
  5
115
331
D2
  5
D9
331
B0
  5
B0
331
8E
  5
8E
331
76
  5
76
331
54
  5
54
331
32
  5
32
331
11D
  5
124
331
FB
  5
102
331
E1
  5
E8
331
9D
  5
9D
331
7B
  5
7B
331
63
  5
63
331
41
  5
41
331
19D
  5
C8
331
12E
  5
135
331
10C
  5
113
331
D0
  5
D7
331
AE
  5
AE
331
8C
  5
8C
331
74
  5
74
331
52
  5
52
331
30
  5
30
331
13D
  5
1A1
331
11B
  5
122
331
F9
  5
100
331
DF
  5
E6
331
9B
  5
9B
331
79
  5
79
331
61
  5
61
331
19B
  5
C6
331
12C
  5
133
331
10A
  5
111
331
CE
  5
D5
331
AC
  5
AC
331
8A
  5
8A
331
72
  5
72
331
50
  5
50
331
3F
  5
3F
331
2E
  5
2E
331
13B
  5
19F
331
119
  5
120
331
F7
  5
FE
331
DD
  5
E4
331
99
  5
99
331
12A
  5
131
331
108
  5
10F
331
EE
  5
F5
331
CC
  5
D3
331
AA
  5
AA
331
88
  5
88
331
70
  5
70
331
4E
  5
4E
331
5F
  5
5F
331
3D
  5
3D
331
2C
  5
2C
331
139
  5
19D
331
117
  5
11E
331
F5
  5
FC
331
DB
  5
E2
331
128
  5
12F
331
106
  5
10D
331
EC
  5
F3
331
CA
  5
D1
331
A8
  5
A8
331
86
  5
86
331
6E
  5
6E
331
4C
  5
4C
331
97
  5
97
331
5D
  5
5D
331
3B
  5
3B
331
2A
  5
2A
  0
LAYOUT
  5
21
102
{ACAD_REACTORS
330
1E
102
}
330
1E
100
AcDbPlotSettings
  1

  2
Foxit PDF Printer
  4
Letter
  6

 40
3.174999952316284
 41
3.174999952316284
 42
3.17498779296875
 43
3.175003051757812
 44
279.3999938964844
 45
215.8999938964844
 46
31.47715384821894
 47
24.12875752349356
 48
0.0
 49
0.0
140
0.0
141
0.0
142
1.0
143
1.0
 70
     4
 72
     0
 73
     0
 74
     1
  7

 75
    16
147
1.0
 76
     1
 77
     2
 78
   300
148
-26.25461124795212
149
-20.16000981431432
100
AcDbLayout
  1
Layout1
 70
     0
 71
     1
 10
-0.3306119115190196
 20
-0.2812499079328949
 11
10.66938784818509
 21
8.218749851771214
 12
0.0
 22
0.0
 32
0.0
 14
-0.0204310145141093
 24
-0.0837173204912389
 34
-0.0015258207003583
 15
10.40956143275953
 25
7.987495219390243
 35
0.0000000349246037
146
0.0
 13
0.0
 23
0.0
 33
0.0
 16
1.0
 26
0.0
 36
0.0
 17
0.0
 27
1.0
 37
0.0
 76
     0
330
B
331
15B
1001
ACAD_PSEXT
1000
Foxit PDF Printer
1000
Foxit PDF Printer Driver
1000
FOXIT_PDF
1000

1070
     0
  0
LAYOUT
  5
20
102
{ACAD_REACTORS
330
1E
102
}
330
1E
100
AcDbPlotSettings
  1

  2

  4

  6

 40
0.0
 41
0.0
 42
0.0
 43
0.0
 44
0.0
 45
0.0
 46
0.0
 47
0.0
 48
0.0
 49
0.0
140
0.0
141
0.0
142
1.0
143
1.0
 70
  1024
 72
     0
 73
     0
 74
     0
  7

 75
     0
147
1.0
 76
     0
 77
     2
 78
   300
148
0.0
149
0.0
100
AcDbLayout
  1
Model
 70
     0
 71
     0
 10
0.0
 20
0.0
 11
0.0
 21
0.0
 12
0.0
 22
0.0
 32
0.0
 14
0.0
 24
0.0
 34
0.0
 15
0.0
 25
0.0
 35
0.0
146
0.0
 13
0.0
 23
0.0
 33
0.0
 16
0.0
 26
0.0
 36
0.0
 17
0.0
 27
0.0
 37
0.0
 76
     0
330
A
  0
MATERIAL
  5
141
102
{ACAD_XDICTIONARY
360
1C3
102
}
102
{ACAD_REACTORS
330
13F
102
}
330
13F
100
AcDbMaterial
  1
ByBlock
 73
     1
 78
     1
172
     1
176
     1
270
     1
274
     1
  0
MATERIAL
  5
140
102
{ACAD_XDICTIONARY
360
1C1
102
}
102
{ACAD_REACTORS
330
13F
102
}
330
13F
100
AcDbMaterial
  1
ByLayer
 73
     1
 78
     1
172
     1
176
     1
270
     1
274
     1
  0
MATERIAL
  5
142
102
{ACAD_XDICTIONARY
360
1C5
102
}
102
{ACAD_REACTORS
330
13F
102
}
330
13F
100
AcDbMaterial
  1
Global
 73
     1
 78
     1
172
     1
176
     1
270
     1
274
     1
  0
MLEADERSTYLE
  5
185
102
{ACAD_REACTORS
330
184
102
}
330
184
100
AcDbMLeaderStyle
170
     2
171
     1
172
     0
 90
        2
 40
0.0
 41
0.0
173
     1
 91
-1056964608
340
11
 92
       -2
290
     1
 42
0.09
291
     1
 43
0.36
  3
Standard
 44
0.18
300

342
17
174
     1
178
     6
175
     1
176
     0
 93
-1056964608
 45
0.18
292
     0
297
     0
 46
0.18
 94
-1056964608
 47
1.0
 49
1.0
140
1.0
293
     1
141
0.0
294
     1
177
     0
142
1.0
295
     0
296
     0
143
0.125
1001
ACAD_MLEADERVER
1070
     2
  0
MLINESTYLE
  5
1C
102
{ACAD_REACTORS
330
1B
102
}
330
1B
100
AcDbMlineStyle
  2
STANDARD
 70
     0
  3

 62
     0
 51
90.0
 52
90.0
 71
     2
 49
0.5
 62
   256
  6
BYLAYER
 49
-0.5
 62
   256
  6
BYLAYER
  0
ACDBPLACEHOLDER
  5
1D
102
{ACAD_REACTORS
330
1F
102
}
330
1F
  0
SCALE
  5
163
102
{ACAD_REACTORS
330
162
102
}
330
162
100
AcDbScale
 70
     0
300
1:1
140
1.0
141
1.0
290
     1
  0
SCALE
  5
164
102
{ACAD_REACTORS
330
162
102
}
330
162
100
AcDbScale
 70
     0
300
1:2
140
1.0
141
2.0
290
     0
  0
SCALE
  5
165
102
{ACAD_REACTORS
330
162
102
}
330
162
100
AcDbScale
 70
     0
300
1:4
140
1.0
141
4.0
290
     0
  0
SCALE
  5
166
102
{ACAD_REACTORS
330
162
102
}
330
162
100
AcDbScale
 70
     0
300
1:5
140
1.0
141
5.0
290
     0
  0
SCALE
  5
167
102
{ACAD_REACTORS
330
162
102
}
330
162
100
AcDbScale
 70
     0
300
1:8
140
1.0
141
8.0
290
     0
  0
SCALE
  5
168
102
{ACAD_REACTORS
330
162
102
}
330
162
100
AcDbScale
 70
     0
300
1:10
140
1.0
141
10.0
290
     0
  0
SCALE
  5
169
102
{ACAD_REACTORS
330
162
102
}
330
162
100
AcDbScale
 70
     0
300
1:16
140
1.0
141
16.0
290
     0
  0
SCALE
  5
16A
102
{ACAD_REACTORS
330
162
102
}
330
162
100
AcDbScale
 70
     0
300
1:20
140
1.0
141
20.0
290
     0
  0
SCALE
  5
16B
102
{ACAD_REACTORS
330
162
102
}
330
162
100
AcDbScale
 70
     0
300
1:30
140
1.0
141
30.0
290
     0
  0
SCALE
  5
16C
102
{ACAD_REACTORS
330
162
102
}
330
162
100
AcDbScale
 70
     0
300
1:40
140
1.0
141
40.0
290
     0
  0
SCALE
  5
16D
102
{ACAD_REACTORS
330
162
102
}
330
162
100
AcDbScale
 70
     0
300
1:50
140
1.0
141
50.0
290
     0
  0
SCALE
  5
16E
102
{ACAD_REACTORS
330
162
102
}
330
162
100
AcDbScale
 70
     0
300
1:100
140
1.0
141
100.0
290
     0
  0
SCALE
  5
16F
102
{ACAD_REACTORS
330
162
102
}
330
162
100
AcDbScale
 70
     0
300
2:1
140
2.0
141
1.0
290
     0
  0
SCALE
  5
170
102
{ACAD_REACTORS
330
162
102
}
330
162
100
AcDbScale
 70
     0
300
4:1
140
4.0
141
1.0
290
     0
  0
SCALE
  5
171
102
{ACAD_REACTORS
330
162
102
}
330
162
100
AcDbScale
 70
     0
300
8:1
140
8.0
141
1.0
290
     0
  0
SCALE
  5
172
102
{ACAD_REACTORS
330
162
102
}
330
162
100
AcDbScale
 70
     0
300
10:1
140
10.0
141
1.0
290
     0
  0
SCALE
  5
173
102
{ACAD_REACTORS
330
162
102
}
330
162
100
AcDbScale
 70
     0
300
100:1
140
100.0
141
1.0
290
     0
  0
SCALE
  5
174
102
{ACAD_REACTORS
330
162
102
}
330
162
100
AcDbScale
 70
     0
300
1/128" = 1'-0"
140
0.0078125
141
12.0
290
     0
  0
SCALE
  5
175
102
{ACAD_REACTORS
330
162
102
}
330
162
100
AcDbScale
 70
     0
300
1/64" = 1'-0"
140
0.015625
141
12.0
290
     0
  0
SCALE
  5
176
102
{ACAD_REACTORS
330
162
102
}
330
162
100
AcDbScale
 70
     0
300
1/32" = 1'-0"
140
0.03125
141
12.0
290
     0
  0
SCALE
  5
177
102
{ACAD_REACTORS
330
162
102
}
330
162
100
AcDbScale
 70
     0
300
1/16" = 1'-0"
140
0.0625
141
12.0
290
     0
  0
SCALE
  5
178
102
{ACAD_REACTORS
330
162
102
}
330
162
100
AcDbScale
 70
     0
300
3/32" = 1'-0"
140
0.09375
141
12.0
290
     0
  0
SCALE
  5
179
102
{ACAD_REACTORS
330
162
102
}
330
162
100
AcDbScale
 70
     0
300
1/8" = 1'-0"
140
0.125
141
12.0
290
     0
  0
SCALE
  5
17A
102
{ACAD_REACTORS
330
162
102
}
330
162
100
AcDbScale
 70
     0
300
3/16" = 1'-0"
140
0.1875
141
12.0
290
     0
  0
SCALE
  5
17B
102
{ACAD_REACTORS
330
162
102
}
330
162
100
AcDbScale
 70
     0
300
1/4" = 1'-0"
140
0.25
141
12.0
290
     0
  0
SCALE
  5
17C
102
{ACAD_REACTORS
330
162
102
}
330
162
100
AcDbScale
 70
     0
300
3/8" = 1'-0"
140
0.375
141
12.0
290
     0
  0
SCALE
  5
17D
102
{ACAD_REACTORS
330
162
102
}
330
162
100
AcDbScale
 70
     0
300
1/2" = 1'-0"
140
0.5
141
12.0
290
     0
  0
SCALE
  5
17E
102
{ACAD_REACTORS
330
162
102
}
330
162
100
AcDbScale
 70
     0
300
3/4" = 1'-0"
140
0.75
141
12.0
290
     0
  0
SCALE
  5
17F
102
{ACAD_REACTORS
330
162
102
}
330
162
100
AcDbScale
 70
     0
300
1" = 1'-0"
140
1.0
141
12.0
290
     0
  0
SCALE
  5
180
102
{ACAD_REACTORS
330
162
102
}
330
162
100
AcDbScale
 70
     0
300
1-1/2" = 1'-0"
140
1.5
141
12.0
290
     0
  0
SCALE
  5
181
102
{ACAD_REACTORS
330
162
102
}
330
162
100
AcDbScale
 70
     0
300
3" = 1'-0"
140
3.0
141
12.0
290
     0
  0
SCALE
  5
182
102
{ACAD_REACTORS
330
162
102
}
330
162
100
AcDbScale
 70
     0
300
6" = 1'-0"
140
6.0
141
12.0
290
     0
  0
SCALE
  5
183
102
{ACAD_REACTORS
330
162
102
}
330
162
100
AcDbScale
 70
     0
300
1'-0" = 1'-0"
140
12.0
141
12.0
290
     0
  0
TABLESTYLE
  5
156
102
{ACAD_XDICTIONARY
360
1BE
102
}
102
{ACAD_REACTORS
330
155
102
}
330
155
100
AcDbTableStyle
  3
Standard
 70
     0
 71
     0
 40
0.06
 41
0.06
280
     0
281
     0
  7
Standard
140
0.18
170
     2
 62
     0
 63
     7
283
     0
274
    -2
284
     1
 64
     0
275
    -2
285
     1
 65
     0
276
    -2
286
     1
 66
     0
277
    -2
287
     1
 67
     0
278
    -2
288
     1
 68
     0
279
    -2
289
     1
 69
     0
  7
Standard
140
0.25
170
     5
 62
     0
 63
     7
283
     0
274
    -2
284
     1
 64
     0
275
    -2
285
     1
 65
     0
276
    -2
286
     1
 66
     0
277
    -2
287
     1
 67
     0
278
    -2
288
     1
 68
     0
279
    -2
289
     1
 69
     0
  7
Standard
140
0.18
170
     5
 62
     0
 63
     7
283
     0
274
    -2
284
     1
 64
     0
275
    -2
285
     1
 65
     0
276
    -2
286
     1
 66
     0
277
    -2
287
     1
 67
     0
278
    -2
288
     1
 68
     0
279
    -2
289
     1
 69
     0
  0
VISUALSTYLE
  5
149
102
{ACAD_REACTORS
330
143
102
}
330
143
100
AcDbVisualStyle
  2
2dWireframe
 70
     4
 71
     0
 72
     2
 73
     0
 90
        0
 40
-0.6
 41
-30.0
 62
     5
 63
     7
421
 16777215
 74
     1
 91
        4
 64
     7
 65
   257
 75
     1
175
     1
 42
1.0
 92
        0
 66
   257
 43
1.0
 76
     1
 77
     6
 78
     2
 67
     7
 79
     5
170
     0
171
     0
290
     0
174
     0
 93
        1
 44
0.0
173
     0
291
     0
 45
0.0
1001
ACAD
1000
AcDbSavedByObjectVersion
1070
     0
  0
VISUALSTYLE
  5
14B
102
{ACAD_REACTORS
330
143
102
}
330
143
100
AcDbVisualStyle
  2
3D Hidden
 70
     6
 71
     1
 72
     2
 73
     2
 90
        0
 40
-0.6
 41
-30.0
 62
     5
 63
     7
421
 16777215
 74
     2
 91
        2
 64
     7
 65
   257
 75
     2
175
     1
 42
40.0
 92
        0
 66
   257
 43
1.0
 76
     1
 77
     6
 78
     2
 67
     7
 79
     3
170
     0
171
     0
290
     0
174
     0
 93
        1
 44
0.0
173
     0
291
     0
 45
0.0
1001
ACAD
1000
AcDbSavedByObjectVersion
1070
     0
  0
VISUALSTYLE
  5
14A
102
{ACAD_REACTORS
330
143
102
}
330
143
100
AcDbVisualStyle
  2
3dWireframe
 70
     5
 71
     0
 72
     2
 73
     0
 90
        0
 40
-0.6
 41
-30.0
 62
     5
 63
     7
421
 16777215
 74
     1
 91
        4
 64
     7
 65
   257
 75
     1
175
     1
 42
1.0
 92
        0
 66
   257
 43
1.0
 76
     1
 77
     6
 78
     2
 67
     7
 79
     5
170
     0
171
     0
290
     0
174
     0
 93
        1
 44
0.0
173
     0
291
     0
 45
0.0
1001
ACAD
1000
AcDbSavedByObjectVersion
1070
     0
  0
VISUALSTYLE
  5
148
102
{ACAD_REACTORS
330
143
102
}
330
143
100
AcDbVisualStyle
  2
Basic
 70
     7
 71
     1
 72
     0
 73
     1
 90
        0
 40
-0.6
 41
-30.0
 62
     5
 63
     7
421
 16777215
 74
     0
 91
        4
 64
     7
 65
   257
 75
     1
175
     1
 42
1.0
 92
        8
 66
     7
 43
1.0
 76
     1
 77
     6
 78
     2
 67
     7
 79
     5
170
     0
171
     0
290
     0
174
     0
 93
        1
 44
0.0
173
     0
291
     1
 45
0.0
1001
ACAD
1000
AcDbSavedByObjectVersion
1070
     0
  0
VISUALSTYLE
  5
14F
102
{ACAD_REACTORS
330
143
102
}
330
143
100
AcDbVisualStyle
  2
Brighten
 70
    12
 71
     2
 72
     2
 73
     0
 90
        0
 40
-0.6
 41
-30.0
 62
     5
 63
     7
421
 16777215
 74
     1
 91
        4
 64
     7
 65
   257
 75
     1
175
     1
 42
1.0
 92
        8
 66
     7
 43
1.0
 76
     1
 77
     6
 78
     2
 67
     7
 79
     5
170
     0
171
     0
290
     0
174
     0
 93
        1
 44
50.0
173
     0
291
     1
 45
0.0
1001
ACAD
1000
AcDbSavedByObjectVersion
1070
     0
  0
VISUALSTYLE
  5
153
102
{ACAD_REACTORS
330
143
102
}
330
143
100
AcDbVisualStyle
  2
ColorChange
 70
    16
 71
     2
 72
     2
 73
     3
 90
        0
 40
-0.6
 41
-30.0
 62
     5
 63
     8
421
  8421504
 74
     1
 91
        4
 64
     7
 65
   257
 75
     1
175
     1
 42
1.0
 92
        8
 66
     8
424
  8421504
 43
1.0
 76
     1
 77
     6
 78
     2
 67
     7
 79
     5
170
     0
171
     0
290
     0
174
     0
 93
        1
 44
0.0
173
     0
291
     1
 45
0.0
1001
ACAD
1000
AcDbSavedByObjectVersion
1070
     0
  0
VISUALSTYLE
  5
14C
102
{ACAD_REACTORS
330
143
102
}
330
143
100
AcDbVisualStyle
  2
Conceptual
 70
     9
 71
     3
 72
     2
 73
     0
 90
        0
 40
-0.6
 41
-30.0
 62
     5
 63
     7
421
 16777215
 74
     2
 91
        2
 64
     7
 65
   257
 75
     1
175
     1
 42
40.0
 92
        8
 66
     7
 43
1.0
 76
     1
 77
     6
 78
     2
 67
     7
 79
     3
170
     0
171
     0
290
     0
174
     0
 93
        1
 44
0.0
173
     0
291
     0
 45
0.0
1001
ACAD
1000
AcDbSavedByObjectVersion
1070
     0
  0
VISUALSTYLE
  5
14E
102
{ACAD_REACTORS
330
143
102
}
330
143
100
AcDbVisualStyle
  2
Dim
 70
    11
 71
     2
 72
     2
 73
     0
 90
        0
 40
-0.6
 41
-30.0
 62
     5
 63
     7
421
 16777215
 74
     1
 91
        4
 64
     7
 65
   257
 75
     1
175
     1
 42
1.0
 92
        8
 66
     7
 43
1.0
 76
     1
 77
     6
 78
     2
 67
     7
 79
     5
170
     0
171
     0
290
     0
174
     0
 93
        1
 44
-50.0
173
     0
291
     1
 45
0.0
1001
ACAD
1000
AcDbSavedByObjectVersion
1070
     0
  0
VISUALSTYLE
  5
152
102
{ACAD_REACTORS
330
143
102
}
330
143
100
AcDbVisualStyle
  2
Facepattern
 70
    15
 71
     2
 72
     2
 73
     0
 90
        0
 40
-0.6
 41
-30.0
 62
     5
 63
     7
421
 16777215
 74
     1
 91
        4
 64
     7
 65
   257
 75
     1
175
     1
 42
1.0
 92
        8
 66
     7
 43
1.0
 76
     1
 77
     6
 78
     2
 67
     7
 79
     5
170
     0
171
     0
290
     0
174
     0
 93
        1
 44
0.0
173
     0
291
     1
 45
0.0
1001
ACAD
1000
AcDbSavedByObjectVersion
1070
     0
  0
VISUALSTYLE
  5
144
102
{ACAD_REACTORS
330
143
102
}
330
143
100
AcDbVisualStyle
  2
Flat
 70
     0
 71
     2
 72
     1
 73
     1
 90
        2
 40
-0.6
 41
30.0
 62
     5
 63
     7
421
 16777215
 74
     0
 91
        4
 64
     7
 65
   257
 75
     1
175
     1
 42
1.0
 92
        8
 66
     7
 43
1.0
 76
     1
 77
     6
 78
     2
 67
     7
 79
     5
170
     0
171
     0
290
     0
174
     0
 93
       13
 44
0.0
173
     0
291
     1
 45
0.0
1001
ACAD
1000
AcDbSavedByObjectVersion
1070
     0
  0
VISUALSTYLE
  5
145
102
{ACAD_REACTORS
330
143
102
}
330
143
100
AcDbVisualStyle
  2
FlatWithEdges
 70
     1
 71
     2
 72
     1
 73
     1
 90
        2
 40
-0.6
 41
30.0
 62
     5
 63
     7
421
 16777215
 74
     1
 91
        4
 64
     7
 65
   257
 75
     1
175
     1
 42
1.0
 92
        0
 66
   257
 43
1.0
 76
     1
 77
     6
 78
     2
 67
     7
 79
     5
170
     0
171
     0
290
     0
174
     0
 93
       13
 44
0.0
173
     0
291
     1
 45
0.0
1001
ACAD
1000
AcDbSavedByObjectVersion
1070
     0
  0
VISUALSTYLE
  5
146
102
{ACAD_REACTORS
330
143
102
}
330
143
100
AcDbVisualStyle
  2
Gouraud
 70
     2
 71
     2
 72
     2
 73
     1
 90
        2
 40
-0.6
 41
30.0
 62
     5
 63
     7
421
 16777215
 74
     0
 91
        4
 64
     7
 65
   257
 75
     1
175
     1
 42
1.0
 92
        0
 66
     7
 43
1.0
 76
     1
 77
     6
 78
     2
 67
     7
 79
     5
170
     0
171
     0
290
     0
174
     0
 93
       13
 44
0.0
173
     0
291
     1
 45
0.0
1001
ACAD
1000
AcDbSavedByObjectVersion
1070
     0
  0
VISUALSTYLE
  5
147
102
{ACAD_REACTORS
330
143
102
}
330
143
100
AcDbVisualStyle
  2
GouraudWithEdges
 70
     3
 71
     2
 72
     2
 73
     1
 90
        2
 40
-0.6
 41
30.0
 62
     5
 63
     7
421
 16777215
 74
     1
 91
        4
 64
     7
 65
   257
 75
     1
175
     1
 42
1.0
 92
        0
 66
   257
 43
1.0
 76
     1
 77
     6
 78
     2
 67
     7
 79
     5
170
     0
171
     0
290
     0
174
     0
 93
       13
 44
0.0
173
     0
291
     1
 45
0.0
1001
ACAD
1000
AcDbSavedByObjectVersion
1070
     0
  0
VISUALSTYLE
  5
151
102
{ACAD_REACTORS
330
143
102
}
330
143
100
AcDbVisualStyle
  2
Linepattern
 70
    14
 71
     2
 72
     2
 73
     0
 90
        0
 40
-0.6
 41
-30.0
 62
     5
 63
     7
421
 16777215
 74
     1
 91
        4
 64
     7
 65
   257
 75
     7
175
     7
 42
1.0
 92
        8
 66
     7
 43
1.0
 76
     1
 77
     6
 78
     2
 67
     7
 79
     5
170
     0
171
     0
290
     0
174
     0
 93
        1
 44
0.0
173
     0
291
     1
 45
0.0
1001
ACAD
1000
AcDbSavedByObjectVersion
1070
     0
  0
VISUALSTYLE
  5
14D
102
{ACAD_REACTORS
330
143
102
}
330
143
100
AcDbVisualStyle
  2
Realistic
 70
     8
 71
     2
 72
     2
 73
     0
 90
        0
 40
-0.6
 41
-30.0
 62
     5
 63
     7
421
 16777215
 74
     1
 91
        0
 64
     7
 65
   257
 75
     1
175
     1
 42
1.0
 92
        8
 66
     8
424
  7895160
 43
1.0
 76
     1
 77
     6
 78
     2
 67
     7
 79
     5
170
     0
171
     0
290
     0
174
     0
 93
       13
 44
0.0
173
     0
291
     0
 45
0.0
1001
ACAD
1000
AcDbSavedByObjectVersion
1070
     0
  0
VISUALSTYLE
  5
150
102
{ACAD_REACTORS
330
143
102
}
330
143
100
AcDbVisualStyle
  2
Thicken
 70
    13
 71
     2
 72
     2
 73
     0
 90
        0
 40
-0.6
 41
-30.0
 62
     5
 63
     7
421
 16777215
 74
     1
 91
        4
 64
     7
 65
   257
 75
     1
175
     1
 42
1.0
 92
       12
 66
     7
 43
1.0
 76
     1
 77
     6
 78
     2
 67
     7
 79
     5
170
     0
171
     0
290
     0
174
     0
 93
        1
 44
0.0
173
     0
291
     1
 45
0.0
1001
ACAD
1000
AcDbSavedByObjectVersion
1070
     0
  0
DICTIONARYVAR
  5
1BD
102
{ACAD_REACTORS
330
15F
102
}
330
15F
100
DictionaryVariables
280
     0
  1
1:1
  0
DICTIONARYVAR
  5
1BC
102
{ACAD_REACTORS
330
15F
102
}
330
15F
100
DictionaryVariables
280
     0
  1
STANDARD
  0
DICTIONARYVAR
  5
160
102
{ACAD_REACTORS
330
15F
102
}
330
15F
100
DictionaryVariables
280
     0
  1
STANDARD
  0
DICTIONARY
  5
1C3
330
141
100
AcDbDictionary
280
     1
281
     1
  3
ACAD_XREC_ROUNDTRIP
360
1C4
  0
DICTIONARY
  5
1C1
330
140
100
AcDbDictionary
280
     1
281
     1
  3
ACAD_XREC_ROUNDTRIP
360
1C2
  0
DICTIONARY
  5
1C5
330
142
100
AcDbDictionary
280
     1
281
     1
  3
ACAD_XREC_ROUNDTRIP
360
1C6
  0
DICTIONARY
  5
1BE
330
156
100
AcDbDictionary
280
     1
281
     1
  3
ACAD_ROUNDTRIP_2008_TABLESTYLE_CELLSTYLEMAP
360
1BF
  3
ACAD_XREC_ROUNDTRIP
360
1C7
  0
XRECORD
  5
1C4
102
{ACAD_REACTORS
330
1C3
102
}
330
1C3
100
AcDbXrecord
280
     1
102
MATERIAL
148
0.0
149
0.0
149
0.0
 93
        0
 94
       63
282
     0
 72
     1
 77
     1
171
     1
175
     1
179
     1
273
     0
  0
XRECORD
  5
1C2
102
{ACAD_REACTORS
330
1C1
102
}
330
1C1
100
AcDbXrecord
280
     1
102
MATERIAL
148
0.0
149
0.0
149
0.0
 93
        0
 94
       63
282
     0
 72
     1
 77
     1
171
     1
175
     1
179
     1
273
     0
  0
XRECORD
  5
1C6
102
{ACAD_REACTORS
330
1C5
102
}
330
1C5
100
AcDbXrecord
280
     1
102
MATERIAL
148
0.0
149
0.0
149
0.0
 93
        0
 94
       63
282
     0
 72
     1
 77
     1
171
     1
175
     1
179
     1
273
     0
  0
CELLSTYLEMAP
  5
1BF
102
{ACAD_REACTORS
330
1BE
102
}
330
1BE
100
AcDbCellStyleMap
 90
        3
300
CELLSTYLE
  1
TABLEFORMAT_BEGIN
 90
        5
170
     1
 91
        0
 92
    32768
 62
   257
 93
        1
300
CONTENTFORMAT
  1
CONTENTFORMAT_BEGIN
 90
        0
 91
        0
 92
      512
 93
        0
300

 40
0.0
140
1.0
 94
        5
 62
     0
340
17
144
0.25
309
CONTENTFORMAT_END
171
     0
 94
        6
 95
        1
302
GRIDFORMAT
  1
GRIDFORMAT_BEGIN
 90
        0
 91
        1
 62
     0
 92
       -2
340
0
 93
        0
 40
0.045
309
GRIDFORMAT_END
 95
        2
302
GRIDFORMAT
  1
GRIDFORMAT_BEGIN
 90
        0
 91
        1
 62
     0
 92
       -2
340
0
 93
        0
 40
0.045
309
GRIDFORMAT_END
 95
        4
302
GRIDFORMAT
  1
GRIDFORMAT_BEGIN
 90
        0
 91
        1
 62
     0
 92
       -2
340
0
 93
        0
 40
0.045
309
GRIDFORMAT_END
 95
        8
302
GRIDFORMAT
  1
GRIDFORMAT_BEGIN
 90
        0
 91
        1
 62
     0
 92
       -2
340
0
 93
        0
 40
0.045
309
GRIDFORMAT_END
 95
       16
302
GRIDFORMAT
  1
GRIDFORMAT_BEGIN
 90
        0
 91
        1
 62
     0
 92
       -2
340
0
 93
        0
 40
0.045
309
GRIDFORMAT_END
 95
       32
302
GRIDFORMAT
  1
GRIDFORMAT_BEGIN
 90
        0
 91
        1
 62
     0
 92
       -2
340
0
 93
        0
 40
0.045
309
GRIDFORMAT_END
309
TABLEFORMAT_END
  1
CELLSTYLE_BEGIN
 90
        1
 91
        1
300
_TITLE
309
CELLSTYLE_END
300
CELLSTYLE
  1
TABLEFORMAT_BEGIN
 90
        5
170
     1
 91
        0
 92
        0
 62
   257
 93
        1
300
CONTENTFORMAT
  1
CONTENTFORMAT_BEGIN
 90
        0
 91
        0
 92
      512
 93
        0
300

 40
0.0
140
1.0
 94
        5
 62
     0
340
17
144
0.18
309
CONTENTFORMAT_END
171
     0
 94
        6
 95
        1
302
GRIDFORMAT
  1
GRIDFORMAT_BEGIN
 90
        0
 91
        1
 62
     0
 92
       -2
340
0
 93
        0
 40
0.045
309
GRIDFORMAT_END
 95
        2
302
GRIDFORMAT
  1
GRIDFORMAT_BEGIN
 90
        0
 91
        1
 62
     0
 92
       -2
340
0
 93
        0
 40
0.045
309
GRIDFORMAT_END
 95
        4
302
GRIDFORMAT
  1
GRIDFORMAT_BEGIN
 90
        0
 91
        1
 62
     0
 92
       -2
340
0
 93
        0
 40
0.045
309
GRIDFORMAT_END
 95
        8
302
GRIDFORMAT
  1
GRIDFORMAT_BEGIN
 90
        0
 91
        1
 62
     0
 92
       -2
340
0
 93
        0
 40
0.045
309
GRIDFORMAT_END
 95
       16
302
GRIDFORMAT
  1
GRIDFORMAT_BEGIN
 90
        0
 91
        1
 62
     0
 92
       -2
340
0
 93
        0
 40
0.045
309
GRIDFORMAT_END
 95
       32
302
GRIDFORMAT
  1
GRIDFORMAT_BEGIN
 90
        0
 91
        1
 62
     0
 92
       -2
340
0
 93
        0
 40
0.045
309
GRIDFORMAT_END
309
TABLEFORMAT_END
  1
CELLSTYLE_BEGIN
 90
        2
 91
        1
300
_HEADER
309
CELLSTYLE_END
300
CELLSTYLE
  1
TABLEFORMAT_BEGIN
 90
        5
170
     1
 91
        0
 92
        0
 62
   257
 93
        1
300
CONTENTFORMAT
  1
CONTENTFORMAT_BEGIN
 90
        0
 91
        0
 92
      512
 93
        0
300

 40
0.0
140
1.0
 94
        2
 62
     0
340
17
144
0.18
309
CONTENTFORMAT_END
171
     0
 94
        6
 95
        1
302
GRIDFORMAT
  1
GRIDFORMAT_BEGIN
 90
        0
 91
        1
 62
     0
 92
       -2
340
0
 93
        0
 40
0.045
309
GRIDFORMAT_END
 95
        2
302
GRIDFORMAT
  1
GRIDFORMAT_BEGIN
 90
        0
 91
        1
 62
     0
 92
       -2
340
0
 93
        0
 40
0.045
309
GRIDFORMAT_END
 95
        4
302
GRIDFORMAT
  1
GRIDFORMAT_BEGIN
 90
        0
 91
        1
 62
     0
 92
       -2
340
0
 93
        0
 40
0.045
309
GRIDFORMAT_END
 95
        8
302
GRIDFORMAT
  1
GRIDFORMAT_BEGIN
 90
        0
 91
        1
 62
     0
 92
       -2
340
0
 93
        0
 40
0.045
309
GRIDFORMAT_END
 95
       16
302
GRIDFORMAT
  1
GRIDFORMAT_BEGIN
 90
        0
 91
        1
 62
     0
 92
       -2
340
0
 93
        0
 40
0.045
309
GRIDFORMAT_END
 95
       32
302
GRIDFORMAT
  1
GRIDFORMAT_BEGIN
 90
        0
 91
        1
 62
     0
 92
       -2
340
0
 93
        0
 40
0.045
309
GRIDFORMAT_END
309
TABLEFORMAT_END
  1
CELLSTYLE_BEGIN
 90
        3
 91
        2
300
_DATA
309
CELLSTYLE_END
  0
XRECORD
  5
1C7
102
{ACAD_REACTORS
330
1BE
102
}
330
1BE
100
AcDbXrecord
280
     1
102
ACAD_ROUNDTRIP_PRE2007_TABLESTYLE
 90
      512
 91
        0
  1

 92
      512
 93
        0
  2

 94
      512
 95
        0
  3

  0
ENDSEC
  0
EOF
