  0
SECTION
  2
HEADER
  9
$ACADVER
  1
AC1018
  9
$ACADMAINTVER
 70
   104
  9
$DWGCODEPAGE
  3
ANSI_1252
  9
$LASTSAVEDBY
  1
EARL
  9
$INSBASE
 10
0.0
 20
0.0
 30
0.0
  9
$EXTMIN
 10
-1.576739146322261
 20
-0.0586062102062499
 30
0.0
  9
$EXTMAX
 10
1.342577154396934
 20
2.705630600642662
 30
0.0
  9
$LIMMIN
 10
0.0
 20
0.0
  9
$LIMMAX
 10
0.0
 20
0.0
  9
$ORTHOMODE
 70
     1
  9
$REGENMODE
 70
     1
  9
$FILLMODE
 70
     1
  9
$QTEXTMODE
 70
     0
  9
$MIRRTEXT
 70
     1
  9
$LTSCALE
 40
1.0
  9
$ATTMODE
 70
     1
  9
$TEXTSIZE
 40
0.0
  9
$TRACEWID
 40
0.05
  9
$TEXTSTYLE
  7
Standard
  9
$CLAYER
  8
0
  9
$CELTYPE
  6
Continuous
  9
$CECOLOR
 62
   256
  9
$CELTSCALE
 40
1.0
  9
$DISPSILH
 70
     0
  9
$DIMSCALE
 40
1.0
  9
$DIMASZ
 40
0.18
  9
$DIMEXO
 40
0.0625
  9
$DIMDLI
 40
0.38
  9
$DIMRND
 40
0.0
  9
$DIMDLE
 40
0.0
  9
$DIMEXE
 40
0.18
  9
$DIMTP
 40
0.0
  9
$DIMTM
 40
0.0
  9
$DIMTXT
 40
0.18
  9
$DIMCEN
 40
0.09
  9
$DIMTSZ
 40
0.0
  9
$DIMTOL
 70
     0
  9
$DIMLIM
 70
     0
  9
$DIMTIH
 70
     1
  9
$DIMTOH
 70
     1
  9
$DIMSE1
 70
     0
  9
$DIMSE2
 70
     0
  9
$DIMTAD
 70
     0
  9
$DIMZIN
 70
     0
  9
$DIMBLK
  1

  9
$DIMASO
 70
     1
  9
$DIMSHO
 70
     1
  9
$DIMPOST
  1

  9
$DIMAPOST
  1

  9
$DIMALT
 70
     0
  9
$DIMALTD
 70
     2
  9
$DIMALTF
 40
25.4
  9
$DIMLFAC
 40
1.0
  9
$DIMTOFL
 70
     0
  9
$DIMTVP
 40
0.0
  9
$DIMTIX
 70
     0
  9
$DIMSOXD
 70
     0
  9
$DIMSAH
 70
     0
  9
$DIMBLK1
  1

  9
$DIMBLK2
  1

  9
$DIMSTYLE
  2
Standard
  9
$DIMCLRD
 70
     0
  9
$DIMCLRE
 70
     0
  9
$DIMCLRT
 70
     0
  9
$DIMTFAC
 40
1.0
  9
$DIMGAP
 40
0.09
  9
$DIMJUST
 70
     0
  9
$DIMSD1
 70
     0
  9
$DIMSD2
 70
     0
  9
$DIMTOLJ
 70
     1
  9
$DIMTZIN
 70
     0
  9
$DIMALTZ
 70
     0
  9
$DIMALTTZ
 70
     0
  9
$DIMUPT
 70
     0
  9
$DIMDEC
 70
     4
  9
$DIMTDEC
 70
     4
  9
$DIMALTU
 70
     2
  9
$DIMALTTD
 70
     2
  9
$DIMTXSTY
  7
Standard
  9
$DIMAUNIT
 70
     0
  9
$DIMADEC
 70
     0
  9
$DIMALTRND
 40
0.0
  9
$DIMAZIN
 70
     0
  9
$DIMDSEP
 70
    46
  9
$DIMATFIT
 70
     0
  9
$DIMFRAC
 70
     0
  9
$DIMLDRBLK
  1

  9
$DIMLUNIT
 70
     2
  9
$DIMLWD
 70
    -2
  9
$DIMLWE
 70
    -2
  9
$DIMTMOVE
 70
     0
  9
$LUNITS
 70
     2
  9
$LUPREC
 70
     4
  9
$SKETCHINC
 40
0.1
  9
$FILLETRAD
 40
0.0
  9
$AUNITS
 70
     0
  9
$AUPREC
 70
     0
  9
$MENU
  1
acad
  9
$ELEVATION
 40
0.0
  9
$PELEVATION
 40
0.0
  9
$THICKNESS
 40
0.0
  9
$LIMCHECK
 70
     0
  9
$CHAMFERA
 40
0.0
  9
$CHAMFERB
 40
0.0
  9
$CHAMFERC
 40
0.0
  9
$CHAMFERD
 40
0.0
  9
$SKPOLY
 70
     0
  9
$TDCREATE
 40
2455006.290069445
  9
$TDUCREATE
 40
2455006.456736111
  9
$TDUPDATE
 40
2455104.867525128
  9
$TDUUPDATE
 40
2455105.034191794
  9
$TDINDWG
 40
0.0026857176
  9
$TDUSRTIMER
 40
0.0026857176
  9
$USRTIMER
 70
     1
  9
$ANGBASE
 50
0.0
  9
$ANGDIR
 70
     0
  9
$PDMODE
 70
     0
  9
$PDSIZE
 40
0.0
  9
$PLINEWID
 40
0.0
  9
$SPLFRAME
 70
     0
  9
$SPLINETYPE
 70
     6
  9
$SPLINESEGS
 70
     8
  9
$HANDSEED
  5
1B0
  9
$SURFTAB1
 70
     6
  9
$SURFTAB2
 70
     6
  9
$SURFTYPE
 70
     6
  9
$SURFU
 70
     6
  9
$SURFV
 70
     6
  9
$UCSBASE
  2

  9
$UCSNAME
  2

  9
$UCSORG
 10
0.0
 20
0.0
 30
0.0
  9
$UCSXDIR
 10
1.0
 20
0.0
 30
0.0
  9
$UCSYDIR
 10
0.0
 20
1.0
 30
0.0
  9
$UCSORTHOREF
  2

  9
$UCSORTHOVIEW
 70
     0
  9
$UCSORGTOP
 10
0.0
 20
0.0
 30
0.0
  9
$UCSORGBOTTOM
 10
0.0
 20
0.0
 30
0.0
  9
$UCSORGLEFT
 10
0.0
 20
0.0
 30
0.0
  9
$UCSORGRIGHT
 10
0.0
 20
0.0
 30
0.0
  9
$UCSORGFRONT
 10
0.0
 20
0.0
 30
0.0
  9
$UCSORGBACK
 10
0.0
 20
0.0
 30
0.0
  9
$PUCSBASE
  2

  9
$PUCSNAME
  2

  9
$PUCSORG
 10
0.0
 20
0.0
 30
0.0
  9
$PUCSXDIR
 10
1.0
 20
0.0
 30
0.0
  9
$PUCSYDIR
 10
0.0
 20
1.0
 30
0.0
  9
$PUCSORTHOREF
  2

  9
$PUCSORTHOVIEW
 70
     0
  9
$PUCSORGTOP
 10
0.0
 20
0.0
 30
0.0
  9
$PUCSORGBOTTOM
 10
0.0
 20
0.0
 30
0.0
  9
$PUCSORGLEFT
 10
0.0
 20
0.0
 30
0.0
  9
$PUCSORGRIGHT
 10
0.0
 20
0.0
 30
0.0
  9
$PUCSORGFRONT
 10
0.0
 20
0.0
 30
0.0
  9
$PUCSORGBACK
 10
0.0
 20
0.0
 30
0.0
  9
$USERI1
 70
     0
  9
$USERI2
 70
     0
  9
$USERI3
 70
     0
  9
$USERI4
 70
     0
  9
$USERI5
 70
     0
  9
$USERR1
 40
0.0
  9
$USERR2
 40
0.0
  9
$USERR3
 40
0.0
  9
$USERR4
 40
0.0
  9
$USERR5
 40
0.0
  9
$WORLDVIEW
 70
     1
  9
$SHADEDGE
 70
     3
  9
$SHADEDIF
 70
    70
  9
$TILEMODE
 70
     0
  9
$MAXACTVP
 70
    16
  9
$PINSBASE
 10
0.0
 20
0.0
 30
0.0
  9
$PLIMCHECK
 70
     0
  9
$PEXTMIN
 10
0.0332799218750992
 20
0.0271759260146105
 30
-0.0015258207003583
  9
$PEXTMAX
 10
10.35920742989465
 20
7.910323895798452
 30
0.0000000349246037
  9
$PLIMMIN
 10
-0.3306119115190196
 20
-0.2812499079328949
  9
$PLIMMAX
 10
10.66938784818509
 20
8.218749851771214
  9
$UNITMODE
 70
     0
  9
$VISRETAIN
 70
     0
  9
$PLINEGEN
 70
     1
  9
$PSLTSCALE
 70
     0
  9
$TREEDEPTH
 70
  3020
  9
$CMLSTYLE
  2
Standard
  9
$CMLJUST
 70
     0
  9
$CMLSCALE
 40
1.0
  9
$PROXYGRAPHICS
 70
     0
  9
$MEASUREMENT
 70
     0
  9
$CELWEIGHT
370
     0
  9
$ENDCAPS
280
     0
  9
$JOINSTYLE
280
     0
  9
$LWDISPLAY
290
     0
  9
$INSUNITS
 70
     0
  9
$HYPERLINKBASE
  1

  9
$STYLESHEET
  1

  9
$XEDIT
290
     1
  9
$CEPSNTYPE
380
     0
  9
$PSTYLEMODE
290
     1
  9
$FINGERPRINTGUID
  2

  9
$VERSIONGUID
  2
{59A99BAE-FB0E-4247-920B-297B73689B73}
  9
$EXTNAMES
290
     1
  9
$PSVPSCALE
 40
0.0
  9
$OLESTARTUP
290
     0
  9
$SORTENTS
280
   127
  9
$INDEXCTL
280
     0
  9
$HIDETEXT
280
     0
  9
$XCLIPFRAME
290
     0
  9
$HALOGAP
280
     0
  9
$OBSCOLOR
 70
   257
  9
$OBSLTYPE
280
     0
  9
$INTERSECTIONDISPLAY
280
     0
  9
$INTERSECTIONCOLOR
 70
   257
  9
$DIMASSOC
280
     1
  9
$PROJECTNAME
  1

  0
ENDSEC
  0
SECTION
  2
CLASSES
  0
CLASS
  1
IMAGE
  2
AcDbRasterImage
  3
ISM
 90
     2175
 91
        0
280
     0
281
     1
  0
CLASS
  1
DICTIONARYVAR
  2
AcDbDictionaryVar
  3
ObjectDBX Classes
 90
        0
 91
        5
280
     0
281
     0
  0
CLASS
  1
RASTERVARIABLES
  2
AcDbRasterVariables
  3
ISM
 90
        0
 91
        0
280
     0
281
     0
  0
CLASS
  1
IMAGEDEF
  2
AcDbRasterImageDef
  3
ISM
 90
        0
 91
        0
280
     0
281
     0
  0
CLASS
  1
IMAGEDEF_REACTOR
  2
AcDbRasterImageDefReactor
  3
ISM
 90
        1
 91
        0
280
     0
281
     0
  0
CLASS
  1
IDBUFFER
  2
AcDbIdBuffer
  3
ObjectDBX Classes
 90
        0
 91
        0
280
     0
281
     0
  0
CLASS
  1
SPATIAL_FILTER
  2
AcDbSpatialFilter
  3
ObjectDBX Classes
 90
        0
 91
        0
280
     0
281
     0
  0
CLASS
  1
SORTENTSTABLE
  2
AcDbSortentsTable
  3
ObjectDBX Classes
 90
        0
 91
        1
280
     0
281
     0
  0
CLASS
  1
LAYER_INDEX
  2
AcDbLayerIndex
  3
ObjectDBX Classes
 90
        0
 91
        0
280
     0
281
     0
  0
CLASS
  1
SPATIAL_INDEX
  2
AcDbSpatialIndex
  3
ObjectDBX Classes
 90
        0
 91
        0
280
     0
281
     0
  0
CLASS
  1
OBJECT_PTR
  2
CAseDLPNTableRecord
  3
"ASE-LPNTableRecord"
 90
        1
 91
        0
280
     0
281
     0
  0
CLASS
  1
PLOTSETTINGS
  2
AcDbPlotSettings
  3
ObjectDBX Classes
 90
        0
 91
        0
280
     0
281
     0
  0
CLASS
  1
ACDBDICTIONARYWDFLT
  2
AcDbDictionaryWithDefault
  3
ObjectDBX Classes
 90
        0
 91
        1
280
     0
281
     0
  0
CLASS
  1
WIPEOUT
  2
AcDbWipeout
  3
"WipeOut|Product Desc: Object Enabler for WipeOut entity                        |Company: Autodesk, Inc.                        |WEB Address: www.autodesk.com"
 90
     2175
 91
        0
280
     0
281
     1
  0
CLASS
  1
WIPEOUTVARIABLES
  2
AcDbWipeoutVariables
  3
"WipeOut|Product Desc:     WipeOut Dbx Application|Company:          Autodesk, Inc.|WEB Address:      www.autodesk.com"
 90
        0
 91
        1
280
     0
281
     0
  0
CLASS
  1
RTEXT
  2
RText
  3
RText|AutoCAD Express Tool|expresstools@autodesk.com
 90
        0
 91
        0
280
     0
281
     1
  0
CLASS
  1
ARCALIGNEDTEXT
  2
AcDbArcAlignedText
  3
ATEXT|AutoCAD Express Tool|expresstools@autodesk.com
 90
        0
 91
        0
280
     0
281
     1
  0
CLASS
  1
MATERIAL
  2
AcDbMaterial
  3
ObjectDBX Classes
 90
     1153
 91
        3
280
     0
281
     0
  0
CLASS
  1
VISUALSTYLE
  2
AcDbVisualStyle
  3
ObjectDBX Classes
 90
     4095
 91
       16
280
     0
281
     0
  0
CLASS
  1
TABLESTYLE
  2
AcDbTableStyle
  3
ObjectDBX Classes
 90
     4095
 91
        1
280
     0
281
     0
  0
CLASS
  1
SCALE
  2
AcDbScale
  3
ObjectDBX Classes
 90
     1153
 91
       33
280
     0
281
     0
  0
CLASS
  1
MLEADERSTYLE
  2
AcDbMLeaderStyle
  3
ACDB_MLEADERSTYLE_CLASS
 90
     4095
 91
        1
280
     0
281
     0
  0
CLASS
  1
CELLSTYLEMAP
  2
AcDbCellStyleMap
  3
ObjectDBX Classes
 90
     1152
 91
        3
280
     0
281
     0
  0
ENDSEC
  0
SECTION
  2
TABLES
  0
TABLE
  2
VPORT
  5
7
330
0
100
AcDbSymbolTable
 70
     1
  0
VPORT
  5
15
330
7
100
AcDbSymbolTableRecord
100
AcDbViewportTableRecord
  2
*ACTIVE
 70
     0
 10
0.0
 20
0.0
 11
1.0
 21
1.0
 12
12.11780667605996
 22
4.579183999999999
 13
0.0
 23
0.0
 14
1.0
 24
1.0
 15
0.0
 25
0.0
 16
0.0
 26
0.0
 36
1.0
 17
0.0
 27
0.0
 37
0.0
 40
9.158369
 41
1.895442359249329
 42
50.0
 43
0.0
 44
0.0
 50
0.0
 51
0.0
 71
     0
 72
   100
 73
     1
 74
     1
 75
     0
 76
     0
 77
     0
 78
     0
281
     0
 65
     0
110
0.0
120
0.0
130
0.0
111
1.0
121
0.0
131
0.0
112
0.0
122
1.0
132
0.0
 79
     0
146
0.0
  0
ENDTAB
  0
TABLE
  2
LTYPE
  5
4
330
0
100
AcDbSymbolTable
 70
     5
  0
LTYPE
  5
11
330
4
100
AcDbSymbolTableRecord
100
AcDbLinetypeTableRecord
  2
ByBlock
 70
     0
  3

 72
    65
 73
     0
 40
0.0
  0
LTYPE
  5
12
330
4
100
AcDbSymbolTableRecord
100
AcDbLinetypeTableRecord
  2
ByLayer
 70
     0
  3

 72
    65
 73
     0
 40
0.0
  0
LTYPE
  5
13
330
4
100
AcDbSymbolTableRecord
100
AcDbLinetypeTableRecord
  2
Continuous
 70
     0
  3
Solid line
 72
    65
 73
     0
 40
0.0
  0
LTYPE
  5
24
330
4
100
AcDbSymbolTableRecord
100
AcDbLinetypeTableRecord
  2
solid
 70
     0
  3

 72
    65
 73
     0
 40
0.0
  0
LTYPE
  5
25
330
4
100
AcDbSymbolTableRecord
100
AcDbLinetypeTableRecord
  2
dashed
 70
     0
  3

 72
    65
 73
     0
 40
0.0
  0
LTYPE
  5
26
330
4
100
AcDbSymbolTableRecord
100
AcDbLinetypeTableRecord
  2
center
 70
     0
  3

 72
    65
 73
     0
 40
0.0
  0
ENDTAB
  0
TABLE
  2
LAYER
  5
2
330
0
100
AcDbSymbolTable
 70
     3
  0
LAYER
  5
14
102
{ACAD_XDICTIONARY
360
16B
102
}
330
2
100
AcDbSymbolTableRecord
100
AcDbLayerTableRecord
  2
0
 70
     0
 62
     7
  6
Continuous
370
    -3
390
1D
  0
LAYER
  5
27
102
{ACAD_XDICTIONARY
360
16D
102
}
330
2
100
AcDbSymbolTableRecord
100
AcDbLayerTableRecord
  2
1
 70
     0
 62
     1
  6
solid
370
    -3
390
1D
  0
LAYER
  5
105
102
{ACAD_XDICTIONARY
360
16F
102
}
330
2
100
AcDbSymbolTableRecord
100
AcDbLayerTableRecord
  2
0
 70
     0
 62
     1
  6
solid
370
    -3
390
1D
  0
ENDTAB
  0
TABLE
  2
STYLE
  5
3
330
0
100
AcDbSymbolTable
 70
     2
  0
STYLE
  5
17
330
3
100
AcDbSymbolTableRecord
100
AcDbTextStyleTableRecord
  2
Standard
 70
     0
 40
0.0
 41
1.0
 50
0.0
 71
     0
 42
0.0
  3
txt
  4

  0
ENDTAB
  0
TABLE
  2
VIEW
  5
5
330
0
100
AcDbSymbolTable
 70
     0
  0
ENDTAB
  0
TABLE
  2
UCS
  5
6
330
0
100
AcDbSymbolTable
 70
     0
  0
ENDTAB
  0
TABLE
  2
APPID
  5
8
330
0
100
AcDbSymbolTable
 70
     3
  0
APPID
  5
16
330
8
100
AcDbSymbolTableRecord
100
AcDbRegAppTableRecord
  2
ACAD
 70
     0
  0
APPID
  5
13A
330
8
100
AcDbSymbolTableRecord
100
AcDbRegAppTableRecord
  2
ACAD_PSEXT
 70
     0
  0
APPID
  5
164
330
8
100
AcDbSymbolTableRecord
100
AcDbRegAppTableRecord
  2
ACAD_MLEADERVER
 70
     0
  0
ENDTAB
  0
TABLE
  2
DIMSTYLE
  5
9
330
0
100
AcDbSymbolTable
 70
     3
100
AcDbDimStyleTable
 71
     1
340
18
  0
DIMSTYLE
105
18
102
{ACAD_REACTORS
330
A9
102
}
330
9
100
AcDbSymbolTableRecord
100
AcDbDimStyleTableRecord
  2
Standard
 70
     0
289
     0
340
17
  0
ENDTAB
  0
TABLE
  2
BLOCK_RECORD
  5
1
330
0
100
AcDbSymbolTable
 70
     4
  0
BLOCK_RECORD
  5
A
102
{ACAD_XDICTIONARY
360
180
102
}
330
1
100
AcDbSymbolTableRecord
100
AcDbBlockTableRecord
  2
*MODEL_SPACE
340
20
  0
BLOCK_RECORD
  5
B
330
1
100
AcDbSymbolTableRecord
100
AcDbBlockTableRecord
  2
*PAPER_SPACE
340
21
  0
BLOCK_RECORD
  5
94
330
1
100
AcDbSymbolTableRecord
100
AcDbBlockTableRecord
  2
*D0
340
0
  0
BLOCK_RECORD
  5
9F
330
1
100
AcDbSymbolTableRecord
100
AcDbBlockTableRecord
  2
*D1
340
0
  0
ENDTAB
  0
ENDSEC
  0
SECTION
  2
BLOCKS
  0
BLOCK
  5
D
330
A
100
AcDbEntity
  8
0
100
AcDbBlockBegin
  2
*MODEL_SPACE
 70
     0
 10
0.0
 20
0.0
 30
0.0
  3
*MODEL_SPACE
  1

  0
ENDBLK
  5
E
330
A
100
AcDbEntity
  8
0
100
AcDbBlockEnd
  0
BLOCK
  5
F
330
B
100
AcDbEntity
 67
     1
  8
0
100
AcDbBlockBegin
  2
*PAPER_SPACE
 70
     0
 10
0.0
 20
0.0
 30
0.0
  3
*PAPER_SPACE
  1

  0
ENDBLK
  5
10
330
B
100
AcDbEntity
 67
     1
  8
0
100
AcDbBlockEnd
  0
BLOCK
  5
95
330
94
100
AcDbEntity
  8
1
  6
solid
 62
     7
100
AcDbBlockBegin
  2
*D0
 70
     0
 10
0.0
 20
0.0
 30
0.0
  3
*D0
  1

  0
LINE
  5
96
330
94
100
AcDbEntity
  8
1
  6
solid
 62
     7
100
AcDbLine
 10
-1.575588822364807
 20
0.2797829210758209
 30
0.0
 11
-1.575588822364807
 21
-0.0412903032560713
 31
0.0
  0
LINE
  5
97
330
94
100
AcDbEntity
  8
1
  6
solid
 62
     7
100
AcDbLine
 10
-1.014239072799682
 20
0.0566431283950806
 30
0.0
 11
-1.014239072799682
 21
-0.0412903032560713
 31
0.0
  0
LINE
  5
98
330
94
100
AcDbEntity
  8
1
  6
solid
 62
     7
100
AcDbLine
 10
-1.575588822364807
 20
0.0212096967439287
 30
0.0
 11
-1.503458065229303
 21
0.0212096967439287
 31
0.0
  0
LINE
  5
99
330
94
100
AcDbEntity
  8
1
  6
solid
 62
     7
100
AcDbLine
 10
-1.014239072799682
 20
0.0212096967439287
 30
0.0
 11
-1.086369829935186
 21
0.0212096967439287
 31
0.0
  0
MTEXT
  5
9A
330
94
100
AcDbEntity
  8
1
  6
solid
 62
     7
100
AcDbMText
 10
-1.294913947582244
 20
0.0212096967439287
 30
0.0
 40
0.125
 41
0.0
 71
     5
 72
     1
  1
{\H0.125000;9/16}
 73
     1
 44
1.0
  0
SOLID
  5
9B
330
94
100
AcDbEntity
  8
1
  6
solid
 62
     7
100
AcDbTrace
 10
-1.550588822364807
 20
0.0337096967439287
 30
0.0
 11
-1.550588822364807
 21
0.0087096967439287
 31
0.0
 12
-1.575588822364807
 22
0.0212096967439287
 32
0.0
 13
-1.575588822364807
 23
0.0212096967439287
 33
0.0
  0
SOLID
  5
9C
330
94
100
AcDbEntity
  8
1
  6
solid
 62
     7
100
AcDbTrace
 10
-1.039239072799682
 20
0.0087096967439287
 30
0.0
 11
-1.039239072799682
 21
0.0337096967439287
 31
0.0
 12
-1.014239072799682
 22
0.0212096967439287
 32
0.0
 13
-1.014239072799682
 23
0.0212096967439287
 33
0.0
  0
ENDBLK
  5
9D
330
94
100
AcDbEntity
  8
1
  6
solid
 62
     7
100
AcDbBlockEnd
  0
BLOCK
  5
A0
330
9F
100
AcDbEntity
  8
1
  6
solid
 62
     7
100
AcDbBlockBegin
  2
*D1
 70
     0
 10
0.0
 20
0.0
 30
0.0
  3
*D1
  1

  0
LINE
  5
A1
330
9F
100
AcDbEntity
  8
1
  6
solid
 62
     7
100
AcDbLine
 10
-0.8892390727996826
 20
0.1816431283950804
 30
0.0
 11
-0.4044281316719417
 21
0.1816431283950801
 31
0.0
  0
LINE
  5
A2
330
9F
100
AcDbEntity
  8
1
  6
solid
 62
     7
100
AcDbLine
 10
-0.8892391920089721
 20
2.43164324760437
 30
0.0
 11
-0.40442813167194
 21
2.431643247604369
 31
0.0
  0
LINE
  5
A3
330
9F
100
AcDbEntity
  8
1
  6
solid
 62
     7
100
AcDbLine
 10
-0.4669281316719417
 20
0.1816431283950801
 30
0.0
 11
-0.466928131671941
 21
1.146770591845878
 31
0.0
  0
LINE
  5
A4
330
9F
100
AcDbEntity
  8
1
  6
solid
 62
     7
100
AcDbLine
 10
-0.46692813167194
 20
2.431643247604369
 30
0.0
 11
-0.4669281316719407
 21
1.46651578415357
 31
0.0
  0
MTEXT
  5
A5
330
9F
100
AcDbEntity
  8
1
  6
solid
 62
     7
100
AcDbMText
 10
-0.4669281316719408
 20
1.306643187999724
 30
0.0
 40
0.125
 41
0.0
 71
     5
 72
     1
  1
{\H0.125000;2 1/4}
 73
     1
 44
1.0
  0
SOLID
  5
A6
330
9F
100
AcDbEntity
  8
1
  6
solid
 62
     7
100
AcDbTrace
 10
-0.4794281316719417
 20
0.2066431283950801
 30
0.0
 11
-0.4544281316719417
 21
0.2066431283950801
 31
0.0
 12
-0.4669281316719417
 22
0.1816431283950801
 32
0.0
 13
-0.4669281316719417
 23
0.1816431283950801
 33
0.0
  0
SOLID
  5
A7
330
9F
100
AcDbEntity
  8
1
  6
solid
 62
     7
100
AcDbTrace
 10
-0.45442813167194
 20
2.406643247604369
 30
0.0
 11
-0.4794281316719401
 21
2.406643247604369
 31
0.0
 12
-0.46692813167194
 22
2.431643247604369
 32
0.0
 13
-0.46692813167194
 23
2.431643247604369
 33
0.0
  0
ENDBLK
  5
A8
330
9F
100
AcDbEntity
  8
1
  6
solid
 62
     7
100
AcDbBlockEnd
  0
ENDSEC
  0
SECTION
  2
ENTITIES
  0
ARC
  5
28
330
A
100
AcDbEntity
  8
1
  6
solid
 62
     7
100
AcDbCircle
 10
0.9994222095711474
 20
2.086265269267093
 30
0.0
 40
0.224534269697119
100
AcDbArc
 50
133.1050001381616
 51
199.1671131773033
  0
LINE
  5
29
330
A
100
AcDbEntity
  8
1
  6
solid
 62
     7
100
AcDbLine
 10
0.787335024295915
 20
2.012545028732489
 30
0.0
 11
0.7552009242822808
 21
1.999594548257777
 31
0.0
  0
ARC
  5
2A
330
A
100
AcDbEntity
  8
1
  6
solid
 62
     7
100
AcDbCircle
 10
0.772667585752783
 20
1.953662811018272
 30
0.0
 40
0.0491407526037258
100
AcDbArc
 50
110.8205037220746
 51
190.4518098391093
  0
LINE
  5
2B
330
A
100
AcDbEntity
  8
1
  6
solid
 62
     7
100
AcDbLine
 10
0.7243422063624545
 20
1.94474818626237
 30
0.0
 11
0.7246011128010331
 21
1.689128426385274
 31
0.0
  0
ARC
  5
2C
330
A
100
AcDbEntity
  8
1
  6
solid
 62
     7
100
AcDbCircle
 10
0.6477045221728694
 20
1.699691792155437
 30
0.0
 40
0.0776187702631719
100
AcDbArc
 50
293.9734825372014
 51
352.1781421028395
  0
ARC
  5
2D
330
A
100
AcDbEntity
  8
1
  6
solid
 62
     7
100
AcDbCircle
 10
-0.2457200340558216
 20
1.535089256042396
 30
0.0
 40
0.929693934165941
100
AcDbArc
 50
337.1943296455887
 51
365.7831756876957
  0
ARC
  5
2E
330
A
100
AcDbEntity
  8
1
  6
solid
 62
     7
100
AcDbCircle
 10
1.229132099722996
 20
0.7761042097883385
 30
0.0
 40
0.7352740968012364
100
AcDbArc
 50
147.1698560890949
 51
183.1968445289804
  0
ARC
  5
2F
330
A
100
AcDbEntity
  8
1
  6
solid
 62
     7
100
AcDbCircle
 10
0.5799045985860563
 20
0.7185759335771233
 30
0.0
 40
0.0864955512079696
100
AcDbArc
 50
168.9860697283289
 51
235.8056233267666
  0
ARC
  5
30
330
A
100
AcDbEntity
  8
1
  6
solid
 62
     7
100
AcDbCircle
 10
0.5956086405427154
 20
0.5085888223622567
 30
0.0
 40
0.1526530134448072
100
AcDbArc
 50
114.9175206715073
 51
179.4733772795161
  0
ARC
  5
31
330
A
100
AcDbEntity
  8
1
  6
solid
 62
     7
100
AcDbCircle
 10
1.421092261760797
 20
0.3256592020056722
 30
0.0
 40
0.9953478071940777
100
AcDbArc
 50
169.3275355691389
 51
185.1627074556164
  0
ARC
  5
32
330
A
100
AcDbEntity
  8
1
  6
solid
 62
     7
100
AcDbCircle
 10
0.5034990342189571
 20
0.226731899518294
 30
0.0
 40
0.0743086753021482
100
AcDbArc
 50
172.7625995094284
 51
269.5120194820114
  0
LINE
  5
33
330
A
100
AcDbEntity
  8
1
  6
solid
 62
     7
100
AcDbLine
 10
0.9882445139819953
 20
0.1503590025076355
 30
0.0
 11
0.5028661647860773
 21
0.1524259192647437
 31
0.0
  0
LINE
  5
34
330
A
100
AcDbEntity
  8
1
  6
solid
 62
     7
100
AcDbLine
 10
0.8570782377980393
 20
2.400359002507635
 30
0.0
 11
0.9882444543773505
 21
2.400359002507635
 31
0.0
  0
ARC
  5
35
330
A
100
AcDbEntity
  8
1
  6
solid
 62
     7
100
AcDbCircle
 10
0.548055256233182
 20
2.347689088318467
 30
0.0
 40
0.3134793820906384
100
AcDbArc
 50
341.8807196495447
 51
369.6725522722103
  0
LINE
  5
36
330
A
100
AcDbEntity
  8
1
  6
solid
 62
     7
100
AcDbLine
 10
0.9882444543773505
 20
2.400359002507635
 30
0.0
 11
0.9882444543773505
 21
2.025359002507635
 31
0.0
  0
LINE
  5
37
330
A
100
AcDbEntity
  8
1
  6
solid
 62
     7
100
AcDbLine
 10
0.9882444543773505
 20
0.5253590025076355
 30
0.0
 11
0.9882444543773505
 21
0.1503590025076355
 31
0.0
  0
ARC
  5
38
330
A
100
AcDbEntity
  8
1
  6
solid
 62
     7
100
AcDbCircle
 10
0.9882444543773505
 20
1.962859002507635
 30
0.0
 40
0.0625
100
AcDbArc
 50
90.0
 51
180.0
  0
LINE
  5
39
330
A
100
AcDbEntity
  8
1
  6
solid
 62
     7
100
AcDbLine
 10
0.9257444543773505
 20
0.5878590025076356
 30
0.0
 11
0.9257444543773505
 21
1.962859002507635
 31
0.0
  0
ARC
  5
3A
330
A
100
AcDbEntity
  8
1
  6
solid
 62
     7
100
AcDbCircle
 10
0.9882444543773505
 20
0.5878590025076355
 30
0.0
 40
0.0625
100
AcDbArc
 50
179.9999999999999
 51
269.9999999999999
  0
ARC
  5
3B
330
A
100
AcDbEntity
  8
1
  6
solid
 62
     7
100
AcDbCircle
 10
0.689088908789474
 20
2.39153686740212
 30
0.0
 40
0.224534269697119
100
AcDbArc
 50
133.1050001381616
 51
199.1671131773033
  0
LINE
  5
3C
330
A
100
AcDbEntity
  8
1
  6
solid
 62
     7
100
AcDbLine
 10
0.4770017235142415
 20
2.317816626867516
 30
0.0
 11
0.4448676235006072
 21
2.304866146392804
 31
0.0
  0
ARC
  5
3D
330
A
100
AcDbEntity
  8
1
  6
solid
 62
     7
100
AcDbCircle
 10
0.4623342849711094
 20
2.258934409153298
 30
0.0
 40
0.0491407526037258
100
AcDbArc
 50
110.8205037220746
 51
190.4518098391093
  0
LINE
  5
3E
330
A
100
AcDbEntity
  8
1
  6
solid
 62
     7
100
AcDbLine
 10
0.414008905580781
 20
2.250019784397396
 30
0.0
 11
0.4142678120193595
 21
1.994400024520301
 31
0.0
  0
ARC
  5
3F
330
A
100
AcDbEntity
  8
1
  6
solid
 62
     7
100
AcDbCircle
 10
0.3373712213911958
 20
2.004963390290463
 30
0.0
 40
0.0776187702631719
100
AcDbArc
 50
293.9734825372014
 51
352.1781421028395
  0
ARC
  5
40
330
A
100
AcDbEntity
  8
1
  6
solid
 62
     7
100
AcDbCircle
 10
-0.5560533348374951
 20
1.840360854177423
 30
0.0
 40
0.929693934165941
100
AcDbArc
 50
337.1943296455887
 51
365.7831756876957
  0
ARC
  5
41
330
A
100
AcDbEntity
  8
1
  6
solid
 62
     7
100
AcDbCircle
 10
0.918798798941323
 20
1.081375807923365
 30
0.0
 40
0.7352740968012364
100
AcDbArc
 50
147.1698560890949
 51
183.1968445289804
  0
ARC
  5
42
330
A
100
AcDbEntity
  8
1
  6
solid
 62
     7
100
AcDbCircle
 10
0.2695712978043827
 20
1.023847531712149
 30
0.0
 40
0.0864955512079696
100
AcDbArc
 50
168.9860697283289
 51
235.8056233267666
  0
ARC
  5
43
330
A
100
AcDbEntity
  8
1
  6
solid
 62
     7
100
AcDbCircle
 10
0.2852753397610419
 20
0.8138604204972834
 30
0.0
 40
0.1526530134448072
100
AcDbArc
 50
114.9175206715073
 51
179.4733772795161
  0
ARC
  5
44
330
A
100
AcDbEntity
  8
1
  6
solid
 62
     7
100
AcDbCircle
 10
1.110758960979123
 20
0.6309308001406989
 30
0.0
 40
0.9953478071940777
100
AcDbArc
 50
169.3275355691389
 51
185.1627074556164
  0
LINE
  5
45
330
A
100
AcDbEntity
  8
1
  6
solid
 62
     7
100
AcDbLine
 10
0.5467449370163658
 20
2.705630600642662
 30
0.0
 11
0.677911153595677
 21
2.705630600642662
 31
0.0
  0
ARC
  5
46
330
A
100
AcDbEntity
  8
1
  6
solid
 62
     7
100
AcDbCircle
 10
0.2377219554515084
 20
2.652960686453494
 30
0.0
 40
0.3134793820906384
100
AcDbArc
 50
341.8807196495447
 51
369.6725522722103
  0
ARC
  5
47
330
A
100
AcDbEntity
  8
1
  6
solid
 62
     7
100
AcDbCircle
 10
0.1931657334372835
 20
0.5320034976533208
 30
0.0
 40
0.0743086753021482
100
AcDbArc
 50
172.7625995094284
 51
229.9600412526063
  0
LINE
  5
48
330
A
100
AcDbEntity
  8
1
  6
solid
 62
     7
100
AcDbLine
 10
0.6779111623764038
 20
2.705630540847778
 30
0.0
 11
0.9882444739341735
 21
2.400358915328979
 31
0.0
  0
LINE
  5
49
330
A
100
AcDbEntity
  8
1
  6
solid
 62
     7
100
AcDbLine
 10
0.4770017266273499
 20
2.317816734313964
 30
0.0
 11
0.7873350381851197
 21
2.012545108795166
 31
0.0
  0
LINE
  5
4A
330
A
100
AcDbEntity
  8
1
  6
solid
 62
     7
100
AcDbLine
 10
0.3689087629318237
 20
1.934040665626525
 30
0.0
 11
0.6792420744895935
 21
1.628769040107727
 31
0.0
  0
LINE
  5
4B
330
A
100
AcDbEntity
  8
1
  6
solid
 62
     7
100
AcDbLine
 10
0.2209606021642685
 20
0.9523039460182189
 30
0.0
 11
0.5312939286231995
 21
0.647032380104065
 31
0.0
  0
LINE
  5
4C
330
A
100
AcDbEntity
  8
1
  6
solid
 62
     7
100
AcDbLine
 10
0.1372012495994568
 20
0.4831183552742005
 30
0.0
 11
0.4442172616112644
 21
0.1819273164753741
 31
0.0
  0
LINE
  5
4D
330
A
100
AcDbEntity
  8
1
  6
solid
 62
     7
100
AcDbLine
 10
0.8570782542228698
 20
2.400358915328979
 30
0.0
 11
0.5467449426651001
 21
2.705630540847778
 31
0.0
  0
LINE
  5
4E
330
A
100
AcDbEntity
  8
1
  6
solid
 62
     7
100
AcDbLine
 10
0.581039806732562
 20
0.3502283035991903
 30
0.0
 11
0.581039806732562
 21
0.3221206516501857
 31
0.0
  0
LINE
  5
4F
330
A
100
AcDbEntity
  8
1
  6
solid
 62
     7
100
AcDbLine
 10
0.581039806732562
 20
0.3221206516501857
 30
0.0
 11
0.4867965031388408
 21
0.3221206516501857
 31
0.0
  0
SPLINE
  5
50
330
A
100
AcDbEntity
  8
1
  6
solid
 62
     7
100
AcDbSpline
210
0.0
220
0.0
230
1.0
 70
     8
 71
     2
 72
     7
 73
     4
 74
     0
 42
0.0000000001
 43
0.0000000001
 40
0.0
 40
0.0
 40
0.0
 40
1.0
 40
2.0
 40
2.0
 40
2.0
 10
0.4867965031388408
 20
0.3221206516501857
 30
0.0
 10
0.4877784852944615
 20
0.3358726345105815
 30
0.0
 10
0.5033473467768409
 20
0.3608766725992028
 30
0.0
 10
0.5252985631855421
 20
0.3818797683059254
 30
0.0
  0
SPLINE
  5
51
330
A
100
AcDbEntity
  8
1
  6
solid
 62
     7
100
AcDbSpline
210
0.0
220
0.0
230
1.0
 70
     8
 71
     2
 72
     6
 73
     3
 74
     0
 42
0.0000000001
 43
0.0000000001
 40
0.0
 40
0.0
 40
0.0
 40
1.0
 40
1.0
 40
1.0
 10
0.5252985631855421
 20
0.3818797683059254
 30
0.0
 10
0.5432826986659867
 20
0.398566057758494
 30
0.0
 10
0.5470804723260329
 20
0.4041865299778686
 30
0.0
  0
SPLINE
  5
52
330
A
100
AcDbEntity
  8
1
  6
solid
 62
     7
100
AcDbSpline
210
0.0
220
0.0
230
1.0
 70
     8
 71
     2
 72
     6
 73
     3
 74
     0
 42
0.0000000001
 43
0.0000000001
 40
0.0
 40
0.0
 40
0.0
 40
1.0
 40
1.0
 40
1.0
 10
0.5470804723260329
 20
0.4041865299778686
 30
0.0
 10
0.5529321547835574
 20
0.4124365557066372
 30
0.0
 10
0.5529321547835574
 20
0.4205680663476584
 30
0.0
  0
SPLINE
  5
53
330
A
100
AcDbEntity
  8
1
  6
solid
 62
     7
100
AcDbSpline
210
0.0
220
0.0
230
1.0
 70
     8
 71
     2
 72
     7
 73
     4
 74
     0
 42
0.0000000001
 43
0.0000000001
 40
0.0
 40
0.0
 40
0.0
 40
1.0
 40
2.0
 40
2.0
 40
2.0
 10
0.5529321547835574
 20
0.4205680663476584
 30
0.0
 10
0.5529321547835574
 20
0.429828115748345
 30
0.0
 10
0.5436213132024076
 20
0.4395114333195579
 30
0.0
 10
0.5355744561954917
 20
0.4395114333195579
 30
0.0
  0
SPLINE
  5
54
330
A
100
AcDbEntity
  8
1
  6
solid
 62
     7
100
AcDbSpline
210
0.0
220
0.0
230
1.0
 70
     8
 71
     2
 72
     7
 73
     4
 74
     0
 42
0.0000000001
 43
0.0000000001
 40
0.0
 40
0.0
 40
0.0
 40
1.0
 40
2.0
 40
2.0
 40
2.0
 10
0.5355744561954917
 20
0.4395114333195579
 30
0.0
 10
0.5281651468704308
 20
0.4395114333195579
 30
0.0
 10
0.5186849980210705
 20
0.4290043300714584
 30
0.0
 10
0.5182109376700812
 20
0.4180173465350249
 30
0.0
  0
LINE
  5
55
330
A
100
AcDbEntity
  8
1
  6
solid
 62
     7
100
AcDbLine
 10
0.5182109376700812
 20
0.4180173465350249
 30
0.0
 11
0.4901032857210766
 21
0.4203141054453427
 31
0.0
  0
SPLINE
  5
56
330
A
100
AcDbEntity
  8
1
  6
solid
 62
     7
100
AcDbSpline
210
0.0
220
0.0
230
1.0
 70
     8
 71
     2
 72
     7
 73
     4
 74
     0
 42
0.0000000001
 43
0.0000000001
 40
0.0
 40
0.0
 40
0.0
 40
1.0
 40
2.0
 40
2.0
 40
2.0
 10
0.4901032857210766
 20
0.4203141054453427
 30
0.0
 10
0.4922307373631839
 20
0.4435800986087408
 30
0.0
 10
0.5173194290859104
 20
0.4643123026863266
 30
0.0
 10
0.5365506184137676
 20
0.4643123026863266
 30
0.0
  0
SPLINE
  5
57
330
A
100
AcDbEntity
  8
1
  6
solid
 62
     7
100
AcDbSpline
210
0.0
220
0.0
230
1.0
 70
     8
 71
     2
 72
     7
 73
     4
 74
     0
 42
0.0000000001
 43
0.0000000001
 40
0.0
 40
0.0
 40
0.0
 40
1.0
 40
2.0
 40
2.0
 40
2.0
 10
0.5365506184137676
 20
0.4643123026863266
 30
0.0
 10
0.5569669586190983
 20
0.4643123026863266
 30
0.0
 10
0.581039806732562
 20
0.4418928458639808
 30
0.0
 10
0.581039806732562
 20
0.4254435865869068
 30
0.0
  0
SPLINE
  5
58
330
A
100
AcDbEntity
  8
1
  6
solid
 62
     7
100
AcDbSpline
210
0.0
220
0.0
230
1.0
 70
     8
 71
     2
 72
     7
 73
     4
 74
     0
 42
0.0000000001
 43
0.0000000001
 40
0.0
 40
0.0
 40
0.0
 40
1.0
 40
2.0
 40
2.0
 40
2.0
 10
0.581039806732562
 20
0.4254435865869068
 30
0.0
 10
0.581039806732562
 20
0.4164824703316543
 30
0.0
 10
0.5737886938862352
 20
0.3991586331972306
 30
0.0
 10
0.5667179990975953
 20
0.3902652398492623
 30
0.0
  0
SPLINE
  5
59
330
A
100
AcDbEntity
  8
1
  6
solid
 62
     7
100
AcDbSpline
210
0.0
220
0.0
230
1.0
 70
     8
 71
     2
 72
     8
 73
     5
 74
     0
 42
0.0000000001
 43
0.0000000001
 40
0.0
 40
0.0
 40
0.0
 40
1.0
 40
2.0
 40
3.0
 40
3.0
 40
3.0
 10
0.5667179990975953
 20
0.3902652398492623
 30
0.0
 10
0.5618424788583467
 20
0.3839733584943905
 30
0.0
 10
0.5356760405564179
 20
0.360927464779666
 30
0.0
 10
0.5289947524846621
 20
0.3537213241764577
 30
0.0
 10
0.5270535388375864
 20
0.3502283035991903
 30
0.0
  0
LINE
  5
5A
330
A
100
AcDbEntity
  8
1
  6
solid
 62
     7
100
AcDbLine
 10
0.581039806732562
 20
0.3502283035991903
 30
0.0
 11
0.5270535388375864
 21
0.3502283035991903
 31
0.0
  0
LINE
  5
5B
330
A
100
AcDbEntity
  8
1
  6
solid
 62
     7
100
AcDbLine
 10
0.6868586482538334
 20
0.3502283035991903
 30
0.0
 11
0.6868586482538334
 21
0.3221206516501857
 31
0.0
  0
LINE
  5
5C
330
A
100
AcDbEntity
  8
1
  6
solid
 62
     7
100
AcDbLine
 10
0.6868586482538334
 20
0.3221206516501857
 30
0.0
 11
0.5926153446601122
 21
0.3221206516501857
 31
0.0
  0
SPLINE
  5
5D
330
A
100
AcDbEntity
  8
1
  6
solid
 62
     7
100
AcDbSpline
210
0.0
220
0.0
230
1.0
 70
     8
 71
     2
 72
     7
 73
     4
 74
     0
 42
0.0000000001
 43
0.0000000001
 40
0.0
 40
0.0
 40
0.0
 40
1.0
 40
2.0
 40
2.0
 40
2.0
 10
0.5926153446601122
 20
0.3221206516501857
 30
0.0
 10
0.593597326815733
 20
0.3358726345105815
 30
0.0
 10
0.6091661882981123
 20
0.3608766725992028
 30
0.0
 10
0.6311174047068136
 20
0.3818797683059254
 30
0.0
  0
SPLINE
  5
5E
330
A
100
AcDbEntity
  8
1
  6
solid
 62
     7
100
AcDbSpline
210
0.0
220
0.0
230
1.0
 70
     8
 71
     2
 72
     6
 73
     3
 74
     0
 42
0.0000000001
 43
0.0000000001
 40
0.0
 40
0.0
 40
0.0
 40
1.0
 40
1.0
 40
1.0
 10
0.6311174047068136
 20
0.3818797683059254
 30
0.0
 10
0.6491015401872581
 20
0.398566057758494
 30
0.0
 10
0.6528993138473043
 20
0.4041865299778686
 30
0.0
  0
SPLINE
  5
5F
330
A
100
AcDbEntity
  8
1
  6
solid
 62
     7
100
AcDbSpline
210
0.0
220
0.0
230
1.0
 70
     8
 71
     2
 72
     6
 73
     3
 74
     0
 42
0.0000000001
 43
0.0000000001
 40
0.0
 40
0.0
 40
0.0
 40
1.0
 40
1.0
 40
1.0
 10
0.6528993138473043
 20
0.4041865299778686
 30
0.0
 10
0.6587509963048288
 20
0.4124365557066372
 30
0.0
 10
0.6587509963048288
 20
0.4205680663476584
 30
0.0
  0
SPLINE
  5
60
330
A
100
AcDbEntity
  8
1
  6
solid
 62
     7
100
AcDbSpline
210
0.0
220
0.0
230
1.0
 70
     8
 71
     2
 72
     7
 73
     4
 74
     0
 42
0.0000000001
 43
0.0000000001
 40
0.0
 40
0.0
 40
0.0
 40
1.0
 40
2.0
 40
2.0
 40
2.0
 10
0.6587509963048288
 20
0.4205680663476584
 30
0.0
 10
0.6587509963048288
 20
0.429828115748345
 30
0.0
 10
0.6494401547236791
 20
0.4395114333195579
 30
0.0
 10
0.6413932977167632
 20
0.4395114333195579
 30
0.0
  0
SPLINE
  5
61
330
A
100
AcDbEntity
  8
1
  6
solid
 62
     7
100
AcDbSpline
210
0.0
220
0.0
230
1.0
 70
     8
 71
     2
 72
     7
 73
     4
 74
     0
 42
0.0000000001
 43
0.0000000001
 40
0.0
 40
0.0
 40
0.0
 40
1.0
 40
2.0
 40
2.0
 40
2.0
 10
0.6413932977167632
 20
0.4395114333195579
 30
0.0
 10
0.6339839883917021
 20
0.4395114333195579
 30
0.0
 10
0.624503839542342
 20
0.4290043300714584
 30
0.0
 10
0.6240297791913526
 20
0.4180173465350249
 30
0.0
  0
LINE
  5
62
330
A
100
AcDbEntity
  8
1
  6
solid
 62
     7
100
AcDbLine
 10
0.6240297791913526
 20
0.4180173465350249
 30
0.0
 11
0.595922127242348
 21
0.4203141054453427
 31
0.0
  0
SPLINE
  5
63
330
A
100
AcDbEntity
  8
1
  6
solid
 62
     7
100
AcDbSpline
210
0.0
220
0.0
230
1.0
 70
     8
 71
     2
 72
     7
 73
     4
 74
     0
 42
0.0000000001
 43
0.0000000001
 40
0.0
 40
0.0
 40
0.0
 40
1.0
 40
2.0
 40
2.0
 40
2.0
 10
0.595922127242348
 20
0.4203141054453427
 30
0.0
 10
0.5980495788844554
 20
0.4435800986087408
 30
0.0
 10
0.6231382706071818
 20
0.4643123026863266
 30
0.0
 10
0.642369459935039
 20
0.4643123026863266
 30
0.0
  0
SPLINE
  5
64
330
A
100
AcDbEntity
  8
1
  6
solid
 62
     7
100
AcDbSpline
210
0.0
220
0.0
230
1.0
 70
     8
 71
     2
 72
     7
 73
     4
 74
     0
 42
0.0000000001
 43
0.0000000001
 40
0.0
 40
0.0
 40
0.0
 40
1.0
 40
2.0
 40
2.0
 40
2.0
 10
0.642369459935039
 20
0.4643123026863266
 30
0.0
 10
0.6627858001403697
 20
0.4643123026863266
 30
0.0
 10
0.6868586482538334
 20
0.4418928458639808
 30
0.0
 10
0.6868586482538334
 20
0.4254435865869068
 30
0.0
  0
SPLINE
  5
65
330
A
100
AcDbEntity
  8
1
  6
solid
 62
     7
100
AcDbSpline
210
0.0
220
0.0
230
1.0
 70
     8
 71
     2
 72
     7
 73
     4
 74
     0
 42
0.0000000001
 43
0.0000000001
 40
0.0
 40
0.0
 40
0.0
 40
1.0
 40
2.0
 40
2.0
 40
2.0
 10
0.6868586482538334
 20
0.4254435865869068
 30
0.0
 10
0.6868586482538334
 20
0.4164824703316543
 30
0.0
 10
0.6796075354075068
 20
0.3991586331972306
 30
0.0
 10
0.6725368406188667
 20
0.3902652398492623
 30
0.0
  0
SPLINE
  5
66
330
A
100
AcDbEntity
  8
1
  6
solid
 62
     7
100
AcDbSpline
210
0.0
220
0.0
230
1.0
 70
     8
 71
     2
 72
     8
 73
     5
 74
     0
 42
0.0000000001
 43
0.0000000001
 40
0.0
 40
0.0
 40
0.0
 40
1.0
 40
2.0
 40
3.0
 40
3.0
 40
3.0
 10
0.6725368406188667
 20
0.3902652398492623
 30
0.0
 10
0.6676613203796183
 20
0.3839733584943905
 30
0.0
 10
0.6414948820776894
 20
0.360927464779666
 30
0.0
 10
0.6348135940059336
 20
0.3537213241764577
 30
0.0
 10
0.6328723803588578
 20
0.3502283035991903
 30
0.0
  0
LINE
  5
67
330
A
100
AcDbEntity
  8
1
  6
solid
 62
     7
100
AcDbLine
 10
0.6868586482538334
 20
0.3502283035991903
 30
0.0
 11
0.6328723803588578
 21
0.3502283035991903
 31
0.0
  0
LINE
  5
68
330
A
100
AcDbEntity
  8
1
  6
solid
 62
     7
100
AcDbLine
 10
0.7546494900793929
 20
0.3221206516501857
 30
0.0
 11
0.7546494900793929
 21
0.3502283035991903
 31
0.0
  0
LINE
  5
69
330
A
100
AcDbEntity
  8
1
  6
solid
 62
     7
100
AcDbLine
 10
0.7546494900793929
 20
0.3502283035991903
 30
0.0
 11
0.6984341861813837
 21
0.3502283035991903
 31
0.0
  0
LINE
  5
6A
330
A
100
AcDbEntity
  8
1
  6
solid
 62
     7
100
AcDbLine
 10
0.6984341861813837
 20
0.3502283035991903
 30
0.0
 11
0.6984341861813837
 21
0.3727382339929861
 31
0.0
  0
LINE
  5
6B
330
A
100
AcDbEntity
  8
1
  6
solid
 62
     7
100
AcDbLine
 10
0.6984341861813837
 20
0.3727382339929861
 30
0.0
 11
0.7582271642907655
 21
0.4626589113952086
 31
0.0
  0
LINE
  5
6C
330
A
100
AcDbEntity
  8
1
  6
solid
 62
     7
100
AcDbLine
 10
0.7582271642907655
 20
0.4626589113952086
 30
0.0
 11
0.7827571420283974
 21
0.4626589113952086
 31
0.0
  0
LINE
  5
6D
330
A
100
AcDbEntity
  8
1
  6
solid
 62
     7
100
AcDbLine
 10
0.7827571420283974
 20
0.4626589113952086
 30
0.0
 11
0.7827571420283974
 21
0.3733757816748412
 31
0.0
  0
LINE
  5
6E
330
A
100
AcDbEntity
  8
1
  6
solid
 62
     7
100
AcDbLine
 10
0.7827571420283974
 20
0.3733757816748412
 30
0.0
 11
0.8009444462306944
 21
0.3733757816748412
 31
0.0
  0
LINE
  5
6F
330
A
100
AcDbEntity
  8
1
  6
solid
 62
     7
100
AcDbLine
 10
0.8009444462306944
 20
0.3733757816748412
 30
0.0
 11
0.8009444462306944
 21
0.3502283035991903
 31
0.0
  0
LINE
  5
70
330
A
100
AcDbEntity
  8
1
  6
solid
 62
     7
100
AcDbLine
 10
0.8009444462306944
 20
0.3502283035991903
 30
0.0
 11
0.7827571420283974
 21
0.3502283035991903
 31
0.0
  0
LINE
  5
71
330
A
100
AcDbEntity
  8
1
  6
solid
 62
     7
100
AcDbLine
 10
0.7827571420283974
 20
0.3502283035991903
 30
0.0
 11
0.7827571420283974
 21
0.3221206516501857
 31
0.0
  0
LINE
  5
72
330
A
100
AcDbEntity
  8
1
  6
solid
 62
     7
100
AcDbLine
 10
0.7546494900793929
 20
0.3221206516501857
 30
0.0
 11
0.7827571420283974
 21
0.3221206516501857
 31
0.0
  0
LINE
  5
73
330
A
100
AcDbEntity
  8
1
  6
solid
 62
     7
100
AcDbLine
 10
0.7546494900793929
 20
0.3733757816748412
 30
0.0
 11
0.7546494900793929
 21
0.4186776448810459
 31
0.0
  0
LINE
  5
74
330
A
100
AcDbEntity
  8
1
  6
solid
 62
     7
100
AcDbLine
 10
0.7546494900793929
 20
0.4186776448810459
 30
0.0
 11
0.7237599080796049
 21
0.3733757816748412
 31
0.0
  0
LINE
  5
75
330
A
100
AcDbEntity
  8
1
  6
solid
 62
     7
100
AcDbLine
 10
0.7546494900793929
 20
0.3733757816748412
 30
0.0
 11
0.7237599080796049
 21
0.3733757816748412
 31
0.0
  0
LINE
  5
76
330
A
100
AcDbEntity
  8
1
  6
solid
 62
     7
100
AcDbLine
 10
0.9464446787387959
 20
0.3221206516501857
 30
0.0
 11
0.9168021505864206
 21
0.3221206516501857
 31
0.0
  0
LINE
  5
77
330
A
100
AcDbEntity
  8
1
  6
solid
 62
     7
100
AcDbLine
 10
0.9168021505864206
 20
0.3221206516501857
 30
0.0
 11
0.9052792037290583
 21
0.355188477472544
 31
0.0
  0
LINE
  5
78
330
A
100
AcDbEntity
  8
1
  6
solid
 62
     7
100
AcDbLine
 10
0.9052792037290583
 20
0.355188477472544
 30
0.0
 11
0.8538886278898345
 21
0.355188477472544
 31
0.0
  0
LINE
  5
79
330
A
100
AcDbEntity
  8
1
  6
solid
 62
     7
100
AcDbLine
 10
0.8538886278898345
 20
0.355188477472544
 30
0.0
 11
0.8424503346665776
 21
0.3221206516501857
 31
0.0
  0
LINE
  5
7A
330
A
100
AcDbEntity
  8
1
  6
solid
 62
     7
100
AcDbLine
 10
0.8424503346665776
 20
0.3221206516501857
 30
0.0
 11
0.8125199841582444
 21
0.3221206516501857
 31
0.0
  0
LINE
  5
7B
330
A
100
AcDbEntity
  8
1
  6
solid
 62
     7
100
AcDbLine
 10
0.8125199841582444
 20
0.3221206516501857
 30
0.0
 11
0.8627820212378029
 21
0.4643123026863266
 31
0.0
  0
LINE
  5
7C
330
A
100
AcDbEntity
  8
1
  6
solid
 62
     7
100
AcDbLine
 10
0.8627820212378029
 20
0.4643123026863266
 30
0.0
 11
0.8952234101677824
 21
0.4643123026863266
 31
0.0
  0
LINE
  5
7D
330
A
100
AcDbEntity
  8
1
  6
solid
 62
     7
100
AcDbLine
 10
0.9464446787387959
 20
0.3221206516501857
 30
0.0
 11
0.8952234101677824
 21
0.4643123026863266
 31
0.0
  0
LINE
  5
7E
330
A
100
AcDbEntity
  8
1
  6
solid
 62
     7
100
AcDbLine
 10
0.8962053923234032
 20
0.3799893468393128
 30
0.0
 11
0.8791974190612346
 21
0.4295910855728504
 31
0.0
  0
LINE
  5
7F
330
A
100
AcDbEntity
  8
1
  6
solid
 62
     7
100
AcDbLine
 10
0.8791974190612346
 20
0.4295910855728504
 30
0.0
 11
0.8623248916136347
 21
0.3799893468393128
 31
0.0
  0
LINE
  5
80
330
A
100
AcDbEntity
  8
1
  6
solid
 62
     7
100
AcDbLine
 10
0.8962053923234032
 20
0.3799893468393128
 30
0.0
 11
0.8623248916136347
 21
0.3799893468393128
 31
0.0
  0
ARC
  5
81
330
A
100
AcDbEntity
  8
1
  6
solid
 62
     7
100
AcDbCircle
 10
-1.003061391317833
 20
2.117549401620129
 30
0.0
 40
0.224534269697119
100
AcDbArc
 50
133.1050001381616
 51
199.1671131773033
  0
LINE
  5
82
330
A
100
AcDbEntity
  8
1
  6
solid
 62
     7
100
AcDbLine
 10
-1.215148576593066
 20
2.043829161085525
 30
0.0
 11
-1.2472826766067
 21
2.030878680610813
 31
0.0
  0
ARC
  5
83
330
A
100
AcDbEntity
  8
1
  6
solid
 62
     7
100
AcDbCircle
 10
-1.229816015136198
 20
1.984946943371308
 30
0.0
 40
0.0491407526037258
100
AcDbArc
 50
110.8205037220746
 51
190.4518098391093
  0
LINE
  5
84
330
A
100
AcDbEntity
  8
1
  6
solid
 62
     7
100
AcDbLine
 10
-1.278141394526526
 20
1.976032318615406
 30
0.0
 11
-1.277882488087948
 21
1.72041255873831
 31
0.0
  0
ARC
  5
85
330
A
100
AcDbEntity
  8
1
  6
solid
 62
     7
100
AcDbCircle
 10
-1.354779078716111
 20
1.730975924508473
 30
0.0
 40
0.0776187702631719
100
AcDbArc
 50
293.9734825372014
 51
352.1781421028395
  0
ARC
  5
86
330
A
100
AcDbEntity
  8
1
  6
solid
 62
     7
100
AcDbCircle
 10
-2.248203634944802
 20
1.566373388395432
 30
0.0
 40
0.929693934165941
100
AcDbArc
 50
337.1943296455887
 51
365.7831756876957
  0
ARC
  5
87
330
A
100
AcDbEntity
  8
1
  6
solid
 62
     7
100
AcDbCircle
 10
-0.7733515011659844
 20
0.8073883421413745
 30
0.0
 40
0.7352740968012364
100
AcDbArc
 50
147.1698560890949
 51
183.1968445289804
  0
ARC
  5
88
330
A
100
AcDbEntity
  8
1
  6
solid
 62
     7
100
AcDbCircle
 10
-1.422579002302924
 20
0.7498600659301592
 30
0.0
 40
0.0864955512079696
100
AcDbArc
 50
168.9860697283289
 51
235.8056233267666
  0
ARC
  5
89
330
A
100
AcDbEntity
  8
1
  6
solid
 62
     7
100
AcDbCircle
 10
-1.406874960346265
 20
0.5398729547152926
 30
0.0
 40
0.1526530134448072
100
AcDbArc
 50
114.9175206715073
 51
179.4733772795161
  0
ARC
  5
8A
330
A
100
AcDbEntity
  8
1
  6
solid
 62
     7
100
AcDbCircle
 10
-0.5813913391281841
 20
0.3569433343587081
 30
0.0
 40
0.9953478071940777
100
AcDbArc
 50
169.3275355691389
 51
185.1627074556164
  0
ARC
  5
8B
330
A
100
AcDbEntity
  8
1
  6
solid
 62
     7
100
AcDbCircle
 10
-1.498984566670023
 20
0.25801603187133
 30
0.0
 40
0.0743086753021482
100
AcDbArc
 50
172.7625995094284
 51
269.5120194820114
  0
LINE
  5
8C
330
A
100
AcDbEntity
  8
1
  6
solid
 62
     7
100
AcDbLine
 10
-1.014239086906985
 20
0.1816431348606714
 30
0.0
 11
-1.499617436102903
 21
0.1837100516177796
 31
0.0
  0
LINE
  5
8D
330
A
100
AcDbEntity
  8
1
  6
solid
 62
     7
100
AcDbLine
 10
-1.145405363090941
 20
2.431643134860671
 30
0.0
 11
-1.01423914651163
 21
2.431643134860671
 31
0.0
  0
ARC
  5
8E
330
A
100
AcDbEntity
  8
1
  6
solid
 62
     7
100
AcDbCircle
 10
-1.454428344655799
 20
2.378973220671503
 30
0.0
 40
0.3134793820906384
100
AcDbArc
 50
341.8807196495447
 51
369.6725522722103
  0
LINE
  5
8F
330
A
100
AcDbEntity
  8
1
  6
solid
 62
     7
100
AcDbLine
 10
-1.01423914651163
 20
2.431643134860671
 30
0.0
 11
-1.01423914651163
 21
2.056643134860671
 31
0.0
  0
LINE
  5
90
330
A
100
AcDbEntity
  8
1
  6
solid
 62
     7
100
AcDbLine
 10
-1.01423914651163
 20
0.5566431348606714
 30
0.0
 11
-1.01423914651163
 21
0.1816431348606714
 31
0.0
  0
ARC
  5
91
330
A
100
AcDbEntity
  8
1
  6
solid
 62
     7
100
AcDbCircle
 10
-1.01423914651163
 20
1.994143134860671
 30
0.0
 40
0.0625
100
AcDbArc
 50
90.0
 51
180.0
  0
LINE
  5
92
330
A
100
AcDbEntity
  8
1
  6
solid
 62
     7
100
AcDbLine
 10
-1.07673914651163
 20
0.6191431348606715
 30
0.0
 11
-1.07673914651163
 21
1.994143134860671
 31
0.0
  0
ARC
  5
93
330
A
100
AcDbEntity
  8
1
  6
solid
 62
     7
100
AcDbCircle
 10
-1.01423914651163
 20
0.6191431348606714
 30
0.0
 40
0.0625
100
AcDbArc
 50
179.9999999999999
 51
269.9999999999999
  0
DIMENSION
  5
A9
330
A
100
AcDbEntity
  8
1
  6
solid
 62
     7
100
AcDbDimension
  2
*D1
 10
-0.4669281316719408
 20
1.306643187999724
 30
0.0
 11
-0.4669281316719408
 21
1.306643187999724
 31
0.0
 70
    33
 71
     5
 42
2.250000119209289
  3
Standard
100
AcDbAlignedDimension
 13
-1.014239192008972
 23
2.43164324760437
 33
0.0
 14
-1.014239072799682
 24
0.1816431283950806
 34
0.0
1001
ACAD
1000
DSTYLE
1002
{
1070
    41
1040
0.025
1070
    42
1040
0.125
1070
    44
1040
0.0625
1070
    47
1040
0.0005
1070
    48
1040
0.0005
1070
    75
1070
     1
1070
    76
1070
     1
1070
   140
1040
0.125
1070
   146
1040
0.5
1070
   270
1070
     5
1070
   271
1070
     3
1070
   272
1070
     3
1070
   277
1070
     5
1002
}
  0
LINE
  5
AA
330
A
100
AcDbEntity
  8
1
  6
solid
 62
     7
100
AcDbLine
 10
0.1707192474201907
 20
-0.0166323729969476
 30
0.0
 11
0.2016058753271674
 21
-0.0131846985783429
 31
0.0
  0
SPLINE
  5
AB
330
A
100
AcDbEntity
  8
1
  6
solid
 62
     7
100
AcDbSpline
210
0.0
220
0.0
230
1.0
 70
     8
 71
     2
 72
     7
 73
     4
 74
     0
 42
0.0000000001
 43
0.0000000001
 40
0.0
 40
0.0
 40
0.0
 40
1.0
 40
2.0
 40
2.0
 40
2.0
 10
0.2016058753271674
 20
-0.0131846985783429
 30
0.0
 10
0.2022942474201907
 20
-0.0230067916015987
 30
0.0
 10
0.2111738985829814
 20
-0.0313533032295057
 30
0.0
 10
0.2183855264899582
 20
-0.0313533032295057
 30
0.0
  0
SPLINE
  5
AC
330
A
100
AcDbEntity
  8
1
  6
solid
 62
     7
100
AcDbSpline
210
0.0
220
0.0
230
1.0
 70
     8
 71
     2
 72
     7
 73
     4
 74
     0
 42
0.0000000001
 43
0.0000000001
 40
0.0
 40
0.0
 40
0.0
 40
1.0
 40
2.0
 40
2.0
 40
2.0
 10
0.2183855264899582
 20
-0.0313533032295057
 30
0.0
 10
0.2274698288155395
 20
-0.0313533032295057
 30
0.0
 10
0.2402064567225163
 20
-0.0138480706713662
 30
0.0
 10
0.241986107885307
 20
0.0143286735146804
 30
0.0
  0
SPLINE
  5
AD
330
A
100
AcDbEntity
  8
1
  6
solid
 62
     7
100
AcDbSpline
210
0.0
220
0.0
230
1.0
 70
     8
 71
     2
 72
     6
 73
     3
 74
     0
 42
0.0000000001
 43
0.0000000001
 40
0.0
 40
0.0
 40
0.0
 40
1.0
 40
1.0
 40
1.0
 10
0.241986107885307
 20
0.0143286735146804
 30
0.0
 10
0.2300308753271675
 20
0.0013501851425873
 30
0.0
 10
0.2130279683504233
 20
0.0013501851425873
 30
0.0
  0
SPLINE
  5
AE
330
A
100
AcDbEntity
  8
1
  6
solid
 62
     7
100
AcDbSpline
210
0.0
220
0.0
230
1.0
 70
     8
 71
     2
 72
     7
 73
     4
 74
     0
 42
0.0000000001
 43
0.0000000001
 40
0.0
 40
0.0
 40
0.0
 40
1.0
 40
2.0
 40
2.0
 40
2.0
 10
0.2130279683504233
 20
0.0013501851425873
 30
0.0
 10
0.1944128520713535
 20
0.0013501851425873
 30
0.0
 10
0.1670855264899582
 20
0.0276792549100292
 30
0.0
 10
0.1670855264899582
 20
0.0492769293286339
 30
0.0
  0
SPLINE
  5
AF
330
A
100
AcDbEntity
  8
1
  6
solid
 62
     7
100
AcDbSpline
210
0.0
220
0.0
230
1.0
 70
     8
 71
     2
 72
     7
 73
     4
 74
     0
 42
0.0000000001
 43
0.0000000001
 40
0.0
 40
0.0
 40
0.0
 40
1.0
 40
2.0
 40
2.0
 40
2.0
 10
0.1670855264899582
 20
0.0492769293286339
 30
0.0
 10
0.1670855264899582
 20
0.0714699525844478
 30
0.0
 10
0.1948407590480977
 20
0.0994606502588664
 30
0.0
 10
0.2165686660248419
 20
0.0994606502588664
 30
0.0
  0
SPLINE
  5
B0
330
A
100
AcDbEntity
  8
1
  6
solid
 62
     7
100
AcDbSpline
210
0.0
220
0.0
230
1.0
 70
     8
 71
     2
 72
     7
 73
     4
 74
     0
 42
0.0000000001
 43
0.0000000001
 40
0.0
 40
0.0
 40
0.0
 40
1.0
 40
2.0
 40
2.0
 40
2.0
 10
0.2165686660248419
 20
0.0994606502588664
 30
0.0
 10
0.2401692474201907
 20
0.0994606502588664
 30
0.0
 10
0.2706465730015861
 20
0.0624600688635176
 30
0.0
 10
0.2706465730015861
 20
0.0213542549100292
 30
0.0
  0
SPLINE
  5
B1
330
A
100
AcDbEntity
  8
1
  6
solid
 62
     7
100
AcDbSpline
210
0.0
220
0.0
230
1.0
 70
     8
 71
     2
 72
     7
 73
     4
 74
     0
 42
0.0000000001
 43
0.0000000001
 40
0.0
 40
0.0
 40
0.0
 40
1.0
 40
2.0
 40
2.0
 40
2.0
 10
0.2706465730015861
 20
0.0213542549100292
 30
0.0
 10
0.2706465730015861
 20
-0.0214690009039243
 30
0.0
 10
0.2388547125364698
 20
-0.0586062102062499
 30
0.0
 10
0.2136233171876326
 20
-0.0586062102062499
 30
0.0
  0
SPLINE
  5
B2
330
A
100
AcDbEntity
  8
1
  6
solid
 62
     7
100
AcDbSpline
210
0.0
220
0.0
230
1.0
 70
     8
 71
     2
 72
     7
 73
     4
 74
     0
 42
0.0000000001
 43
0.0000000001
 40
0.0
 40
0.0
 40
0.0
 40
1.0
 40
2.0
 40
2.0
 40
2.0
 10
0.2136233171876326
 20
-0.0586062102062499
 30
0.0
 10
0.1961552939318186
 20
-0.0586062102062499
 30
0.0
 10
0.1734105264899582
 20
-0.037895163694622
 30
0.0
 10
0.1707192474201907
 20
-0.0166323729969476
 30
0.0
  0
SPLINE
  5
B3
330
A
100
AcDbEntity
  8
1
  6
solid
 62
     7
100
AcDbSpline
210
0.0
220
0.0
230
1.0
 70
     8
 71
     2
 72
     7
 73
     4
 74
     0
 42
0.0000000001
 43
0.0000000001
 40
0.0
 40
0.0
 40
0.0
 40
1.0
 40
2.0
 40
2.0
 40
2.0
 10
0.2397599450946093
 20
0.0488676270030525
 30
0.0
 10
0.2397599450946093
 20
0.0598618130495641
 30
0.0
 10
0.2259320381178651
 20
0.0722077432821222
 30
0.0
 10
0.2170151776527489
 20
0.0722077432821222
 30
0.0
  0
SPLINE
  5
B4
330
A
100
AcDbEntity
  8
1
  6
solid
 62
     7
100
AcDbSpline
210
0.0
220
0.0
230
1.0
 70
     8
 71
     2
 72
     7
 73
     4
 74
     0
 42
0.0000000001
 43
0.0000000001
 40
0.0
 40
0.0
 40
0.0
 40
1.0
 40
2.0
 40
2.0
 40
2.0
 10
0.2170151776527489
 20
0.0722077432821222
 30
0.0
 10
0.2090035497457721
 20
0.0722077432821222
 30
0.0
 10
0.1979721543969349
 20
0.0619205339797966
 30
0.0
 10
0.1979721543969349
 20
0.0507216967704943
 30
0.0
  0
SPLINE
  5
B5
330
A
100
AcDbEntity
  8
1
  6
solid
 62
     7
100
AcDbSpline
210
0.0
220
0.0
230
1.0
 70
     8
 71
     2
 72
     7
 73
     4
 74
     0
 42
0.0000000001
 43
0.0000000001
 40
0.0
 40
0.0
 40
0.0
 40
1.0
 40
2.0
 40
2.0
 40
2.0
 10
0.1979721543969349
 20
0.0507216967704943
 30
0.0
 10
0.1979721543969349
 20
0.0388036735146804
 30
0.0
 10
0.209636107885307
 20
0.0286030921193315
 30
0.0
 10
0.2187018055597256
 20
0.0286030921193315
 30
0.0
  0
SPLINE
  5
B6
330
A
100
AcDbEntity
  8
1
  6
solid
 62
     7
100
AcDbSpline
210
0.0
220
0.0
230
1.0
 70
     8
 71
     2
 72
     7
 73
     4
 74
     0
 42
0.0000000001
 43
0.0000000001
 40
0.0
 40
0.0
 40
0.0
 40
1.0
 40
2.0
 40
2.0
 40
2.0
 10
0.2187018055597256
 20
0.0286030921193315
 30
0.0
 10
0.2275442474201907
 20
0.0286030921193315
 30
0.0
 10
0.2397599450946093
 20
0.0385246037472385
 30
0.0
 10
0.2397599450946093
 20
0.0488676270030525
 30
0.0
  0
LINE
  5
B7
330
A
100
AcDbEntity
  8
1
  6
solid
 62
     7
100
AcDbLine
 10
0.295541107885307
 20
-0.0567893497411336
 30
0.0
 11
0.3318969218387954
 21
0.0994606502588664
 31
0.0
  0
LINE
  5
B8
330
A
100
AcDbEntity
  8
1
  6
solid
 62
     7
100
AcDbLine
 10
0.3318969218387954
 20
0.0994606502588664
 30
0.0
 11
0.3565329683504233
 21
0.0994606502588664
 31
0.0
  0
LINE
  5
B9
330
A
100
AcDbEntity
  8
1
  6
solid
 62
     7
100
AcDbLine
 10
0.3565329683504233
 20
0.0994606502588664
 30
0.0
 11
0.3201957590480977
 21
-0.0567893497411336
 31
0.0
  0
LINE
  5
BA
330
A
100
AcDbEntity
  8
1
  6
solid
 62
     7
100
AcDbLine
 10
0.295541107885307
 20
-0.0567893497411336
 30
0.0
 11
0.3201957590480977
 21
-0.0567893497411336
 31
0.0
  0
LINE
  5
BB
330
A
100
AcDbEntity
  8
1
  6
solid
 62
     7
100
AcDbLine
 10
0.4515036660248419
 20
-0.0567893497411336
 30
0.0
 11
0.4206170381178652
 21
-0.0567893497411336
 31
0.0
  0
LINE
  5
BC
330
A
100
AcDbEntity
  8
1
  6
solid
 62
     7
100
AcDbLine
 10
0.4206170381178652
 20
-0.0567893497411336
 30
0.0
 11
0.4206170381178652
 21
0.0542809990960757
 31
0.0
  0
SPLINE
  5
BD
330
A
100
AcDbEntity
  8
1
  6
solid
 62
     7
100
AcDbSpline
210
0.0
220
0.0
230
1.0
 70
     8
 71
     2
 72
     6
 73
     3
 74
     0
 42
0.0000000001
 43
0.0000000001
 40
0.0
 40
0.0
 40
0.0
 40
1.0
 40
1.0
 40
1.0
 10
0.4206170381178652
 20
0.0542809990960757
 30
0.0
 10
0.4043769218387955
 20
0.0365775107239827
 30
0.0
 10
0.3824629683504232
 20
0.0286030921193315
 30
0.0
  0
LINE
  5
BE
330
A
100
AcDbEntity
  8
1
  6
solid
 62
     7
100
AcDbLine
 10
0.3824629683504232
 20
0.0286030921193315
 30
0.0
 11
0.3824629683504232
 21
0.0594897200263083
 31
0.0
  0
SPLINE
  5
BF
330
A
100
AcDbEntity
  8
1
  6
solid
 62
     7
100
AcDbSpline
210
0.0
220
0.0
230
1.0
 70
     8
 71
     2
 72
     7
 73
     4
 74
     0
 42
0.0000000001
 43
0.0000000001
 40
0.0
 40
0.0
 40
0.0
 40
1.0
 40
2.0
 40
2.0
 40
2.0
 10
0.3824629683504232
 20
0.0594897200263083
 30
0.0
 10
0.3939408753271674
 20
0.063290882817006
 30
0.0
 10
0.4214728520713535
 20
0.0849815804914246
 30
0.0
 10
0.4267187823039117
 20
0.0994606502588664
 30
0.0
  0
LINE
  5
C0
330
A
100
AcDbEntity
  8
1
  6
solid
 62
     7
100
AcDbLine
 10
0.4267187823039117
 20
0.0994606502588664
 30
0.0
 11
0.4515036660248419
 21
0.0994606502588664
 31
0.0
  0
LINE
  5
C1
330
A
100
AcDbEntity
  8
1
  6
solid
 62
     7
100
AcDbLine
 10
0.4515036660248419
 20
-0.0567893497411336
 30
0.0
 11
0.4515036660248419
 21
0.0994606502588664
 31
0.0
  0
LINE
  5
C2
330
A
100
AcDbEntity
  8
1
  6
solid
 62
     7
100
AcDbLine
 10
0.5773609916062373
 20
0.0568420456077036
 30
0.0
 11
0.5464743636992604
 21
0.0540391386309595
 31
0.0
  0
SPLINE
  5
C3
330
A
100
AcDbEntity
  8
1
  6
solid
 62
     7
100
AcDbSpline
210
0.0
220
0.0
230
1.0
 70
     8
 71
     2
 72
     7
 73
     4
 74
     0
 42
0.0000000001
 43
0.0000000001
 40
0.0
 40
0.0
 40
0.0
 40
1.0
 40
2.0
 40
2.0
 40
2.0
 10
0.5464743636992604
 20
0.0540391386309595
 30
0.0
 10
0.5451598288155396
 20
0.0632722781658432
 30
0.0
 10
0.5362987823039117
 20
0.0722077432821222
 30
0.0
 10
0.5292173869550744
 20
0.0722077432821222
 30
0.0
  0
SPLINE
  5
C4
330
A
100
AcDbEntity
  8
1
  6
solid
 62
     7
100
AcDbSpline
210
0.0
220
0.0
230
1.0
 70
     8
 71
     2
 72
     7
 73
     4
 74
     0
 42
0.0000000001
 43
0.0000000001
 40
0.0
 40
0.0
 40
0.0
 40
1.0
 40
2.0
 40
2.0
 40
2.0
 10
0.5292173869550744
 20
0.0722077432821222
 30
0.0
 10
0.5200214567225162
 20
0.0722077432821222
 30
0.0
 10
0.507247619513214
 20
0.054076347933285
 30
0.0
 10
0.5055237823039116
 20
0.0258437897937501
 30
0.0
  0
SPLINE
  5
C5
330
A
100
AcDbEntity
  8
1
  6
solid
 62
     7
100
AcDbSpline
210
0.0
220
0.0
230
1.0
 70
     8
 71
     2
 72
     6
 73
     3
 74
     0
 42
0.0000000001
 43
0.0000000001
 40
0.0
 40
0.0
 40
0.0
 40
1.0
 40
1.0
 40
1.0
 10
0.5055237823039116
 20
0.0258437897937501
 30
0.0
 10
0.5174045962574
 20
0.0395042549100292
 30
0.0
 10
0.5342028520713535
 20
0.0395042549100292
 30
0.0
  0
SPLINE
  5
C6
330
A
100
AcDbEntity
  8
1
  6
solid
 62
     7
100
AcDbSpline
210
0.0
220
0.0
230
1.0
 70
     8
 71
     2
 72
     7
 73
     4
 74
     0
 42
0.0000000001
 43
0.0000000001
 40
0.0
 40
0.0
 40
0.0
 40
1.0
 40
2.0
 40
2.0
 40
2.0
 10
0.5342028520713535
 20
0.0395042549100292
 30
0.0
 10
0.5530412241643768
 20
0.0395042549100292
 30
0.0
 10
0.5809947125364698
 20
0.0124746037472385
 30
0.0
 10
0.5809947125364698
 20
-0.0089928381132266
 30
0.0
  0
SPLINE
  5
C7
330
A
100
AcDbEntity
  8
1
  6
solid
 62
     7
100
AcDbSpline
210
0.0
220
0.0
230
1.0
 70
     8
 71
     2
 72
     7
 73
     4
 74
     0
 42
0.0000000001
 43
0.0000000001
 40
0.0
 40
0.0
 40
0.0
 40
1.0
 40
2.0
 40
2.0
 40
2.0
 10
0.5809947125364698
 20
-0.0089928381132266
 30
0.0
 10
0.5809947125364698
 20
-0.0313160939271801
 30
0.0
 10
0.552669131141121
 20
-0.0586062102062499
 30
0.0
 10
0.5308109916062371
 20
-0.0586062102062499
 30
0.0
  0
SPLINE
  5
C8
330
A
100
AcDbEntity
  8
1
  6
solid
 62
     7
100
AcDbSpline
210
0.0
220
0.0
230
1.0
 70
     8
 71
     2
 72
     7
 73
     4
 74
     0
 42
0.0000000001
 43
0.0000000001
 40
0.0
 40
0.0
 40
0.0
 40
1.0
 40
2.0
 40
2.0
 40
2.0
 10
0.5308109916062371
 20
-0.0586062102062499
 30
0.0
 10
0.5072848288155396
 20
-0.0586062102062499
 30
0.0
 10
0.4774336660248419
 20
-0.0222131869504359
 30
0.0
 10
0.4774336660248419
 20
0.0187623944449129
 30
0.0
  0
SPLINE
  5
C9
330
A
100
AcDbEntity
  8
1
  6
solid
 62
     7
100
AcDbSpline
210
0.0
220
0.0
230
1.0
 70
     8
 71
     2
 72
     7
 73
     4
 74
     0
 42
0.0000000001
 43
0.0000000001
 40
0.0
 40
0.0
 40
0.0
 40
1.0
 40
2.0
 40
2.0
 40
2.0
 10
0.4774336660248419
 20
0.0187623944449129
 30
0.0
 10
0.4774336660248419
 20
0.0616786735146804
 30
0.0
 10
0.5085807590480976
 20
0.0994606502588664
 30
0.0
 10
0.5330929683504233
 20
0.0994606502588664
 30
0.0
  0
SPLINE
  5
CA
330
A
100
AcDbEntity
  8
1
  6
solid
 62
     7
100
AcDbSpline
210
0.0
220
0.0
230
1.0
 70
     8
 71
     2
 72
     7
 73
     4
 74
     0
 42
0.0000000001
 43
0.0000000001
 40
0.0
 40
0.0
 40
0.0
 40
1.0
 40
2.0
 40
2.0
 40
2.0
 10
0.5330929683504233
 20
0.0994606502588664
 30
0.0
 10
0.5508336660248419
 20
0.0994606502588664
 30
0.0
 10
0.5740435497457721
 20
0.0778071618867734
 30
0.0
 10
0.5773609916062373
 20
0.0568420456077036
 30
0.0
  0
SPLINE
  5
CB
330
A
100
AcDbEntity
  8
1
  6
solid
 62
     7
100
AcDbSpline
210
0.0
220
0.0
230
1.0
 70
     8
 71
     2
 72
     7
 73
     4
 74
     0
 42
0.0000000001
 43
0.0000000001
 40
0.0
 40
0.0
 40
0.0
 40
1.0
 40
2.0
 40
2.0
 40
2.0
 10
0.5083202939318186
 20
-0.0086207450899708
 30
0.0
 10
0.5083202939318186
 20
-0.0196707450899708
 30
0.0
 10
0.5215778520713535
 20
-0.0313533032295057
 30
0.0
 10
0.5304016892806559
 20
-0.0313533032295057
 30
0.0
  0
SPLINE
  5
CC
330
A
100
AcDbEntity
  8
1
  6
solid
 62
     7
100
AcDbSpline
210
0.0
220
0.0
230
1.0
 70
     8
 71
     2
 72
     7
 73
     4
 74
     0
 42
0.0000000001
 43
0.0000000001
 40
0.0
 40
0.0
 40
0.0
 40
1.0
 40
2.0
 40
2.0
 40
2.0
 10
0.5304016892806559
 20
-0.0313533032295057
 30
0.0
 10
0.5383947125364698
 20
-0.0313533032295057
 30
0.0
 10
0.550108084629493
 20
-0.0217294660202034
 30
0.0
 10
0.550108084629493
 20
-0.0105678381132266
 30
0.0
  0
SPLINE
  5
CD
330
A
100
AcDbEntity
  8
1
  6
solid
 62
     7
100
AcDbSpline
210
0.0
220
0.0
230
1.0
 70
     8
 71
     2
 72
     7
 73
     4
 74
     0
 42
0.0000000001
 43
0.0000000001
 40
0.0
 40
0.0
 40
0.0
 40
1.0
 40
2.0
 40
2.0
 40
2.0
 10
0.550108084629493
 20
-0.0105678381132266
 30
0.0
 10
0.550108084629493
 20
0.0014246037472385
 30
0.0
 10
0.537836573001586
 20
0.012251347933285
 30
0.0
 10
0.5287894799783302
 20
0.012251347933285
 30
0.0
  0
SPLINE
  5
CE
330
A
100
AcDbEntity
  8
1
  6
solid
 62
     7
100
AcDbSpline
210
0.0
220
0.0
230
1.0
 70
     8
 71
     2
 72
     7
 73
     4
 74
     0
 42
0.0000000001
 43
0.0000000001
 40
0.0
 40
0.0
 40
0.0
 40
1.0
 40
2.0
 40
2.0
 40
2.0
 10
0.5287894799783302
 20
0.012251347933285
 30
0.0
 10
0.5199656427690279
 20
0.012251347933285
 30
0.0
 10
0.5083202939318186
 20
0.0017408828170059
 30
0.0
 10
0.5083202939318186
 20
-0.0086207450899708
 30
0.0
  0
LINE
  5
CF
330
A
100
AcDbEntity
  8
1
  6
solid
 62
     7
100
AcDbLine
 10
0.6352669218387954
 20
-0.0567893497411336
 30
0.0
 11
0.6891773869550745
 21
0.025322859561192
 31
0.0
  0
LINE
  5
D0
330
A
100
AcDbEntity
  8
1
  6
solid
 62
     7
100
AcDbLine
 10
0.6891773869550745
 20
0.025322859561192
 30
0.0
 11
0.6407175032341442
 21
0.0994606502588664
 31
0.0
  0
LINE
  5
D1
330
A
100
AcDbEntity
  8
1
  6
solid
 62
     7
100
AcDbLine
 10
0.6407175032341442
 20
0.0994606502588664
 30
0.0
 11
0.6770361078853071
 21
0.0994606502588664
 31
0.0
  0
LINE
  5
D2
330
A
100
AcDbEntity
  8
1
  6
solid
 62
     7
100
AcDbLine
 10
0.6770361078853071
 20
0.0994606502588664
 30
0.0
 11
0.7073459916062373
 21
0.0530036735146804
 31
0.0
  0
LINE
  5
D3
330
A
100
AcDbEntity
  8
1
  6
solid
 62
     7
100
AcDbLine
 10
0.7073459916062373
 20
0.0530036735146804
 30
0.0
 11
0.737011107885307
 21
0.0994606502588664
 31
0.0
  0
LINE
  5
D4
330
A
100
AcDbEntity
  8
1
  6
solid
 62
     7
100
AcDbLine
 10
0.737011107885307
 20
0.0994606502588664
 30
0.0
 11
0.7733483171876326
 21
0.0994606502588664
 31
0.0
  0
LINE
  5
D5
330
A
100
AcDbEntity
  8
1
  6
solid
 62
     7
100
AcDbLine
 10
0.7733483171876326
 20
0.0994606502588664
 30
0.0
 11
0.7255145962574
 21
0.025322859561192
 31
0.0
  0
LINE
  5
D6
330
A
100
AcDbEntity
  8
1
  6
solid
 62
     7
100
AcDbLine
 10
0.7255145962574
 20
0.025322859561192
 30
0.0
 11
0.7787988985829815
 21
-0.0567893497411336
 31
0.0
  0
LINE
  5
D7
330
A
100
AcDbEntity
  8
1
  6
solid
 62
     7
100
AcDbLine
 10
0.7787988985829815
 20
-0.0567893497411336
 30
0.0
 11
0.7424616892806558
 21
-0.0567893497411336
 31
0.0
  0
LINE
  5
D8
330
A
100
AcDbEntity
  8
1
  6
solid
 62
     7
100
AcDbLine
 10
0.7424616892806558
 20
-0.0567893497411336
 30
0.0
 11
0.7073459916062373
 21
-0.0029655125318313
 31
0.0
  0
LINE
  5
D9
330
A
100
AcDbEntity
  8
1
  6
solid
 62
     7
100
AcDbLine
 10
0.7073459916062373
 20
-0.0029655125318313
 30
0.0
 11
0.6715855264899582
 21
-0.0567893497411336
 31
0.0
  0
LINE
  5
DA
330
A
100
AcDbEntity
  8
1
  6
solid
 62
     7
100
AcDbLine
 10
0.6352669218387954
 20
-0.0567893497411336
 30
0.0
 11
0.6715855264899582
 21
-0.0567893497411336
 31
0.0
  0
LINE
  5
DB
330
A
100
AcDbEntity
  8
1
  6
solid
 62
     7
100
AcDbLine
 10
0.9372583171876327
 20
-0.0259027218341569
 30
0.0
 11
0.9372583171876327
 21
-0.0567893497411336
 31
0.0
  0
LINE
  5
DC
330
A
100
AcDbEntity
  8
1
  6
solid
 62
     7
100
AcDbLine
 10
0.9372583171876327
 20
-0.0567893497411336
 30
0.0
 11
0.8336972706760047
 21
-0.0567893497411336
 31
0.0
  0
SPLINE
  5
DD
330
A
100
AcDbEntity
  8
1
  6
solid
 62
     7
100
AcDbSpline
210
0.0
220
0.0
230
1.0
 70
     8
 71
     2
 72
     7
 73
     4
 74
     0
 42
0.0000000001
 43
0.0000000001
 40
0.0
 40
0.0
 40
0.0
 40
1.0
 40
2.0
 40
2.0
 40
2.0
 10
0.8336972706760047
 20
-0.0567893497411336
 30
0.0
 10
0.8347763404434466
 20
-0.0416777218341569
 30
0.0
 10
0.8518844799783302
 20
-0.0142015590434592
 30
0.0
 10
0.8760059916062372
 20
0.0088780921193315
 30
0.0
  0
SPLINE
  5
DE
330
A
100
AcDbEntity
  8
1
  6
solid
 62
     7
100
AcDbSpline
210
0.0
220
0.0
230
1.0
 70
     8
 71
     2
 72
     6
 73
     3
 74
     0
 42
0.0000000001
 43
0.0000000001
 40
0.0
 40
0.0
 40
0.0
 40
1.0
 40
1.0
 40
1.0
 10
0.8760059916062372
 20
0.0088780921193315
 30
0.0
 10
0.8957682009085628
 20
0.0272141386309595
 30
0.0
 10
0.8999414567225162
 20
0.0333903014216571
 30
0.0
  0
SPLINE
  5
DF
330
A
100
AcDbEntity
  8
1
  6
solid
 62
     7
100
AcDbSpline
210
0.0
220
0.0
230
1.0
 70
     8
 71
     2
 72
     6
 73
     3
 74
     0
 42
0.0000000001
 43
0.0000000001
 40
0.0
 40
0.0
 40
0.0
 40
1.0
 40
1.0
 40
1.0
 10
0.8999414567225162
 20
0.0333903014216571
 30
0.0
 10
0.9063716892806558
 20
0.0424559990960757
 30
0.0
 10
0.9063716892806558
 20
0.0513914642123548
 30
0.0
  0
SPLINE
  5
E0
330
A
100
AcDbEntity
  8
1
  6
solid
 62
     7
100
AcDbSpline
210
0.0
220
0.0
230
1.0
 70
     8
 71
     2
 72
     7
 73
     4
 74
     0
 42
0.0000000001
 43
0.0000000001
 40
0.0
 40
0.0
 40
0.0
 40
1.0
 40
2.0
 40
2.0
 40
2.0
 10
0.9063716892806558
 20
0.0513914642123548
 30
0.0
 10
0.9063716892806558
 20
0.0615670456077036
 30
0.0
 10
0.8961402939318187
 20
0.0722077432821222
 30
0.0
 10
0.8872978520713536
 20
0.0722077432821222
 30
0.0
  0
SPLINE
  5
E1
330
A
100
AcDbEntity
  8
1
  6
solid
 62
     7
100
AcDbSpline
210
0.0
220
0.0
230
1.0
 70
     8
 71
     2
 72
     7
 73
     4
 74
     0
 42
0.0000000001
 43
0.0000000001
 40
0.0
 40
0.0
 40
0.0
 40
1.0
 40
2.0
 40
2.0
 40
2.0
 10
0.8872978520713536
 20
0.0722077432821222
 30
0.0
 10
0.8791559916062372
 20
0.0722077432821222
 30
0.0
 10
0.8687385497457722
 20
0.0606618130495641
 30
0.0
 10
0.8682176195132139
 20
0.0485885572356106
 30
0.0
  0
LINE
  5
E2
330
A
100
AcDbEntity
  8
1
  6
solid
 62
     7
100
AcDbLine
 10
0.8682176195132139
 20
0.0485885572356106
 30
0.0
 11
0.8373309916062371
 21
0.0511123944449129
 31
0.0
  0
SPLINE
  5
E3
330
A
100
AcDbEntity
  8
1
  6
solid
 62
     7
100
AcDbSpline
210
0.0
220
0.0
230
1.0
 70
     8
 71
     2
 72
     7
 73
     4
 74
     0
 42
0.0000000001
 43
0.0000000001
 40
0.0
 40
0.0
 40
0.0
 40
1.0
 40
2.0
 40
2.0
 40
2.0
 10
0.8373309916062371
 20
0.0511123944449129
 30
0.0
 10
0.8396687823039117
 20
0.0766786735146804
 30
0.0
 10
0.8672379683504233
 20
0.0994606502588664
 30
0.0
 10
0.8883705264899582
 20
0.0994606502588664
 30
0.0
  0
SPLINE
  5
E4
330
A
100
AcDbEntity
  8
1
  6
solid
 62
     7
100
AcDbSpline
210
0.0
220
0.0
230
1.0
 70
     8
 71
     2
 72
     7
 73
     4
 74
     0
 42
0.0000000001
 43
0.0000000001
 40
0.0
 40
0.0
 40
0.0
 40
1.0
 40
2.0
 40
2.0
 40
2.0
 10
0.8883705264899582
 20
0.0994606502588664
 30
0.0
 10
0.9108054102108884
 20
0.0994606502588664
 30
0.0
 10
0.9372583171876327
 20
0.0748246037472385
 30
0.0
 10
0.9372583171876327
 20
0.0567490223518897
 30
0.0
  0
SPLINE
  5
E5
330
A
100
AcDbEntity
  8
1
  6
solid
 62
     7
100
AcDbSpline
210
0.0
220
0.0
230
1.0
 70
     8
 71
     2
 72
     7
 73
     4
 74
     0
 42
0.0000000001
 43
0.0000000001
 40
0.0
 40
0.0
 40
0.0
 40
1.0
 40
2.0
 40
2.0
 40
2.0
 10
0.9372583171876327
 20
0.0567490223518897
 30
0.0
 10
0.9372583171876327
 20
0.0469019293286339
 30
0.0
 10
0.9292902939318187
 20
0.0278653014216571
 30
0.0
 10
0.9215205264899582
 20
0.0180926270030525
 30
0.0
  0
SPLINE
  5
E6
330
A
100
AcDbEntity
  8
1
  6
solid
 62
     7
100
AcDbSpline
210
0.0
220
0.0
230
1.0
 70
     8
 71
     2
 72
     8
 73
     5
 74
     0
 42
0.0000000001
 43
0.0000000001
 40
0.0
 40
0.0
 40
0.0
 40
1.0
 40
2.0
 40
3.0
 40
3.0
 40
3.0
 10
0.9215205264899582
 20
0.0180926270030525
 30
0.0
 10
0.9161629683504234
 20
0.0111786735146804
 30
0.0
 10
0.8874094799783303
 20
-0.0141457450899708
 30
0.0
 10
0.880067619513214
 20
-0.0220643497411336
 30
0.0
 10
0.8779344799783302
 20
-0.0259027218341569
 30
0.0
  0
LINE
  5
E7
330
A
100
AcDbEntity
  8
1
  6
solid
 62
     7
100
AcDbLine
 10
0.9372583171876327
 20
-0.0259027218341569
 30
0.0
 11
0.8779344799783302
 21
-0.0259027218341569
 31
0.0
  0
LINE
  5
E8
330
A
100
AcDbEntity
  8
1
  6
solid
 62
     7
100
AcDbLine
 10
0.9631883171876326
 20
-0.0150015590434592
 30
0.0
 11
0.9631883171876326
 21
0.012251347933285
 31
0.0
  0
LINE
  5
E9
330
A
100
AcDbEntity
  8
1
  6
solid
 62
     7
100
AcDbLine
 10
0.9631883171876326
 20
0.012251347933285
 30
0.0
 11
1.023144712536469
 21
0.012251347933285
 31
0.0
  0
LINE
  5
EA
330
A
100
AcDbEntity
  8
1
  6
solid
 62
     7
100
AcDbLine
 10
1.023144712536469
 20
0.012251347933285
 30
0.0
 11
1.023144712536469
 21
-0.0150015590434592
 31
0.0
  0
LINE
  5
EB
330
A
100
AcDbEntity
  8
1
  6
solid
 62
     7
100
AcDbLine
 10
0.9631883171876326
 20
-0.0150015590434592
 30
0.0
 11
1.023144712536469
 21
-0.0150015590434592
 31
0.0
  0
LINE
  5
EC
330
A
100
AcDbEntity
  8
1
  6
solid
 62
     7
100
AcDbLine
 10
1.118115410210888
 20
-0.0567893497411336
 30
0.0
 11
1.087228782303911
 21
-0.0567893497411336
 31
0.0
  0
LINE
  5
ED
330
A
100
AcDbEntity
  8
1
  6
solid
 62
     7
100
AcDbLine
 10
1.087228782303911
 20
-0.0567893497411336
 30
0.0
 11
1.087228782303911
 21
0.0542809990960757
 31
0.0
  0
SPLINE
  5
EE
330
A
100
AcDbEntity
  8
1
  6
solid
 62
     7
100
AcDbSpline
210
0.0
220
0.0
230
1.0
 70
     8
 71
     2
 72
     6
 73
     3
 74
     0
 42
0.0000000001
 43
0.0000000001
 40
0.0
 40
0.0
 40
0.0
 40
1.0
 40
1.0
 40
1.0
 10
1.087228782303911
 20
0.0542809990960757
 30
0.0
 10
1.070988666024841
 20
0.0365775107239827
 30
0.0
 10
1.049074712536469
 20
0.0286030921193315
 30
0.0
  0
LINE
  5
EF
330
A
100
AcDbEntity
  8
1
  6
solid
 62
     7
100
AcDbLine
 10
1.049074712536469
 20
0.0286030921193315
 30
0.0
 11
1.049074712536469
 21
0.0594897200263083
 31
0.0
  0
SPLINE
  5
F0
330
A
100
AcDbEntity
  8
1
  6
solid
 62
     7
100
AcDbSpline
210
0.0
220
0.0
230
1.0
 70
     8
 71
     2
 72
     7
 73
     4
 74
     0
 42
0.0000000001
 43
0.0000000001
 40
0.0
 40
0.0
 40
0.0
 40
1.0
 40
2.0
 40
2.0
 40
2.0
 10
1.049074712536469
 20
0.0594897200263083
 30
0.0
 10
1.060552619513214
 20
0.063290882817006
 30
0.0
 10
1.0880845962574
 20
0.0849815804914246
 30
0.0
 10
1.093330526489958
 20
0.0994606502588664
 30
0.0
  0
LINE
  5
F1
330
A
100
AcDbEntity
  8
1
  6
solid
 62
     7
100
AcDbLine
 10
1.093330526489958
 20
0.0994606502588664
 30
0.0
 11
1.118115410210888
 21
0.0994606502588664
 31
0.0
  0
LINE
  5
F2
330
A
100
AcDbEntity
  8
1
  6
solid
 62
     7
100
AcDbLine
 10
1.118115410210888
 20
-0.0567893497411336
 30
0.0
 11
1.118115410210888
 21
0.0994606502588664
 31
0.0
  0
LINE
  5
F3
330
A
100
AcDbEntity
  8
1
  6
solid
 62
     7
100
AcDbLine
 10
1.143009945094609
 20
-0.0567893497411336
 30
0.0
 11
1.179365759048097
 21
0.0994606502588664
 31
0.0
  0
LINE
  5
F4
330
A
100
AcDbEntity
  8
1
  6
solid
 62
     7
100
AcDbLine
 10
1.179365759048097
 20
0.0994606502588664
 30
0.0
 11
1.204001805559725
 21
0.0994606502588664
 31
0.0
  0
LINE
  5
F5
330
A
100
AcDbEntity
  8
1
  6
solid
 62
     7
100
AcDbLine
 10
1.204001805559725
 20
0.0994606502588664
 30
0.0
 11
1.1676645962574
 21
-0.0567893497411336
 31
0.0
  0
LINE
  5
F6
330
A
100
AcDbEntity
  8
1
  6
solid
 62
     7
100
AcDbLine
 10
1.143009945094609
 20
-0.0567893497411336
 30
0.0
 11
1.1676645962574
 21
-0.0567893497411336
 31
0.0
  0
LINE
  5
F7
330
A
100
AcDbEntity
  8
1
  6
solid
 62
     7
100
AcDbLine
 10
1.291705061373679
 20
-0.0567893497411336
 30
0.0
 11
1.291705061373679
 21
-0.0259027218341569
 31
0.0
  0
LINE
  5
F8
330
A
100
AcDbEntity
  8
1
  6
solid
 62
     7
100
AcDbLine
 10
1.291705061373679
 20
-0.0259027218341569
 30
0.0
 11
1.229931805559725
 21
-0.0259027218341569
 31
0.0
  0
LINE
  5
F9
330
A
100
AcDbEntity
  8
1
  6
solid
 62
     7
100
AcDbLine
 10
1.229931805559725
 20
-0.0259027218341569
 30
0.0
 11
1.229931805559725
 21
-0.0011672567178778
 31
0.0
  0
LINE
  5
FA
330
A
100
AcDbEntity
  8
1
  6
solid
 62
     7
100
AcDbLine
 10
1.229931805559725
 20
-0.0011672567178778
 30
0.0
 11
1.295636456722516
 21
0.0976437897937501
 31
0.0
  0
LINE
  5
FB
330
A
100
AcDbEntity
  8
1
  6
solid
 62
     7
100
AcDbLine
 10
1.295636456722516
 20
0.0976437897937501
 30
0.0
 11
1.322591689280655
 21
0.0976437897937501
 31
0.0
  0
LINE
  5
FC
330
A
100
AcDbEntity
  8
1
  6
solid
 62
     7
100
AcDbLine
 10
1.322591689280655
 20
0.0976437897937501
 30
0.0
 11
1.322591689280655
 21
-0.0004666753225289
 31
0.0
  0
LINE
  5
FD
330
A
100
AcDbEntity
  8
1
  6
solid
 62
     7
100
AcDbLine
 10
1.322591689280655
 20
-0.0004666753225289
 30
0.0
 11
1.342577154396934
 21
-0.0004666753225289
 31
0.0
  0
LINE
  5
FE
330
A
100
AcDbEntity
  8
1
  6
solid
 62
     7
100
AcDbLine
 10
1.342577154396934
 20
-0.0004666753225289
 30
0.0
 11
1.342577154396934
 21
-0.0259027218341569
 31
0.0
  0
LINE
  5
FF
330
A
100
AcDbEntity
  8
1
  6
solid
 62
     7
100
AcDbLine
 10
1.342577154396934
 20
-0.0259027218341569
 30
0.0
 11
1.322591689280655
 21
-0.0259027218341569
 31
0.0
  0
LINE
  5
100
330
A
100
AcDbEntity
  8
1
  6
solid
 62
     7
100
AcDbLine
 10
1.322591689280655
 20
-0.0259027218341569
 30
0.0
 11
1.322591689280655
 21
-0.0567893497411336
 31
0.0
  0
LINE
  5
101
330
A
100
AcDbEntity
  8
1
  6
solid
 62
     7
100
AcDbLine
 10
1.291705061373679
 20
-0.0567893497411336
 30
0.0
 11
1.322591689280655
 21
-0.0567893497411336
 31
0.0
  0
LINE
  5
102
330
A
100
AcDbEntity
  8
1
  6
solid
 62
     7
100
AcDbLine
 10
1.291705061373679
 20
-0.0004666753225289
 30
0.0
 11
1.291705061373679
 21
0.0493141386309594
 31
0.0
  0
LINE
  5
103
330
A
100
AcDbEntity
  8
1
  6
solid
 62
     7
100
AcDbLine
 10
1.291705061373679
 20
0.0493141386309594
 30
0.0
 11
1.257761456722516
 21
-0.0004666753225289
 31
0.0
  0
LINE
  5
104
330
A
100
AcDbEntity
  8
1
  6
solid
 62
     7
100
AcDbLine
 10
1.291705061373679
 20
-0.0004666753225289
 30
0.0
 11
1.257761456722516
 21
-0.0004666753225289
 31
0.0
  0
LINE
  5
106
330
A
100
AcDbEntity
  8
0
  6
solid
 62
     7
100
AcDbLine
 10
0.6388415672913118
 20
0.6303236797274277
 30
0.0
 11
0.6388415672913118
 21
0.7553236797274277
 31
0.0
  0
LINE
  5
107
330
A
100
AcDbEntity
  8
0
  6
solid
 62
     7
100
AcDbLine
 10
0.6388415672913118
 20
0.7553236797274277
 30
0.0
 11
0.662392291928993
 21
0.7553236797274277
 31
0.0
  0
LINE
  5
108
330
A
100
AcDbEntity
  8
0
  6
solid
 62
     7
100
AcDbLine
 10
0.662392291928993
 20
0.7553236797274277
 30
0.0
 11
0.662392291928993
 21
0.6520628101622103
 31
0.0
  0
LINE
  5
109
330
A
100
AcDbEntity
  8
0
  6
solid
 62
     7
100
AcDbLine
 10
0.662392291928993
 20
0.6520628101622103
 30
0.0
 11
0.7276096832333408
 21
0.6520628101622103
 31
0.0
  0
LINE
  5
10A
330
A
100
AcDbEntity
  8
0
  6
solid
 62
     7
100
AcDbLine
 10
0.7276096832333408
 20
0.6520628101622103
 30
0.0
 11
0.7276096832333408
 21
0.6303236797274277
 31
0.0
  0
LINE
  5
10B
330
A
100
AcDbEntity
  8
0
  6
solid
 62
     7
100
AcDbLine
 10
0.6388415672913118
 20
0.6303236797274277
 30
0.0
 11
0.7276096832333408
 21
0.6303236797274277
 31
0.0
  0
LINE
  5
10C
330
A
100
AcDbEntity
  8
0
  6
solid
 62
     7
100
AcDbLine
 10
0.7457296832333407
 20
0.7553236797274277
 30
0.0
 11
0.7916502629434856
 21
0.7553236797274277
 31
0.0
  0
SPLINE
  5
10D
330
A
100
AcDbEntity
  8
0
  6
solid
 62
     7
100
AcDbSpline
210
0.0
220
0.0
230
1.0
 70
     8
 71
     2
 72
     6
 73
     3
 74
     0
 42
0.0000000001
 43
0.0000000001
 40
0.0
 40
0.0
 40
0.0
 40
1.0
 40
1.0
 40
1.0
 10
0.7916502629434856
 20
0.7553236797274277
 30
0.0
 10
0.807527944102906
 20
0.7553236797274277
 30
0.0
 10
0.8154050455521812
 20
0.7525167232056886
 30
0.0
  0
SPLINE
  5
10E
330
A
100
AcDbEntity
  8
0
  6
solid
 62
     7
100
AcDbSpline
210
0.0
220
0.0
230
1.0
 70
     8
 71
     2
 72
     8
 73
     5
 74
     0
 42
0.0000000001
 43
0.0000000001
 40
0.0
 40
0.0
 40
0.0
 40
1.0
 40
2.0
 40
3.0
 40
3.0
 40
3.0
 10
0.8154050455521812
 20
0.7525167232056886
 30
0.0
 10
0.826367364392761
 20
0.7491346942201814
 30
0.0
 10
0.8423006977260943
 20
0.7326819405969929
 30
0.0
 10
0.8508021470014565
 20
0.7088529550897464
 30
0.0
 10
0.8508021470014565
 20
0.6911080275535147
 30
0.0
  0
SPLINE
  5
10F
330
A
100
AcDbEntity
  8
0
  6
solid
 62
     7
100
AcDbSpline
210
0.0
220
0.0
230
1.0
 70
     8
 71
     2
 72
     6
 73
     3
 74
     0
 42
0.0000000001
 43
0.0000000001
 40
0.0
 40
0.0
 40
0.0
 40
1.0
 40
1.0
 40
1.0
 10
0.8508021470014565
 20
0.6911080275535147
 30
0.0
 10
0.8508021470014565
 20
0.6760031000172827
 30
0.0
 10
0.8464062049724711
 20
0.6649294768288769
 30
0.0
  0
SPLINE
  5
110
330
A
100
AcDbEntity
  8
0
  6
solid
 62
     7
100
AcDbSpline
210
0.0
220
0.0
230
1.0
 70
     8
 71
     2
 72
     6
 73
     3
 74
     0
 42
0.0000000001
 43
0.0000000001
 40
0.0
 40
0.0
 40
0.0
 40
1.0
 40
1.0
 40
1.0
 10
0.8464062049724711
 20
0.6649294768288769
 30
0.0
 10
0.8420780890304421
 20
0.6509932449448189
 30
0.0
 10
0.8332427267116015
 20
0.6423433898723552
 30
0.0
  0
SPLINE
  5
111
330
A
100
AcDbEntity
  8
0
  6
solid
 62
     7
100
AcDbSpline
210
0.0
220
0.0
230
1.0
 70
     8
 71
     2
 72
     6
 73
     3
 74
     0
 42
0.0000000001
 43
0.0000000001
 40
0.0
 40
0.0
 40
0.0
 40
1.0
 40
1.0
 40
1.0
 10
0.8332427267116015
 20
0.6423433898723552
 30
0.0
 10
0.826423016566674
 20
0.6362778826259784
 30
0.0
 10
0.8153493933782682
 20
0.6326732449448189
 30
0.0
  0
SPLINE
  5
112
330
A
100
AcDbEntity
  8
0
  6
solid
 62
     7
100
AcDbSpline
210
0.0
220
0.0
230
1.0
 70
     8
 71
     2
 72
     6
 73
     3
 74
     0
 42
0.0000000001
 43
0.0000000001
 40
0.0
 40
0.0
 40
0.0
 40
1.0
 40
1.0
 40
1.0
 10
0.8153493933782682
 20
0.6326732449448189
 30
0.0
 10
0.8073609875811667
 20
0.6303236797274277
 30
0.0
 10
0.7931650455521813
 20
0.6303236797274277
 30
0.0
  0
LINE
  5
113
330
A
100
AcDbEntity
  8
0
  6
solid
 62
     7
100
AcDbLine
 10
0.7931650455521813
 20
0.6303236797274277
 30
0.0
 11
0.7457296832333407
 21
0.6303236797274277
 31
0.0
  0
LINE
  5
114
330
A
100
AcDbEntity
  8
0
  6
solid
 62
     7
100
AcDbLine
 10
0.7457296832333407
 20
0.7553236797274277
 30
0.0
 11
0.7457296832333407
 21
0.6303236797274277
 31
0.0
  0
LINE
  5
115
330
A
100
AcDbEntity
  8
0
  6
solid
 62
     7
100
AcDbLine
 10
0.769280407871022
 20
0.7335845492926451
 30
0.0
 11
0.769280407871022
 21
0.6520628101622103
 31
0.0
  0
LINE
  5
116
330
A
100
AcDbEntity
  8
0
  6
solid
 62
     7
100
AcDbLine
 10
0.769280407871022
 20
0.6520628101622103
 30
0.0
 11
0.7895418571463841
 21
0.6520628101622103
 31
0.0
  0
SPLINE
  5
117
330
A
100
AcDbEntity
  8
0
  6
solid
 62
     7
100
AcDbSpline
210
0.0
220
0.0
230
1.0
 70
     8
 71
     2
 72
     6
 73
     3
 74
     0
 42
0.0000000001
 43
0.0000000001
 40
0.0
 40
0.0
 40
0.0
 40
1.0
 40
1.0
 40
1.0
 10
0.7895418571463841
 20
0.6520628101622103
 30
0.0
 10
0.8008009875811668
 20
0.6520628101622103
 30
0.0
 10
0.8060131614942102
 20
0.6528419405969929
 30
0.0
  0
SPLINE
  5
118
330
A
100
AcDbEntity
  8
0
  6
solid
 62
     7
100
AcDbSpline
210
0.0
220
0.0
230
1.0
 70
     8
 71
     2
 72
     8
 73
     5
 74
     0
 42
0.0000000001
 43
0.0000000001
 40
0.0
 40
0.0
 40
0.0
 40
1.0
 40
2.0
 40
3.0
 40
3.0
 40
3.0
 10
0.8060131614942102
 20
0.6528419405969929
 30
0.0
 10
0.8128699730884131
 20
0.6544494768288769
 30
0.0
 10
0.821118089030442
 20
0.6616773029158335
 30
0.0
 10
0.8272514223637754
 20
0.6781300565390218
 30
0.0
 10
0.8272514223637754
 20
0.6924929550897465
 30
0.0
  0
SPLINE
  5
119
330
A
100
AcDbEntity
  8
0
  6
solid
 62
     7
100
AcDbSpline
210
0.0
220
0.0
230
1.0
 70
     8
 71
     2
 72
     8
 73
     5
 74
     0
 42
0.0000000001
 43
0.0000000001
 40
0.0
 40
0.0
 40
0.0
 40
1.0
 40
2.0
 40
3.0
 40
3.0
 40
3.0
 10
0.8272514223637754
 20
0.6924929550897465
 30
0.0
 10
0.8272514223637754
 20
0.7068373029158335
 30
0.0
 10
0.821118089030442
 20
0.721849476828877
 30
0.0
 10
0.8114479441029057
 20
0.7305735347998914
 30
0.0
 10
0.8039233064217464
 20
0.7321810710317754
 30
0.0
  0
SPLINE
  5
11A
330
A
100
AcDbEntity
  8
0
  6
solid
 62
     7
100
AcDbSpline
210
0.0
220
0.0
230
1.0
 70
     8
 71
     2
 72
     6
 73
     3
 74
     0
 42
0.0000000001
 43
0.0000000001
 40
0.0
 40
0.0
 40
0.0
 40
1.0
 40
1.0
 40
1.0
 10
0.8039233064217464
 20
0.7321810710317754
 30
0.0
 10
0.7983030165666741
 20
0.7335845492926451
 30
0.0
 10
0.7810775093202973
 20
0.7335845492926451
 30
0.0
  0
LINE
  5
11B
330
A
100
AcDbEntity
  8
0
  6
solid
 62
     7
100
AcDbLine
 10
0.769280407871022
 20
0.7335845492926451
 30
0.0
 11
0.7810775093202973
 21
0.7335845492926451
 31
0.0
  0
LINE
  5
179
330
A
100
AcDbEntity
  8
1
  6
solid
 62
     7
370
     0
100
AcDbLine
 10
-1.575588822364807
 20
0.128577638934769
 30
0.0
 11
-1.575588822364807
 21
-0.0412903032560713
 31
0.0
  0
LINE
  5
17A
330
A
100
AcDbEntity
  8
1
  6
solid
 62
     7
370
     0
100
AcDbLine
 10
-1.014239072799682
 20
0.128577638934769
 30
0.0
 11
-1.014239072799682
 21
-0.0412903032560713
 31
0.0
  0
LINE
  5
17B
330
A
100
AcDbEntity
  8
1
  6
solid
 62
     7
370
     0
100
AcDbLine
 10
-1.575588822364807
 20
0.0212096967439287
 30
0.0
 11
-1.518580857342215
 21
0.0212096967439287
 31
0.0
  0
LINE
  5
17C
330
A
100
AcDbEntity
  8
1
  6
solid
 62
     7
370
     0
100
AcDbLine
 10
-1.014239072799682
 20
0.0212096967439287
 30
0.0
 11
-1.066139386564323
 21
0.0212096967439287
 31
0.0
  0
MTEXT
  5
17D
330
A
100
AcDbEntity
  8
1
  6
solid
 62
     7
370
     0
100
AcDbMText
 10
-1.294913947582244
 20
0.0212096967439287
 30
0.0
 40
0.125
 41
0.0
 71
     5
 72
     1
  1
{\H0.125000;9/16}
 73
     1
 44
1.0
  0
SOLID
  5
17E
330
A
100
AcDbEntity
  8
1
  6
solid
 62
     7
370
     0
100
AcDbTrace
 10
-1.550588822364807
 20
0.0337096967439287
 30
0.0
 11
-1.550588822364807
 21
0.0087096967439287
 31
0.0
 12
-1.575588822364807
 22
0.0212096967439287
 32
0.0
 13
-1.575588822364807
 23
0.0212096967439287
 33
0.0
  0
SOLID
  5
17F
330
A
100
AcDbEntity
  8
1
  6
solid
 62
     7
370
     0
100
AcDbTrace
 10
-1.039239072799682
 20
0.0087096967439287
 30
0.0
 11
-1.039239072799682
 21
0.0337096967439287
 31
0.0
 12
-1.014239072799682
 22
0.0212096967439287
 32
0.0
 13
-1.014239072799682
 23
0.0212096967439287
 33
0.0
  0
VIEWPORT
  5
139
330
B
100
AcDbEntity
 67
     1
  8
0
  6
Continuous
370
     0
100
AcDbViewport
 10
5.196243675884873
 20
3.968749910906531
 30
0.0
 40
15.0742770793056
 41
7.975890887075417
 68
     1
 69
     1
 12
5.196243675884873
 22
3.968749910906531
 13
0.0
 23
0.0
 14
0.5
 24
0.5
 15
0.5
 25
0.5
 16
0.0
 26
0.0
 36
1.0
 17
0.0
 27
0.0
 37
0.0
 42
50.0
 43
0.0
 44
0.0
 45
7.975890887075417
 50
0.0
 51
0.0
 72
   100
 90
   819232
  1

281
     0
 71
     1
 74
     0
110
0.0
120
0.0
130
0.0
111
1.0
121
0.0
131
0.0
112
0.0
122
1.0
132
0.0
 79
     0
146
0.0
170
     0
  0
VIEWPORT
  5
13C
330
B
100
AcDbEntity
 67
     1
  8
0
  6
Continuous
370
     0
100
AcDbViewport
 10
5.195862407121968
 20
3.96874997708414
 30
0.0
 40
10.32503305841626
 41
7.882099795353603
 68
     2
 69
     2
 12
-0.1052868675321067
 22
1.323512129006689
 13
0.0
 23
0.0
 14
0.5
 24
0.5
 15
0.5
 25
0.5
 16
0.0
 26
0.0
 36
1.0
 17
0.0
 27
0.0
 37
0.0
 42
50.0
 43
0.0
 44
0.0
 45
3.509756111340052
 50
0.0
 51
0.0
 72
   100
 90
   819232
  1

281
     0
 71
     1
 74
     0
110
0.0
120
0.0
130
0.0
111
1.0
121
0.0
131
0.0
112
0.0
122
1.0
132
0.0
 79
     0
146
0.0
170
     0
  0
ENDSEC
  0
SECTION
  2
OBJECTS
  0
DICTIONARY
  5
19
330
0
100
AcDbDictionary
281
     1
  3
ACAD_COLOR
350
132
  3
ACAD_GROUP
350
1A
  3
ACAD_LAYOUT
350
1E
  3
ACAD_MATERIAL
350
11D
  3
ACAD_MLEADERSTYLE
350
162
  3
ACAD_MLINESTYLE
350
1B
  3
ACAD_PLOTSETTINGS
350
22
  3
ACAD_PLOTSTYLENAME
350
1F
  3
ACAD_SCALELIST
350
140
  3
ACAD_TABLESTYLE
350
133
  3
ACAD_VISUALSTYLE
350
121
  3
ACAD_WIPEOUT_VARS
350
23
  3
ACDB_RECOMPOSE_DATA
350
1A8
  3
AcDbVariableDictionary
350
13D
  0
DICTIONARY
  5
16B
330
14
100
AcDbDictionary
280
     1
281
     1
  3
ADSK_XREC_LAYER_RECONCILED
360
16C
  0
DICTIONARY
  5
16D
330
27
100
AcDbDictionary
280
     1
281
     1
  3
ADSK_XREC_LAYER_RECONCILED
360
16E
  0
DICTIONARY
  5
16F
330
105
100
AcDbDictionary
280
     1
281
     1
  3
ADSK_XREC_LAYER_RECONCILED
360
170
  0
DICTIONARY
  5
180
330
A
100
AcDbDictionary
280
     1
281
     1
  3
ACAD_SORTENTS
360
181
  0
DICTIONARY
  5
132
102
{ACAD_REACTORS
330
19
102
}
330
19
100
AcDbDictionary
281
     1
  0
DICTIONARY
  5
1A
102
{ACAD_REACTORS
330
19
102
}
330
19
100
AcDbDictionary
281
     1
  0
DICTIONARY
  5
1E
102
{ACAD_REACTORS
330
19
102
}
330
19
100
AcDbDictionary
281
     1
  3
Layout1
350
21
  3
Model
350
20
  0
DICTIONARY
  5
11D
102
{ACAD_REACTORS
330
19
102
}
330
19
100
AcDbDictionary
281
     1
  3
ByBlock
350
11F
  3
ByLayer
350
11E
  3
Global
350
120
  0
DICTIONARY
  5
162
102
{ACAD_REACTORS
330
19
102
}
330
19
100
AcDbDictionary
281
     1
  3
Standard
350
163
  0
DICTIONARY
  5
1B
102
{ACAD_REACTORS
330
19
102
}
330
19
100
AcDbDictionary
281
     1
  3
Standard
350
1C
  0
DICTIONARY
  5
22
102
{ACAD_REACTORS
330
19
102
}
330
19
100
AcDbDictionary
281
     1
  0
ACDBDICTIONARYWDFLT
  5
1F
102
{ACAD_REACTORS
330
19
102
}
330
19
100
AcDbDictionary
281
     1
  3
Normal
350
1D
100
AcDbDictionaryWithDefault
340
1D
  0
DICTIONARY
  5
140
102
{ACAD_REACTORS
330
19
102
}
330
19
100
AcDbDictionary
281
     1
  3
A0
350
141
  3
A1
350
142
  3
A2
350
143
  3
A3
350
144
  3
A4
350
145
  3
A5
350
146
  3
A6
350
147
  3
A7
350
148
  3
A8
350
149
  3
A9
350
14A
  3
B0
350
14B
  3
B1
350
14C
  3
B2
350
14D
  3
B3
350
14E
  3
B4
350
14F
  3
B5
350
150
  3
B6
350
151
  3
B7
350
152
  3
B8
350
153
  3
B9
350
154
  3
C0
350
155
  3
C1
350
156
  3
C2
350
157
  3
C3
350
158
  3
C4
350
159
  3
C5
350
15A
  3
C6
350
15B
  3
C7
350
15C
  3
C8
350
15D
  3
C9
350
15E
  3
D0
350
15F
  3
D1
350
160
  3
D2
350
161
  0
DICTIONARY
  5
133
102
{ACAD_REACTORS
330
19
102
}
330
19
100
AcDbDictionary
281
     1
  3
Standard
350
134
  0
DICTIONARY
  5
121
102
{ACAD_REACTORS
330
19
102
}
330
19
100
AcDbDictionary
281
     1
  3
2dWireframe
350
127
  3
3D Hidden
350
129
  3
3dWireframe
350
128
  3
Basic
350
126
  3
Brighten
350
12D
  3
ColorChange
350
131
  3
Conceptual
350
12A
  3
Dim
350
12C
  3
Facepattern
350
130
  3
Flat
350
122
  3
FlatWithEdges
350
123
  3
Gouraud
350
124
  3
GouraudWithEdges
350
125
  3
Linepattern
350
12F
  3
Realistic
350
12B
  3
Thicken
350
12E
  0
WIPEOUTVARIABLES
  5
23
330
19
100
AcDbWipeoutVariables
 70
     1
  0
XRECORD
  5
1A8
102
{ACAD_REACTORS
330
19
102
}
330
19
100
AcDbXrecord
280
     1
 90
        1
330
134
  0
DICTIONARY
  5
13D
102
{ACAD_REACTORS
330
19
102
}
330
19
100
AcDbDictionary
281
     1
  3
CANNOSCALE
350
19B
  3
CMLEADERSTYLE
350
19A
  3
CTABLESTYLE
350
13E
  0
XRECORD
  5
16C
102
{ACAD_REACTORS
330
16B
102
}
330
16B
100
AcDbXrecord
280
     1
290
     1
  0
XRECORD
  5
16E
102
{ACAD_REACTORS
330
16D
102
}
330
16D
100
AcDbXrecord
280
     1
290
     1
  0
XRECORD
  5
170
102
{ACAD_REACTORS
330
16F
102
}
330
16F
100
AcDbXrecord
280
     1
290
     1
  0
SORTENTSTABLE
  5
181
102
{ACAD_REACTORS
330
180
102
}
330
180
100
AcDbSortentsTable
330
A
331
117
  5
17B
331
F5
  5
FC
331
DB
  5
E2
331
B9
  5
C0
331
106
  5
10D
331
EC
  5
F3
331
CA
  5
D1
331
86
  5
86
331
6C
  5
6C
331
4A
  5
4A
331
5B
  5
5B
331
39
  5
39
331
28
  5
28
331
115
  5
179
331
F3
  5
FA
331
D9
  5
E0
331
104
  5
10C
331
EA
  5
F1
331
C8
  5
CF
331
84
  5
84
331
6A
  5
6A
331
48
  5
48
331
B7
  5
BE
331
59
  5
59
331
37
  5
37
331
113
  5
11A
331
F1
  5
F8
331
102
  5
10A
331
E8
  5
EF
331
C6
  5
CD
331
82
  5
82
331
68
  5
68
331
46
  5
46
331
D7
  5
DE
331
B5
  5
BC
331
93
  5
93
331
57
  5
57
331
35
  5
35
331
111
  5
118
331
100
  5
108
331
E6
  5
ED
331
C4
  5
CB
331
80
  5
80
331
66
  5
66
331
44
  5
44
331
D5
  5
DC
331
B3
  5
BA
331
91
  5
91
331
77
  5
77
331
55
  5
55
331
33
  5
33
331
FE
  5
106
331
E4
  5
EB
331
C2
  5
C9
331
7E
  5
7E
331
64
  5
64
331
42
  5
42
331
17E
  5
AE
331
10F
  5
116
331
D3
  5
DA
331
B1
  5
B8
331
8F
  5
8F
331
75
  5
75
331
53
  5
53
331
31
  5
31
331
FC
  5
103
331
E2
  5
E9
331
C0
  5
C7
331
7C
  5
7C
331
62
  5
62
331
40
  5
40
331
17C
  5
AC
331
10D
  5
114
331
D1
  5
D8
331
AF
  5
B6
331
8D
  5
8D
331
73
  5
73
331
51
  5
51
331
2F
  5
2F
331
FA
  5
101
331
E0
  5
E7
331
BE
  5
C5
331
7A
  5
7A
331
60
  5
60
331
17A
  5
AA
331
10B
  5
112
331
CF
  5
D6
331
AD
  5
B4
331
8B
  5
8B
331
71
  5
71
331
4F
  5
4F
331
3E
  5
3E
331
2D
  5
2D
331
11A
  5
17E
331
F8
  5
FF
331
DE
  5
E5
331
BC
  5
C3
331
78
  5
78
331
109
  5
110
331
EF
  5
F6
331
CD
  5
D4
331
AB
  5
B2
331
89
  5
89
331
6F
  5
6F
331
4D
  5
4D
331
5E
  5
5E
331
3C
  5
3C
331
2B
  5
2B
331
118
  5
17C
331
F6
  5
FD
331
DC
  5
E3
331
BA
  5
C1
331
107
  5
10E
331
ED
  5
F4
331
CB
  5
D2
331
A9
  5
B0
331
87
  5
87
331
6D
  5
6D
331
4B
  5
4B
331
5C
  5
5C
331
3A
  5
3A
331
29
  5
29
331
116
  5
17A
331
F4
  5
FB
331
DA
  5
E1
331
B8
  5
BF
331
EB
  5
F2
331
C9
  5
D0
331
85
  5
85
331
6B
  5
6B
331
49
  5
49
331
5A
  5
5A
331
38
  5
38
331
114
  5
11B
331
F2
  5
F9
331
D8
  5
DF
331
103
  5
10B
331
E9
  5
F0
331
C7
  5
CE
331
83
  5
83
331
69
  5
69
331
47
  5
47
331
B6
  5
BD
331
58
  5
58
331
36
  5
36
331
112
  5
119
331
F0
  5
F7
331
101
  5
109
331
E7
  5
EE
331
C5
  5
CC
331
81
  5
81
331
67
  5
67
331
45
  5
45
331
D6
  5
DD
331
B4
  5
BB
331
92
  5
92
331
56
  5
56
331
34
  5
34
331
110
  5
117
331
FF
  5
107
331
E5
  5
EC
331
C3
  5
CA
331
7F
  5
7F
331
65
  5
65
331
43
  5
43
331
17F
  5
AF
331
D4
  5
DB
331
B2
  5
B9
331
90
  5
90
331
76
  5
76
331
54
  5
54
331
32
  5
32
331
FD
  5
104
331
E3
  5
EA
331
C1
  5
C8
331
7D
  5
7D
331
63
  5
63
331
41
  5
41
331
17D
  5
AD
331
10E
  5
115
331
D2
  5
D9
331
B0
  5
B7
331
8E
  5
8E
331
74
  5
74
331
52
  5
52
331
30
  5
30
331
FB
  5
102
331
E1
  5
E8
331
BF
  5
C6
331
7B
  5
7B
331
61
  5
61
331
17B
  5
AB
331
10C
  5
113
331
D0
  5
D7
331
AE
  5
B5
331
8C
  5
8C
331
72
  5
72
331
50
  5
50
331
3F
  5
3F
331
2E
  5
2E
331
11B
  5
17F
331
F9
  5
100
331
DF
  5
E6
331
BD
  5
C4
331
79
  5
79
331
179
  5
A9
331
10A
  5
111
331
CE
  5
D5
331
AC
  5
B3
331
8A
  5
8A
331
70
  5
70
331
4E
  5
4E
331
5F
  5
5F
331
3D
  5
3D
331
2C
  5
2C
331
119
  5
17D
331
F7
  5
FE
331
DD
  5
E4
331
BB
  5
C2
331
108
  5
10F
331
EE
  5
F5
331
CC
  5
D3
331
AA
  5
B1
331
88
  5
88
331
6E
  5
6E
331
4C
  5
4C
331
5D
  5
5D
331
3B
  5
3B
331
2A
  5
2A
  0
LAYOUT
  5
21
102
{ACAD_REACTORS
330
1E
102
}
330
1E
100
AcDbPlotSettings
  1

  2
Foxit PDF Printer
  4
Letter
  6

 40
3.174999952316284
 41
3.174999952316284
 42
3.17498779296875
 43
3.175003051757812
 44
279.3999938964844
 45
215.8999938964844
 46
31.47715384821894
 47
24.12875752349356
 48
0.0
 49
0.0
140
0.0
141
0.0
142
1.0
143
1.0
 70
     4
 72
     0
 73
     0
 74
     1
  7

 75
    16
147
1.0
 76
     1
 77
     2
 78
   300
148
-26.25461124795212
149
-20.16000981431432
100
AcDbLayout
  1
Layout1
 70
     0
 71
     1
 10
-0.3306119115190196
 20
-0.2812499079328949
 11
10.66938784818509
 21
8.218749851771214
 12
0.0
 22
0.0
 32
0.0
 14
0.0332799218750992
 24
0.0271759260146105
 34
-0.0015258207003583
 15
10.35920742989465
 25
7.910323895798452
 35
0.0000000349246037
146
0.0
 13
0.0
 23
0.0
 33
0.0
 16
1.0
 26
0.0
 36
0.0
 17
0.0
 27
1.0
 37
0.0
 76
     0
330
B
331
139
1001
ACAD_PSEXT
1000
Foxit PDF Printer
1000
Foxit PDF Printer Driver
1000
FOXIT_PDF
1000

1070
     0
  0
LAYOUT
  5
20
102
{ACAD_REACTORS
330
1E
102
}
330
1E
100
AcDbPlotSettings
  1

  2

  4

  6

 40
0.0
 41
0.0
 42
0.0
 43
0.0
 44
0.0
 45
0.0
 46
0.0
 47
0.0
 48
0.0
 49
0.0
140
0.0
141
0.0
142
1.0
143
1.0
 70
  1024
 72
     0
 73
     0
 74
     0
  7

 75
     0
147
1.0
 76
     0
 77
     2
 78
   300
148
0.0
149
0.0
100
AcDbLayout
  1
Model
 70
     0
 71
     0
 10
0.0
 20
0.0
 11
0.0
 21
0.0
 12
0.0
 22
0.0
 32
0.0
 14
0.0
 24
0.0
 34
0.0
 15
0.0
 25
0.0
 35
0.0
146
0.0
 13
0.0
 23
0.0
 33
0.0
 16
0.0
 26
0.0
 36
0.0
 17
0.0
 27
0.0
 37
0.0
 76
     0
330
A
  0
MATERIAL
  5
11F
102
{ACAD_XDICTIONARY
360
1AB
102
}
102
{ACAD_REACTORS
330
11D
102
}
330
11D
100
AcDbMaterial
  1
ByBlock
 73
     1
 78
     1
172
     1
176
     1
270
     1
274
     1
  0
MATERIAL
  5
11E
102
{ACAD_XDICTIONARY
360
1A9
102
}
102
{ACAD_REACTORS
330
11D
102
}
330
11D
100
AcDbMaterial
  1
ByLayer
 73
     1
 78
     1
172
     1
176
     1
270
     1
274
     1
  0
MATERIAL
  5
120
102
{ACAD_XDICTIONARY
360
1AD
102
}
102
{ACAD_REACTORS
330
11D
102
}
330
11D
100
AcDbMaterial
  1
Global
 73
     1
 78
     1
172
     1
176
     1
270
     1
274
     1
  0
MLEADERSTYLE
  5
163
102
{ACAD_REACTORS
330
162
102
}
330
162
100
AcDbMLeaderStyle
170
     2
171
     1
172
     0
 90
        2
 40
0.0
 41
0.0
173
     1
 91
-1056964608
340
11
 92
       -2
290
     1
 42
0.09
291
     1
 43
0.36
  3
Standard
 44
0.18
300

342
17
174
     1
178
     6
175
     1
176
     0
 93
-1056964608
 45
0.18
292
     0
297
     0
 46
0.18
 94
-1056964608
 47
1.0
 49
1.0
140
1.0
293
     1
141
0.0
294
     1
177
     0
142
1.0
295
     0
296
     0
143
0.125
1001
ACAD_MLEADERVER
1070
     2
  0
MLINESTYLE
  5
1C
102
{ACAD_REACTORS
330
1B
102
}
330
1B
100
AcDbMlineStyle
  2
STANDARD
 70
     0
  3

 62
     0
 51
90.0
 52
90.0
 71
     2
 49
0.5
 62
   256
  6
BYLAYER
 49
-0.5
 62
   256
  6
BYLAYER
  0
ACDBPLACEHOLDER
  5
1D
102
{ACAD_REACTORS
330
1F
102
}
330
1F
  0
SCALE
  5
141
102
{ACAD_REACTORS
330
140
102
}
330
140
100
AcDbScale
 70
     0
300
1:1
140
1.0
141
1.0
290
     1
  0
SCALE
  5
142
102
{ACAD_REACTORS
330
140
102
}
330
140
100
AcDbScale
 70
     0
300
1:2
140
1.0
141
2.0
290
     0
  0
SCALE
  5
143
102
{ACAD_REACTORS
330
140
102
}
330
140
100
AcDbScale
 70
     0
300
1:4
140
1.0
141
4.0
290
     0
  0
SCALE
  5
144
102
{ACAD_REACTORS
330
140
102
}
330
140
100
AcDbScale
 70
     0
300
1:5
140
1.0
141
5.0
290
     0
  0
SCALE
  5
145
102
{ACAD_REACTORS
330
140
102
}
330
140
100
AcDbScale
 70
     0
300
1:8
140
1.0
141
8.0
290
     0
  0
SCALE
  5
146
102
{ACAD_REACTORS
330
140
102
}
330
140
100
AcDbScale
 70
     0
300
1:10
140
1.0
141
10.0
290
     0
  0
SCALE
  5
147
102
{ACAD_REACTORS
330
140
102
}
330
140
100
AcDbScale
 70
     0
300
1:16
140
1.0
141
16.0
290
     0
  0
SCALE
  5
148
102
{ACAD_REACTORS
330
140
102
}
330
140
100
AcDbScale
 70
     0
300
1:20
140
1.0
141
20.0
290
     0
  0
SCALE
  5
149
102
{ACAD_REACTORS
330
140
102
}
330
140
100
AcDbScale
 70
     0
300
1:30
140
1.0
141
30.0
290
     0
  0
SCALE
  5
14A
102
{ACAD_REACTORS
330
140
102
}
330
140
100
AcDbScale
 70
     0
300
1:40
140
1.0
141
40.0
290
     0
  0
SCALE
  5
14B
102
{ACAD_REACTORS
330
140
102
}
330
140
100
AcDbScale
 70
     0
300
1:50
140
1.0
141
50.0
290
     0
  0
SCALE
  5
14C
102
{ACAD_REACTORS
330
140
102
}
330
140
100
AcDbScale
 70
     0
300
1:100
140
1.0
141
100.0
290
     0
  0
SCALE
  5
14D
102
{ACAD_REACTORS
330
140
102
}
330
140
100
AcDbScale
 70
     0
300
2:1
140
2.0
141
1.0
290
     0
  0
SCALE
  5
14E
102
{ACAD_REACTORS
330
140
102
}
330
140
100
AcDbScale
 70
     0
300
4:1
140
4.0
141
1.0
290
     0
  0
SCALE
  5
14F
102
{ACAD_REACTORS
330
140
102
}
330
140
100
AcDbScale
 70
     0
300
8:1
140
8.0
141
1.0
290
     0
  0
SCALE
  5
150
102
{ACAD_REACTORS
330
140
102
}
330
140
100
AcDbScale
 70
     0
300
10:1
140
10.0
141
1.0
290
     0
  0
SCALE
  5
151
102
{ACAD_REACTORS
330
140
102
}
330
140
100
AcDbScale
 70
     0
300
100:1
140
100.0
141
1.0
290
     0
  0
SCALE
  5
152
102
{ACAD_REACTORS
330
140
102
}
330
140
100
AcDbScale
 70
     0
300
1/128" = 1'-0"
140
0.0078125
141
12.0
290
     0
  0
SCALE
  5
153
102
{ACAD_REACTORS
330
140
102
}
330
140
100
AcDbScale
 70
     0
300
1/64" = 1'-0"
140
0.015625
141
12.0
290
     0
  0
SCALE
  5
154
102
{ACAD_REACTORS
330
140
102
}
330
140
100
AcDbScale
 70
     0
300
1/32" = 1'-0"
140
0.03125
141
12.0
290
     0
  0
SCALE
  5
155
102
{ACAD_REACTORS
330
140
102
}
330
140
100
AcDbScale
 70
     0
300
1/16" = 1'-0"
140
0.0625
141
12.0
290
     0
  0
SCALE
  5
156
102
{ACAD_REACTORS
330
140
102
}
330
140
100
AcDbScale
 70
     0
300
3/32" = 1'-0"
140
0.09375
141
12.0
290
     0
  0
SCALE
  5
157
102
{ACAD_REACTORS
330
140
102
}
330
140
100
AcDbScale
 70
     0
300
1/8" = 1'-0"
140
0.125
141
12.0
290
     0
  0
SCALE
  5
158
102
{ACAD_REACTORS
330
140
102
}
330
140
100
AcDbScale
 70
     0
300
3/16" = 1'-0"
140
0.1875
141
12.0
290
     0
  0
SCALE
  5
159
102
{ACAD_REACTORS
330
140
102
}
330
140
100
AcDbScale
 70
     0
300
1/4" = 1'-0"
140
0.25
141
12.0
290
     0
  0
SCALE
  5
15A
102
{ACAD_REACTORS
330
140
102
}
330
140
100
AcDbScale
 70
     0
300
3/8" = 1'-0"
140
0.375
141
12.0
290
     0
  0
SCALE
  5
15B
102
{ACAD_REACTORS
330
140
102
}
330
140
100
AcDbScale
 70
     0
300
1/2" = 1'-0"
140
0.5
141
12.0
290
     0
  0
SCALE
  5
15C
102
{ACAD_REACTORS
330
140
102
}
330
140
100
AcDbScale
 70
     0
300
3/4" = 1'-0"
140
0.75
141
12.0
290
     0
  0
SCALE
  5
15D
102
{ACAD_REACTORS
330
140
102
}
330
140
100
AcDbScale
 70
     0
300
1" = 1'-0"
140
1.0
141
12.0
290
     0
  0
SCALE
  5
15E
102
{ACAD_REACTORS
330
140
102
}
330
140
100
AcDbScale
 70
     0
300
1-1/2" = 1'-0"
140
1.5
141
12.0
290
     0
  0
SCALE
  5
15F
102
{ACAD_REACTORS
330
140
102
}
330
140
100
AcDbScale
 70
     0
300
3" = 1'-0"
140
3.0
141
12.0
290
     0
  0
SCALE
  5
160
102
{ACAD_REACTORS
330
140
102
}
330
140
100
AcDbScale
 70
     0
300
6" = 1'-0"
140
6.0
141
12.0
290
     0
  0
SCALE
  5
161
102
{ACAD_REACTORS
330
140
102
}
330
140
100
AcDbScale
 70
     0
300
1'-0" = 1'-0"
140
12.0
141
12.0
290
     0
  0
TABLESTYLE
  5
134
102
{ACAD_XDICTIONARY
360
1A6
102
}
102
{ACAD_REACTORS
330
133
102
}
330
133
100
AcDbTableStyle
  3
Standard
 70
     0
 71
     0
 40
0.06
 41
0.06
280
     0
281
     0
  7
Standard
140
0.18
170
     2
 62
     0
 63
     7
283
     0
274
    -2
284
     1
 64
     0
275
    -2
285
     1
 65
     0
276
    -2
286
     1
 66
     0
277
    -2
287
     1
 67
     0
278
    -2
288
     1
 68
     0
279
    -2
289
     1
 69
     0
  7
Standard
140
0.25
170
     5
 62
     0
 63
     7
283
     0
274
    -2
284
     1
 64
     0
275
    -2
285
     1
 65
     0
276
    -2
286
     1
 66
     0
277
    -2
287
     1
 67
     0
278
    -2
288
     1
 68
     0
279
    -2
289
     1
 69
     0
  7
Standard
140
0.18
170
     5
 62
     0
 63
     7
283
     0
274
    -2
284
     1
 64
     0
275
    -2
285
     1
 65
     0
276
    -2
286
     1
 66
     0
277
    -2
287
     1
 67
     0
278
    -2
288
     1
 68
     0
279
    -2
289
     1
 69
     0
  0
VISUALSTYLE
  5
127
102
{ACAD_REACTORS
330
121
102
}
330
121
100
AcDbVisualStyle
  2
2dWireframe
 70
     4
 71
     0
 72
     2
 73
     0
 90
        0
 40
-0.6
 41
-30.0
 62
     5
 63
     7
421
 16777215
 74
     1
 91
        4
 64
     7
 65
   257
 75
     1
175
     1
 42
1.0
 92
        0
 66
   257
 43
1.0
 76
     1
 77
     6
 78
     2
 67
     7
 79
     5
170
     0
171
     0
290
     0
174
     0
 93
        1
 44
0.0
173
     0
291
     0
 45
0.0
1001
ACAD
1000
AcDbSavedByObjectVersion
1070
     0
  0
VISUALSTYLE
  5
129
102
{ACAD_REACTORS
330
121
102
}
330
121
100
AcDbVisualStyle
  2
3D Hidden
 70
     6
 71
     1
 72
     2
 73
     2
 90
        0
 40
-0.6
 41
-30.0
 62
     5
 63
     7
421
 16777215
 74
     2
 91
        2
 64
     7
 65
   257
 75
     2
175
     1
 42
40.0
 92
        0
 66
   257
 43
1.0
 76
     1
 77
     6
 78
     2
 67
     7
 79
     3
170
     0
171
     0
290
     0
174
     0
 93
        1
 44
0.0
173
     0
291
     0
 45
0.0
1001
ACAD
1000
AcDbSavedByObjectVersion
1070
     0
  0
VISUALSTYLE
  5
128
102
{ACAD_REACTORS
330
121
102
}
330
121
100
AcDbVisualStyle
  2
3dWireframe
 70
     5
 71
     0
 72
     2
 73
     0
 90
        0
 40
-0.6
 41
-30.0
 62
     5
 63
     7
421
 16777215
 74
     1
 91
        4
 64
     7
 65
   257
 75
     1
175
     1
 42
1.0
 92
        0
 66
   257
 43
1.0
 76
     1
 77
     6
 78
     2
 67
     7
 79
     5
170
     0
171
     0
290
     0
174
     0
 93
        1
 44
0.0
173
     0
291
     0
 45
0.0
1001
ACAD
1000
AcDbSavedByObjectVersion
1070
     0
  0
VISUALSTYLE
  5
126
102
{ACAD_REACTORS
330
121
102
}
330
121
100
AcDbVisualStyle
  2
Basic
 70
     7
 71
     1
 72
     0
 73
     1
 90
        0
 40
-0.6
 41
-30.0
 62
     5
 63
     7
421
 16777215
 74
     0
 91
        4
 64
     7
 65
   257
 75
     1
175
     1
 42
1.0
 92
        8
 66
     7
 43
1.0
 76
     1
 77
     6
 78
     2
 67
     7
 79
     5
170
     0
171
     0
290
     0
174
     0
 93
        1
 44
0.0
173
     0
291
     1
 45
0.0
1001
ACAD
1000
AcDbSavedByObjectVersion
1070
     0
  0
VISUALSTYLE
  5
12D
102
{ACAD_REACTORS
330
121
102
}
330
121
100
AcDbVisualStyle
  2
Brighten
 70
    12
 71
     2
 72
     2
 73
     0
 90
        0
 40
-0.6
 41
-30.0
 62
     5
 63
     7
421
 16777215
 74
     1
 91
        4
 64
     7
 65
   257
 75
     1
175
     1
 42
1.0
 92
        8
 66
     7
 43
1.0
 76
     1
 77
     6
 78
     2
 67
     7
 79
     5
170
     0
171
     0
290
     0
174
     0
 93
        1
 44
50.0
173
     0
291
     1
 45
0.0
1001
ACAD
1000
AcDbSavedByObjectVersion
1070
     0
  0
VISUALSTYLE
  5
131
102
{ACAD_REACTORS
330
121
102
}
330
121
100
AcDbVisualStyle
  2
ColorChange
 70
    16
 71
     2
 72
     2
 73
     3
 90
        0
 40
-0.6
 41
-30.0
 62
     5
 63
     8
421
  8421504
 74
     1
 91
        4
 64
     7
 65
   257
 75
     1
175
     1
 42
1.0
 92
        8
 66
     8
424
  8421504
 43
1.0
 76
     1
 77
     6
 78
     2
 67
     7
 79
     5
170
     0
171
     0
290
     0
174
     0
 93
        1
 44
0.0
173
     0
291
     1
 45
0.0
1001
ACAD
1000
AcDbSavedByObjectVersion
1070
     0
  0
VISUALSTYLE
  5
12A
102
{ACAD_REACTORS
330
121
102
}
330
121
100
AcDbVisualStyle
  2
Conceptual
 70
     9
 71
     3
 72
     2
 73
     0
 90
        0
 40
-0.6
 41
-30.0
 62
     5
 63
     7
421
 16777215
 74
     2
 91
        2
 64
     7
 65
   257
 75
     1
175
     1
 42
40.0
 92
        8
 66
     7
 43
1.0
 76
     1
 77
     6
 78
     2
 67
     7
 79
     3
170
     0
171
     0
290
     0
174
     0
 93
        1
 44
0.0
173
     0
291
     0
 45
0.0
1001
ACAD
1000
AcDbSavedByObjectVersion
1070
     0
  0
VISUALSTYLE
  5
12C
102
{ACAD_REACTORS
330
121
102
}
330
121
100
AcDbVisualStyle
  2
Dim
 70
    11
 71
     2
 72
     2
 73
     0
 90
        0
 40
-0.6
 41
-30.0
 62
     5
 63
     7
421
 16777215
 74
     1
 91
        4
 64
     7
 65
   257
 75
     1
175
     1
 42
1.0
 92
        8
 66
     7
 43
1.0
 76
     1
 77
     6
 78
     2
 67
     7
 79
     5
170
     0
171
     0
290
     0
174
     0
 93
        1
 44
-50.0
173
     0
291
     1
 45
0.0
1001
ACAD
1000
AcDbSavedByObjectVersion
1070
     0
  0
VISUALSTYLE
  5
130
102
{ACAD_REACTORS
330
121
102
}
330
121
100
AcDbVisualStyle
  2
Facepattern
 70
    15
 71
     2
 72
     2
 73
     0
 90
        0
 40
-0.6
 41
-30.0
 62
     5
 63
     7
421
 16777215
 74
     1
 91
        4
 64
     7
 65
   257
 75
     1
175
     1
 42
1.0
 92
        8
 66
     7
 43
1.0
 76
     1
 77
     6
 78
     2
 67
     7
 79
     5
170
     0
171
     0
290
     0
174
     0
 93
        1
 44
0.0
173
     0
291
     1
 45
0.0
1001
ACAD
1000
AcDbSavedByObjectVersion
1070
     0
  0
VISUALSTYLE
  5
122
102
{ACAD_REACTORS
330
121
102
}
330
121
100
AcDbVisualStyle
  2
Flat
 70
     0
 71
     2
 72
     1
 73
     1
 90
        2
 40
-0.6
 41
30.0
 62
     5
 63
     7
421
 16777215
 74
     0
 91
        4
 64
     7
 65
   257
 75
     1
175
     1
 42
1.0
 92
        8
 66
     7
 43
1.0
 76
     1
 77
     6
 78
     2
 67
     7
 79
     5
170
     0
171
     0
290
     0
174
     0
 93
       13
 44
0.0
173
     0
291
     1
 45
0.0
1001
ACAD
1000
AcDbSavedByObjectVersion
1070
     0
  0
VISUALSTYLE
  5
123
102
{ACAD_REACTORS
330
121
102
}
330
121
100
AcDbVisualStyle
  2
FlatWithEdges
 70
     1
 71
     2
 72
     1
 73
     1
 90
        2
 40
-0.6
 41
30.0
 62
     5
 63
     7
421
 16777215
 74
     1
 91
        4
 64
     7
 65
   257
 75
     1
175
     1
 42
1.0
 92
        0
 66
   257
 43
1.0
 76
     1
 77
     6
 78
     2
 67
     7
 79
     5
170
     0
171
     0
290
     0
174
     0
 93
       13
 44
0.0
173
     0
291
     1
 45
0.0
1001
ACAD
1000
AcDbSavedByObjectVersion
1070
     0
  0
VISUALSTYLE
  5
124
102
{ACAD_REACTORS
330
121
102
}
330
121
100
AcDbVisualStyle
  2
Gouraud
 70
     2
 71
     2
 72
     2
 73
     1
 90
        2
 40
-0.6
 41
30.0
 62
     5
 63
     7
421
 16777215
 74
     0
 91
        4
 64
     7
 65
   257
 75
     1
175
     1
 42
1.0
 92
        0
 66
     7
 43
1.0
 76
     1
 77
     6
 78
     2
 67
     7
 79
     5
170
     0
171
     0
290
     0
174
     0
 93
       13
 44
0.0
173
     0
291
     1
 45
0.0
1001
ACAD
1000
AcDbSavedByObjectVersion
1070
     0
  0
VISUALSTYLE
  5
125
102
{ACAD_REACTORS
330
121
102
}
330
121
100
AcDbVisualStyle
  2
GouraudWithEdges
 70
     3
 71
     2
 72
     2
 73
     1
 90
        2
 40
-0.6
 41
30.0
 62
     5
 63
     7
421
 16777215
 74
     1
 91
        4
 64
     7
 65
   257
 75
     1
175
     1
 42
1.0
 92
        0
 66
   257
 43
1.0
 76
     1
 77
     6
 78
     2
 67
     7
 79
     5
170
     0
171
     0
290
     0
174
     0
 93
       13
 44
0.0
173
     0
291
     1
 45
0.0
1001
ACAD
1000
AcDbSavedByObjectVersion
1070
     0
  0
VISUALSTYLE
  5
12F
102
{ACAD_REACTORS
330
121
102
}
330
121
100
AcDbVisualStyle
  2
Linepattern
 70
    14
 71
     2
 72
     2
 73
     0
 90
        0
 40
-0.6
 41
-30.0
 62
     5
 63
     7
421
 16777215
 74
     1
 91
        4
 64
     7
 65
   257
 75
     7
175
     7
 42
1.0
 92
        8
 66
     7
 43
1.0
 76
     1
 77
     6
 78
     2
 67
     7
 79
     5
170
     0
171
     0
290
     0
174
     0
 93
        1
 44
0.0
173
     0
291
     1
 45
0.0
1001
ACAD
1000
AcDbSavedByObjectVersion
1070
     0
  0
VISUALSTYLE
  5
12B
102
{ACAD_REACTORS
330
121
102
}
330
121
100
AcDbVisualStyle
  2
Realistic
 70
     8
 71
     2
 72
     2
 73
     0
 90
        0
 40
-0.6
 41
-30.0
 62
     5
 63
     7
421
 16777215
 74
     1
 91
        0
 64
     7
 65
   257
 75
     1
175
     1
 42
1.0
 92
        8
 66
     8
424
  7895160
 43
1.0
 76
     1
 77
     6
 78
     2
 67
     7
 79
     5
170
     0
171
     0
290
     0
174
     0
 93
       13
 44
0.0
173
     0
291
     0
 45
0.0
1001
ACAD
1000
AcDbSavedByObjectVersion
1070
     0
  0
VISUALSTYLE
  5
12E
102
{ACAD_REACTORS
330
121
102
}
330
121
100
AcDbVisualStyle
  2
Thicken
 70
    13
 71
     2
 72
     2
 73
     0
 90
        0
 40
-0.6
 41
-30.0
 62
     5
 63
     7
421
 16777215
 74
     1
 91
        4
 64
     7
 65
   257
 75
     1
175
     1
 42
1.0
 92
       12
 66
     7
 43
1.0
 76
     1
 77
     6
 78
     2
 67
     7
 79
     5
170
     0
171
     0
290
     0
174
     0
 93
        1
 44
0.0
173
     0
291
     1
 45
0.0
1001
ACAD
1000
AcDbSavedByObjectVersion
1070
     0
  0
DICTIONARYVAR
  5
19B
102
{ACAD_REACTORS
330
13D
102
}
330
13D
100
DictionaryVariables
280
     0
  1
1:1
  0
DICTIONARYVAR
  5
19A
102
{ACAD_REACTORS
330
13D
102
}
330
13D
100
DictionaryVariables
280
     0
  1
STANDARD
  0
DICTIONARYVAR
  5
13E
102
{ACAD_REACTORS
330
13D
102
}
330
13D
100
DictionaryVariables
280
     0
  1
STANDARD
  0
DICTIONARY
  5
1AB
330
11F
100
AcDbDictionary
280
     1
281
     1
  3
ACAD_XREC_ROUNDTRIP
360
1AC
  0
DICTIONARY
  5
1A9
330
11E
100
AcDbDictionary
280
     1
281
     1
  3
ACAD_XREC_ROUNDTRIP
360
1AA
  0
DICTIONARY
  5
1AD
330
120
100
AcDbDictionary
280
     1
281
     1
  3
ACAD_XREC_ROUNDTRIP
360
1AE
  0
DICTIONARY
  5
1A6
330
134
100
AcDbDictionary
280
     1
281
     1
  3
ACAD_ROUNDTRIP_2008_TABLESTYLE_CELLSTYLEMAP
360
1A7
  3
ACAD_XREC_ROUNDTRIP
360
1AF
  0
XRECORD
  5
1AC
102
{ACAD_REACTORS
330
1AB
102
}
330
1AB
100
AcDbXrecord
280
     1
102
MATERIAL
148
0.0
149
0.0
149
0.0
 93
        0
 94
       63
282
     0
 72
     1
 77
     1
171
     1
175
     1
179
     1
273
     0
  0
XRECORD
  5
1AA
102
{ACAD_REACTORS
330
1A9
102
}
330
1A9
100
AcDbXrecord
280
     1
102
MATERIAL
148
0.0
149
0.0
149
0.0
 93
        0
 94
       63
282
     0
 72
     1
 77
     1
171
     1
175
     1
179
     1
273
     0
  0
XRECORD
  5
1AE
102
{ACAD_REACTORS
330
1AD
102
}
330
1AD
100
AcDbXrecord
280
     1
102
MATERIAL
148
0.0
149
0.0
149
0.0
 93
        0
 94
       63
282
     0
 72
     1
 77
     1
171
     1
175
     1
179
     1
273
     0
  0
CELLSTYLEMAP
  5
1A7
102
{ACAD_REACTORS
330
1A6
102
}
330
1A6
100
AcDbCellStyleMap
 90
        3
300
CELLSTYLE
  1
TABLEFORMAT_BEGIN
 90
        5
170
     1
 91
        0
 92
    32768
 62
   257
 93
        1
300
CONTENTFORMAT
  1
CONTENTFORMAT_BEGIN
 90
        0
 91
        0
 92
      512
 93
        0
300

 40
0.0
140
1.0
 94
        5
 62
     0
340
17
144
0.25
309
CONTENTFORMAT_END
171
     0
 94
        6
 95
        1
302
GRIDFORMAT
  1
GRIDFORMAT_BEGIN
 90
        0
 91
        1
 62
     0
 92
       -2
340
0
 93
        0
 40
0.045
309
GRIDFORMAT_END
 95
        2
302
GRIDFORMAT
  1
GRIDFORMAT_BEGIN
 90
        0
 91
        1
 62
     0
 92
       -2
340
0
 93
        0
 40
0.045
309
GRIDFORMAT_END
 95
        4
302
GRIDFORMAT
  1
GRIDFORMAT_BEGIN
 90
        0
 91
        1
 62
     0
 92
       -2
340
0
 93
        0
 40
0.045
309
GRIDFORMAT_END
 95
        8
302
GRIDFORMAT
  1
GRIDFORMAT_BEGIN
 90
        0
 91
        1
 62
     0
 92
       -2
340
0
 93
        0
 40
0.045
309
GRIDFORMAT_END
 95
       16
302
GRIDFORMAT
  1
GRIDFORMAT_BEGIN
 90
        0
 91
        1
 62
     0
 92
       -2
340
0
 93
        0
 40
0.045
309
GRIDFORMAT_END
 95
       32
302
GRIDFORMAT
  1
GRIDFORMAT_BEGIN
 90
        0
 91
        1
 62
     0
 92
       -2
340
0
 93
        0
 40
0.045
309
GRIDFORMAT_END
309
TABLEFORMAT_END
  1
CELLSTYLE_BEGIN
 90
        1
 91
        1
300
_TITLE
309
CELLSTYLE_END
300
CELLSTYLE
  1
TABLEFORMAT_BEGIN
 90
        5
170
     1
 91
        0
 92
        0
 62
   257
 93
        1
300
CONTENTFORMAT
  1
CONTENTFORMAT_BEGIN
 90
        0
 91
        0
 92
      512
 93
        0
300

 40
0.0
140
1.0
 94
        5
 62
     0
340
17
144
0.18
309
CONTENTFORMAT_END
171
     0
 94
        6
 95
        1
302
GRIDFORMAT
  1
GRIDFORMAT_BEGIN
 90
        0
 91
        1
 62
     0
 92
       -2
340
0
 93
        0
 40
0.045
309
GRIDFORMAT_END
 95
        2
302
GRIDFORMAT
  1
GRIDFORMAT_BEGIN
 90
        0
 91
        1
 62
     0
 92
       -2
340
0
 93
        0
 40
0.045
309
GRIDFORMAT_END
 95
        4
302
GRIDFORMAT
  1
GRIDFORMAT_BEGIN
 90
        0
 91
        1
 62
     0
 92
       -2
340
0
 93
        0
 40
0.045
309
GRIDFORMAT_END
 95
        8
302
GRIDFORMAT
  1
GRIDFORMAT_BEGIN
 90
        0
 91
        1
 62
     0
 92
       -2
340
0
 93
        0
 40
0.045
309
GRIDFORMAT_END
 95
       16
302
GRIDFORMAT
  1
GRIDFORMAT_BEGIN
 90
        0
 91
        1
 62
     0
 92
       -2
340
0
 93
        0
 40
0.045
309
GRIDFORMAT_END
 95
       32
302
GRIDFORMAT
  1
GRIDFORMAT_BEGIN
 90
        0
 91
        1
 62
     0
 92
       -2
340
0
 93
        0
 40
0.045
309
GRIDFORMAT_END
309
TABLEFORMAT_END
  1
CELLSTYLE_BEGIN
 90
        2
 91
        1
300
_HEADER
309
CELLSTYLE_END
300
CELLSTYLE
  1
TABLEFORMAT_BEGIN
 90
        5
170
     1
 91
        0
 92
        0
 62
   257
 93
        1
300
CONTENTFORMAT
  1
CONTENTFORMAT_BEGIN
 90
        0
 91
        0
 92
      512
 93
        0
300

 40
0.0
140
1.0
 94
        2
 62
     0
340
17
144
0.18
309
CONTENTFORMAT_END
171
     0
 94
        6
 95
        1
302
GRIDFORMAT
  1
GRIDFORMAT_BEGIN
 90
        0
 91
        1
 62
     0
 92
       -2
340
0
 93
        0
 40
0.045
309
GRIDFORMAT_END
 95
        2
302
GRIDFORMAT
  1
GRIDFORMAT_BEGIN
 90
        0
 91
        1
 62
     0
 92
       -2
340
0
 93
        0
 40
0.045
309
GRIDFORMAT_END
 95
        4
302
GRIDFORMAT
  1
GRIDFORMAT_BEGIN
 90
        0
 91
        1
 62
     0
 92
       -2
340
0
 93
        0
 40
0.045
309
GRIDFORMAT_END
 95
        8
302
GRIDFORMAT
  1
GRIDFORMAT_BEGIN
 90
        0
 91
        1
 62
     0
 92
       -2
340
0
 93
        0
 40
0.045
309
GRIDFORMAT_END
 95
       16
302
GRIDFORMAT
  1
GRIDFORMAT_BEGIN
 90
        0
 91
        1
 62
     0
 92
       -2
340
0
 93
        0
 40
0.045
309
GRIDFORMAT_END
 95
       32
302
GRIDFORMAT
  1
GRIDFORMAT_BEGIN
 90
        0
 91
        1
 62
     0
 92
       -2
340
0
 93
        0
 40
0.045
309
GRIDFORMAT_END
309
TABLEFORMAT_END
  1
CELLSTYLE_BEGIN
 90
        3
 91
        2
300
_DATA
309
CELLSTYLE_END
  0
XRECORD
  5
1AF
102
{ACAD_REACTORS
330
1A6
102
}
330
1A6
100
AcDbXrecord
280
     1
102
ACAD_ROUNDTRIP_PRE2007_TABLESTYLE
 90
      512
 91
        0
  1

 92
      512
 93
        0
  2

 94
      512
 95
        0
  3

  0
ENDSEC
  0
EOF
