  0
SECTION
  2
HEADER
  9
$ACADVER
  1
AC1021
  9
$ACADMAINTVER
 70
    50
  9
$DWGCODEPAGE
  3
ANSI_1252
  9
$LASTSAVEDBY
  1
EARL
  9
$INSBASE
 10
0.0
 20
0.0
 30
0.0
  9
$EXTMIN
 10
-2.650194644927978
 20
-2.901404410600662
 30
0.0
  9
$EXTMAX
 10
2.60136753131732
 20
1.526025652885437
 30
0.0
  9
$LIMMIN
 10
0.0
 20
0.0
  9
$LIMMAX
 10
0.0
 20
0.0
  9
$ORTHOMODE
 70
     0
  9
$REGENMODE
 70
     1
  9
$FILLMODE
 70
     1
  9
$QTEXTMODE
 70
     0
  9
$MIRRTEXT
 70
     1
  9
$LTSCALE
 40
1.0
  9
$ATTMODE
 70
     1
  9
$TEXTSIZE
 40
0.0
  9
$TRACEWID
 40
0.05
  9
$TEXTSTYLE
  7
Standard
  9
$CLAYER
  8
0
  9
$CELTYPE
  6
Continuous
  9
$CECOLOR
 62
   256
  9
$CELTSCALE
 40
1.0
  9
$DISPSILH
 70
     0
  9
$DIMSCALE
 40
1.0
  9
$DIMASZ
 40
0.18
  9
$DIMEXO
 40
0.0625
  9
$DIMDLI
 40
0.38
  9
$DIMRND
 40
0.0
  9
$DIMDLE
 40
0.0
  9
$DIMEXE
 40
0.18
  9
$DIMTP
 40
0.0
  9
$DIMTM
 40
0.0
  9
$DIMTXT
 40
0.18
  9
$DIMCEN
 40
0.09
  9
$DIMTSZ
 40
0.0
  9
$DIMTOL
 70
     0
  9
$DIMLIM
 70
     0
  9
$DIMTIH
 70
     1
  9
$DIMTOH
 70
     1
  9
$DIMSE1
 70
     0
  9
$DIMSE2
 70
     0
  9
$DIMTAD
 70
     0
  9
$DIMZIN
 70
     0
  9
$DIMBLK
  1

  9
$DIMASO
 70
     1
  9
$DIMSHO
 70
     1
  9
$DIMPOST
  1

  9
$DIMAPOST
  1

  9
$DIMALT
 70
     0
  9
$DIMALTD
 70
     2
  9
$DIMALTF
 40
25.4
  9
$DIMLFAC
 40
1.0
  9
$DIMTOFL
 70
     0
  9
$DIMTVP
 40
0.0
  9
$DIMTIX
 70
     0
  9
$DIMSOXD
 70
     0
  9
$DIMSAH
 70
     0
  9
$DIMBLK1
  1

  9
$DIMBLK2
  1

  9
$DIMSTYLE
  2
Standard
  9
$DIMCLRD
 70
     0
  9
$DIMCLRE
 70
     0
  9
$DIMCLRT
 70
     0
  9
$DIMTFAC
 40
1.0
  9
$DIMGAP
 40
0.09
  9
$DIMJUST
 70
     0
  9
$DIMSD1
 70
     0
  9
$DIMSD2
 70
     0
  9
$DIMTOLJ
 70
     1
  9
$DIMTZIN
 70
     0
  9
$DIMALTZ
 70
     0
  9
$DIMALTTZ
 70
     0
  9
$DIMUPT
 70
     0
  9
$DIMDEC
 70
     4
  9
$DIMTDEC
 70
     4
  9
$DIMALTU
 70
     2
  9
$DIMALTTD
 70
     2
  9
$DIMTXSTY
  7
Standard
  9
$DIMAUNIT
 70
     0
  9
$DIMADEC
 70
     0
  9
$DIMALTRND
 40
0.0
  9
$DIMAZIN
 70
     0
  9
$DIMDSEP
 70
    46
  9
$DIMATFIT
 70
     0
  9
$DIMFRAC
 70
     0
  9
$DIMLDRBLK
  1

  9
$DIMLUNIT
 70
     2
  9
$DIMLWD
 70
    -2
  9
$DIMLWE
 70
    -2
  9
$DIMTMOVE
 70
     0
  9
$DIMFXL
 40
1.0
  9
$DIMFXLON
 70
     0
  9
$DIMJOGANG
 40
0.7853981633974483
  9
$DIMTFILL
 70
     0
  9
$DIMTFILLCLR
 70
     0
  9
$DIMARCSYM
 70
     0
  9
$DIMLTYPE
  6

  9
$DIMLTEX1
  6

  9
$DIMLTEX2
  6

  9
$LUNITS
 70
     2
  9
$LUPREC
 70
     4
  9
$SKETCHINC
 40
0.1
  9
$FILLETRAD
 40
0.0
  9
$AUNITS
 70
     0
  9
$AUPREC
 70
     0
  9
$MENU
  1
acad
  9
$ELEVATION
 40
0.0
  9
$PELEVATION
 40
0.0
  9
$THICKNESS
 40
0.0
  9
$LIMCHECK
 70
     0
  9
$CHAMFERA
 40
0.0
  9
$CHAMFERB
 40
0.0
  9
$CHAMFERC
 40
0.0
  9
$CHAMFERD
 40
0.0
  9
$SKPOLY
 70
     0
  9
$TDCREATE
 40
2454498.411331019
  9
$TDUCREATE
 40
2454498.577997686
  9
$TDUPDATE
 40
2455099.666166621
  9
$TDUUPDATE
 40
2455099.832833287
  9
$TDINDWG
 40
0.0047885880
  9
$TDUSRTIMER
 40
0.0047885880
  9
$USRTIMER
 70
     1
  9
$ANGBASE
 50
0.0
  9
$ANGDIR
 70
     0
  9
$PDMODE
 70
     0
  9
$PDSIZE
 40
0.0
  9
$PLINEWID
 40
0.0
  9
$SPLFRAME
 70
     0
  9
$SPLINETYPE
 70
     6
  9
$SPLINESEGS
 70
     8
  9
$HANDSEED
  5
25B
  9
$SURFTAB1
 70
     6
  9
$SURFTAB2
 70
     6
  9
$SURFTYPE
 70
     6
  9
$SURFU
 70
     6
  9
$SURFV
 70
     6
  9
$UCSBASE
  2

  9
$UCSNAME
  2

  9
$UCSORG
 10
0.0
 20
0.0
 30
0.0
  9
$UCSXDIR
 10
1.0
 20
0.0
 30
0.0
  9
$UCSYDIR
 10
0.0
 20
1.0
 30
0.0
  9
$UCSORTHOREF
  2

  9
$UCSORTHOVIEW
 70
     0
  9
$UCSORGTOP
 10
0.0
 20
0.0
 30
0.0
  9
$UCSORGBOTTOM
 10
0.0
 20
0.0
 30
0.0
  9
$UCSORGLEFT
 10
0.0
 20
0.0
 30
0.0
  9
$UCSORGRIGHT
 10
0.0
 20
0.0
 30
0.0
  9
$UCSORGFRONT
 10
0.0
 20
0.0
 30
0.0
  9
$UCSORGBACK
 10
0.0
 20
0.0
 30
0.0
  9
$PUCSBASE
  2

  9
$PUCSNAME
  2

  9
$PUCSORG
 10
0.0
 20
0.0
 30
0.0
  9
$PUCSXDIR
 10
1.0
 20
0.0
 30
0.0
  9
$PUCSYDIR
 10
0.0
 20
1.0
 30
0.0
  9
$PUCSORTHOREF
  2

  9
$PUCSORTHOVIEW
 70
     0
  9
$PUCSORGTOP
 10
0.0
 20
0.0
 30
0.0
  9
$PUCSORGBOTTOM
 10
0.0
 20
0.0
 30
0.0
  9
$PUCSORGLEFT
 10
0.0
 20
0.0
 30
0.0
  9
$PUCSORGRIGHT
 10
0.0
 20
0.0
 30
0.0
  9
$PUCSORGFRONT
 10
0.0
 20
0.0
 30
0.0
  9
$PUCSORGBACK
 10
0.0
 20
0.0
 30
0.0
  9
$USERI1
 70
     0
  9
$USERI2
 70
     0
  9
$USERI3
 70
     0
  9
$USERI4
 70
     0
  9
$USERI5
 70
     0
  9
$USERR1
 40
0.0
  9
$USERR2
 40
0.0
  9
$USERR3
 40
0.0
  9
$USERR4
 40
0.0
  9
$USERR5
 40
0.0
  9
$WORLDVIEW
 70
     1
  9
$SHADEDGE
 70
     3
  9
$SHADEDIF
 70
    70
  9
$TILEMODE
 70
     0
  9
$MAXACTVP
 70
    16
  9
$PINSBASE
 10
0.0
 20
0.0
 30
0.0
  9
$PLIMCHECK
 70
     0
  9
$PEXTMIN
 10
0.0761258772037046
 20
0.0960388325248936
 30
-0.0015258207003583
  9
$PEXTMAX
 10
10.31309464682862
 20
7.802795205527495
 30
0.0000000349246037
  9
$PLIMMIN
 10
-0.2500002402958907
 20
-0.2499999962453767
  9
$PLIMMAX
 10
10.74999951940821
 20
8.249999763458731
  9
$UNITMODE
 70
     0
  9
$VISRETAIN
 70
     0
  9
$PLINEGEN
 70
     1
  9
$PSLTSCALE
 70
     0
  9
$TREEDEPTH
 70
  3020
  9
$CMLSTYLE
  2
Standard
  9
$CMLJUST
 70
     0
  9
$CMLSCALE
 40
1.0
  9
$PROXYGRAPHICS
 70
     0
  9
$MEASUREMENT
 70
     0
  9
$CELWEIGHT
370
     0
  9
$ENDCAPS
280
     0
  9
$JOINSTYLE
280
     0
  9
$LWDISPLAY
290
     0
  9
$INSUNITS
 70
     0
  9
$HYPERLINKBASE
  1

  9
$STYLESHEET
  1

  9
$XEDIT
290
     1
  9
$CEPSNTYPE
380
     0
  9
$PSTYLEMODE
290
     1
  9
$FINGERPRINTGUID
  2

  9
$VERSIONGUID
  2
{C6BF5AAE-2D69-46A3-B83E-51F7E391E1D3}
  9
$EXTNAMES
290
     1
  9
$PSVPSCALE
 40
0.0
  9
$OLESTARTUP
290
     0
  9
$SORTENTS
280
   127
  9
$INDEXCTL
280
     0
  9
$HIDETEXT
280
     0
  9
$XCLIPFRAME
290
     0
  9
$HALOGAP
280
     0
  9
$OBSCOLOR
 70
   257
  9
$OBSLTYPE
280
     0
  9
$INTERSECTIONDISPLAY
280
     0
  9
$INTERSECTIONCOLOR
 70
   257
  9
$DIMASSOC
280
     1
  9
$PROJECTNAME
  1

  9
$CAMERADISPLAY
290
     0
  9
$LENSLENGTH
 40
50.0
  9
$CAMERAHEIGHT
 40
0.0
  9
$STEPSPERSEC
 40
2.0
  9
$STEPSIZE
 40
6.0
  9
$3DDWFPREC
 40
2.0
  9
$PSOLWIDTH
 40
0.25
  9
$PSOLHEIGHT
 40
4.0
  9
$LOFTANG1
 40
1.570796326794896
  9
$LOFTANG2
 40
1.570796326794896
  9
$LOFTMAG1
 40
0.0
  9
$LOFTMAG2
 40
0.0
  9
$LOFTPARAM
 70
     7
  9
$LOFTNORMALS
280
     1
  9
$LATITUDE
 40
37.795
  9
$LONGITUDE
 40
-122.394
  9
$NORTHDIRECTION
 40
0.0
  9
$TIMEZONE
 70
 -8000
  9
$LIGHTGLYPHDISPLAY
280
     1
  9
$TILEMODELIGHTSYNCH
280
     1
  9
$CMATERIAL
347
1EB
  9
$SOLIDHIST
280
     1
  9
$SHOWHIST
280
     1
  9
$DWFFRAME
280
     2
  9
$DGNFRAME
280
     0
  9
$REALWORLDSCALE
290
     1
  9
$INTERFERECOLOR
 62
     1
  9
$INTERFEREOBJVS
345
20D
  9
$INTERFEREVPVS
346
20A
  9
$CSHADOW
280
     0
  9
$SHADOWPLANELOCATION
 40
0.0
  0
ENDSEC
  0
SECTION
  2
CLASSES
  0
CLASS
  1
IMAGE
  2
AcDbRasterImage
  3
ISM
 90
     2175
 91
        0
280
     0
281
     1
  0
CLASS
  1
DICTIONARYVAR
  2
AcDbDictionaryVar
  3
ObjectDBX Classes
 90
        0
 91
        9
280
     0
281
     0
  0
CLASS
  1
RASTERVARIABLES
  2
AcDbRasterVariables
  3
ISM
 90
        0
 91
        0
280
     0
281
     0
  0
CLASS
  1
IMAGEDEF
  2
AcDbRasterImageDef
  3
ISM
 90
        0
 91
        0
280
     0
281
     0
  0
CLASS
  1
IMAGEDEF_REACTOR
  2
AcDbRasterImageDefReactor
  3
ISM
 90
        1
 91
        0
280
     0
281
     0
  0
CLASS
  1
IDBUFFER
  2
AcDbIdBuffer
  3
ObjectDBX Classes
 90
        0
 91
        0
280
     0
281
     0
  0
CLASS
  1
SPATIAL_FILTER
  2
AcDbSpatialFilter
  3
ObjectDBX Classes
 90
        0
 91
        0
280
     0
281
     0
  0
CLASS
  1
SORTENTSTABLE
  2
AcDbSortentsTable
  3
ObjectDBX Classes
 90
        0
 91
        0
280
     0
281
     0
  0
CLASS
  1
LAYER_INDEX
  2
AcDbLayerIndex
  3
ObjectDBX Classes
 90
        0
 91
        0
280
     0
281
     0
  0
CLASS
  1
SPATIAL_INDEX
  2
AcDbSpatialIndex
  3
ObjectDBX Classes
 90
        0
 91
        0
280
     0
281
     0
  0
CLASS
  1
OBJECT_PTR
  2
CAseDLPNTableRecord
  3
"ASE-LPNTableRecord"
 90
        1
 91
        0
280
     0
281
     0
  0
CLASS
  1
PLOTSETTINGS
  2
AcDbPlotSettings
  3
ObjectDBX Classes
 90
        0
 91
        0
280
     0
281
     0
  0
CLASS
  1
ACDBDICTIONARYWDFLT
  2
AcDbDictionaryWithDefault
  3
ObjectDBX Classes
 90
        0
 91
        1
280
     0
281
     0
  0
CLASS
  1
WIPEOUT
  2
AcDbWipeout
  3
"WipeOut|Product Desc: Object Enabler for WipeOut entity                        |Company: Autodesk, Inc.                        |WEB Address: www.autodesk.com"
 90
     2175
 91
        0
280
     0
281
     1
  0
CLASS
  1
WIPEOUTVARIABLES
  2
AcDbWipeoutVariables
  3
"WipeOut|Product Desc:     WipeOut Dbx Application|Company:          Autodesk, Inc.|WEB Address:      www.autodesk.com"
 90
        0
 91
        1
280
     0
281
     0
  0
CLASS
  1
RTEXT
  2
RText
  3
RText|AutoCAD Express Tool|expresstools@autodesk.com
 90
        0
 91
        0
280
     0
281
     1
  0
CLASS
  1
ARCALIGNEDTEXT
  2
AcDbArcAlignedText
  3
ATEXT|AutoCAD Express Tool|expresstools@autodesk.com
 90
        0
 91
        0
280
     0
281
     1
  0
CLASS
  1
TABLESTYLE
  2
AcDbTableStyle
  3
ObjectDBX Classes
 90
     4095
 91
        1
280
     0
281
     0
  0
CLASS
  1
MATERIAL
  2
AcDbMaterial
  3
ObjectDBX Classes
 90
     1153
 91
        3
280
     0
281
     0
  0
CLASS
  1
VISUALSTYLE
  2
AcDbVisualStyle
  3
ObjectDBX Classes
 90
     4095
 91
       16
280
     0
281
     0
  0
CLASS
  1
SCALE
  2
AcDbScale
  3
ObjectDBX Classes
 90
     1153
 91
       33
280
     0
281
     0
  0
CLASS
  1
MLEADERSTYLE
  2
AcDbMLeaderStyle
  3
ACDB_MLEADERSTYLE_CLASS
 90
     4095
 91
        1
280
     0
281
     0
  0
CLASS
  1
CELLSTYLEMAP
  2
AcDbCellStyleMap
  3
ObjectDBX Classes
 90
     1152
 91
        2
280
     0
281
     0
  0
ENDSEC
  0
SECTION
  2
TABLES
  0
TABLE
  2
VPORT
  5
7
330
0
100
AcDbSymbolTable
 70
     1
  0
VPORT
  5
1D8
330
7
100
AcDbSymbolTableRecord
100
AcDbViewportTableRecord
  2
*Active
 70
     0
 10
0.0
 20
0.0
 11
1.0
 21
1.0
 12
14.96917927067974
 22
4.579183999999999
 13
0.0
 23
0.0
 14
1.0
 24
1.0
 15
0.0
 25
0.0
 16
0.0
 26
0.0
 36
1.0
 17
0.0
 27
0.0
 37
0.0
 40
9.158369
 41
2.518123667377398
 42
50.0
 43
0.0
 44
0.0
 50
0.0
 51
0.0
 71
     0
 72
   100
 73
     1
 74
     1
 75
     0
 76
     0
 77
     0
 78
     0
281
     0
 65
     0
110
0.0
120
0.0
130
0.0
111
1.0
121
0.0
131
0.0
112
0.0
122
1.0
132
0.0
 79
     0
146
0.0
348
209
 60
     3
 61
     5
292
     1
282
     1
141
0.0
142
0.0
 63
   250
421
  3355443
  0
ENDTAB
  0
TABLE
  2
LTYPE
  5
4
330
0
100
AcDbSymbolTable
 70
     4
  0
LTYPE
  5
11
330
4
100
AcDbSymbolTableRecord
100
AcDbLinetypeTableRecord
  2
ByBlock
 70
     0
  3

 72
    65
 73
     0
 40
0.0
  0
LTYPE
  5
12
330
4
100
AcDbSymbolTableRecord
100
AcDbLinetypeTableRecord
  2
ByLayer
 70
     0
  3

 72
    65
 73
     0
 40
0.0
  0
LTYPE
  5
13
330
4
100
AcDbSymbolTableRecord
100
AcDbLinetypeTableRecord
  2
Continuous
 70
     0
  3
Solid line
 72
    65
 73
     0
 40
0.0
  0
LTYPE
  5
24
330
4
100
AcDbSymbolTableRecord
100
AcDbLinetypeTableRecord
  2
solid
 70
     0
  3

 72
    65
 73
     0
 40
0.0
  0
LTYPE
  5
25
330
4
100
AcDbSymbolTableRecord
100
AcDbLinetypeTableRecord
  2
dashed
 70
     0
  3

 72
    65
 73
     0
 40
0.0
  0
LTYPE
  5
26
330
4
100
AcDbSymbolTableRecord
100
AcDbLinetypeTableRecord
  2
center
 70
     0
  3

 72
    65
 73
     0
 40
0.0
  0
ENDTAB
  0
TABLE
  2
LAYER
  5
2
102
{ACAD_XDICTIONARY
360
1E2
102
}
330
0
100
AcDbSymbolTable
 70
     2
  0
LAYER
  5
14
102
{ACAD_XDICTIONARY
360
23F
102
}
330
2
100
AcDbSymbolTableRecord
100
AcDbLayerTableRecord
  2
0
 70
     0
 62
     7
  6
Continuous
370
    -3
390
1D
347
1FB
  0
LAYER
  5
27
102
{ACAD_XDICTIONARY
360
241
102
}
330
2
100
AcDbSymbolTableRecord
100
AcDbLayerTableRecord
  2
0
 70
     0
 62
     1
  6
solid
370
    -3
390
1D
347
1FB
  0
ENDTAB
  0
TABLE
  2
STYLE
  5
3
330
0
100
AcDbSymbolTable
 70
     1
  0
STYLE
  5
17
330
3
100
AcDbSymbolTableRecord
100
AcDbTextStyleTableRecord
  2
Standard
 70
     0
 40
0.0
 41
1.0
 50
0.0
 71
     0
 42
0.0
  3
txt
  4

  0
ENDTAB
  0
TABLE
  2
VIEW
  5
5
330
0
100
AcDbSymbolTable
 70
     0
  0
ENDTAB
  0
TABLE
  2
UCS
  5
6
330
0
100
AcDbSymbolTable
 70
     0
  0
ENDTAB
  0
TABLE
  2
APPID
  5
8
330
0
100
AcDbSymbolTable
 70
     3
  0
APPID
  5
16
330
8
100
AcDbSymbolTableRecord
100
AcDbRegAppTableRecord
  2
ACAD
 70
     0
  0
APPID
  5
1DC
330
8
100
AcDbSymbolTableRecord
100
AcDbRegAppTableRecord
  2
ACAD_PSEXT
 70
     0
  0
APPID
  5
238
330
8
100
AcDbSymbolTableRecord
100
AcDbRegAppTableRecord
  2
ACAD_MLEADERVER
 70
     0
  0
ENDTAB
  0
TABLE
  2
DIMSTYLE
  5
9
330
0
100
AcDbSymbolTable
 70
     1
100
AcDbDimStyleTable
 71
     0
  0
DIMSTYLE
105
18
102
{ACAD_REACTORS
330
52
330
5D
102
}
330
9
100
AcDbSymbolTableRecord
100
AcDbDimStyleTableRecord
  2
Standard
 70
     0
289
     0
340
17
  0
ENDTAB
  0
TABLE
  2
BLOCK_RECORD
  5
1
330
0
100
AcDbSymbolTable
 70
     2
  0
BLOCK_RECORD
  5
A
330
1
100
AcDbSymbolTableRecord
100
AcDbBlockTableRecord
  2
*MODEL_SPACE
340
20
 70
     0
280
     1
281
     0
  0
BLOCK_RECORD
  5
B
330
1
100
AcDbSymbolTableRecord
100
AcDbBlockTableRecord
  2
*PAPER_SPACE
340
21
 70
     0
280
     1
281
     0
  0
BLOCK_RECORD
  5
48
330
1
100
AcDbSymbolTableRecord
100
AcDbBlockTableRecord
  2
*D0
340
0
 70
     0
280
     1
281
     0
  0
BLOCK_RECORD
  5
53
330
1
100
AcDbSymbolTableRecord
100
AcDbBlockTableRecord
  2
*D1
340
0
 70
     0
280
     1
281
     0
  0
ENDTAB
  0
ENDSEC
  0
SECTION
  2
BLOCKS
  0
BLOCK
  5
D
330
A
100
AcDbEntity
  8
0
100
AcDbBlockBegin
  2
*MODEL_SPACE
 70
     0
 10
0.0
 20
0.0
 30
0.0
  3
*MODEL_SPACE
  1

  0
ENDBLK
  5
E
330
A
100
AcDbEntity
  8
0
100
AcDbBlockEnd
  0
BLOCK
  5
F
330
B
100
AcDbEntity
 67
     1
  8
0
100
AcDbBlockBegin
  2
*PAPER_SPACE
 70
     0
 10
0.0
 20
0.0
 30
0.0
  3
*PAPER_SPACE
  1

  0
ENDBLK
  5
10
330
B
100
AcDbEntity
 67
     1
  8
0
100
AcDbBlockEnd
  0
BLOCK
  5
49
330
48
100
AcDbEntity
  8
0
  6
solid
 62
     0
100
AcDbBlockBegin
  2
*D0
 70
     0
 10
0.0
 20
0.0
 30
0.0
  3
*D0
  1

  0
LINE
  5
4A
330
48
100
AcDbEntity
  8
0
  6
solid
 62
     0
100
AcDbLine
 10
-2.650194644927978
 20
-2.901404410600662
 30
0.0
 11
-2.650194644927978
 21
-2.901404410600662
 31
0.0
  0
LINE
  5
4B
330
48
100
AcDbEntity
  8
0
  6
solid
 62
     0
100
AcDbLine
 10
-0.6501945853233338
 20
-2.901404410600662
 30
0.0
 11
-0.6501945853233338
 21
-2.901404410600662
 31
0.0
  0
LINE
  5
4C
330
48
100
AcDbEntity
  8
0
  6
solid
 62
     0
100
AcDbLine
 10
-2.650194644927978
 20
-0.1272018938150916
 30
0.0
 11
-1.716739217398383
 21
-0.1272018938150916
 31
0.0
  0
LINE
  5
4D
330
48
100
AcDbEntity
  8
0
  6
solid
 62
     0
100
AcDbLine
 10
-0.6501945853233338
 20
-0.1272018938150916
 30
0.0
 11
-1.583650012852928
 21
-0.1272018938150916
 31
0.0
  0
MTEXT
  5
4E
330
48
100
AcDbEntity
  8
0
  6
solid
 62
     0
100
AcDbMText
 10
-1.650194615125656
 20
-0.1272018938150916
 30
0.0
 40
0.09375
 41
0.0
 46
0.0
 71
     5
 72
     1
  1
{\H0.093750;2}
 73
     1
 44
1.0
  0
SOLID
  5
4F
330
48
100
AcDbEntity
  8
0
  6
solid
 62
     0
100
AcDbTrace
 10
-2.587694644927978
 20
-0.0959518938150916
 30
0.0
 11
-2.587694644927978
 21
-0.1584518938150916
 31
0.0
 12
-2.650194644927978
 22
-0.1272018938150916
 32
0.0
 13
-2.650194644927978
 23
-0.1272018938150916
 33
0.0
  0
SOLID
  5
50
330
48
100
AcDbEntity
  8
0
  6
solid
 62
     0
100
AcDbTrace
 10
-0.7126945853233338
 20
-0.1584518938150916
 30
0.0
 11
-0.7126945853233338
 21
-0.0959518938150916
 31
0.0
 12
-0.6501945853233338
 22
-0.1272018938150916
 32
0.0
 13
-0.6501945853233338
 23
-0.1272018938150916
 33
0.0
  0
ENDBLK
  5
51
330
48
100
AcDbEntity
  8
0
  6
solid
 62
     0
100
AcDbBlockEnd
  0
BLOCK
  5
54
330
53
100
AcDbEntity
  8
0
  6
solid
 62
     0
100
AcDbBlockBegin
  2
*D1
 70
     0
 10
0.0
 20
0.0
 30
0.0
  3
*D1
  1

  0
LINE
  5
55
330
53
100
AcDbEntity
  8
0
  6
solid
 62
     0
100
AcDbLine
 10
0.3498053550720215
 20
0.0985955893993356
 30
0.0
 11
0.3498053550720215
 21
0.0985955893993356
 31
0.0
  0
LINE
  5
56
330
53
100
AcDbEntity
  8
0
  6
solid
 62
     0
100
AcDbLine
 10
0.3498053550720215
 20
1.411095619201657
 30
0.0
 11
0.3498053550720215
 21
1.411095619201657
 31
0.0
  0
LINE
  5
57
330
53
100
AcDbEntity
  8
0
  6
solid
 62
     0
100
AcDbLine
 10
-0.3639605973392777
 20
0.0985955893993361
 30
0.0
 11
-0.3639605973392772
 21
0.6574159168004974
 31
0.0
  0
LINE
  5
58
330
53
100
AcDbEntity
  8
0
  6
solid
 62
     0
100
AcDbLine
 10
-0.3639605973392767
 20
1.411095619201658
 30
0.0
 11
-0.3639605973392771
 21
0.8522752918004972
 31
0.0
  0
MTEXT
  5
59
330
53
100
AcDbEntity
  8
0
  6
solid
 62
     0
100
AcDbMText
 10
-0.3639605973392772
 20
0.7548456043004973
 30
0.0
 40
0.09375
 41
0.0
 46
0.0
 71
     5
 72
     1
  1
{\H0.093750;1 5/16}
 73
     1
 44
1.0
  0
SOLID
  5
5A
330
53
100
AcDbEntity
  8
0
  6
solid
 62
     0
100
AcDbTrace
 10
-0.3952105973392776
 20
0.1610955893993362
 30
0.0
 11
-0.3327105973392776
 21
0.161095589399336
 31
0.0
 12
-0.3639605973392777
 22
0.0985955893993361
 32
0.0
 13
-0.3639605973392777
 23
0.0985955893993361
 33
0.0
  0
SOLID
  5
5B
330
53
100
AcDbEntity
  8
0
  6
solid
 62
     0
100
AcDbTrace
 10
-0.3327105973392767
 20
1.348595619201658
 30
0.0
 11
-0.3952105973392767
 21
1.348595619201658
 31
0.0
 12
-0.3639605973392767
 22
1.411095619201658
 32
0.0
 13
-0.3639605973392767
 23
1.411095619201658
 33
0.0
  0
ENDBLK
  5
5C
330
53
100
AcDbEntity
  8
0
  6
solid
 62
     0
100
AcDbBlockEnd
  0
ENDSEC
  0
SECTION
  2
ENTITIES
  0
LINE
  5
28
330
A
100
AcDbEntity
  8
0
  6
solid
 62
     0
100
AcDbLine
 10
0.0554063730755456
 20
1.395150823487289
 30
0.0
 11
0.5845676064000001
 21
1.395150823487289
 31
0.0
  0
LINE
  5
29
330
A
100
AcDbEntity
  8
0
  6
solid
 62
     0
100
AcDbLine
 10
2.055406373075545
 20
1.132136940999999
 30
0.0
 11
2.055406373075545
 21
0.0826508234872896
 31
0.0
  0
LINE
  5
2A
330
A
100
AcDbEntity
  8
0
  6
solid
 62
     0
100
AcDbLine
 10
2.055406373075545
 20
0.0826508234872896
 30
0.0
 11
0.0554063730755456
 21
0.0826508234872896
 31
0.0
  0
LINE
  5
2B
330
A
100
AcDbEntity
  8
0
  6
solid
 62
     0
100
AcDbLine
 10
0.0554063730755456
 20
0.0826508234872896
 30
0.0
 11
0.0554063730755456
 21
1.395150823487289
 31
0.0
  0
ARC
  5
2C
330
A
100
AcDbEntity
  8
0
  6
solid
 62
     0
100
AcDbCircle
 10
0.6346936307586651
 20
1.17806909491566
 30
0.0
 40
0.1493512240568351
100
AcDbArc
 50
45.24161043433678
 51
109.6105563824506
  0
ARC
  5
2D
330
A
100
AcDbEntity
  8
0
  6
solid
 62
     0
100
AcDbCircle
 10
1.064155916637853
 20
1.712058860881783
 30
0.0
 40
0.536937899214652
100
AcDbArc
 50
232.8443159715914
 51
258.6198922890678
  0
LINE
  5
2E
330
A
100
AcDbEntity
  8
0
  6
solid
 62
     0
100
AcDbLine
 10
0.5845676064000001
 20
1.31875729560852
 30
0.0
 11
0.5845676064000001
 21
1.395150823487289
 31
0.0
  0
LINE
  5
2F
330
A
100
AcDbEntity
  8
0
  6
solid
 62
     0
100
AcDbLine
 10
0.9582089454
 20
1.132136940999999
 30
0.0
 11
2.055406373075545
 21
1.132136940999999
 31
0.0
  0
LINE
  5
30
330
A
100
AcDbEntity
  8
0
  6
solid
 62
     0
100
AcDbLine
 10
0.9582089185714721
 20
1.132136940956115
 30
0.0
 11
0.9582089185714721
 21
1.185677289962768
 31
0.0
  0
LINE
  5
31
330
A
100
AcDbEntity
  8
0
  6
solid
 62
     0
100
AcDbLine
 10
-0.6501945902968429
 20
0.0985955909176006
 30
0.0
 11
-2.650194590296842
 21
0.0985955909176006
 31
0.0
  0
LINE
  5
32
330
A
100
AcDbEntity
  8
0
  6
solid
 62
     0
100
AcDbLine
 10
-2.650194590296842
 20
0.0985955909176006
 30
0.0
 11
-2.650194590296842
 21
1.4110955909176
 31
0.0
  0
ARC
  5
33
330
A
100
AcDbEntity
  8
0
  6
solid
 62
     0
100
AcDbCircle
 10
-2.070907332613723
 20
1.194013862345971
 30
0.0
 40
0.1493512240568351
100
AcDbArc
 50
45.24161043433678
 51
109.6105563824506
  0
ARC
  5
34
330
A
100
AcDbEntity
  8
0
  6
solid
 62
     0
100
AcDbCircle
 10
-1.641445046734534
 20
1.728003628312094
 30
0.0
 40
0.536937899214652
100
AcDbArc
 50
232.8443159715914
 51
258.6198922890678
  0
LINE
  5
35
330
A
100
AcDbEntity
  8
0
  6
solid
 62
     0
100
AcDbLine
 10
-2.121033356972388
 20
1.334702063038831
 30
0.0
 11
-2.121033356972388
 21
1.4110955909176
 31
0.0
  0
LINE
  5
36
330
A
100
AcDbEntity
  8
0
  6
solid
 62
     0
100
AcDbLine
 10
-2.650194590296842
 20
1.4110955909176
 30
0.0
 11
-2.121033356972388
 21
1.4110955909176
 31
0.0
  0
LINE
  5
37
330
A
100
AcDbEntity
  8
0
  6
solid
 62
     0
100
AcDbLine
 10
-0.6501945902968429
 20
1.14808170843031
 30
0.0
 11
-0.6501945902968429
 21
0.0985955909176006
 31
0.0
  0
LINE
  5
38
330
A
100
AcDbEntity
  8
0
  6
solid
 62
     0
100
AcDbLine
 10
-1.747392017972388
 20
1.14808170843031
 30
0.0
 11
-0.6501945902968429
 21
1.14808170843031
 31
0.0
  0
LINE
  5
39
330
A
100
AcDbEntity
  8
0
  6
solid
 62
     0
100
AcDbLine
 10
-1.747392044800916
 20
1.148081708386426
 30
0.0
 11
-1.747392044800916
 21
1.201622057393079
 31
0.0
  0
ARC
  5
3A
330
A
100
AcDbEntity
  8
0
  6
solid
 62
     0
100
AcDbCircle
 10
1.180654789000439
 20
1.308943893154129
 30
0.0
 40
0.1493512240568351
100
AcDbArc
 50
45.24161043433678
 51
109.6105563824506
  0
ARC
  5
3B
330
A
100
AcDbEntity
  8
0
  6
solid
 62
     0
100
AcDbCircle
 10
1.610117074879628
 20
1.842933659120252
 30
0.0
 40
0.536937899214652
100
AcDbArc
 50
232.8443159715914
 51
258.6198922890678
  0
LINE
  5
3C
330
A
100
AcDbEntity
  8
0
  6
solid
 62
     0
100
AcDbLine
 10
1.130528764641774
 20
1.44963209384699
 30
0.0
 11
1.130528764641774
 21
1.526025621725759
 31
0.0
  0
LINE
  5
3D
330
A
100
AcDbEntity
  8
0
  6
solid
 62
     0
100
AcDbLine
 10
0.6013675313173202
 20
1.526025621725759
 30
0.0
 11
1.130528764641774
 21
1.526025621725759
 31
0.0
  0
LINE
  5
3E
330
A
100
AcDbEntity
  8
0
  6
solid
 62
     0
100
AcDbLine
 10
2.60136753131732
 20
1.26301173923847
 30
0.0
 11
2.60136753131732
 21
0.2135256217257596
 31
0.0
  0
LINE
  5
3F
330
A
100
AcDbEntity
  8
0
  6
solid
 62
     0
100
AcDbLine
 10
1.504170103641774
 20
1.26301173923847
 30
0.0
 11
2.60136753131732
 21
1.26301173923847
 31
0.0
  0
LINE
  5
40
330
A
100
AcDbEntity
  8
0
  6
solid
 62
     0
100
AcDbLine
 10
1.504170076813246
 20
1.263011739194585
 30
0.0
 11
1.504170076813246
 21
1.316552088201238
 31
0.0
  0
LINE
  5
41
330
A
100
AcDbEntity
  8
0
  6
solid
 62
     0
100
AcDbLine
 10
0.0554063729941845
 20
1.395150780677795
 30
0.0
 11
0.6013675332069397
 21
1.526025652885437
 31
0.0
  0
LINE
  5
42
330
A
100
AcDbEntity
  8
0
  6
solid
 62
     0
100
AcDbLine
 10
0.5845676064491272
 20
1.395150780677795
 30
0.0
 11
1.130528807640075
 21
1.526025652885437
 31
0.0
  0
LINE
  5
43
330
A
100
AcDbEntity
  8
0
  6
solid
 62
     0
100
AcDbLine
 10
0.6155872055690692
 20
1.326193139701607
 30
0.0
 11
1.130528807640075
 21
1.449632048606872
 31
0.0
  0
LINE
  5
44
330
A
100
AcDbEntity
  8
0
  6
solid
 62
     0
100
AcDbLine
 10
0.9582089185714721
 20
1.185677289962768
 30
0.0
 11
1.504170060157775
 21
1.31655204296112
 31
0.0
  0
LINE
  5
45
330
A
100
AcDbEntity
  8
0
  6
solid
 62
     0
100
AcDbLine
 10
0.9582089185714721
 20
1.132136940956115
 30
0.0
 11
1.504170060157775
 21
1.263011693954467
 31
0.0
  0
LINE
  5
46
330
A
100
AcDbEntity
  8
0
  6
solid
 62
     0
100
AcDbLine
 10
2.055406332015991
 20
1.132136940956115
 30
0.0
 11
2.601367473602294
 21
1.263011693954467
 31
0.0
  0
LINE
  5
47
330
A
100
AcDbEntity
  8
0
  6
solid
 62
     0
100
AcDbLine
 10
2.055406332015991
 20
0.082650825381279
 30
0.0
 11
2.601367473602294
 21
0.2135256230831146
 31
0.0
  0
DIMENSION
  5
52
330
A
100
AcDbEntity
  8
0
  6
solid
 62
     0
100
AcDbDimension
  2
*D0
 10
-1.650194615125656
 20
-0.1272018938150916
 30
0.0
 11
-1.650194615125656
 21
-0.1272018938150916
 31
0.0
 70
    33
 71
     5
 42
2.000000059604644
 73
     0
 74
     0
 75
     0
  3
Standard
100
AcDbAlignedDimension
 13
-2.650194644927978
 23
0.0985955893993378
 33
0.0
 14
-0.6501945853233338
 24
0.0985955893993378
 34
0.0
1001
ACAD
1000
DSTYLE
1002
{
1070
    41
1040
0.0625
1070
    42
1040
3.0
1070
    44
1040
1.5
1070
    47
1040
0.0005
1070
    48
1040
0.0005
1070
    75
1070
     1
1070
    76
1070
     1
1070
   140
1040
0.09375
1070
   146
1040
16.0
1070
   174
1070
     1
1070
   270
1070
     5
1070
   271
1070
     3
1070
   272
1070
     3
1070
   277
1070
     5
1002
}
  0
DIMENSION
  5
5D
330
A
100
AcDbEntity
  8
0
  6
solid
 62
     0
100
AcDbDimension
  2
*D1
 10
-0.3639605973392772
 20
0.7548456043004973
 30
0.0
 11
-0.3639605973392772
 21
0.7548456043004973
 31
0.0
 70
    33
 71
     5
 42
1.312500029802322
 73
     0
 74
     0
 75
     0
  3
Standard
100
AcDbAlignedDimension
 13
-2.650194644927978
 23
1.41109561920166
 33
0.0
 14
-2.650194644927978
 24
0.0985955893993378
 34
0.0
1001
ACAD
1000
DSTYLE
1002
{
1070
    41
1040
0.0625
1070
    42
1040
3.0
1070
    44
1040
1.5
1070
    47
1040
0.0005
1070
    48
1040
0.0005
1070
    75
1070
     1
1070
    76
1070
     1
1070
   140
1040
0.09375
1070
   146
1040
16.0
1070
   174
1070
     1
1070
   270
1070
     5
1070
   271
1070
     3
1070
   272
1070
     3
1070
   277
1070
     5
1002
}
  0
LINE
  5
5E
330
A
100
AcDbEntity
  8
0
  6
solid
 62
     0
100
AcDbLine
 10
0.8577906876853127
 20
-0.2052422528219481
 30
0.0
 11
0.8577906876853127
 21
-0.1890162912834865
 31
0.0
  0
LINE
  5
5F
330
A
100
AcDbEntity
  8
0
  6
solid
 62
     0
100
AcDbLine
 10
0.8577906876853127
 20
-0.1890162912834865
 30
0.0
 11
0.8712710798421754
 21
-0.1890162912834865
 31
0.0
  0
LINE
  5
60
330
A
100
AcDbEntity
  8
0
  6
solid
 62
     0
100
AcDbLine
 10
0.8712710798421754
 20
-0.1890162912834865
 30
0.0
 11
0.8712710798421754
 21
-0.0964682143604096
 31
0.0
  0
LINE
  5
61
330
A
100
AcDbEntity
  8
0
  6
solid
 62
     0
100
AcDbLine
 10
0.8712710798421754
 20
-0.0964682143604096
 30
0.0
 11
0.8570553935676656
 21
-0.0964682143604096
 31
0.0
  0
LINE
  5
62
330
A
100
AcDbEntity
  8
0
  6
solid
 62
     0
100
AcDbLine
 10
0.8570553935676656
 20
-0.0964682143604096
 30
0.0
 11
0.8570553935676656
 21
-0.0802422528219481
 31
0.0
  0
LINE
  5
63
330
A
100
AcDbEntity
  8
0
  6
solid
 62
     0
100
AcDbLine
 10
0.8570553935676656
 20
-0.0802422528219481
 30
0.0
 11
0.8889181386657048
 21
-0.0802422528219481
 31
0.0
  0
LINE
  5
64
330
A
100
AcDbEntity
  8
0
  6
solid
 62
     0
100
AcDbLine
 10
0.8889181386657048
 20
-0.0802422528219481
 30
0.0
 11
0.8889181386657048
 21
-0.1890162912834865
 31
0.0
  0
LINE
  5
65
330
A
100
AcDbEntity
  8
0
  6
solid
 62
     0
100
AcDbLine
 10
0.8889181386657048
 20
-0.1890162912834865
 30
0.0
 11
0.9038691190578617
 21
-0.1890162912834865
 31
0.0
  0
LINE
  5
66
330
A
100
AcDbEntity
  8
0
  6
solid
 62
     0
100
AcDbLine
 10
0.9038691190578617
 20
-0.1890162912834865
 30
0.0
 11
0.9038691190578617
 21
-0.2052422528219481
 31
0.0
  0
LINE
  5
67
330
A
100
AcDbEntity
  8
0
  6
solid
 62
     0
100
AcDbLine
 10
0.9038691190578617
 20
-0.2052422528219481
 30
0.0
 11
0.8577906876853127
 21
-0.2052422528219481
 31
0.0
  0
LINE
  5
68
330
A
100
AcDbEntity
  8
0
  6
solid
 62
     0
100
AcDbLine
 10
0.9242122563127637
 20
-0.1775980220527173
 30
0.0
 11
0.9867122563127637
 21
-0.1775980220527173
 31
0.0
  0
LINE
  5
69
330
A
100
AcDbEntity
  8
0
  6
solid
 62
     0
100
AcDbLine
 10
0.9867122563127637
 20
-0.1775980220527173
 30
0.0
 11
0.9867122563127637
 21
-0.1511557143604096
 31
0.0
  0
LINE
  5
6A
330
A
100
AcDbEntity
  8
0
  6
solid
 62
     0
100
AcDbLine
 10
0.9867122563127637
 20
-0.1511557143604096
 30
0.0
 11
0.9242122563127637
 21
-0.1511557143604096
 31
0.0
  0
LINE
  5
6B
330
A
100
AcDbEntity
  8
0
  6
solid
 62
     0
100
AcDbLine
 10
0.9242122563127637
 20
-0.1511557143604096
 30
0.0
 11
0.9242122563127637
 21
-0.1775980220527173
 31
0.0
  0
LINE
  5
6C
330
A
100
AcDbEntity
  8
0
  6
solid
 62
     0
100
AcDbLine
 10
0.9992122563127637
 20
-0.1703864835911788
 30
0.0
 11
1.001173040626489
 21
-0.1787999451296404
 31
0.0
  0
LINE
  5
6D
330
A
100
AcDbEntity
  8
0
  6
solid
 62
     0
100
AcDbLine
 10
1.001173040626489
 20
-0.1787999451296404
 30
0.0
 11
1.004359315136293
 21
-0.1860114835911788
 31
0.0
  0
LINE
  5
6E
330
A
100
AcDbEntity
  8
0
  6
solid
 62
     0
100
AcDbLine
 10
1.004359315136293
 20
-0.1860114835911788
 30
0.0
 11
1.008035785724528
 21
-0.1920210989757942
 31
0.0
  0
LINE
  5
6F
330
A
100
AcDbEntity
  8
0
  6
solid
 62
     0
100
AcDbLine
 10
1.008035785724528
 20
-0.1920210989757942
 30
0.0
 11
1.011957354351979
 21
-0.1974297528219481
 31
0.0
  0
LINE
  5
70
330
A
100
AcDbEntity
  8
0
  6
solid
 62
     0
100
AcDbLine
 10
1.011957354351979
 20
-0.1974297528219481
 30
0.0
 11
1.016859315136293
 21
-0.2010355220527173
 31
0.0
  0
LINE
  5
71
330
A
100
AcDbEntity
  8
0
  6
solid
 62
     0
100
AcDbLine
 10
1.016859315136293
 20
-0.2010355220527173
 30
0.0
 11
1.022496570038254
 21
-0.2034393682065635
 31
0.0
  0
LINE
  5
72
330
A
100
AcDbEntity
  8
0
  6
solid
 62
     0
100
AcDbLine
 10
1.022496570038254
 20
-0.2034393682065635
 30
0.0
 11
1.028869119057861
 21
-0.2052422528219481
 31
0.0
  0
LINE
  5
73
330
A
100
AcDbEntity
  8
0
  6
solid
 62
     0
100
AcDbLine
 10
1.028869119057861
 20
-0.2052422528219481
 30
0.0
 11
1.032790687685312
 21
-0.2052422528219481
 31
0.0
  0
LINE
  5
74
330
A
100
AcDbEntity
  8
0
  6
solid
 62
     0
100
AcDbLine
 10
1.032790687685312
 20
-0.2052422528219481
 30
0.0
 11
1.04087892297943
 21
-0.2028384066681019
 31
0.0
  0
LINE
  5
75
330
A
100
AcDbEntity
  8
0
  6
solid
 62
     0
100
AcDbLine
 10
1.04087892297943
 20
-0.2028384066681019
 30
0.0
 11
1.047251471999038
 21
-0.1980307143604096
 31
0.0
  0
LINE
  5
76
330
A
100
AcDbEntity
  8
0
  6
solid
 62
     0
100
AcDbLine
 10
1.047251471999038
 20
-0.1980307143604096
 30
0.0
 11
1.052153432783351
 21
-0.1926220605142558
 31
0.0
  0
LINE
  5
77
330
A
100
AcDbEntity
  8
0
  6
solid
 62
     0
100
AcDbLine
 10
1.052153432783351
 20
-0.1926220605142558
 30
0.0
 11
1.056565197489234
 21
-0.1860114835911788
 31
0.0
  0
LINE
  5
78
330
A
100
AcDbEntity
  8
0
  6
solid
 62
     0
100
AcDbLine
 10
1.056565197489234
 20
-0.1860114835911788
 30
0.0
 11
1.059751471999038
 21
-0.1769970605142558
 31
0.0
  0
LINE
  5
79
330
A
100
AcDbEntity
  8
0
  6
solid
 62
     0
100
AcDbLine
 10
1.059751471999038
 20
-0.1769970605142558
 30
0.0
 11
1.060976962195116
 21
-0.1697855220527173
 31
0.0
  0
LINE
  5
7A
330
A
100
AcDbEntity
  8
0
  6
solid
 62
     0
100
AcDbLine
 10
1.060976962195116
 20
-0.1697855220527173
 30
0.0
 11
1.061712256312763
 21
-0.1637759066681019
 31
0.0
  0
LINE
  5
7B
330
A
100
AcDbEntity
  8
0
  6
solid
 62
     0
100
AcDbLine
 10
1.061712256312763
 20
-0.1637759066681019
 30
0.0
 11
1.061712256312763
 21
-0.157165329745025
 31
0.0
  0
LINE
  5
7C
330
A
100
AcDbEntity
  8
0
  6
solid
 62
     0
100
AcDbLine
 10
1.061712256312763
 20
-0.157165329745025
 30
0.0
 11
1.060486766116685
 21
-0.1469489835911788
 31
0.0
  0
LINE
  5
7D
330
A
100
AcDbEntity
  8
0
  6
solid
 62
     0
100
AcDbLine
 10
1.060486766116685
 20
-0.1469489835911788
 30
0.0
 11
1.057300491606881
 21
-0.1379345605142558
 31
0.0
  0
LINE
  5
7E
330
A
100
AcDbEntity
  8
0
  6
solid
 62
     0
100
AcDbLine
 10
1.057300491606881
 20
-0.1379345605142558
 30
0.0
 11
1.054849511214724
 21
-0.1325259066681019
 31
0.0
  0
LINE
  5
7F
330
A
100
AcDbEntity
  8
0
  6
solid
 62
     0
100
AcDbLine
 10
1.054849511214724
 20
-0.1325259066681019
 30
0.0
 11
1.050927942587273
 21
-0.1271172528219481
 31
0.0
  0
LINE
  5
80
330
A
100
AcDbEntity
  8
0
  6
solid
 62
     0
100
AcDbLine
 10
1.050927942587273
 20
-0.1271172528219481
 30
0.0
 11
1.046516177881391
 21
-0.1229105220527173
 31
0.0
  0
LINE
  5
81
330
A
100
AcDbEntity
  8
0
  6
solid
 62
     0
100
AcDbLine
 10
1.046516177881391
 20
-0.1229105220527173
 30
0.0
 11
1.042104413175508
 21
-0.1193047528219481
 31
0.0
  0
LINE
  5
82
330
A
100
AcDbEntity
  8
0
  6
solid
 62
     0
100
AcDbLine
 10
1.042104413175508
 20
-0.1193047528219481
 30
0.0
 11
1.037692648469626
 21
-0.1175018682065634
 31
0.0
  0
LINE
  5
83
330
A
100
AcDbEntity
  8
0
  6
solid
 62
     0
100
AcDbLine
 10
1.037692648469626
 20
-0.1175018682065634
 30
0.0
 11
1.031320099450018
 21
-0.1162999451296404
 31
0.0
  0
LINE
  5
84
330
A
100
AcDbEntity
  8
0
  6
solid
 62
     0
100
AcDbLine
 10
1.031320099450018
 20
-0.1162999451296404
 30
0.0
 11
1.027643628861783
 21
-0.1162999451296404
 31
0.0
  0
LINE
  5
85
330
A
100
AcDbEntity
  8
0
  6
solid
 62
     0
100
AcDbLine
 10
1.027643628861783
 20
-0.1162999451296404
 30
0.0
 11
1.022496570038254
 21
-0.1175018682065634
 31
0.0
  0
LINE
  5
86
330
A
100
AcDbEntity
  8
0
  6
solid
 62
     0
100
AcDbLine
 10
1.022496570038254
 20
-0.1175018682065634
 30
0.0
 11
1.018084805332371
 21
-0.1193047528219481
 31
0.0
  0
LINE
  5
87
330
A
100
AcDbEntity
  8
0
  6
solid
 62
     0
100
AcDbLine
 10
1.018084805332371
 20
-0.1193047528219481
 30
0.0
 11
1.015633824940214
 21
-0.1211076374373327
 31
0.0
  0
LINE
  5
88
330
A
100
AcDbEntity
  8
0
  6
solid
 62
     0
100
AcDbLine
 10
1.015633824940214
 20
-0.1211076374373327
 30
0.0
 11
1.020045589646097
 21
-0.0952662912834865
 31
0.0
  0
LINE
  5
89
330
A
100
AcDbEntity
  8
0
  6
solid
 62
     0
100
AcDbLine
 10
1.020045589646097
 20
-0.0952662912834865
 30
0.0
 11
1.050927942587273
 21
-0.0952662912834865
 31
0.0
  0
LINE
  5
8A
330
A
100
AcDbEntity
  8
0
  6
solid
 62
     0
100
AcDbLine
 10
1.050927942587273
 20
-0.0952662912834865
 30
0.0
 11
1.050927942587273
 21
-0.0802422528219481
 31
0.0
  0
LINE
  5
8B
330
A
100
AcDbEntity
  8
0
  6
solid
 62
     0
100
AcDbLine
 10
1.050927942587273
 20
-0.0802422528219481
 30
0.0
 11
1.011957354351979
 21
-0.0802422528219481
 31
0.0
  0
LINE
  5
8C
330
A
100
AcDbEntity
  8
0
  6
solid
 62
     0
100
AcDbLine
 10
1.011957354351979
 20
-0.0802422528219481
 30
0.0
 11
0.9992122563127637
 21
-0.1505547528219481
 31
0.0
  0
LINE
  5
8D
330
A
100
AcDbEntity
  8
0
  6
solid
 62
     0
100
AcDbLine
 10
0.9992122563127637
 20
-0.1505547528219481
 30
0.0
 11
1.009996570038254
 21
-0.1535595605142558
 31
0.0
  0
LINE
  5
8E
330
A
100
AcDbEntity
  8
0
  6
solid
 62
     0
100
AcDbLine
 10
1.009996570038254
 20
-0.1535595605142558
 30
0.0
 11
1.011222060234332
 21
-0.1487518682065634
 31
0.0
  0
LINE
  5
8F
330
A
100
AcDbEntity
  8
0
  6
solid
 62
     0
100
AcDbLine
 10
1.011222060234332
 20
-0.1487518682065634
 30
0.0
 11
1.013182844548057
 21
-0.1439441758988711
 31
0.0
  0
LINE
  5
90
330
A
100
AcDbEntity
  8
0
  6
solid
 62
     0
100
AcDbLine
 10
1.013182844548057
 20
-0.1439441758988711
 30
0.0
 11
1.015633824940214
 21
-0.1397374451296404
 31
0.0
  0
LINE
  5
91
330
A
100
AcDbEntity
  8
0
  6
solid
 62
     0
100
AcDbLine
 10
1.015633824940214
 20
-0.1397374451296404
 30
0.0
 11
1.018820099450018
 21
-0.1361316758988711
 31
0.0
  0
LINE
  5
92
330
A
100
AcDbEntity
  8
0
  6
solid
 62
     0
100
AcDbLine
 10
1.018820099450018
 20
-0.1361316758988711
 30
0.0
 11
1.022496570038254
 21
-0.133727829745025
 31
0.0
  0
LINE
  5
93
330
A
100
AcDbEntity
  8
0
  6
solid
 62
     0
100
AcDbLine
 10
1.022496570038254
 20
-0.133727829745025
 30
0.0
 11
1.026908334744136
 21
-0.1319249451296404
 31
0.0
  0
LINE
  5
94
330
A
100
AcDbEntity
  8
0
  6
solid
 62
     0
100
AcDbLine
 10
1.026908334744136
 20
-0.1319249451296404
 30
0.0
 11
1.031320099450018
 21
-0.1319249451296404
 31
0.0
  0
LINE
  5
95
330
A
100
AcDbEntity
  8
0
  6
solid
 62
     0
100
AcDbLine
 10
1.031320099450018
 20
-0.1319249451296404
 30
0.0
 11
1.036467158273548
 21
-0.1325259066681019
 31
0.0
  0
LINE
  5
96
330
A
100
AcDbEntity
  8
0
  6
solid
 62
     0
100
AcDbLine
 10
1.036467158273548
 20
-0.1325259066681019
 30
0.0
 11
1.040143628861783
 21
-0.1349297528219481
 31
0.0
  0
LINE
  5
97
330
A
100
AcDbEntity
  8
0
  6
solid
 62
     0
100
AcDbLine
 10
1.040143628861783
 20
-0.1349297528219481
 30
0.0
 11
1.043329903371587
 21
-0.1379345605142558
 31
0.0
  0
LINE
  5
98
330
A
100
AcDbEntity
  8
0
  6
solid
 62
     0
100
AcDbLine
 10
1.043329903371587
 20
-0.1379345605142558
 30
0.0
 11
1.046516177881391
 21
-0.1421412912834865
 31
0.0
  0
LINE
  5
99
330
A
100
AcDbEntity
  8
0
  6
solid
 62
     0
100
AcDbLine
 10
1.046516177881391
 20
-0.1421412912834865
 30
0.0
 11
1.048967158273548
 21
-0.1475499451296404
 31
0.0
  0
LINE
  5
9A
330
A
100
AcDbEntity
  8
0
  6
solid
 62
     0
100
AcDbLine
 10
1.048967158273548
 20
-0.1475499451296404
 30
0.0
 11
1.050437746508842
 21
-0.1529585989757942
 31
0.0
  0
LINE
  5
9B
330
A
100
AcDbEntity
  8
0
  6
solid
 62
     0
100
AcDbLine
 10
1.050437746508842
 20
-0.1529585989757942
 30
0.0
 11
1.050927942587273
 21
-0.1583672528219481
 31
0.0
  0
LINE
  5
9C
330
A
100
AcDbEntity
  8
0
  6
solid
 62
     0
100
AcDbLine
 10
1.050927942587273
 20
-0.1583672528219481
 30
0.0
 11
1.050927942587273
 21
-0.1625739835911788
 31
0.0
  0
LINE
  5
9D
330
A
100
AcDbEntity
  8
0
  6
solid
 62
     0
100
AcDbLine
 10
1.050927942587273
 20
-0.1625739835911788
 30
0.0
 11
1.049702452391195
 21
-0.1697855220527173
 31
0.0
  0
LINE
  5
9E
330
A
100
AcDbEntity
  8
0
  6
solid
 62
     0
100
AcDbLine
 10
1.049702452391195
 20
-0.1697855220527173
 30
0.0
 11
1.047741668077469
 21
-0.1757951374373327
 31
0.0
  0
LINE
  5
9F
330
A
100
AcDbEntity
  8
0
  6
solid
 62
     0
100
AcDbLine
 10
1.047741668077469
 20
-0.1757951374373327
 30
0.0
 11
1.044555393567665
 21
-0.1812037912834865
 31
0.0
  0
LINE
  5
A0
330
A
100
AcDbEntity
  8
0
  6
solid
 62
     0
100
AcDbLine
 10
1.044555393567665
 20
-0.1812037912834865
 30
0.0
 11
1.041614217097077
 21
-0.1848095605142558
 31
0.0
  0
LINE
  5
A1
330
A
100
AcDbEntity
  8
0
  6
solid
 62
     0
100
AcDbLine
 10
1.041614217097077
 20
-0.1848095605142558
 30
0.0
 11
1.037692648469626
 21
-0.1872134066681019
 31
0.0
  0
LINE
  5
A2
330
A
100
AcDbEntity
  8
0
  6
solid
 62
     0
100
AcDbLine
 10
1.037692648469626
 20
-0.1872134066681019
 30
0.0
 11
1.033280883763744
 21
-0.1890162912834865
 31
0.0
  0
LINE
  5
A3
330
A
100
AcDbEntity
  8
0
  6
solid
 62
     0
100
AcDbLine
 10
1.033280883763744
 20
-0.1890162912834865
 30
0.0
 11
1.028869119057861
 21
-0.1890162912834865
 31
0.0
  0
LINE
  5
A4
330
A
100
AcDbEntity
  8
0
  6
solid
 62
     0
100
AcDbLine
 10
1.028869119057861
 20
-0.1890162912834865
 30
0.0
 11
1.023722060234332
 21
-0.188415329745025
 31
0.0
  0
LINE
  5
A5
330
A
100
AcDbEntity
  8
0
  6
solid
 62
     0
100
AcDbLine
 10
1.023722060234332
 20
-0.188415329745025
 30
0.0
 11
1.018820099450018
 21
-0.1848095605142558
 31
0.0
  0
LINE
  5
A6
330
A
100
AcDbEntity
  8
0
  6
solid
 62
     0
100
AcDbLine
 10
1.018820099450018
 20
-0.1848095605142558
 30
0.0
 11
1.015633824940214
 21
-0.1812037912834865
 31
0.0
  0
LINE
  5
A7
330
A
100
AcDbEntity
  8
0
  6
solid
 62
     0
100
AcDbLine
 10
1.015633824940214
 20
-0.1812037912834865
 30
0.0
 11
1.01244755043041
 21
-0.1757951374373327
 31
0.0
  0
LINE
  5
A8
330
A
100
AcDbEntity
  8
0
  6
solid
 62
     0
100
AcDbLine
 10
1.01244755043041
 20
-0.1757951374373327
 30
0.0
 11
1.010486766116685
 21
-0.1703864835911788
 31
0.0
  0
LINE
  5
A9
330
A
100
AcDbEntity
  8
0
  6
solid
 62
     0
100
AcDbLine
 10
1.010486766116685
 20
-0.1703864835911788
 30
0.0
 11
0.9992122563127637
 21
-0.1703864835911788
 31
0.0
  0
LINE
  5
AA
330
A
100
AcDbEntity
  8
0
  6
solid
 62
     0
100
AcDbLine
 10
1.136712256312763
 20
-0.0802422528219481
 30
0.0
 11
1.083771079842175
 21
-0.2052422528219481
 31
0.0
  0
LINE
  5
AB
330
A
100
AcDbEntity
  8
0
  6
solid
 62
     0
100
AcDbLine
 10
1.083771079842175
 20
-0.2052422528219481
 30
0.0
 11
1.074212256312763
 21
-0.2052422528219481
 31
0.0
  0
LINE
  5
AC
330
A
100
AcDbEntity
  8
0
  6
solid
 62
     0
100
AcDbLine
 10
1.074212256312763
 20
-0.2052422528219481
 30
0.0
 11
1.127153432783351
 21
-0.0802422528219481
 31
0.0
  0
LINE
  5
AD
330
A
100
AcDbEntity
  8
0
  6
solid
 62
     0
100
AcDbLine
 10
1.127153432783351
 20
-0.0802422528219481
 30
0.0
 11
1.136712256312763
 21
-0.0802422528219481
 31
0.0
  0
LINE
  5
AE
330
A
100
AcDbEntity
  8
0
  6
solid
 62
     0
100
AcDbLine
 10
1.157790687685312
 20
-0.2052422528219481
 30
0.0
 11
1.157790687685312
 21
-0.1890162912834865
 31
0.0
  0
LINE
  5
AF
330
A
100
AcDbEntity
  8
0
  6
solid
 62
     0
100
AcDbLine
 10
1.157790687685312
 20
-0.1890162912834865
 30
0.0
 11
1.171271079842175
 21
-0.1890162912834865
 31
0.0
  0
LINE
  5
B0
330
A
100
AcDbEntity
  8
0
  6
solid
 62
     0
100
AcDbLine
 10
1.171271079842175
 20
-0.1890162912834865
 30
0.0
 11
1.171271079842175
 21
-0.0964682143604096
 31
0.0
  0
LINE
  5
B1
330
A
100
AcDbEntity
  8
0
  6
solid
 62
     0
100
AcDbLine
 10
1.171271079842175
 20
-0.0964682143604096
 30
0.0
 11
1.157055393567665
 21
-0.0964682143604096
 31
0.0
  0
LINE
  5
B2
330
A
100
AcDbEntity
  8
0
  6
solid
 62
     0
100
AcDbLine
 10
1.157055393567665
 20
-0.0964682143604096
 30
0.0
 11
1.157055393567665
 21
-0.0802422528219481
 31
0.0
  0
LINE
  5
B3
330
A
100
AcDbEntity
  8
0
  6
solid
 62
     0
100
AcDbLine
 10
1.157055393567665
 20
-0.0802422528219481
 30
0.0
 11
1.188918138665704
 21
-0.0802422528219481
 31
0.0
  0
LINE
  5
B4
330
A
100
AcDbEntity
  8
0
  6
solid
 62
     0
100
AcDbLine
 10
1.188918138665704
 20
-0.0802422528219481
 30
0.0
 11
1.188918138665704
 21
-0.1890162912834865
 31
0.0
  0
LINE
  5
B5
330
A
100
AcDbEntity
  8
0
  6
solid
 62
     0
100
AcDbLine
 10
1.188918138665704
 20
-0.1890162912834865
 30
0.0
 11
1.203869119057861
 21
-0.1890162912834865
 31
0.0
  0
LINE
  5
B6
330
A
100
AcDbEntity
  8
0
  6
solid
 62
     0
100
AcDbLine
 10
1.203869119057861
 20
-0.1890162912834865
 30
0.0
 11
1.203869119057861
 21
-0.2052422528219481
 31
0.0
  0
LINE
  5
B7
330
A
100
AcDbEntity
  8
0
  6
solid
 62
     0
100
AcDbLine
 10
1.203869119057861
 20
-0.2052422528219481
 30
0.0
 11
1.157790687685312
 21
-0.2052422528219481
 31
0.0
  0
LINE
  5
B8
330
A
100
AcDbEntity
  8
0
  6
solid
 62
     0
100
AcDbLine
 10
1.254604413175508
 20
-0.0802422528219481
 30
0.0
 11
1.227888726900999
 21
-0.1403384066681019
 31
0.0
  0
LINE
  5
B9
330
A
100
AcDbEntity
  8
0
  6
solid
 62
     0
100
AcDbLine
 10
1.227888726900999
 20
-0.1403384066681019
 30
0.0
 11
1.226173040626489
 21
-0.1475499451296404
 31
0.0
  0
LINE
  5
BA
330
A
100
AcDbEntity
  8
0
  6
solid
 62
     0
100
AcDbLine
 10
1.226173040626489
 20
-0.1475499451296404
 30
0.0
 11
1.22494755043041
 21
-0.1565643682065635
 31
0.0
  0
LINE
  5
BB
330
A
100
AcDbEntity
  8
0
  6
solid
 62
     0
100
AcDbLine
 10
1.22494755043041
 20
-0.1565643682065635
 30
0.0
 11
1.224212256312763
 21
-0.1625739835911788
 31
0.0
  0
LINE
  5
BC
330
A
100
AcDbEntity
  8
0
  6
solid
 62
     0
100
AcDbLine
 10
1.224212256312763
 20
-0.1625739835911788
 30
0.0
 11
1.225437746508842
 21
-0.1703864835911788
 31
0.0
  0
LINE
  5
BD
330
A
100
AcDbEntity
  8
0
  6
solid
 62
     0
100
AcDbLine
 10
1.225437746508842
 20
-0.1703864835911788
 30
0.0
 11
1.227398530822567
 21
-0.1787999451296404
 31
0.0
  0
LINE
  5
BE
330
A
100
AcDbEntity
  8
0
  6
solid
 62
     0
100
AcDbLine
 10
1.227398530822567
 20
-0.1787999451296404
 30
0.0
 11
1.229849511214724
 21
-0.1860114835911788
 31
0.0
  0
LINE
  5
BF
330
A
100
AcDbEntity
  8
0
  6
solid
 62
     0
100
AcDbLine
 10
1.229849511214724
 20
-0.1860114835911788
 30
0.0
 11
1.233525981802959
 21
-0.1920210989757942
 31
0.0
  0
LINE
  5
C0
330
A
100
AcDbEntity
  8
0
  6
solid
 62
     0
100
AcDbLine
 10
1.233525981802959
 20
-0.1920210989757942
 30
0.0
 11
1.237202452391195
 21
-0.196227829745025
 31
0.0
  0
LINE
  5
C1
330
A
100
AcDbEntity
  8
0
  6
solid
 62
     0
100
AcDbLine
 10
1.237202452391195
 20
-0.196227829745025
 30
0.0
 11
1.24087892297943
 21
-0.1998335989757942
 31
0.0
  0
LINE
  5
C2
330
A
100
AcDbEntity
  8
0
  6
solid
 62
     0
100
AcDbLine
 10
1.24087892297943
 20
-0.1998335989757942
 30
0.0
 11
1.245290687685312
 21
-0.2028384066681019
 31
0.0
  0
LINE
  5
C3
330
A
100
AcDbEntity
  8
0
  6
solid
 62
     0
100
AcDbLine
 10
1.245290687685312
 20
-0.2028384066681019
 30
0.0
 11
1.249702452391195
 21
-0.2046412912834866
 31
0.0
  0
LINE
  5
C4
330
A
100
AcDbEntity
  8
0
  6
solid
 62
     0
100
AcDbLine
 10
1.249702452391195
 20
-0.2046412912834866
 30
0.0
 11
1.253869119057861
 21
-0.2052422528219481
 31
0.0
  0
LINE
  5
C5
330
A
100
AcDbEntity
  8
0
  6
solid
 62
     0
100
AcDbLine
 10
1.253869119057861
 20
-0.2052422528219481
 30
0.0
 11
1.257545589646097
 21
-0.2052422528219481
 31
0.0
  0
LINE
  5
C6
330
A
100
AcDbEntity
  8
0
  6
solid
 62
     0
100
AcDbLine
 10
1.257545589646097
 20
-0.2052422528219481
 30
0.0
 11
1.261957354351979
 21
-0.2046412912834866
 31
0.0
  0
LINE
  5
C7
330
A
100
AcDbEntity
  8
0
  6
solid
 62
     0
100
AcDbLine
 10
1.261957354351979
 20
-0.2046412912834866
 30
0.0
 11
1.266859315136293
 21
-0.2016364835911788
 31
0.0
  0
LINE
  5
C8
330
A
100
AcDbEntity
  8
0
  6
solid
 62
     0
100
AcDbLine
 10
1.266859315136293
 20
-0.2016364835911788
 30
0.0
 11
1.272986766116685
 21
-0.1974297528219481
 31
0.0
  0
LINE
  5
C9
330
A
100
AcDbEntity
  8
0
  6
solid
 62
     0
100
AcDbLine
 10
1.272986766116685
 20
-0.1974297528219481
 30
0.0
 11
1.278133824940214
 21
-0.1908191758988711
 31
0.0
  0
LINE
  5
CA
330
A
100
AcDbEntity
  8
0
  6
solid
 62
     0
100
AcDbLine
 10
1.278133824940214
 20
-0.1908191758988711
 30
0.0
 11
1.282300491606881
 21
-0.1830066758988711
 31
0.0
  0
LINE
  5
CB
330
A
100
AcDbEntity
  8
0
  6
solid
 62
     0
100
AcDbLine
 10
1.282300491606881
 20
-0.1830066758988711
 30
0.0
 11
1.284751471999038
 21
-0.1757951374373327
 31
0.0
  0
LINE
  5
CC
330
A
100
AcDbEntity
  8
0
  6
solid
 62
     0
100
AcDbLine
 10
1.284751471999038
 20
-0.1757951374373327
 30
0.0
 11
1.285976962195116
 21
-0.1691845605142558
 31
0.0
  0
LINE
  5
CD
330
A
100
AcDbEntity
  8
0
  6
solid
 62
     0
100
AcDbLine
 10
1.285976962195116
 20
-0.1691845605142558
 30
0.0
 11
1.286712256312763
 21
-0.1637759066681019
 31
0.0
  0
LINE
  5
CE
330
A
100
AcDbEntity
  8
0
  6
solid
 62
     0
100
AcDbLine
 10
1.286712256312763
 20
-0.1637759066681019
 30
0.0
 11
1.286712256312763
 21
-0.157165329745025
 31
0.0
  0
LINE
  5
CF
330
A
100
AcDbEntity
  8
0
  6
solid
 62
     0
100
AcDbLine
 10
1.286712256312763
 20
-0.157165329745025
 30
0.0
 11
1.284751471999038
 21
-0.1469489835911788
 31
0.0
  0
LINE
  5
D0
330
A
100
AcDbEntity
  8
0
  6
solid
 62
     0
100
AcDbLine
 10
1.284751471999038
 20
-0.1469489835911788
 30
0.0
 11
1.282300491606881
 21
-0.1379345605142558
 31
0.0
  0
LINE
  5
D1
330
A
100
AcDbEntity
  8
0
  6
solid
 62
     0
100
AcDbLine
 10
1.282300491606881
 20
-0.1379345605142558
 30
0.0
 11
1.278133824940214
 21
-0.1301220605142558
 31
0.0
  0
LINE
  5
D2
330
A
100
AcDbEntity
  8
0
  6
solid
 62
     0
100
AcDbLine
 10
1.278133824940214
 20
-0.1301220605142558
 30
0.0
 11
1.273722060234332
 21
-0.1247134066681019
 31
0.0
  0
LINE
  5
D3
330
A
100
AcDbEntity
  8
0
  6
solid
 62
     0
100
AcDbLine
 10
1.273722060234332
 20
-0.1247134066681019
 30
0.0
 11
1.268820099450018
 21
-0.1211076374373327
 31
0.0
  0
LINE
  5
D4
330
A
100
AcDbEntity
  8
0
  6
solid
 62
     0
100
AcDbLine
 10
1.268820099450018
 20
-0.1211076374373327
 30
0.0
 11
1.265143628861783
 21
-0.118102829745025
 31
0.0
  0
LINE
  5
D5
330
A
100
AcDbEntity
  8
0
  6
solid
 62
     0
100
AcDbLine
 10
1.265143628861783
 20
-0.118102829745025
 30
0.0
 11
1.261222060234332
 21
-0.1175018682065634
 31
0.0
  0
LINE
  5
D6
330
A
100
AcDbEntity
  8
0
  6
solid
 62
     0
100
AcDbLine
 10
1.261222060234332
 20
-0.1175018682065634
 30
0.0
 11
1.256320099450018
 21
-0.1162999451296404
 31
0.0
  0
LINE
  5
D7
330
A
100
AcDbEntity
  8
0
  6
solid
 62
     0
100
AcDbLine
 10
1.256320099450018
 20
-0.1162999451296404
 30
0.0
 11
1.252643628861783
 21
-0.1162999451296404
 31
0.0
  0
LINE
  5
D8
330
A
100
AcDbEntity
  8
0
  6
solid
 62
     0
100
AcDbLine
 10
1.252643628861783
 20
-0.1162999451296404
 30
0.0
 11
1.250927942587273
 21
-0.1175018682065634
 31
0.0
  0
LINE
  5
D9
330
A
100
AcDbEntity
  8
0
  6
solid
 62
     0
100
AcDbLine
 10
1.250927942587273
 20
-0.1175018682065634
 30
0.0
 11
1.26759460925394
 21
-0.0802422528219481
 31
0.0
  0
LINE
  5
DA
330
A
100
AcDbEntity
  8
0
  6
solid
 62
     0
100
AcDbLine
 10
1.26759460925394
 20
-0.0802422528219481
 30
0.0
 11
1.254604413175508
 21
-0.0802422528219481
 31
0.0
  0
LINE
  5
DB
330
A
100
AcDbEntity
  8
0
  6
solid
 62
     0
100
AcDbLine
 10
1.275682844548057
 20
-0.157165329745025
 30
0.0
 11
1.27494755043041
 21
-0.1511557143604096
 31
0.0
  0
LINE
  5
DC
330
A
100
AcDbEntity
  8
0
  6
solid
 62
     0
100
AcDbLine
 10
1.27494755043041
 20
-0.1511557143604096
 30
0.0
 11
1.272986766116685
 21
-0.1457470605142558
 31
0.0
  0
LINE
  5
DD
330
A
100
AcDbEntity
  8
0
  6
solid
 62
     0
100
AcDbLine
 10
1.272986766116685
 20
-0.1457470605142558
 30
0.0
 11
1.271271079842175
 21
-0.1421412912834865
 31
0.0
  0
LINE
  5
DE
330
A
100
AcDbEntity
  8
0
  6
solid
 62
     0
100
AcDbLine
 10
1.271271079842175
 20
-0.1421412912834865
 30
0.0
 11
1.268820099450018
 21
-0.1385355220527173
 31
0.0
  0
LINE
  5
DF
330
A
100
AcDbEntity
  8
0
  6
solid
 62
     0
100
AcDbLine
 10
1.268820099450018
 20
-0.1385355220527173
 30
0.0
 11
1.265143628861783
 21
-0.1349297528219481
 31
0.0
  0
LINE
  5
E0
330
A
100
AcDbEntity
  8
0
  6
solid
 62
     0
100
AcDbLine
 10
1.265143628861783
 20
-0.1349297528219481
 30
0.0
 11
1.2607318641559
 21
-0.1325259066681019
 31
0.0
  0
LINE
  5
E1
330
A
100
AcDbEntity
  8
0
  6
solid
 62
     0
100
AcDbLine
 10
1.2607318641559
 20
-0.1325259066681019
 30
0.0
 11
1.256320099450018
 21
-0.1319249451296404
 31
0.0
  0
LINE
  5
E2
330
A
100
AcDbEntity
  8
0
  6
solid
 62
     0
100
AcDbLine
 10
1.256320099450018
 20
-0.1319249451296404
 30
0.0
 11
1.25337892297943
 21
-0.1319249451296404
 31
0.0
  0
LINE
  5
E3
330
A
100
AcDbEntity
  8
0
  6
solid
 62
     0
100
AcDbLine
 10
1.25337892297943
 20
-0.1319249451296404
 30
0.0
 11
1.248231864155901
 21
-0.133727829745025
 31
0.0
  0
LINE
  5
E4
330
A
100
AcDbEntity
  8
0
  6
solid
 62
     0
100
AcDbLine
 10
1.248231864155901
 20
-0.133727829745025
 30
0.0
 11
1.244065197489234
 21
-0.1361316758988711
 31
0.0
  0
LINE
  5
E5
330
A
100
AcDbEntity
  8
0
  6
solid
 62
     0
100
AcDbLine
 10
1.244065197489234
 20
-0.1361316758988711
 30
0.0
 11
1.24087892297943
 21
-0.1403384066681019
 31
0.0
  0
LINE
  5
E6
330
A
100
AcDbEntity
  8
0
  6
solid
 62
     0
100
AcDbLine
 10
1.24087892297943
 20
-0.1403384066681019
 30
0.0
 11
1.238427942587273
 21
-0.1451460989757942
 31
0.0
  0
LINE
  5
E7
330
A
100
AcDbEntity
  8
0
  6
solid
 62
     0
100
AcDbLine
 10
1.238427942587273
 20
-0.1451460989757942
 30
0.0
 11
1.236467158273548
 21
-0.1505547528219481
 31
0.0
  0
LINE
  5
E8
330
A
100
AcDbEntity
  8
0
  6
solid
 62
     0
100
AcDbLine
 10
1.236467158273548
 20
-0.1505547528219481
 30
0.0
 11
1.235241668077469
 21
-0.1565643682065635
 31
0.0
  0
LINE
  5
E9
330
A
100
AcDbEntity
  8
0
  6
solid
 62
     0
100
AcDbLine
 10
1.235241668077469
 20
-0.1565643682065635
 30
0.0
 11
1.235241668077469
 21
-0.1637759066681019
 31
0.0
  0
LINE
  5
EA
330
A
100
AcDbEntity
  8
0
  6
solid
 62
     0
100
AcDbLine
 10
1.235241668077469
 20
-0.1637759066681019
 30
0.0
 11
1.236467158273548
 21
-0.1703864835911788
 31
0.0
  0
LINE
  5
EB
330
A
100
AcDbEntity
  8
0
  6
solid
 62
     0
100
AcDbLine
 10
1.236467158273548
 20
-0.1703864835911788
 30
0.0
 11
1.238427942587273
 21
-0.1769970605142558
 31
0.0
  0
LINE
  5
EC
330
A
100
AcDbEntity
  8
0
  6
solid
 62
     0
100
AcDbLine
 10
1.238427942587273
 20
-0.1769970605142558
 30
0.0
 11
1.242104413175508
 21
-0.1824057143604096
 31
0.0
  0
LINE
  5
ED
330
A
100
AcDbEntity
  8
0
  6
solid
 62
     0
100
AcDbLine
 10
1.242104413175508
 20
-0.1824057143604096
 30
0.0
 11
1.245780883763744
 21
-0.1866124451296404
 31
0.0
  0
LINE
  5
EE
330
A
100
AcDbEntity
  8
0
  6
solid
 62
     0
100
AcDbLine
 10
1.245780883763744
 20
-0.1866124451296404
 30
0.0
 11
1.248967158273547
 21
-0.188415329745025
 31
0.0
  0
LINE
  5
EF
330
A
100
AcDbEntity
  8
0
  6
solid
 62
     0
100
AcDbLine
 10
1.248967158273547
 20
-0.188415329745025
 30
0.0
 11
1.253869119057861
 21
-0.1902182143604096
 31
0.0
  0
LINE
  5
F0
330
A
100
AcDbEntity
  8
0
  6
solid
 62
     0
100
AcDbLine
 10
1.253869119057861
 20
-0.1902182143604096
 30
0.0
 11
1.257055393567665
 21
-0.1902182143604096
 31
0.0
  0
LINE
  5
F1
330
A
100
AcDbEntity
  8
0
  6
solid
 62
     0
100
AcDbLine
 10
1.257055393567665
 20
-0.1902182143604096
 30
0.0
 11
1.261957354351979
 21
-0.188415329745025
 31
0.0
  0
LINE
  5
F2
330
A
100
AcDbEntity
  8
0
  6
solid
 62
     0
100
AcDbLine
 10
1.261957354351979
 20
-0.188415329745025
 30
0.0
 11
1.266369119057861
 21
-0.1860114835911788
 31
0.0
  0
LINE
  5
F3
330
A
100
AcDbEntity
  8
0
  6
solid
 62
     0
100
AcDbLine
 10
1.266369119057861
 20
-0.1860114835911788
 30
0.0
 11
1.270045589646097
 21
-0.1812037912834865
 31
0.0
  0
LINE
  5
F4
330
A
100
AcDbEntity
  8
0
  6
solid
 62
     0
100
AcDbLine
 10
1.270045589646097
 20
-0.1812037912834865
 30
0.0
 11
1.272986766116685
 21
-0.1757951374373327
 31
0.0
  0
LINE
  5
F5
330
A
100
AcDbEntity
  8
0
  6
solid
 62
     0
100
AcDbLine
 10
1.272986766116685
 20
-0.1757951374373327
 30
0.0
 11
1.27494755043041
 21
-0.1697855220527173
 31
0.0
  0
LINE
  5
F6
330
A
100
AcDbEntity
  8
0
  6
solid
 62
     0
100
AcDbLine
 10
1.27494755043041
 20
-0.1697855220527173
 30
0.0
 11
1.275682844548057
 21
-0.1643768682065635
 31
0.0
  0
LINE
  5
F7
330
A
100
AcDbEntity
  8
0
  6
solid
 62
     0
100
AcDbLine
 10
1.275682844548057
 20
-0.1643768682065635
 30
0.0
 11
1.275682844548057
 21
-0.157165329745025
 31
0.0
  0
LINE
  5
F8
330
A
100
AcDbEntity
  8
0
  6
solid
 62
     0
100
AcDbLine
 10
1.375192648469626
 20
-0.0802422528219481
 30
0.0
 11
1.375192648469626
 21
-0.0964682143604096
 31
0.0
  0
LINE
  5
F9
330
A
100
AcDbEntity
  8
0
  6
solid
 62
     0
100
AcDbLine
 10
1.375192648469626
 20
-0.0964682143604096
 30
0.0
 11
1.384016177881391
 21
-0.0964682143604096
 31
0.0
  0
LINE
  5
FA
330
A
100
AcDbEntity
  8
0
  6
solid
 62
     0
100
AcDbLine
 10
1.384016177881391
 20
-0.0964682143604096
 30
0.0
 11
1.400437746508842
 21
-0.141540329745025
 31
0.0
  0
LINE
  5
FB
330
A
100
AcDbEntity
  8
0
  6
solid
 62
     0
100
AcDbLine
 10
1.400437746508842
 20
-0.141540329745025
 30
0.0
 11
1.382300491606881
 21
-0.1890162912834865
 31
0.0
  0
LINE
  5
FC
330
A
100
AcDbEntity
  8
0
  6
solid
 62
     0
100
AcDbLine
 10
1.382300491606881
 20
-0.1890162912834865
 30
0.0
 11
1.374212256312763
 21
-0.1890162912834865
 31
0.0
  0
LINE
  5
FD
330
A
100
AcDbEntity
  8
0
  6
solid
 62
     0
100
AcDbLine
 10
1.374212256312763
 20
-0.1890162912834865
 30
0.0
 11
1.374212256312763
 21
-0.2052422528219481
 31
0.0
  0
LINE
  5
FE
330
A
100
AcDbEntity
  8
0
  6
solid
 62
     0
100
AcDbLine
 10
1.374212256312763
 20
-0.2052422528219481
 30
0.0
 11
1.400437746508842
 21
-0.2052422528219481
 31
0.0
  0
LINE
  5
FF
330
A
100
AcDbEntity
  8
0
  6
solid
 62
     0
100
AcDbLine
 10
1.400437746508842
 20
-0.2052422528219481
 30
0.0
 11
1.400437746508842
 21
-0.1890162912834865
 31
0.0
  0
LINE
  5
100
330
A
100
AcDbEntity
  8
0
  6
solid
 62
     0
100
AcDbLine
 10
1.400437746508842
 20
-0.1890162912834865
 30
0.0
 11
1.393575001410803
 21
-0.1890162912834865
 31
0.0
  0
LINE
  5
101
330
A
100
AcDbEntity
  8
0
  6
solid
 62
     0
100
AcDbLine
 10
1.393575001410803
 20
-0.1890162912834865
 30
0.0
 11
1.405584805332371
 21
-0.1559634066681019
 31
0.0
  0
LINE
  5
102
330
A
100
AcDbEntity
  8
0
  6
solid
 62
     0
100
AcDbLine
 10
1.405584805332371
 20
-0.1559634066681019
 30
0.0
 11
1.417349511214724
 21
-0.1890162912834865
 31
0.0
  0
LINE
  5
103
330
A
100
AcDbEntity
  8
0
  6
solid
 62
     0
100
AcDbLine
 10
1.417349511214724
 20
-0.1890162912834865
 30
0.0
 11
1.410976962195116
 21
-0.1890162912834865
 31
0.0
  0
LINE
  5
104
330
A
100
AcDbEntity
  8
0
  6
solid
 62
     0
100
AcDbLine
 10
1.410976962195116
 20
-0.1890162912834865
 30
0.0
 11
1.410976962195116
 21
-0.2052422528219481
 31
0.0
  0
LINE
  5
105
330
A
100
AcDbEntity
  8
0
  6
solid
 62
     0
100
AcDbLine
 10
1.410976962195116
 20
-0.2052422528219481
 30
0.0
 11
1.436712256312763
 21
-0.2052422528219481
 31
0.0
  0
LINE
  5
106
330
A
100
AcDbEntity
  8
0
  6
solid
 62
     0
100
AcDbLine
 10
1.436712256312763
 20
-0.2052422528219481
 30
0.0
 11
1.436712256312763
 21
-0.1890162912834865
 31
0.0
  0
LINE
  5
107
330
A
100
AcDbEntity
  8
0
  6
solid
 62
     0
100
AcDbLine
 10
1.436712256312763
 20
-0.1890162912834865
 30
0.0
 11
1.428624021018646
 21
-0.1890162912834865
 31
0.0
  0
LINE
  5
108
330
A
100
AcDbEntity
  8
0
  6
solid
 62
     0
100
AcDbLine
 10
1.428624021018646
 20
-0.1890162912834865
 30
0.0
 11
1.410976962195116
 21
-0.141540329745025
 31
0.0
  0
LINE
  5
109
330
A
100
AcDbEntity
  8
0
  6
solid
 62
     0
100
AcDbLine
 10
1.410976962195116
 20
-0.141540329745025
 30
0.0
 11
1.426908334744136
 21
-0.0964682143604096
 31
0.0
  0
LINE
  5
10A
330
A
100
AcDbEntity
  8
0
  6
solid
 62
     0
100
AcDbLine
 10
1.426908334744136
 20
-0.0964682143604096
 30
0.0
 11
1.435731864155901
 21
-0.0964682143604096
 31
0.0
  0
LINE
  5
10B
330
A
100
AcDbEntity
  8
0
  6
solid
 62
     0
100
AcDbLine
 10
1.435731864155901
 20
-0.0964682143604096
 30
0.0
 11
1.435731864155901
 21
-0.0802422528219481
 31
0.0
  0
LINE
  5
10C
330
A
100
AcDbEntity
  8
0
  6
solid
 62
     0
100
AcDbLine
 10
1.435731864155901
 20
-0.0802422528219481
 30
0.0
 11
1.409506373959822
 21
-0.0802422528219481
 31
0.0
  0
LINE
  5
10D
330
A
100
AcDbEntity
  8
0
  6
solid
 62
     0
100
AcDbLine
 10
1.409506373959822
 20
-0.0802422528219481
 30
0.0
 11
1.409506373959822
 21
-0.0964682143604096
 31
0.0
  0
LINE
  5
10E
330
A
100
AcDbEntity
  8
0
  6
solid
 62
     0
100
AcDbLine
 10
1.409506373959822
 20
-0.0964682143604096
 30
0.0
 11
1.416124021018646
 21
-0.0964682143604096
 31
0.0
  0
LINE
  5
10F
330
A
100
AcDbEntity
  8
0
  6
solid
 62
     0
100
AcDbLine
 10
1.416124021018646
 20
-0.0964682143604096
 30
0.0
 11
1.405584805332371
 21
-0.125915329745025
 31
0.0
  0
LINE
  5
110
330
A
100
AcDbEntity
  8
0
  6
solid
 62
     0
100
AcDbLine
 10
1.405584805332371
 20
-0.125915329745025
 30
0.0
 11
1.394800491606881
 21
-0.0964682143604096
 31
0.0
  0
LINE
  5
111
330
A
100
AcDbEntity
  8
0
  6
solid
 62
     0
100
AcDbLine
 10
1.394800491606881
 20
-0.0964682143604096
 30
0.0
 11
1.401418138665705
 21
-0.0964682143604096
 31
0.0
  0
LINE
  5
112
330
A
100
AcDbEntity
  8
0
  6
solid
 62
     0
100
AcDbLine
 10
1.401418138665705
 20
-0.0964682143604096
 30
0.0
 11
1.401418138665705
 21
-0.0802422528219481
 31
0.0
  0
LINE
  5
113
330
A
100
AcDbEntity
  8
0
  6
solid
 62
     0
100
AcDbLine
 10
1.401418138665705
 20
-0.0802422528219481
 30
0.0
 11
1.375192648469626
 21
-0.0802422528219481
 31
0.0
  0
LINE
  5
114
330
A
100
AcDbEntity
  8
0
  6
solid
 62
     0
100
AcDbLine
 10
1.526908334744136
 20
-0.2052422528219481
 30
0.0
 11
1.526908334744136
 21
-0.1890162912834865
 31
0.0
  0
LINE
  5
115
330
A
100
AcDbEntity
  8
0
  6
solid
 62
     0
100
AcDbLine
 10
1.526908334744136
 20
-0.1890162912834865
 30
0.0
 11
1.564653432783351
 21
-0.1361316758988711
 31
0.0
  0
LINE
  5
116
330
A
100
AcDbEntity
  8
0
  6
solid
 62
     0
100
AcDbLine
 10
1.564653432783351
 20
-0.1361316758988711
 30
0.0
 11
1.568084805332371
 21
-0.1301220605142558
 31
0.0
  0
LINE
  5
117
330
A
100
AcDbEntity
  8
0
  6
solid
 62
     0
100
AcDbLine
 10
1.568084805332371
 20
-0.1301220605142558
 30
0.0
 11
1.569555393567665
 21
-0.1265162912834865
 31
0.0
  0
LINE
  5
118
330
A
100
AcDbEntity
  8
0
  6
solid
 62
     0
100
AcDbLine
 10
1.569555393567665
 20
-0.1265162912834865
 30
0.0
 11
1.571025981802959
 21
-0.1199057143604096
 31
0.0
  0
LINE
  5
119
330
A
100
AcDbEntity
  8
0
  6
solid
 62
     0
100
AcDbLine
 10
1.571025981802959
 20
-0.1199057143604096
 30
0.0
 11
1.571025981802959
 21
-0.1150980220527173
 31
0.0
  0
LINE
  5
11A
330
A
100
AcDbEntity
  8
0
  6
solid
 62
     0
100
AcDbLine
 10
1.571025981802959
 20
-0.1150980220527173
 30
0.0
 11
1.569555393567665
 21
-0.1096893682065634
 31
0.0
  0
LINE
  5
11B
330
A
100
AcDbEntity
  8
0
  6
solid
 62
     0
100
AcDbLine
 10
1.569555393567665
 20
-0.1096893682065634
 30
0.0
 11
1.568084805332371
 21
-0.1048816758988711
 31
0.0
  0
LINE
  5
11C
330
A
100
AcDbEntity
  8
0
  6
solid
 62
     0
100
AcDbLine
 10
1.568084805332371
 20
-0.1048816758988711
 30
0.0
 11
1.565388726900998
 21
-0.1012759066681019
 31
0.0
  0
LINE
  5
11D
330
A
100
AcDbEntity
  8
0
  6
solid
 62
     0
100
AcDbLine
 10
1.565388726900998
 20
-0.1012759066681019
 30
0.0
 11
1.562692648469626
 21
-0.0988720605142558
 31
0.0
  0
LINE
  5
11E
330
A
100
AcDbEntity
  8
0
  6
solid
 62
     0
100
AcDbLine
 10
1.562692648469626
 20
-0.0988720605142558
 30
0.0
 11
1.559996570038253
 21
-0.0970691758988712
 31
0.0
  0
LINE
  5
11F
330
A
100
AcDbEntity
  8
0
  6
solid
 62
     0
100
AcDbLine
 10
1.559996570038253
 20
-0.0970691758988712
 30
0.0
 11
1.555829903371587
 21
-0.0952662912834865
 31
0.0
  0
LINE
  5
120
330
A
100
AcDbEntity
  8
0
  6
solid
 62
     0
100
AcDbLine
 10
1.555829903371587
 20
-0.0952662912834865
 30
0.0
 11
1.550927942587273
 21
-0.0952662912834865
 31
0.0
  0
LINE
  5
121
330
A
100
AcDbEntity
  8
0
  6
solid
 62
     0
100
AcDbLine
 10
1.550927942587273
 20
-0.0952662912834865
 30
0.0
 11
1.546761275920606
 21
-0.0970691758988712
 31
0.0
  0
LINE
  5
122
330
A
100
AcDbEntity
  8
0
  6
solid
 62
     0
100
AcDbLine
 10
1.546761275920606
 20
-0.0970691758988712
 30
0.0
 11
1.543329903371587
 21
-0.0994730220527173
 31
0.0
  0
LINE
  5
123
330
A
100
AcDbEntity
  8
0
  6
solid
 62
     0
100
AcDbLine
 10
1.543329903371587
 20
-0.0994730220527173
 30
0.0
 11
1.541369119057861
 21
-0.102477829745025
 31
0.0
  0
LINE
  5
124
330
A
100
AcDbEntity
  8
0
  6
solid
 62
     0
100
AcDbLine
 10
1.541369119057861
 20
-0.102477829745025
 30
0.0
 11
1.539408334744136
 21
-0.1048816758988711
 31
0.0
  0
LINE
  5
125
330
A
100
AcDbEntity
  8
0
  6
solid
 62
     0
100
AcDbLine
 10
1.539408334744136
 20
-0.1048816758988711
 30
0.0
 11
1.537202452391194
 21
-0.110290329745025
 31
0.0
  0
LINE
  5
126
330
A
100
AcDbEntity
  8
0
  6
solid
 62
     0
100
AcDbLine
 10
1.537202452391194
 20
-0.110290329745025
 30
0.0
 11
1.535976962195116
 21
-0.118102829745025
 31
0.0
  0
LINE
  5
127
330
A
100
AcDbEntity
  8
0
  6
solid
 62
     0
100
AcDbLine
 10
1.535976962195116
 20
-0.118102829745025
 30
0.0
 11
1.524212256312763
 21
-0.118102829745025
 31
0.0
  0
LINE
  5
128
330
A
100
AcDbEntity
  8
0
  6
solid
 62
     0
100
AcDbLine
 10
1.524212256312763
 20
-0.118102829745025
 30
0.0
 11
1.52494755043041
 21
-0.110290329745025
 31
0.0
  0
LINE
  5
129
330
A
100
AcDbEntity
  8
0
  6
solid
 62
     0
100
AcDbLine
 10
1.52494755043041
 20
-0.110290329745025
 30
0.0
 11
1.526908334744136
 21
-0.102477829745025
 31
0.0
  0
LINE
  5
12A
330
A
100
AcDbEntity
  8
0
  6
solid
 62
     0
100
AcDbLine
 10
1.526908334744136
 20
-0.102477829745025
 30
0.0
 11
1.529604413175508
 21
-0.0964682143604096
 31
0.0
  0
LINE
  5
12B
330
A
100
AcDbEntity
  8
0
  6
solid
 62
     0
100
AcDbLine
 10
1.529604413175508
 20
-0.0964682143604096
 30
0.0
 11
1.533035785724528
 21
-0.0910595605142558
 31
0.0
  0
LINE
  5
12C
330
A
100
AcDbEntity
  8
0
  6
solid
 62
     0
100
AcDbLine
 10
1.533035785724528
 20
-0.0910595605142558
 30
0.0
 11
1.537202452391194
 21
-0.0862518682065635
 31
0.0
  0
LINE
  5
12D
330
A
100
AcDbEntity
  8
0
  6
solid
 62
     0
100
AcDbLine
 10
1.537202452391194
 20
-0.0862518682065635
 30
0.0
 11
1.541369119057861
 21
-0.0838480220527173
 31
0.0
  0
LINE
  5
12E
330
A
100
AcDbEntity
  8
0
  6
solid
 62
     0
100
AcDbLine
 10
1.541369119057861
 20
-0.0838480220527173
 30
0.0
 11
1.547496570038253
 21
-0.0808432143604096
 31
0.0
  0
LINE
  5
12F
330
A
100
AcDbEntity
  8
0
  6
solid
 62
     0
100
AcDbLine
 10
1.547496570038253
 20
-0.0808432143604096
 30
0.0
 11
1.55166323670492
 21
-0.0802422528219481
 31
0.0
  0
LINE
  5
130
330
A
100
AcDbEntity
  8
0
  6
solid
 62
     0
100
AcDbLine
 10
1.55166323670492
 20
-0.0802422528219481
 30
0.0
 11
1.555829903371587
 21
-0.0802422528219481
 31
0.0
  0
LINE
  5
131
330
A
100
AcDbEntity
  8
0
  6
solid
 62
     0
100
AcDbLine
 10
1.555829903371587
 20
-0.0802422528219481
 30
0.0
 11
1.561957354351979
 21
-0.0820451374373327
 31
0.0
  0
LINE
  5
132
330
A
100
AcDbEntity
  8
0
  6
solid
 62
     0
100
AcDbLine
 10
1.561957354351979
 20
-0.0820451374373327
 30
0.0
 11
1.566859315136293
 21
-0.0844489835911789
 31
0.0
  0
LINE
  5
133
330
A
100
AcDbEntity
  8
0
  6
solid
 62
     0
100
AcDbLine
 10
1.566859315136293
 20
-0.0844489835911789
 30
0.0
 11
1.571516177881391
 21
-0.0880547528219481
 31
0.0
  0
LINE
  5
134
330
A
100
AcDbEntity
  8
0
  6
solid
 62
     0
100
AcDbLine
 10
1.571516177881391
 20
-0.0880547528219481
 30
0.0
 11
1.575682844548057
 21
-0.0934634066681019
 31
0.0
  0
LINE
  5
135
330
A
100
AcDbEntity
  8
0
  6
solid
 62
     0
100
AcDbLine
 10
1.575682844548057
 20
-0.0934634066681019
 30
0.0
 11
1.579114217097077
 21
-0.0994730220527173
 31
0.0
  0
LINE
  5
136
330
A
100
AcDbEntity
  8
0
  6
solid
 62
     0
100
AcDbLine
 10
1.579114217097077
 20
-0.0994730220527173
 30
0.0
 11
1.58181029552845
 21
-0.1078864835911788
 31
0.0
  0
LINE
  5
137
330
A
100
AcDbEntity
  8
0
  6
solid
 62
     0
100
AcDbLine
 10
1.58181029552845
 20
-0.1078864835911788
 30
0.0
 11
1.583280883763744
 21
-0.1156989835911788
 31
0.0
  0
LINE
  5
138
330
A
100
AcDbEntity
  8
0
  6
solid
 62
     0
100
AcDbLine
 10
1.583280883763744
 20
-0.1156989835911788
 30
0.0
 11
1.583280883763744
 21
-0.1217085989757942
 31
0.0
  0
LINE
  5
139
330
A
100
AcDbEntity
  8
0
  6
solid
 62
     0
100
AcDbLine
 10
1.583280883763744
 20
-0.1217085989757942
 30
0.0
 11
1.58181029552845
 21
-0.1283191758988711
 31
0.0
  0
LINE
  5
13A
330
A
100
AcDbEntity
  8
0
  6
solid
 62
     0
100
AcDbLine
 10
1.58181029552845
 20
-0.1283191758988711
 30
0.0
 11
1.579849511214724
 21
-0.1343287912834865
 31
0.0
  0
LINE
  5
13B
330
A
100
AcDbEntity
  8
0
  6
solid
 62
     0
100
AcDbLine
 10
1.579849511214724
 20
-0.1343287912834865
 30
0.0
 11
1.577153432783351
 21
-0.1403384066681019
 31
0.0
  0
LINE
  5
13C
330
A
100
AcDbEntity
  8
0
  6
solid
 62
     0
100
AcDbLine
 10
1.577153432783351
 20
-0.1403384066681019
 30
0.0
 11
1.543329903371587
 21
-0.1890162912834865
 31
0.0
  0
LINE
  5
13D
330
A
100
AcDbEntity
  8
0
  6
solid
 62
     0
100
AcDbLine
 10
1.543329903371587
 20
-0.1890162912834865
 30
0.0
 11
1.574457354351979
 21
-0.1890162912834865
 31
0.0
  0
LINE
  5
13E
330
A
100
AcDbEntity
  8
0
  6
solid
 62
     0
100
AcDbLine
 10
1.574457354351979
 20
-0.1890162912834865
 30
0.0
 11
1.574457354351979
 21
-0.1673816758988711
 31
0.0
  0
LINE
  5
13F
330
A
100
AcDbEntity
  8
0
  6
solid
 62
     0
100
AcDbLine
 10
1.574457354351979
 20
-0.1673816758988711
 30
0.0
 11
1.586712256312763
 21
-0.1673816758988711
 31
0.0
  0
LINE
  5
140
330
A
100
AcDbEntity
  8
0
  6
solid
 62
     0
100
AcDbLine
 10
1.586712256312763
 20
-0.1673816758988711
 30
0.0
 11
1.586712256312763
 21
-0.2052422528219481
 31
0.0
  0
LINE
  5
141
330
A
100
AcDbEntity
  8
0
  6
solid
 62
     0
100
AcDbLine
 10
1.586712256312763
 20
-0.2052422528219481
 30
0.0
 11
1.526908334744136
 21
-0.2052422528219481
 31
0.0
  0
LINE
  5
142
330
A
100
AcDbEntity
  8
0
  6
solid
 62
     0
100
AcDbLine
 10
0.714415272573648
 20
0.5467830248804868
 30
0.0
 11
0.714415272573648
 21
0.5630089864189484
 31
0.0
  0
LINE
  5
143
330
A
100
AcDbEntity
  8
0
  6
solid
 62
     0
100
AcDbLine
 10
0.714415272573648
 20
0.5630089864189484
 30
0.0
 11
0.7261799784560009
 21
0.5630089864189484
 31
0.0
  0
LINE
  5
144
330
A
100
AcDbEntity
  8
0
  6
solid
 62
     0
100
AcDbLine
 10
0.7261799784560009
 20
0.5630089864189484
 30
0.0
 11
0.7261799784560009
 21
0.6555570633420253
 31
0.0
  0
LINE
  5
145
330
A
100
AcDbEntity
  8
0
  6
solid
 62
     0
100
AcDbLine
 10
0.7261799784560009
 20
0.6555570633420253
 30
0.0
 11
0.714415272573648
 21
0.6555570633420253
 31
0.0
  0
LINE
  5
146
330
A
100
AcDbEntity
  8
0
  6
solid
 62
     0
100
AcDbLine
 10
0.714415272573648
 20
0.6555570633420253
 30
0.0
 11
0.714415272573648
 21
0.6717830248804868
 31
0.0
  0
LINE
  5
147
330
A
100
AcDbEntity
  8
0
  6
solid
 62
     0
100
AcDbLine
 10
0.714415272573648
 20
0.6717830248804868
 30
0.0
 11
0.7501995862991383
 21
0.6717830248804868
 31
0.0
  0
LINE
  5
148
330
A
100
AcDbEntity
  8
0
  6
solid
 62
     0
100
AcDbLine
 10
0.7501995862991383
 20
0.6717830248804868
 30
0.0
 11
0.7501995862991383
 21
0.6555570633420253
 31
0.0
  0
LINE
  5
149
330
A
100
AcDbEntity
  8
0
  6
solid
 62
     0
100
AcDbLine
 10
0.7501995862991383
 20
0.6555570633420253
 30
0.0
 11
0.7399054686520794
 21
0.6555570633420253
 31
0.0
  0
LINE
  5
14A
330
A
100
AcDbEntity
  8
0
  6
solid
 62
     0
100
AcDbLine
 10
0.7399054686520794
 20
0.6555570633420253
 30
0.0
 11
0.7399054686520794
 21
0.5630089864189484
 31
0.0
  0
LINE
  5
14B
330
A
100
AcDbEntity
  8
0
  6
solid
 62
     0
100
AcDbLine
 10
0.7399054686520794
 20
0.5630089864189484
 30
0.0
 11
0.7651505666912951
 21
0.5630089864189484
 31
0.0
  0
LINE
  5
14C
330
A
100
AcDbEntity
  8
0
  6
solid
 62
     0
100
AcDbLine
 10
0.7651505666912951
 20
0.5630089864189484
 30
0.0
 11
0.7651505666912951
 21
0.5858455248804868
 31
0.0
  0
LINE
  5
14D
330
A
100
AcDbEntity
  8
0
  6
solid
 62
     0
100
AcDbLine
 10
0.7651505666912951
 20
0.5858455248804868
 30
0.0
 11
0.776915272573648
 21
0.5858455248804868
 31
0.0
  0
LINE
  5
14E
330
A
100
AcDbEntity
  8
0
  6
solid
 62
     0
100
AcDbLine
 10
0.776915272573648
 20
0.5858455248804868
 30
0.0
 11
0.776915272573648
 21
0.5467830248804868
 31
0.0
  0
LINE
  5
14F
330
A
100
AcDbEntity
  8
0
  6
solid
 62
     0
100
AcDbLine
 10
0.776915272573648
 20
0.5467830248804868
 30
0.0
 11
0.714415272573648
 21
0.5467830248804868
 31
0.0
  0
LINE
  5
150
330
A
100
AcDbEntity
  8
0
  6
solid
 62
     0
100
AcDbLine
 10
0.789415272573648
 20
0.5467830248804868
 30
0.0
 11
0.8168662529658048
 21
0.5467830248804868
 31
0.0
  0
LINE
  5
151
330
A
100
AcDbEntity
  8
0
  6
solid
 62
     0
100
AcDbLine
 10
0.8168662529658048
 20
0.5467830248804868
 30
0.0
 11
0.8227486059069812
 21
0.54798494795741
 31
0.0
  0
LINE
  5
152
330
A
100
AcDbEntity
  8
0
  6
solid
 62
     0
100
AcDbLine
 10
0.8227486059069812
 20
0.54798494795741
 30
0.0
 11
0.8296113510050206
 21
0.5503887941112561
 31
0.0
  0
LINE
  5
153
330
A
100
AcDbEntity
  8
0
  6
solid
 62
     0
100
AcDbLine
 10
0.8296113510050206
 20
0.5503887941112561
 30
0.0
 11
0.8345133117893343
 21
0.5539945633420253
 31
0.0
  0
LINE
  5
154
330
A
100
AcDbEntity
  8
0
  6
solid
 62
     0
100
AcDbLine
 10
0.8345133117893343
 20
0.5539945633420253
 30
0.0
 11
0.8386799784560009
 21
0.5594032171881791
 31
0.0
  0
LINE
  5
155
330
A
100
AcDbEntity
  8
0
  6
solid
 62
     0
100
AcDbLine
 10
0.8386799784560009
 20
0.5594032171881791
 30
0.0
 11
0.8428466451226675
 21
0.5660137941112561
 31
0.0
  0
LINE
  5
156
330
A
100
AcDbEntity
  8
0
  6
solid
 62
     0
100
AcDbLine
 10
0.8428466451226675
 20
0.5660137941112561
 30
0.0
 11
0.8465231157109029
 21
0.5738262941112561
 31
0.0
  0
LINE
  5
157
330
A
100
AcDbEntity
  8
0
  6
solid
 62
     0
100
AcDbLine
 10
0.8465231157109029
 20
0.5738262941112561
 30
0.0
 11
0.848728998063844
 21
0.5810378325727945
 31
0.0
  0
LINE
  5
158
330
A
100
AcDbEntity
  8
0
  6
solid
 62
     0
100
AcDbLine
 10
0.848728998063844
 20
0.5810378325727945
 30
0.0
 11
0.8504446843383538
 21
0.5900522556497175
 31
0.0
  0
LINE
  5
159
330
A
100
AcDbEntity
  8
0
  6
solid
 62
     0
100
AcDbLine
 10
0.8504446843383538
 20
0.5900522556497175
 30
0.0
 11
0.851915272573648
 21
0.60267244795741
 31
0.0
  0
LINE
  5
15A
330
A
100
AcDbEntity
  8
0
  6
solid
 62
     0
100
AcDbLine
 10
0.851915272573648
 20
0.60267244795741
 30
0.0
 11
0.851915272573648
 21
0.6158936018035637
 31
0.0
  0
LINE
  5
15B
330
A
100
AcDbEntity
  8
0
  6
solid
 62
     0
100
AcDbLine
 10
0.851915272573648
 20
0.6158936018035637
 30
0.0
 11
0.8504446843383538
 21
0.6285137941112561
 31
0.0
  0
LINE
  5
15C
330
A
100
AcDbEntity
  8
0
  6
solid
 62
     0
100
AcDbLine
 10
0.8504446843383538
 20
0.6285137941112561
 30
0.0
 11
0.848728998063844
 21
0.6375282171881791
 31
0.0
  0
LINE
  5
15D
330
A
100
AcDbEntity
  8
0
  6
solid
 62
     0
100
AcDbLine
 10
0.848728998063844
 20
0.6375282171881791
 30
0.0
 11
0.8465231157109029
 21
0.6447397556497175
 31
0.0
  0
LINE
  5
15E
330
A
100
AcDbEntity
  8
0
  6
solid
 62
     0
100
AcDbLine
 10
0.8465231157109029
 20
0.6447397556497175
 30
0.0
 11
0.8435819392403146
 21
0.650749371034333
 31
0.0
  0
LINE
  5
15F
330
A
100
AcDbEntity
  8
0
  6
solid
 62
     0
100
AcDbLine
 10
0.8435819392403146
 20
0.650749371034333
 30
0.0
 11
0.8401505666912949
 21
0.65735994795741
 31
0.0
  0
LINE
  5
160
330
A
100
AcDbEntity
  8
0
  6
solid
 62
     0
100
AcDbLine
 10
0.8401505666912949
 20
0.65735994795741
 30
0.0
 11
0.8359839000246283
 21
0.6627686018035637
 31
0.0
  0
LINE
  5
161
330
A
100
AcDbEntity
  8
0
  6
solid
 62
     0
100
AcDbLine
 10
0.8359839000246283
 20
0.6627686018035637
 30
0.0
 11
0.8313270372795303
 21
0.6669753325727945
 31
0.0
  0
LINE
  5
162
330
A
100
AcDbEntity
  8
0
  6
solid
 62
     0
100
AcDbLine
 10
0.8313270372795303
 20
0.6669753325727945
 30
0.0
 11
0.8264250764952166
 21
0.6699801402651023
 31
0.0
  0
LINE
  5
163
330
A
100
AcDbEntity
  8
0
  6
solid
 62
     0
100
AcDbLine
 10
0.8264250764952166
 20
0.6699801402651023
 30
0.0
 11
0.8173564490442362
 21
0.6717830248804868
 31
0.0
  0
LINE
  5
164
330
A
100
AcDbEntity
  8
0
  6
solid
 62
     0
100
AcDbLine
 10
0.8173564490442362
 20
0.6717830248804868
 30
0.0
 11
0.789415272573648
 21
0.6717830248804868
 31
0.0
  0
LINE
  5
165
330
A
100
AcDbEntity
  8
0
  6
solid
 62
     0
100
AcDbLine
 10
0.789415272573648
 20
0.6717830248804868
 30
0.0
 11
0.789415272573648
 21
0.6555570633420253
 31
0.0
  0
LINE
  5
166
330
A
100
AcDbEntity
  8
0
  6
solid
 62
     0
100
AcDbLine
 10
0.789415272573648
 20
0.6555570633420253
 30
0.0
 11
0.79725840982855
 21
0.6555570633420253
 31
0.0
  0
LINE
  5
167
330
A
100
AcDbEntity
  8
0
  6
solid
 62
     0
100
AcDbLine
 10
0.79725840982855
 20
0.6555570633420253
 30
0.0
 11
0.79725840982855
 21
0.5630089864189484
 31
0.0
  0
LINE
  5
168
330
A
100
AcDbEntity
  8
0
  6
solid
 62
     0
100
AcDbLine
 10
0.79725840982855
 20
0.5630089864189484
 30
0.0
 11
0.789415272573648
 21
0.5630089864189484
 31
0.0
  0
LINE
  5
169
330
A
100
AcDbEntity
  8
0
  6
solid
 62
     0
100
AcDbLine
 10
0.789415272573648
 20
0.5630089864189484
 30
0.0
 11
0.789415272573648
 21
0.5467830248804868
 31
0.0
  0
LINE
  5
16A
330
A
100
AcDbEntity
  8
0
  6
solid
 62
     0
100
AcDbLine
 10
0.8068172333579617
 20
0.5630089864189484
 30
0.0
 11
0.8168662529658048
 21
0.5630089864189484
 31
0.0
  0
LINE
  5
16B
330
A
100
AcDbEntity
  8
0
  6
solid
 62
     0
100
AcDbLine
 10
0.8168662529658048
 20
0.5630089864189484
 30
0.0
 11
0.8227486059069812
 21
0.5642109094958715
 31
0.0
  0
LINE
  5
16C
330
A
100
AcDbEntity
  8
0
  6
solid
 62
     0
100
AcDbLine
 10
0.8227486059069812
 20
0.5642109094958715
 30
0.0
 11
0.8269152725736478
 21
0.5660137941112561
 31
0.0
  0
LINE
  5
16D
330
A
100
AcDbEntity
  8
0
  6
solid
 62
     0
100
AcDbLine
 10
0.8269152725736478
 20
0.5660137941112561
 30
0.0
 11
0.830836841201099
 21
0.5696195633420253
 31
0.0
  0
LINE
  5
16E
330
A
100
AcDbEntity
  8
0
  6
solid
 62
     0
100
AcDbLine
 10
0.830836841201099
 20
0.5696195633420253
 30
0.0
 11
0.8350035078677656
 21
0.5750282171881791
 31
0.0
  0
LINE
  5
16F
330
A
100
AcDbEntity
  8
0
  6
solid
 62
     0
100
AcDbLine
 10
0.8350035078677656
 20
0.5750282171881791
 30
0.0
 11
0.8386799784560009
 21
0.5840426402651023
 31
0.0
  0
LINE
  5
170
330
A
100
AcDbEntity
  8
0
  6
solid
 62
     0
100
AcDbLine
 10
0.8386799784560009
 20
0.5840426402651023
 30
0.0
 11
0.840885860808942
 21
0.5930570633420253
 31
0.0
  0
LINE
  5
171
330
A
100
AcDbEntity
  8
0
  6
solid
 62
     0
100
AcDbLine
 10
0.840885860808942
 20
0.5930570633420253
 30
0.0
 11
0.8418662529658048
 21
0.5984657171881791
 31
0.0
  0
LINE
  5
172
330
A
100
AcDbEntity
  8
0
  6
solid
 62
     0
100
AcDbLine
 10
0.8418662529658048
 20
0.5984657171881791
 30
0.0
 11
0.8423564490442362
 21
0.6062782171881791
 31
0.0
  0
LINE
  5
173
330
A
100
AcDbEntity
  8
0
  6
solid
 62
     0
100
AcDbLine
 10
0.8423564490442362
 20
0.6062782171881791
 30
0.0
 11
0.8423564490442362
 21
0.6128887941112561
 31
0.0
  0
LINE
  5
174
330
A
100
AcDbEntity
  8
0
  6
solid
 62
     0
100
AcDbLine
 10
0.8423564490442362
 20
0.6128887941112561
 30
0.0
 11
0.8418662529658048
 21
0.6201003325727945
 31
0.0
  0
LINE
  5
175
330
A
100
AcDbEntity
  8
0
  6
solid
 62
     0
100
AcDbLine
 10
0.8418662529658048
 20
0.6201003325727945
 30
0.0
 11
0.8403956647305108
 21
0.6285137941112561
 31
0.0
  0
LINE
  5
176
330
A
100
AcDbEntity
  8
0
  6
solid
 62
     0
100
AcDbLine
 10
0.8403956647305108
 20
0.6285137941112561
 30
0.0
 11
0.8391701745344322
 21
0.63392244795741
 31
0.0
  0
LINE
  5
177
330
A
100
AcDbEntity
  8
0
  6
solid
 62
     0
100
AcDbLine
 10
0.8391701745344322
 20
0.63392244795741
 30
0.0
 11
0.8364740961030598
 21
0.6399320633420253
 31
0.0
  0
LINE
  5
178
330
A
100
AcDbEntity
  8
0
  6
solid
 62
     0
100
AcDbLine
 10
0.8364740961030598
 20
0.6399320633420253
 30
0.0
 11
0.8337780176716872
 21
0.6453407171881791
 31
0.0
  0
LINE
  5
179
330
A
100
AcDbEntity
  8
0
  6
solid
 62
     0
100
AcDbLine
 10
0.8337780176716872
 20
0.6453407171881791
 30
0.0
 11
0.8301015470834519
 21
0.6501484094958715
 31
0.0
  0
LINE
  5
17A
330
A
100
AcDbEntity
  8
0
  6
solid
 62
     0
100
AcDbLine
 10
0.8301015470834519
 20
0.6501484094958715
 30
0.0
 11
0.8264250764952166
 21
0.6525522556497176
 31
0.0
  0
LINE
  5
17B
330
A
100
AcDbEntity
  8
0
  6
solid
 62
     0
100
AcDbLine
 10
0.8264250764952166
 20
0.6525522556497176
 30
0.0
 11
0.8227486059069812
 21
0.6543551402651023
 31
0.0
  0
LINE
  5
17C
330
A
100
AcDbEntity
  8
0
  6
solid
 62
     0
100
AcDbLine
 10
0.8227486059069812
 20
0.6543551402651023
 30
0.0
 11
0.8173564490442362
 21
0.6555570633420253
 31
0.0
  0
LINE
  5
17D
330
A
100
AcDbEntity
  8
0
  6
solid
 62
     0
100
AcDbLine
 10
0.8173564490442362
 20
0.6555570633420253
 30
0.0
 11
0.8068172333579617
 21
0.6555570633420253
 31
0.0
  0
LINE
  5
17E
330
A
100
AcDbEntity
  8
0
  6
solid
 62
     0
100
AcDbLine
 10
0.8068172333579617
 20
0.6555570633420253
 30
0.0
 11
0.8068172333579617
 21
0.5630089864189484
 31
0.0
  0
LINE
  5
17F
330
A
100
AcDbEntity
  8
0
  6
solid
 62
     0
100
AcDbLine
 10
0.8729937039461969
 20
0.5467830248804868
 30
0.0
 11
0.8729937039461969
 21
0.5630089864189484
 31
0.0
  0
LINE
  5
180
330
A
100
AcDbEntity
  8
0
  6
solid
 62
     0
100
AcDbLine
 10
0.8729937039461969
 20
0.5630089864189484
 30
0.0
 11
0.8864740961030596
 21
0.5630089864189484
 31
0.0
  0
LINE
  5
181
330
A
100
AcDbEntity
  8
0
  6
solid
 62
     0
100
AcDbLine
 10
0.8864740961030596
 20
0.5630089864189484
 30
0.0
 11
0.8864740961030596
 21
0.6555570633420253
 31
0.0
  0
LINE
  5
182
330
A
100
AcDbEntity
  8
0
  6
solid
 62
     0
100
AcDbLine
 10
0.8864740961030596
 20
0.6555570633420253
 30
0.0
 11
0.87225840982855
 21
0.6555570633420253
 31
0.0
  0
LINE
  5
183
330
A
100
AcDbEntity
  8
0
  6
solid
 62
     0
100
AcDbLine
 10
0.87225840982855
 20
0.6555570633420253
 30
0.0
 11
0.87225840982855
 21
0.6717830248804868
 31
0.0
  0
LINE
  5
184
330
A
100
AcDbEntity
  8
0
  6
solid
 62
     0
100
AcDbLine
 10
0.87225840982855
 20
0.6717830248804868
 30
0.0
 11
0.9041211549265891
 21
0.6717830248804868
 31
0.0
  0
LINE
  5
185
330
A
100
AcDbEntity
  8
0
  6
solid
 62
     0
100
AcDbLine
 10
0.9041211549265891
 20
0.6717830248804868
 30
0.0
 11
0.9041211549265891
 21
0.5630089864189484
 31
0.0
  0
LINE
  5
186
330
A
100
AcDbEntity
  8
0
  6
solid
 62
     0
100
AcDbLine
 10
0.9041211549265891
 20
0.5630089864189484
 30
0.0
 11
0.9190721353187461
 21
0.5630089864189484
 31
0.0
  0
LINE
  5
187
330
A
100
AcDbEntity
  8
0
  6
solid
 62
     0
100
AcDbLine
 10
0.9190721353187461
 20
0.5630089864189484
 30
0.0
 11
0.9190721353187461
 21
0.5467830248804868
 31
0.0
  0
LINE
  5
188
330
A
100
AcDbEntity
  8
0
  6
solid
 62
     0
100
AcDbLine
 10
0.9190721353187461
 20
0.5467830248804868
 30
0.0
 11
0.8729937039461969
 21
0.5467830248804868
 31
0.0
  0
LINE
  5
189
330
A
100
AcDbEntity
  8
0
  6
solid
 62
     0
100
AcDbLine
 10
0.9479937039461969
 20
0.5467830248804868
 30
0.0
 11
0.9479937039461969
 21
0.5630089864189484
 31
0.0
  0
LINE
  5
18A
330
A
100
AcDbEntity
  8
0
  6
solid
 62
     0
100
AcDbLine
 10
0.9479937039461969
 20
0.5630089864189484
 30
0.0
 11
0.9614740961030598
 21
0.5630089864189484
 31
0.0
  0
LINE
  5
18B
330
A
100
AcDbEntity
  8
0
  6
solid
 62
     0
100
AcDbLine
 10
0.9614740961030598
 20
0.5630089864189484
 30
0.0
 11
0.9614740961030598
 21
0.6555570633420253
 31
0.0
  0
LINE
  5
18C
330
A
100
AcDbEntity
  8
0
  6
solid
 62
     0
100
AcDbLine
 10
0.9614740961030598
 20
0.6555570633420253
 30
0.0
 11
0.9472584098285498
 21
0.6555570633420253
 31
0.0
  0
LINE
  5
18D
330
A
100
AcDbEntity
  8
0
  6
solid
 62
     0
100
AcDbLine
 10
0.9472584098285498
 20
0.6555570633420253
 30
0.0
 11
0.9472584098285498
 21
0.6717830248804868
 31
0.0
  0
LINE
  5
18E
330
A
100
AcDbEntity
  8
0
  6
solid
 62
     0
100
AcDbLine
 10
0.9472584098285498
 20
0.6717830248804868
 30
0.0
 11
0.9791211549265891
 21
0.6717830248804868
 31
0.0
  0
LINE
  5
18F
330
A
100
AcDbEntity
  8
0
  6
solid
 62
     0
100
AcDbLine
 10
0.9791211549265891
 20
0.6717830248804868
 30
0.0
 11
0.9791211549265891
 21
0.5630089864189484
 31
0.0
  0
LINE
  5
190
330
A
100
AcDbEntity
  8
0
  6
solid
 62
     0
100
AcDbLine
 10
0.9791211549265891
 20
0.5630089864189484
 30
0.0
 11
0.9940721353187459
 21
0.5630089864189484
 31
0.0
  0
LINE
  5
191
330
A
100
AcDbEntity
  8
0
  6
solid
 62
     0
100
AcDbLine
 10
0.9940721353187459
 20
0.5630089864189484
 30
0.0
 11
0.9940721353187459
 21
0.5467830248804868
 31
0.0
  0
LINE
  5
192
330
A
100
AcDbEntity
  8
0
  6
solid
 62
     0
100
AcDbLine
 10
0.9940721353187459
 20
0.5467830248804868
 30
0.0
 11
0.9479937039461969
 21
0.5467830248804868
 31
0.0
  0
LINE
  5
193
330
A
100
AcDbEntity
  8
0
  6
solid
 62
     0
100
AcDbLine
 10
1.014415272573647
 20
0.5816387941112561
 30
0.0
 11
1.016376056887373
 21
0.5732253325727945
 31
0.0
  0
LINE
  5
194
330
A
100
AcDbEntity
  8
0
  6
solid
 62
     0
100
AcDbLine
 10
1.016376056887373
 20
0.5732253325727945
 30
0.0
 11
1.019562331397177
 21
0.5660137941112561
 31
0.0
  0
LINE
  5
195
330
A
100
AcDbEntity
  8
0
  6
solid
 62
     0
100
AcDbLine
 10
1.019562331397177
 20
0.5660137941112561
 30
0.0
 11
1.023238801985412
 21
0.5600041787266407
 31
0.0
  0
LINE
  5
196
330
A
100
AcDbEntity
  8
0
  6
solid
 62
     0
100
AcDbLine
 10
1.023238801985412
 20
0.5600041787266407
 30
0.0
 11
1.027160370612863
 21
0.5545955248804868
 31
0.0
  0
LINE
  5
197
330
A
100
AcDbEntity
  8
0
  6
solid
 62
     0
100
AcDbLine
 10
1.027160370612863
 20
0.5545955248804868
 30
0.0
 11
1.032062331397177
 21
0.5509897556497175
 31
0.0
  0
LINE
  5
198
330
A
100
AcDbEntity
  8
0
  6
solid
 62
     0
100
AcDbLine
 10
1.032062331397177
 20
0.5509897556497175
 30
0.0
 11
1.037699586299138
 21
0.5485859094958715
 31
0.0
  0
LINE
  5
199
330
A
100
AcDbEntity
  8
0
  6
solid
 62
     0
100
AcDbLine
 10
1.037699586299138
 20
0.5485859094958715
 30
0.0
 11
1.044072135318746
 21
0.5467830248804868
 31
0.0
  0
LINE
  5
19A
330
A
100
AcDbEntity
  8
0
  6
solid
 62
     0
100
AcDbLine
 10
1.044072135318746
 20
0.5467830248804868
 30
0.0
 11
1.047993703946197
 21
0.5467830248804868
 31
0.0
  0
LINE
  5
19B
330
A
100
AcDbEntity
  8
0
  6
solid
 62
     0
100
AcDbLine
 10
1.047993703946197
 20
0.5467830248804868
 30
0.0
 11
1.056081939240314
 21
0.549186871034333
 31
0.0
  0
LINE
  5
19C
330
A
100
AcDbEntity
  8
0
  6
solid
 62
     0
100
AcDbLine
 10
1.056081939240314
 20
0.549186871034333
 30
0.0
 11
1.062454488259922
 21
0.5539945633420253
 31
0.0
  0
LINE
  5
19D
330
A
100
AcDbEntity
  8
0
  6
solid
 62
     0
100
AcDbLine
 10
1.062454488259922
 20
0.5539945633420253
 30
0.0
 11
1.067356449044236
 21
0.5594032171881791
 31
0.0
  0
LINE
  5
19E
330
A
100
AcDbEntity
  8
0
  6
solid
 62
     0
100
AcDbLine
 10
1.067356449044236
 20
0.5594032171881791
 30
0.0
 11
1.071768213750118
 21
0.5660137941112561
 31
0.0
  0
LINE
  5
19F
330
A
100
AcDbEntity
  8
0
  6
solid
 62
     0
100
AcDbLine
 10
1.071768213750118
 20
0.5660137941112561
 30
0.0
 11
1.074954488259922
 21
0.5750282171881791
 31
0.0
  0
LINE
  5
1A0
330
A
100
AcDbEntity
  8
0
  6
solid
 62
     0
100
AcDbLine
 10
1.074954488259922
 20
0.5750282171881791
 30
0.0
 11
1.076179978456
 21
0.5822397556497175
 31
0.0
  0
LINE
  5
1A1
330
A
100
AcDbEntity
  8
0
  6
solid
 62
     0
100
AcDbLine
 10
1.076179978456
 20
0.5822397556497175
 30
0.0
 11
1.076915272573647
 21
0.588249371034333
 31
0.0
  0
LINE
  5
1A2
330
A
100
AcDbEntity
  8
0
  6
solid
 62
     0
100
AcDbLine
 10
1.076915272573647
 20
0.588249371034333
 30
0.0
 11
1.076915272573647
 21
0.59485994795741
 31
0.0
  0
LINE
  5
1A3
330
A
100
AcDbEntity
  8
0
  6
solid
 62
     0
100
AcDbLine
 10
1.076915272573647
 20
0.59485994795741
 30
0.0
 11
1.075689782377569
 21
0.6050762941112561
 31
0.0
  0
LINE
  5
1A4
330
A
100
AcDbEntity
  8
0
  6
solid
 62
     0
100
AcDbLine
 10
1.075689782377569
 20
0.6050762941112561
 30
0.0
 11
1.072503507867765
 21
0.6140907171881791
 31
0.0
  0
LINE
  5
1A5
330
A
100
AcDbEntity
  8
0
  6
solid
 62
     0
100
AcDbLine
 10
1.072503507867765
 20
0.6140907171881791
 30
0.0
 11
1.070052527475608
 21
0.619499371034333
 31
0.0
  0
LINE
  5
1A6
330
A
100
AcDbEntity
  8
0
  6
solid
 62
     0
100
AcDbLine
 10
1.070052527475608
 20
0.619499371034333
 30
0.0
 11
1.066130958848157
 21
0.6249080248804868
 31
0.0
  0
LINE
  5
1A7
330
A
100
AcDbEntity
  8
0
  6
solid
 62
     0
100
AcDbLine
 10
1.066130958848157
 20
0.6249080248804868
 30
0.0
 11
1.061719194142275
 21
0.6291147556497175
 31
0.0
  0
LINE
  5
1A8
330
A
100
AcDbEntity
  8
0
  6
solid
 62
     0
100
AcDbLine
 10
1.061719194142275
 20
0.6291147556497175
 30
0.0
 11
1.057307429436393
 21
0.6327205248804868
 31
0.0
  0
LINE
  5
1A9
330
A
100
AcDbEntity
  8
0
  6
solid
 62
     0
100
AcDbLine
 10
1.057307429436393
 20
0.6327205248804868
 30
0.0
 11
1.05289566473051
 21
0.6345234094958715
 31
0.0
  0
LINE
  5
1AA
330
A
100
AcDbEntity
  8
0
  6
solid
 62
     0
100
AcDbLine
 10
1.05289566473051
 20
0.6345234094958715
 30
0.0
 11
1.046523115710902
 21
0.6357253325727945
 31
0.0
  0
LINE
  5
1AB
330
A
100
AcDbEntity
  8
0
  6
solid
 62
     0
100
AcDbLine
 10
1.046523115710902
 20
0.6357253325727945
 30
0.0
 11
1.042846645122667
 21
0.6357253325727945
 31
0.0
  0
LINE
  5
1AC
330
A
100
AcDbEntity
  8
0
  6
solid
 62
     0
100
AcDbLine
 10
1.042846645122667
 20
0.6357253325727945
 30
0.0
 11
1.037699586299138
 21
0.6345234094958715
 31
0.0
  0
LINE
  5
1AD
330
A
100
AcDbEntity
  8
0
  6
solid
 62
     0
100
AcDbLine
 10
1.037699586299138
 20
0.6345234094958715
 30
0.0
 11
1.033287821593255
 21
0.6327205248804868
 31
0.0
  0
LINE
  5
1AE
330
A
100
AcDbEntity
  8
0
  6
solid
 62
     0
100
AcDbLine
 10
1.033287821593255
 20
0.6327205248804868
 30
0.0
 11
1.030836841201098
 21
0.6309176402651023
 31
0.0
  0
LINE
  5
1AF
330
A
100
AcDbEntity
  8
0
  6
solid
 62
     0
100
AcDbLine
 10
1.030836841201098
 20
0.6309176402651023
 30
0.0
 11
1.035248605906981
 21
0.6567589864189484
 31
0.0
  0
LINE
  5
1B0
330
A
100
AcDbEntity
  8
0
  6
solid
 62
     0
100
AcDbLine
 10
1.035248605906981
 20
0.6567589864189484
 30
0.0
 11
1.066130958848157
 21
0.6567589864189484
 31
0.0
  0
LINE
  5
1B1
330
A
100
AcDbEntity
  8
0
  6
solid
 62
     0
100
AcDbLine
 10
1.066130958848157
 20
0.6567589864189484
 30
0.0
 11
1.066130958848157
 21
0.6717830248804868
 31
0.0
  0
LINE
  5
1B2
330
A
100
AcDbEntity
  8
0
  6
solid
 62
     0
100
AcDbLine
 10
1.066130958848157
 20
0.6717830248804868
 30
0.0
 11
1.027160370612863
 21
0.6717830248804868
 31
0.0
  0
LINE
  5
1B3
330
A
100
AcDbEntity
  8
0
  6
solid
 62
     0
100
AcDbLine
 10
1.027160370612863
 20
0.6717830248804868
 30
0.0
 11
1.014415272573647
 21
0.6014705248804868
 31
0.0
  0
LINE
  5
1B4
330
A
100
AcDbEntity
  8
0
  6
solid
 62
     0
100
AcDbLine
 10
1.014415272573647
 20
0.6014705248804868
 30
0.0
 11
1.025199586299138
 21
0.5984657171881791
 31
0.0
  0
LINE
  5
1B5
330
A
100
AcDbEntity
  8
0
  6
solid
 62
     0
100
AcDbLine
 10
1.025199586299138
 20
0.5984657171881791
 30
0.0
 11
1.026425076495216
 21
0.6032734094958715
 31
0.0
  0
LINE
  5
1B6
330
A
100
AcDbEntity
  8
0
  6
solid
 62
     0
100
AcDbLine
 10
1.026425076495216
 20
0.6032734094958715
 30
0.0
 11
1.028385860808942
 21
0.6080811018035637
 31
0.0
  0
LINE
  5
1B7
330
A
100
AcDbEntity
  8
0
  6
solid
 62
     0
100
AcDbLine
 10
1.028385860808942
 20
0.6080811018035637
 30
0.0
 11
1.030836841201098
 21
0.6122878325727945
 31
0.0
  0
LINE
  5
1B8
330
A
100
AcDbEntity
  8
0
  6
solid
 62
     0
100
AcDbLine
 10
1.030836841201098
 20
0.6122878325727945
 30
0.0
 11
1.034023115710902
 21
0.6158936018035637
 31
0.0
  0
LINE
  5
1B9
330
A
100
AcDbEntity
  8
0
  6
solid
 62
     0
100
AcDbLine
 10
1.034023115710902
 20
0.6158936018035637
 30
0.0
 11
1.037699586299138
 21
0.61829744795741
 31
0.0
  0
LINE
  5
1BA
330
A
100
AcDbEntity
  8
0
  6
solid
 62
     0
100
AcDbLine
 10
1.037699586299138
 20
0.61829744795741
 30
0.0
 11
1.04211135100502
 21
0.6201003325727945
 31
0.0
  0
LINE
  5
1BB
330
A
100
AcDbEntity
  8
0
  6
solid
 62
     0
100
AcDbLine
 10
1.04211135100502
 20
0.6201003325727945
 30
0.0
 11
1.046523115710902
 21
0.6201003325727945
 31
0.0
  0
LINE
  5
1BC
330
A
100
AcDbEntity
  8
0
  6
solid
 62
     0
100
AcDbLine
 10
1.046523115710902
 20
0.6201003325727945
 30
0.0
 11
1.051670174534432
 21
0.619499371034333
 31
0.0
  0
LINE
  5
1BD
330
A
100
AcDbEntity
  8
0
  6
solid
 62
     0
100
AcDbLine
 10
1.051670174534432
 20
0.619499371034333
 30
0.0
 11
1.055346645122667
 21
0.6170955248804868
 31
0.0
  0
LINE
  5
1BE
330
A
100
AcDbEntity
  8
0
  6
solid
 62
     0
100
AcDbLine
 10
1.055346645122667
 20
0.6170955248804868
 30
0.0
 11
1.058532919632471
 21
0.6140907171881791
 31
0.0
  0
LINE
  5
1BF
330
A
100
AcDbEntity
  8
0
  6
solid
 62
     0
100
AcDbLine
 10
1.058532919632471
 20
0.6140907171881791
 30
0.0
 11
1.061719194142275
 21
0.6098839864189484
 31
0.0
  0
LINE
  5
1C0
330
A
100
AcDbEntity
  8
0
  6
solid
 62
     0
100
AcDbLine
 10
1.061719194142275
 20
0.6098839864189484
 30
0.0
 11
1.064170174534432
 21
0.6044753325727945
 31
0.0
  0
LINE
  5
1C1
330
A
100
AcDbEntity
  8
0
  6
solid
 62
     0
100
AcDbLine
 10
1.064170174534432
 20
0.6044753325727945
 30
0.0
 11
1.065640762769726
 21
0.5990666787266407
 31
0.0
  0
LINE
  5
1C2
330
A
100
AcDbEntity
  8
0
  6
solid
 62
     0
100
AcDbLine
 10
1.065640762769726
 20
0.5990666787266407
 30
0.0
 11
1.066130958848157
 21
0.5936580248804868
 31
0.0
  0
LINE
  5
1C3
330
A
100
AcDbEntity
  8
0
  6
solid
 62
     0
100
AcDbLine
 10
1.066130958848157
 20
0.5936580248804868
 30
0.0
 11
1.066130958848157
 21
0.5894512941112561
 31
0.0
  0
LINE
  5
1C4
330
A
100
AcDbEntity
  8
0
  6
solid
 62
     0
100
AcDbLine
 10
1.066130958848157
 20
0.5894512941112561
 30
0.0
 11
1.064905468652079
 21
0.5822397556497175
 31
0.0
  0
LINE
  5
1C5
330
A
100
AcDbEntity
  8
0
  6
solid
 62
     0
100
AcDbLine
 10
1.064905468652079
 20
0.5822397556497175
 30
0.0
 11
1.062944684338353
 21
0.5762301402651023
 31
0.0
  0
LINE
  5
1C6
330
A
100
AcDbEntity
  8
0
  6
solid
 62
     0
100
AcDbLine
 10
1.062944684338353
 20
0.5762301402651023
 30
0.0
 11
1.059758409828549
 21
0.5708214864189484
 31
0.0
  0
LINE
  5
1C7
330
A
100
AcDbEntity
  8
0
  6
solid
 62
     0
100
AcDbLine
 10
1.059758409828549
 20
0.5708214864189484
 30
0.0
 11
1.056817233357961
 21
0.5672157171881791
 31
0.0
  0
LINE
  5
1C8
330
A
100
AcDbEntity
  8
0
  6
solid
 62
     0
100
AcDbLine
 10
1.056817233357961
 20
0.5672157171881791
 30
0.0
 11
1.05289566473051
 21
0.564811871034333
 31
0.0
  0
LINE
  5
1C9
330
A
100
AcDbEntity
  8
0
  6
solid
 62
     0
100
AcDbLine
 10
1.05289566473051
 20
0.564811871034333
 30
0.0
 11
1.048483900024628
 21
0.5630089864189484
 31
0.0
  0
LINE
  5
1CA
330
A
100
AcDbEntity
  8
0
  6
solid
 62
     0
100
AcDbLine
 10
1.048483900024628
 20
0.5630089864189484
 30
0.0
 11
1.044072135318746
 21
0.5630089864189484
 31
0.0
  0
LINE
  5
1CB
330
A
100
AcDbEntity
  8
0
  6
solid
 62
     0
100
AcDbLine
 10
1.044072135318746
 20
0.5630089864189484
 30
0.0
 11
1.038925076495216
 21
0.56360994795741
 31
0.0
  0
LINE
  5
1CC
330
A
100
AcDbEntity
  8
0
  6
solid
 62
     0
100
AcDbLine
 10
1.038925076495216
 20
0.56360994795741
 30
0.0
 11
1.034023115710902
 21
0.5672157171881791
 31
0.0
  0
LINE
  5
1CD
330
A
100
AcDbEntity
  8
0
  6
solid
 62
     0
100
AcDbLine
 10
1.034023115710902
 20
0.5672157171881791
 30
0.0
 11
1.030836841201098
 21
0.5708214864189484
 31
0.0
  0
LINE
  5
1CE
330
A
100
AcDbEntity
  8
0
  6
solid
 62
     0
100
AcDbLine
 10
1.030836841201098
 20
0.5708214864189484
 30
0.0
 11
1.027650566691295
 21
0.5762301402651023
 31
0.0
  0
LINE
  5
1CF
330
A
100
AcDbEntity
  8
0
  6
solid
 62
     0
100
AcDbLine
 10
1.027650566691295
 20
0.5762301402651023
 30
0.0
 11
1.025689782377569
 21
0.5816387941112561
 31
0.0
  0
LINE
  5
1D0
330
A
100
AcDbEntity
  8
0
  6
solid
 62
     0
100
AcDbLine
 10
1.025689782377569
 20
0.5816387941112561
 30
0.0
 11
1.014415272573647
 21
0.5816387941112561
 31
0.0
  0
VIEWPORT
  5
1DB
330
B
100
AcDbEntity
 67
     1
  8
0
  6
Continuous
370
     0
100
AcDbViewport
 10
5.194610262016164
 20
3.949417019026194
 30
0.0
 40
14.73697834857856
 41
7.797424095037927
 68
     1
 69
     1
 12
5.194610262016164
 22
3.949417019026194
 13
0.0
 23
0.0
 14
0.5
 24
0.5
 15
0.5
 25
0.5
 16
0.0
 26
0.0
 36
1.0
 17
0.0
 27
0.0
 37
0.0
 42
50.0
 43
0.0
 44
0.0
 45
7.797424095037927
 50
0.0
 51
0.0
 72
   100
 90
    32800
  1

281
     0
 71
     1
 74
     0
110
0.0
120
0.0
130
0.0
111
1.0
121
0.0
131
0.0
112
0.0
122
1.0
132
0.0
 79
     0
146
0.0
170
     0
 61
     5
348
209
292
     1
282
     1
141
0.0
142
0.0
 63
   250
421
  3355443
  0
VIEWPORT
  5
1DE
330
B
100
AcDbEntity
 67
     1
  8
0
  6
Continuous
370
     0
100
AcDbViewport
 10
5.194658686810502
 20
3.949373634105072
 30
0.0
 40
10.23574607510638
 41
7.705585159462131
 68
     2
 69
     2
 12
-0.0371995411654501
 22
0.5587840787956076
 13
0.0
 23
0.0
 14
1.0
 24
1.0
 15
0.0
 25
0.0
 16
0.0
 26
0.0
 36
1.0
 17
0.0
 27
0.0
 37
0.0
 42
50.0
 43
0.0
 44
0.0
 45
5.42695227867355
 50
0.0
 51
0.0
 72
   100
 90
    32800
  1

281
     0
 71
     1
 74
     0
110
0.0
120
0.0
130
0.0
111
1.0
121
0.0
131
0.0
112
0.0
122
1.0
132
0.0
 79
     0
146
0.0
170
     0
 61
     5
348
209
292
     1
282
     1
141
0.0
142
0.0
 63
   250
421
  3355443
  0
ENDSEC
  0
SECTION
  2
OBJECTS
  0
DICTIONARY
  5
19
330
0
100
AcDbDictionary
281
     1
  3
ACAD_COLOR
350
1D3
  3
ACAD_GROUP
350
1A
  3
ACAD_LAYOUT
350
1E
  3
ACAD_MATERIAL
350
1D2
  3
ACAD_MLEADERSTYLE
350
236
  3
ACAD_MLINESTYLE
350
1B
  3
ACAD_PLOTSETTINGS
350
22
  3
ACAD_PLOTSTYLENAME
350
1F
  3
ACAD_SCALELIST
350
214
  3
ACAD_TABLESTYLE
350
1D4
  3
ACAD_VISUALSTYLE
350
203
  3
ACAD_WIPEOUT_VARS
350
23
  3
ACDB_RECOMPOSE_DATA
350
25A
  3
AcDbVariableDictionary
350
1E8
  0
DICTIONARY
  5
1E2
330
2
100
AcDbDictionary
280
     1
281
     1
  3
ACAD_LAYERSTATES
360
1E3
  0
DICTIONARY
  5
23F
330
14
100
AcDbDictionary
280
     1
281
     1
  3
ADSK_XREC_LAYER_RECONCILED
360
240
  0
DICTIONARY
  5
241
330
27
100
AcDbDictionary
280
     1
281
     1
  3
ADSK_XREC_LAYER_RECONCILED
360
242
  0
DICTIONARY
  5
1D3
102
{ACAD_REACTORS
330
19
102
}
330
19
100
AcDbDictionary
281
     1
  0
DICTIONARY
  5
1A
102
{ACAD_REACTORS
330
19
102
}
330
19
100
AcDbDictionary
281
     1
  0
DICTIONARY
  5
1E
102
{ACAD_REACTORS
330
19
102
}
330
19
100
AcDbDictionary
281
     1
  3
Layout1
350
21
  3
Model
350
20
  0
DICTIONARY
  5
1D2
102
{ACAD_REACTORS
330
19
102
}
330
19
100
AcDbDictionary
281
     1
  3
ByBlock
350
1F3
  3
ByLayer
350
1EB
  3
Global
350
1FB
  0
DICTIONARY
  5
236
102
{ACAD_REACTORS
330
19
102
}
330
19
100
AcDbDictionary
281
     1
  3
Standard
350
237
  0
DICTIONARY
  5
1B
102
{ACAD_REACTORS
330
19
102
}
330
19
100
AcDbDictionary
281
     1
  3
Standard
350
1C
  0
DICTIONARY
  5
22
102
{ACAD_REACTORS
330
19
102
}
330
19
100
AcDbDictionary
281
     1
  0
ACDBDICTIONARYWDFLT
  5
1F
102
{ACAD_REACTORS
330
19
102
}
330
19
100
AcDbDictionary
281
     1
  3
Normal
350
1D
100
AcDbDictionaryWithDefault
340
1D
  0
DICTIONARY
  5
214
102
{ACAD_REACTORS
330
19
102
}
330
19
100
AcDbDictionary
281
     1
  3
A0
350
215
  3
A1
350
216
  3
A2
350
217
  3
A3
350
218
  3
A4
350
219
  3
A5
350
21A
  3
A6
350
21B
  3
A7
350
21C
  3
A8
350
21D
  3
A9
350
21E
  3
B0
350
21F
  3
B1
350
220
  3
B2
350
221
  3
B3
350
222
  3
B4
350
223
  3
B5
350
224
  3
B6
350
225
  3
B7
350
226
  3
B8
350
227
  3
B9
350
228
  3
C0
350
229
  3
C1
350
22A
  3
C2
350
22B
  3
C3
350
22C
  3
C4
350
22D
  3
C5
350
22E
  3
C6
350
22F
  3
C7
350
230
  3
C8
350
231
  3
C9
350
232
  3
D0
350
233
  3
D1
350
234
  3
D2
350
235
  0
DICTIONARY
  5
1D4
102
{ACAD_REACTORS
330
19
102
}
330
19
100
AcDbDictionary
281
     1
  3
Standard
350
1D5
  0
DICTIONARY
  5
203
102
{ACAD_REACTORS
330
19
102
}
330
19
100
AcDbDictionary
281
     1
  3
2dWireframe
350
209
  3
3D Hidden
350
20B
  3
3dWireframe
350
20A
  3
Basic
350
208
  3
Brighten
350
20F
  3
ColorChange
350
213
  3
Conceptual
350
20C
  3
Dim
350
20E
  3
Facepattern
350
212
  3
Flat
350
204
  3
FlatWithEdges
350
205
  3
Gouraud
350
206
  3
GouraudWithEdges
350
207
  3
Linepattern
350
211
  3
Realistic
350
20D
  3
Thicken
350
210
  0
WIPEOUTVARIABLES
  5
23
330
19
100
AcDbWipeoutVariables
 70
     1
  0
XRECORD
  5
25A
102
{ACAD_REACTORS
330
19
102
}
330
19
100
AcDbXrecord
280
     1
 90
        1
330
1D5
  0
DICTIONARY
  5
1E8
102
{ACAD_REACTORS
330
19
102
}
330
19
100
AcDbDictionary
281
     1
  3
CANNOSCALE
350
254
  3
CMLEADERSTYLE
350
252
  3
CTABLESTYLE
350
1E9
  3
LAYEREVAL
350
256
  3
LAYERNOTIFY
350
257
  3
LIGHTINGUNITS
350
255
  3
MSLTSCALE
350
253
  0
DICTIONARY
  5
1E3
102
{ACAD_REACTORS
330
1E2
102
}
330
1E2
100
AcDbDictionary
281
     1
  0
XRECORD
  5
240
102
{ACAD_REACTORS
330
23F
102
}
330
23F
100
AcDbXrecord
280
     1
290
     1
  0
XRECORD
  5
242
102
{ACAD_REACTORS
330
241
102
}
330
241
100
AcDbXrecord
280
     1
290
     1
  0
LAYOUT
  5
21
102
{ACAD_XDICTIONARY
360
1E5
102
}
102
{ACAD_REACTORS
330
1E
102
}
330
1E
100
AcDbPlotSettings
  1

  2
none_device
  4
Letter_(8.50_x_11.00_Inches)
  6

 40
6.349999904632568
 41
6.349999904632568
 42
6.350006103515625
 43
6.350006103515625
 44
215.8999938964844
 45
279.3999938964844
 46
0.0
 47
0.0
 48
0.0
 49
0.0
140
0.0
141
0.0
142
1.0
143
1.0
 70
     0
 72
     0
 73
     1
 74
     0
  7

 75
     0
147
1.0
 76
     0
 77
     2
 78
   300
148
0.0
149
0.0
100
AcDbLayout
  1
Layout1
 70
     0
 71
     1
 10
-0.2500002402958907
 20
-0.2499999962453767
 11
10.74999951940821
 21
8.249999763458731
 12
0.0
 22
0.0
 32
0.0
 14
0.0761258772037046
 24
0.0960388325248936
 34
-0.0015258207003583
 15
10.31309464682862
 25
7.802795205527495
 35
0.0000000349246037
146
0.0
 13
0.0
 23
0.0
 33
0.0
 16
1.0
 26
0.0
 36
0.0
 17
0.0
 27
1.0
 37
0.0
 76
     0
330
B
331
1DB
1001
ACAD_PSEXT
1000
None
1000
None
1000
Not applicable
1000
The layout will not be plotted unless a new plotter configuration name is selected.
1070
     0
  0
LAYOUT
  5
20
102
{ACAD_REACTORS
330
1E
102
}
330
1E
100
AcDbPlotSettings
  1

  2

  4

  6

 40
0.0
 41
0.0
 42
0.0
 43
0.0
 44
0.0
 45
0.0
 46
0.0
 47
0.0
 48
0.0
 49
0.0
140
0.0
141
0.0
142
1.0
143
1.0
 70
  1024
 72
     0
 73
     0
 74
     0
  7

 75
     0
147
1.0
 76
     0
 77
     2
 78
   300
148
0.0
149
0.0
100
AcDbLayout
  1
Model
 70
     0
 71
     0
 10
0.0
 20
0.0
 11
0.0
 21
0.0
 12
0.0
 22
0.0
 32
0.0
 14
0.0
 24
0.0
 34
0.0
 15
0.0
 25
0.0
 35
0.0
146
0.0
 13
0.0
 23
0.0
 33
0.0
 16
0.0
 26
0.0
 36
0.0
 17
0.0
 27
0.0
 37
0.0
 76
     0
330
A
  0
MATERIAL
  5
1F3
102
{ACAD_XDICTIONARY
360
1F4
102
}
102
{ACAD_REACTORS
330
1D2
102
}
330
1D2
100
AcDbMaterial
  1
ByBlock
 72
     0
 43
0.0208333333333333
 43
0.0
 43
0.0
 43
0.0
 43
0.0
 43
0.0208333333333333
 43
0.0
 43
0.0
 43
0.0
 43
0.0
 43
1.0
 43
0.0
 43
0.0
 43
0.0
 43
0.0
 43
1.0
 77
     0
 47
0.0208333333333333
 47
0.0
 47
0.0
 47
0.0
 47
0.0
 47
0.0208333333333333
 47
0.0
 47
0.0
 47
0.0
 47
0.0
 47
1.0
 47
0.0
 47
0.0
 47
0.0
 47
0.0
 47
1.0
171
     0
 49
0.0208333333333333
 49
0.0
 49
0.0
 49
0.0
 49
0.0
 49
0.0208333333333333
 49
0.0
 49
0.0
 49
0.0
 49
0.0
 49
1.0
 49
0.0
 49
0.0
 49
0.0
 49
0.0
 49
1.0
175
     0
142
0.0208333333333333
142
0.0
142
0.0
142
0.0
142
0.0
142
0.0208333333333333
142
0.0
142
0.0
142
0.0
142
0.0
142
1.0
142
0.0
142
0.0
142
0.0
142
0.0
142
1.0
179
     0
144
0.0208333333333333
144
0.0
144
0.0
144
0.0
144
0.0
144
0.0208333333333333
144
0.0
144
0.0
144
0.0
144
0.0
144
1.0
144
0.0
144
0.0
144
0.0
144
0.0
144
1.0
147
0.0208333333333333
147
0.0
147
0.0
147
0.0
147
0.0
147
0.0208333333333333
147
0.0
147
0.0
147
0.0
147
0.0
147
1.0
147
0.0
147
0.0
147
0.0
147
0.0
147
1.0
  0
MATERIAL
  5
1EB
102
{ACAD_XDICTIONARY
360
1EC
102
}
102
{ACAD_REACTORS
330
1D2
102
}
330
1D2
100
AcDbMaterial
  1
ByLayer
 72
     0
 43
0.0208333333333333
 43
0.0
 43
0.0
 43
0.0
 43
0.0
 43
0.0208333333333333
 43
0.0
 43
0.0
 43
0.0
 43
0.0
 43
1.0
 43
0.0
 43
0.0
 43
0.0
 43
0.0
 43
1.0
 77
     0
 47
0.0208333333333333
 47
0.0
 47
0.0
 47
0.0
 47
0.0
 47
0.0208333333333333
 47
0.0
 47
0.0
 47
0.0
 47
0.0
 47
1.0
 47
0.0
 47
0.0
 47
0.0
 47
0.0
 47
1.0
171
     0
 49
0.0208333333333333
 49
0.0
 49
0.0
 49
0.0
 49
0.0
 49
0.0208333333333333
 49
0.0
 49
0.0
 49
0.0
 49
0.0
 49
1.0
 49
0.0
 49
0.0
 49
0.0
 49
0.0
 49
1.0
175
     0
142
0.0208333333333333
142
0.0
142
0.0
142
0.0
142
0.0
142
0.0208333333333333
142
0.0
142
0.0
142
0.0
142
0.0
142
1.0
142
0.0
142
0.0
142
0.0
142
0.0
142
1.0
179
     0
144
0.0208333333333333
144
0.0
144
0.0
144
0.0
144
0.0
144
0.0208333333333333
144
0.0
144
0.0
144
0.0
144
0.0
144
1.0
144
0.0
144
0.0
144
0.0
144
0.0
144
1.0
147
0.0208333333333333
147
0.0
147
0.0
147
0.0
147
0.0
147
0.0208333333333333
147
0.0
147
0.0
147
0.0
147
0.0
147
1.0
147
0.0
147
0.0
147
0.0
147
0.0
147
1.0
  0
MATERIAL
  5
1FB
102
{ACAD_XDICTIONARY
360
1FC
102
}
102
{ACAD_REACTORS
330
1D2
102
}
330
1D2
100
AcDbMaterial
  1
Global
 72
     0
 43
0.0208333333333333
 43
0.0
 43
0.0
 43
0.0
 43
0.0
 43
0.0208333333333333
 43
0.0
 43
0.0
 43
0.0
 43
0.0
 43
1.0
 43
0.0
 43
0.0
 43
0.0
 43
0.0
 43
1.0
 77
     0
 47
0.0208333333333333
 47
0.0
 47
0.0
 47
0.0
 47
0.0
 47
0.0208333333333333
 47
0.0
 47
0.0
 47
0.0
 47
0.0
 47
1.0
 47
0.0
 47
0.0
 47
0.0
 47
0.0
 47
1.0
171
     0
 49
0.0208333333333333
 49
0.0
 49
0.0
 49
0.0
 49
0.0
 49
0.0208333333333333
 49
0.0
 49
0.0
 49
0.0
 49
0.0
 49
1.0
 49
0.0
 49
0.0
 49
0.0
 49
0.0
 49
1.0
175
     0
142
0.0208333333333333
142
0.0
142
0.0
142
0.0
142
0.0
142
0.0208333333333333
142
0.0
142
0.0
142
0.0
142
0.0
142
1.0
142
0.0
142
0.0
142
0.0
142
0.0
142
1.0
179
     0
144
0.0208333333333333
144
0.0
144
0.0
144
0.0
144
0.0
144
0.0208333333333333
144
0.0
144
0.0
144
0.0
144
0.0
144
1.0
144
0.0
144
0.0
144
0.0
144
0.0
144
1.0
147
0.0208333333333333
147
0.0
147
0.0
147
0.0
147
0.0
147
0.0208333333333333
147
0.0
147
0.0
147
0.0
147
0.0
147
1.0
147
0.0
147
0.0
147
0.0
147
0.0
147
1.0
  0
MLEADERSTYLE
  5
237
102
{ACAD_REACTORS
330
236
102
}
330
236
100
AcDbMLeaderStyle
170
     2
171
     1
172
     0
 90
        2
 40
0.0
 41
0.0
173
     1
 91
-1056964608
340
11
 92
       -2
290
     1
 42
0.09
291
     1
 43
0.36
  3
Standard
 44
0.18
300

342
17
174
     1
178
     6
175
     1
176
     0
 93
-1056964608
 45
0.18
292
     0
297
     0
 46
0.18
 94
-1056964608
 47
1.0
 49
1.0
140
1.0
293
     1
141
0.0
294
     1
177
     0
142
1.0
295
     0
296
     0
143
0.125
1001
ACAD_MLEADERVER
1070
     2
  0
MLINESTYLE
  5
1C
102
{ACAD_REACTORS
330
1B
102
}
330
1B
100
AcDbMlineStyle
  2
STANDARD
 70
     0
  3

 62
     0
 51
90.0
 52
90.0
 71
     2
 49
0.5
 62
   256
  6
BYLAYER
 49
-0.5
 62
   256
  6
BYLAYER
  0
ACDBPLACEHOLDER
  5
1D
102
{ACAD_REACTORS
330
1F
102
}
330
1F
  0
SCALE
  5
215
102
{ACAD_REACTORS
330
214
102
}
330
214
100
AcDbScale
 70
     0
300
1:1
140
1.0
141
1.0
290
     1
  0
SCALE
  5
216
102
{ACAD_REACTORS
330
214
102
}
330
214
100
AcDbScale
 70
     0
300
1:2
140
1.0
141
2.0
290
     0
  0
SCALE
  5
217
102
{ACAD_REACTORS
330
214
102
}
330
214
100
AcDbScale
 70
     0
300
1:4
140
1.0
141
4.0
290
     0
  0
SCALE
  5
218
102
{ACAD_REACTORS
330
214
102
}
330
214
100
AcDbScale
 70
     0
300
1:5
140
1.0
141
5.0
290
     0
  0
SCALE
  5
219
102
{ACAD_REACTORS
330
214
102
}
330
214
100
AcDbScale
 70
     0
300
1:8
140
1.0
141
8.0
290
     0
  0
SCALE
  5
21A
102
{ACAD_REACTORS
330
214
102
}
330
214
100
AcDbScale
 70
     0
300
1:10
140
1.0
141
10.0
290
     0
  0
SCALE
  5
21B
102
{ACAD_REACTORS
330
214
102
}
330
214
100
AcDbScale
 70
     0
300
1:16
140
1.0
141
16.0
290
     0
  0
SCALE
  5
21C
102
{ACAD_REACTORS
330
214
102
}
330
214
100
AcDbScale
 70
     0
300
1:20
140
1.0
141
20.0
290
     0
  0
SCALE
  5
21D
102
{ACAD_REACTORS
330
214
102
}
330
214
100
AcDbScale
 70
     0
300
1:30
140
1.0
141
30.0
290
     0
  0
SCALE
  5
21E
102
{ACAD_REACTORS
330
214
102
}
330
214
100
AcDbScale
 70
     0
300
1:40
140
1.0
141
40.0
290
     0
  0
SCALE
  5
21F
102
{ACAD_REACTORS
330
214
102
}
330
214
100
AcDbScale
 70
     0
300
1:50
140
1.0
141
50.0
290
     0
  0
SCALE
  5
220
102
{ACAD_REACTORS
330
214
102
}
330
214
100
AcDbScale
 70
     0
300
1:100
140
1.0
141
100.0
290
     0
  0
SCALE
  5
221
102
{ACAD_REACTORS
330
214
102
}
330
214
100
AcDbScale
 70
     0
300
2:1
140
2.0
141
1.0
290
     0
  0
SCALE
  5
222
102
{ACAD_REACTORS
330
214
102
}
330
214
100
AcDbScale
 70
     0
300
4:1
140
4.0
141
1.0
290
     0
  0
SCALE
  5
223
102
{ACAD_REACTORS
330
214
102
}
330
214
100
AcDbScale
 70
     0
300
8:1
140
8.0
141
1.0
290
     0
  0
SCALE
  5
224
102
{ACAD_REACTORS
330
214
102
}
330
214
100
AcDbScale
 70
     0
300
10:1
140
10.0
141
1.0
290
     0
  0
SCALE
  5
225
102
{ACAD_REACTORS
330
214
102
}
330
214
100
AcDbScale
 70
     0
300
100:1
140
100.0
141
1.0
290
     0
  0
SCALE
  5
226
102
{ACAD_REACTORS
330
214
102
}
330
214
100
AcDbScale
 70
     0
300
1/128" = 1'-0"
140
0.0078125
141
12.0
290
     0
  0
SCALE
  5
227
102
{ACAD_REACTORS
330
214
102
}
330
214
100
AcDbScale
 70
     0
300
1/64" = 1'-0"
140
0.015625
141
12.0
290
     0
  0
SCALE
  5
228
102
{ACAD_REACTORS
330
214
102
}
330
214
100
AcDbScale
 70
     0
300
1/32" = 1'-0"
140
0.03125
141
12.0
290
     0
  0
SCALE
  5
229
102
{ACAD_REACTORS
330
214
102
}
330
214
100
AcDbScale
 70
     0
300
1/16" = 1'-0"
140
0.0625
141
12.0
290
     0
  0
SCALE
  5
22A
102
{ACAD_REACTORS
330
214
102
}
330
214
100
AcDbScale
 70
     0
300
3/32" = 1'-0"
140
0.09375
141
12.0
290
     0
  0
SCALE
  5
22B
102
{ACAD_REACTORS
330
214
102
}
330
214
100
AcDbScale
 70
     0
300
1/8" = 1'-0"
140
0.125
141
12.0
290
     0
  0
SCALE
  5
22C
102
{ACAD_REACTORS
330
214
102
}
330
214
100
AcDbScale
 70
     0
300
3/16" = 1'-0"
140
0.1875
141
12.0
290
     0
  0
SCALE
  5
22D
102
{ACAD_REACTORS
330
214
102
}
330
214
100
AcDbScale
 70
     0
300
1/4" = 1'-0"
140
0.25
141
12.0
290
     0
  0
SCALE
  5
22E
102
{ACAD_REACTORS
330
214
102
}
330
214
100
AcDbScale
 70
     0
300
3/8" = 1'-0"
140
0.375
141
12.0
290
     0
  0
SCALE
  5
22F
102
{ACAD_REACTORS
330
214
102
}
330
214
100
AcDbScale
 70
     0
300
1/2" = 1'-0"
140
0.5
141
12.0
290
     0
  0
SCALE
  5
230
102
{ACAD_REACTORS
330
214
102
}
330
214
100
AcDbScale
 70
     0
300
3/4" = 1'-0"
140
0.75
141
12.0
290
     0
  0
SCALE
  5
231
102
{ACAD_REACTORS
330
214
102
}
330
214
100
AcDbScale
 70
     0
300
1" = 1'-0"
140
1.0
141
12.0
290
     0
  0
SCALE
  5
232
102
{ACAD_REACTORS
330
214
102
}
330
214
100
AcDbScale
 70
     0
300
1-1/2" = 1'-0"
140
1.5
141
12.0
290
     0
  0
SCALE
  5
233
102
{ACAD_REACTORS
330
214
102
}
330
214
100
AcDbScale
 70
     0
300
3" = 1'-0"
140
3.0
141
12.0
290
     0
  0
SCALE
  5
234
102
{ACAD_REACTORS
330
214
102
}
330
214
100
AcDbScale
 70
     0
300
6" = 1'-0"
140
6.0
141
12.0
290
     0
  0
SCALE
  5
235
102
{ACAD_REACTORS
330
214
102
}
330
214
100
AcDbScale
 70
     0
300
1'-0" = 1'-0"
140
12.0
141
12.0
290
     0
  0
TABLESTYLE
  5
1D5
102
{ACAD_XDICTIONARY
360
258
102
}
102
{ACAD_REACTORS
330
1D4
102
}
330
1D4
100
AcDbTableStyle
  3
Standard
 70
     0
 71
     0
 40
0.06
 41
0.06
280
     0
281
     0
  7
Standard
140
0.18
170
     2
 62
     0
 63
     7
283
     0
 90
        4
 91
        0
  1

274
    -2
284
     1
 64
     0
275
    -2
285
     1
 65
     0
276
    -2
286
     1
 66
     0
277
    -2
287
     1
 67
     0
278
    -2
288
     1
 68
     0
279
    -2
289
     1
 69
     0
  7
Standard
140
0.25
170
     5
 62
     0
 63
     7
283
     0
 90
        4
 91
        0
  1

274
    -2
284
     1
 64
     0
275
    -2
285
     1
 65
     0
276
    -2
286
     1
 66
     0
277
    -2
287
     1
 67
     0
278
    -2
288
     1
 68
     0
279
    -2
289
     1
 69
     0
  7
Standard
140
0.18
170
     5
 62
     0
 63
     7
283
     0
 90
        4
 91
        0
  1

274
    -2
284
     1
 64
     0
275
    -2
285
     1
 65
     0
276
    -2
286
     1
 66
     0
277
    -2
287
     1
 67
     0
278
    -2
288
     1
 68
     0
279
    -2
289
     1
 69
     0
  0
VISUALSTYLE
  5
209
102
{ACAD_REACTORS
330
203
102
}
330
203
100
AcDbVisualStyle
  2
2dWireframe
 70
     4
 71
     0
 72
     2
 73
     0
 90
        0
 40
-0.6
 41
-30.0
 62
     5
 63
     7
421
 16777215
 74
     1
 91
        4
 64
     7
 65
   257
 75
     1
175
     1
 42
1.0
 92
        0
 66
   257
 43
1.0
 76
     1
 77
     6
 78
     2
 67
     7
 79
     5
170
     0
171
     0
290
     0
174
     0
 93
        1
 44
0.0
173
     0
291
     0
 45
0.0
  0
VISUALSTYLE
  5
20B
102
{ACAD_REACTORS
330
203
102
}
330
203
100
AcDbVisualStyle
  2
3D Hidden
 70
     6
 71
     1
 72
     2
 73
     2
 90
        0
 40
-0.6
 41
-30.0
 62
     5
 63
     7
421
 16777215
 74
     2
 91
        2
 64
     7
 65
   257
 75
     2
175
     1
 42
40.0
 92
        0
 66
   257
 43
1.0
 76
     1
 77
     6
 78
     2
 67
     7
 79
     3
170
     0
171
     0
290
     0
174
     0
 93
        1
 44
0.0
173
     0
291
     0
 45
0.0
  0
VISUALSTYLE
  5
20A
102
{ACAD_REACTORS
330
203
102
}
330
203
100
AcDbVisualStyle
  2
3dWireframe
 70
     5
 71
     0
 72
     2
 73
     0
 90
        0
 40
-0.6
 41
-30.0
 62
     5
 63
     7
421
 16777215
 74
     1
 91
        4
 64
     7
 65
   257
 75
     1
175
     1
 42
1.0
 92
        0
 66
   257
 43
1.0
 76
     1
 77
     6
 78
     2
 67
     7
 79
     5
170
     0
171
     0
290
     0
174
     0
 93
        1
 44
0.0
173
     0
291
     0
 45
0.0
  0
VISUALSTYLE
  5
208
102
{ACAD_REACTORS
330
203
102
}
330
203
100
AcDbVisualStyle
  2
Basic
 70
     7
 71
     1
 72
     0
 73
     1
 90
        0
 40
-0.6
 41
-30.0
 62
     5
 63
     7
421
 16777215
 74
     0
 91
        4
 64
     7
 65
   257
 75
     1
175
     1
 42
1.0
 92
        8
 66
     7
 43
1.0
 76
     1
 77
     6
 78
     2
 67
     7
 79
     5
170
     0
171
     0
290
     0
174
     0
 93
        1
 44
0.0
173
     0
291
     1
 45
0.0
  0
VISUALSTYLE
  5
20F
102
{ACAD_REACTORS
330
203
102
}
330
203
100
AcDbVisualStyle
  2
Brighten
 70
    12
 71
     2
 72
     2
 73
     0
 90
        0
 40
-0.6
 41
-30.0
 62
     5
 63
     7
421
 16777215
 74
     1
 91
        4
 64
     7
 65
   257
 75
     1
175
     1
 42
1.0
 92
        8
 66
     7
 43
1.0
 76
     1
 77
     6
 78
     2
 67
     7
 79
     5
170
     0
171
     0
290
     0
174
     0
 93
        1
 44
50.0
173
     0
291
     1
 45
0.0
  0
VISUALSTYLE
  5
213
102
{ACAD_REACTORS
330
203
102
}
330
203
100
AcDbVisualStyle
  2
ColorChange
 70
    16
 71
     2
 72
     2
 73
     3
 90
        0
 40
-0.6
 41
-30.0
 62
     5
 63
     8
421
  8421504
 74
     1
 91
        4
 64
     7
 65
   257
 75
     1
175
     1
 42
1.0
 92
        8
 66
     8
424
  8421504
 43
1.0
 76
     1
 77
     6
 78
     2
 67
     7
 79
     5
170
     0
171
     0
290
     0
174
     0
 93
        1
 44
0.0
173
     0
291
     1
 45
0.0
  0
VISUALSTYLE
  5
20C
102
{ACAD_REACTORS
330
203
102
}
330
203
100
AcDbVisualStyle
  2
Conceptual
 70
     9
 71
     3
 72
     2
 73
     0
 90
        0
 40
-0.6
 41
-30.0
 62
     5
 63
     7
421
 16777215
 74
     2
 91
        2
 64
     7
 65
   257
 75
     1
175
     1
 42
40.0
 92
        8
 66
     7
 43
1.0
 76
     1
 77
     6
 78
     2
 67
     7
 79
     3
170
     0
171
     0
290
     0
174
     0
 93
        1
 44
0.0
173
     0
291
     0
 45
0.0
  0
VISUALSTYLE
  5
20E
102
{ACAD_REACTORS
330
203
102
}
330
203
100
AcDbVisualStyle
  2
Dim
 70
    11
 71
     2
 72
     2
 73
     0
 90
        0
 40
-0.6
 41
-30.0
 62
     5
 63
     7
421
 16777215
 74
     1
 91
        4
 64
     7
 65
   257
 75
     1
175
     1
 42
1.0
 92
        8
 66
     7
 43
1.0
 76
     1
 77
     6
 78
     2
 67
     7
 79
     5
170
     0
171
     0
290
     0
174
     0
 93
        1
 44
-50.0
173
     0
291
     1
 45
0.0
  0
VISUALSTYLE
  5
212
102
{ACAD_REACTORS
330
203
102
}
330
203
100
AcDbVisualStyle
  2
Facepattern
 70
    15
 71
     2
 72
     2
 73
     0
 90
        0
 40
-0.6
 41
-30.0
 62
     5
 63
     7
421
 16777215
 74
     1
 91
        4
 64
     7
 65
   257
 75
     1
175
     1
 42
1.0
 92
        8
 66
     7
 43
1.0
 76
     1
 77
     6
 78
     2
 67
     7
 79
     5
170
     0
171
     0
290
     0
174
     0
 93
        1
 44
0.0
173
     0
291
     1
 45
0.0
  0
VISUALSTYLE
  5
204
102
{ACAD_REACTORS
330
203
102
}
330
203
100
AcDbVisualStyle
  2
Flat
 70
     0
 71
     2
 72
     1
 73
     1
 90
        2
 40
-0.6
 41
30.0
 62
     5
 63
     7
421
 16777215
 74
     0
 91
        4
 64
     7
 65
   257
 75
     1
175
     1
 42
1.0
 92
        8
 66
     7
 43
1.0
 76
     1
 77
     6
 78
     2
 67
     7
 79
     5
170
     0
171
     0
290
     0
174
     0
 93
       13
 44
0.0
173
     0
291
     1
 45
0.0
  0
VISUALSTYLE
  5
205
102
{ACAD_REACTORS
330
203
102
}
330
203
100
AcDbVisualStyle
  2
FlatWithEdges
 70
     1
 71
     2
 72
     1
 73
     1
 90
        2
 40
-0.6
 41
30.0
 62
     5
 63
     7
421
 16777215
 74
     1
 91
        4
 64
     7
 65
   257
 75
     1
175
     1
 42
1.0
 92
        0
 66
   257
 43
1.0
 76
     1
 77
     6
 78
     2
 67
     7
 79
     5
170
     0
171
     0
290
     0
174
     0
 93
       13
 44
0.0
173
     0
291
     1
 45
0.0
  0
VISUALSTYLE
  5
206
102
{ACAD_REACTORS
330
203
102
}
330
203
100
AcDbVisualStyle
  2
Gouraud
 70
     2
 71
     2
 72
     2
 73
     1
 90
        2
 40
-0.6
 41
30.0
 62
     5
 63
     7
421
 16777215
 74
     0
 91
        4
 64
     7
 65
   257
 75
     1
175
     1
 42
1.0
 92
        0
 66
     7
 43
1.0
 76
     1
 77
     6
 78
     2
 67
     7
 79
     5
170
     0
171
     0
290
     0
174
     0
 93
       13
 44
0.0
173
     0
291
     1
 45
0.0
  0
VISUALSTYLE
  5
207
102
{ACAD_REACTORS
330
203
102
}
330
203
100
AcDbVisualStyle
  2
GouraudWithEdges
 70
     3
 71
     2
 72
     2
 73
     1
 90
        2
 40
-0.6
 41
30.0
 62
     5
 63
     7
421
 16777215
 74
     1
 91
        4
 64
     7
 65
   257
 75
     1
175
     1
 42
1.0
 92
        0
 66
   257
 43
1.0
 76
     1
 77
     6
 78
     2
 67
     7
 79
     5
170
     0
171
     0
290
     0
174
     0
 93
       13
 44
0.0
173
     0
291
     1
 45
0.0
  0
VISUALSTYLE
  5
211
102
{ACAD_REACTORS
330
203
102
}
330
203
100
AcDbVisualStyle
  2
Linepattern
 70
    14
 71
     2
 72
     2
 73
     0
 90
        0
 40
-0.6
 41
-30.0
 62
     5
 63
     7
421
 16777215
 74
     1
 91
        4
 64
     7
 65
   257
 75
     7
175
     7
 42
1.0
 92
        8
 66
     7
 43
1.0
 76
     1
 77
     6
 78
     2
 67
     7
 79
     5
170
     0
171
     0
290
     0
174
     0
 93
        1
 44
0.0
173
     0
291
     1
 45
0.0
  0
VISUALSTYLE
  5
20D
102
{ACAD_REACTORS
330
203
102
}
330
203
100
AcDbVisualStyle
  2
Realistic
 70
     8
 71
     2
 72
     2
 73
     0
 90
        0
 40
-0.6
 41
-30.0
 62
     5
 63
     7
421
 16777215
 74
     1
 91
        0
 64
     7
 65
   257
 75
     1
175
     1
 42
1.0
 92
        8
 66
     8
424
  7895160
 43
1.0
 76
     1
 77
     6
 78
     2
 67
     7
 79
     5
170
     0
171
     0
290
     0
174
     0
 93
       13
 44
0.0
173
     0
291
     0
 45
0.0
  0
VISUALSTYLE
  5
210
102
{ACAD_REACTORS
330
203
102
}
330
203
100
AcDbVisualStyle
  2
Thicken
 70
    13
 71
     2
 72
     2
 73
     0
 90
        0
 40
-0.6
 41
-30.0
 62
     5
 63
     7
421
 16777215
 74
     1
 91
        4
 64
     7
 65
   257
 75
     1
175
     1
 42
1.0
 92
       12
 66
     7
 43
1.0
 76
     1
 77
     6
 78
     2
 67
     7
 79
     5
170
     0
171
     0
290
     0
174
     0
 93
        1
 44
0.0
173
     0
291
     1
 45
0.0
  0
DICTIONARYVAR
  5
254
102
{ACAD_REACTORS
330
1E8
102
}
330
1E8
100
DictionaryVariables
280
     0
  1
1:1
  0
DICTIONARYVAR
  5
252
102
{ACAD_REACTORS
330
1E8
102
}
330
1E8
100
DictionaryVariables
280
     0
  1
STANDARD
  0
DICTIONARYVAR
  5
1E9
102
{ACAD_REACTORS
330
1E8
102
}
330
1E8
100
DictionaryVariables
280
     0
  1
STANDARD
  0
DICTIONARYVAR
  5
256
102
{ACAD_REACTORS
330
1E8
102
}
330
1E8
100
DictionaryVariables
280
     0
  1
1
  0
DICTIONARYVAR
  5
257
102
{ACAD_REACTORS
330
1E8
102
}
330
1E8
100
DictionaryVariables
280
     0
  1
15
  0
DICTIONARYVAR
  5
255
102
{ACAD_REACTORS
330
1E8
102
}
330
1E8
100
DictionaryVariables
280
     0
  1
0
  0
DICTIONARYVAR
  5
253
102
{ACAD_REACTORS
330
1E8
102
}
330
1E8
100
DictionaryVariables
280
     0
  1
0
  0
DICTIONARY
  5
1E5
330
21
100
AcDbDictionary
280
     1
281
     1
  3
ADSK_XREC_LAYOUTTHUMBNAIL
360
1E6
  0
DICTIONARY
  5
1F4
330
1F3
100
AcDbDictionary
280
     1
281
     1
  3
BUMPTILE
360
1F6
  3
DIFFUSETILE
360
1F5
  3
OPACITYTILE
360
1F9
  3
REFLECTIONTILE
360
1F8
  3
REFRACTIONTILE
360
1FA
  3
SPECULARTILE
360
1F7
  0
DICTIONARY
  5
1EC
330
1EB
100
AcDbDictionary
280
     1
281
     1
  3
BUMPTILE
360
1EE
  3
DIFFUSETILE
360
1ED
  3
OPACITYTILE
360
1F1
  3
REFLECTIONTILE
360
1F0
  3
REFRACTIONTILE
360
1F2
  3
SPECULARTILE
360
1EF
  0
DICTIONARY
  5
1FC
330
1FB
100
AcDbDictionary
280
     1
281
     1
  3
BUMPTILE
360
1FE
  3
DIFFUSETILE
360
1FD
  3
OPACITYTILE
360
201
  3
REFLECTIONTILE
360
200
  3
REFRACTIONTILE
360
202
  3
SPECULARTILE
360
1FF
  0
DICTIONARY
  5
258
330
1D5
100
AcDbDictionary
280
     1
281
     1
  3
ACAD_ROUNDTRIP_2008_TABLESTYLE_CELLSTYLEMAP
360
259
  0
XRECORD
  5
1E6
102
{ACAD_REACTORS
330
1E5
102
}
330
1E5
100
AcDbXrecord
280
     1
310
28000000B40000008B0000000100080000000000BC61000000000000000000000001000000000000FFFFFF0000000000FFFFFF000000000000000000000000000000000000000000000000000000000000000000330000006600000099000000CC000000FF00000000330000333300006633000099330000CC330000FF3300
310
0000660000336600006666000099660000CC660000FF66000000990000339900006699000099990000CC990000FF99000000CC000033CC000066CC000099CC0000CCCC0000FFCC000000FF000033FF000066FF000099FF0000CCFF0000FFFF000000003300330033006600330099003300CC003300FF003300003333003333
310
33006633330099333300CC333300FF33330000663300336633006666330099663300CC663300FF66330000993300339933006699330099993300CC993300FF99330000CC330033CC330066CC330099CC3300CCCC3300FFCC330000FF330033FF330066FF330099FF3300CCFF3300FFFF330000006600330066006600660099
310
006600CC006600FF00660000336600333366006633660099336600CC336600FF33660000666600336666006666660099666600CC666600FF66660000996600339966006699660099996600CC996600FF99660000CC660033CC660066CC660099CC6600CCCC6600FFCC660000FF660033FF660066FF660099FF6600CCFF6600
310
FFFF660000009900330099006600990099009900CC009900FF00990000339900333399006633990099339900CC339900FF33990000669900336699006666990099669900CC669900FF66990000999900339999006699990099999900CC999900FF99990000CC990033CC990066CC990099CC9900CCCC9900FFCC990000FF99
310
0033FF990066FF990099FF9900CCFF9900FFFF99000000CC003300CC006600CC009900CC00CC00CC00FF00CC000033CC003333CC006633CC009933CC00CC33CC00FF33CC000066CC003366CC006666CC009966CC00CC66CC00FF66CC000099CC003399CC006699CC009999CC00CC99CC00FF99CC0000CCCC0033CCCC0066CC
310
CC0099CCCC00CCCCCC00FFCCCC0000FFCC0033FFCC0066FFCC0099FFCC00CCFFCC00FFFFCC000000FF003300FF006600FF009900FF00CC00FF00FF00FF000033FF003333FF006633FF009933FF00CC33FF00FF33FF000066FF003366FF006666FF009966FF00CC66FF00FF66FF000099FF003399FF006699FF009999FF00CC
310
99FF00FF99FF0000CCFF0033CCFF0066CCFF0099CCFF00CCCCFF00FFCCFF0000FFFF0033FFFF0066FFFF0099FFFF00CCFFFF00FFFFFF00000000000D0D0D001A1A1A00282828003535350043434300505050005D5D5D006B6B6B00787878008686860093939300A1A1A100AEAEAE00BBBBBB00C9C9C900D6D6D600E4E4E400
310
F1F1F100FFFFFF0000000000000000000000000000000000000000000000000000000000000000000000000000000000E2E2E2E2E2E2E2E2E2E2E2E2E2E2E2E2E2E2E2E2E2E2E2E2E2E2E2E2E2E2E2E2E2E2E2E2E2E2E2E2E2E2E2E2E2E2E2E2E2E2E2E2E2E2E2E2E2E2E2E2E2E2E2E2E2E2E2E2E2E2E2E2E2E2E2E2E2E2E2
310
E2E2E2E2E2E2E2E2E2E2E2E2E2E2E2E2E2E2E2E2E2E2E2E2E2E2E2E2E2E2E2E2E2E2E2E2E2E2E2E2E2E2E2E2E2E2E2E2E2E2E2E2E2E2E2E2E2E2E2E2E2E2E2E2E2E2E2E2E2E2E2E2E2E2E2E2E2E2E2E2E2E2E2E2E2E2E2E2E2E2E2E2E2E2E2E2E2E2E2EFEFF5F5F5F5F5F5F5F5F5F5F5F5F5F5F5F5F5F5F5F5F5F5F5F5F5F5
310
F5F5F5F5F5F5F5F5F5F5F5F5F5F5F5F5F5F5F5F5F5F5F5F5F5F5F5F5F5F5F5F5F5F5F5F5F5F5F5F5F5F5F5F5F5F5F5F5F5F5F5F5F5F5F5F5F5F5F5F5F5F5F5F5F5F5F5F5F5F5F5F5F5F5F5F5F5F5F5F5F5F5F5F5F5F5F5F5F5F5F5F5F5F5F5F5F5F5F5F5F5F5F5F5F5F5F5F5F5F5F5F5F5F5F5F5F5F5F5F5F5F5F5F5F5F5F5
310
F5F5F5F5F5F5F5F5F5F5F5F5F5F5F5F5F5F5F5F5F5F5F5E2E2EFEFF5F5F5F5F5F5F5F5F5F5F5F5F5F5F5F5F5F5F5F5F5F5F5F5F5F5F5F5F5F5F5F5F5F5F5F5F5F5F5F5F5F5F5F5F5F5F5F5F5F5F5F5F5F5F5F5F5F5F5F5F5F5F5F5F5F5F5F5F5F5F5F5F5F5F5F5F5F5F5F5F5F5F5F5F5F5F5F5F5F5F5F5F5F5F5F5F5F5F5F5
310
F5F5F5F5F5F5F5F5F5F5F5F5F5F5F5F5F5F5F5F5F5F5F5F5F5F5F5F5F5F5F5F5F5F5F5F5F5F5F5F5F5F5F5F5F5F5F5F5F5F5F5F5F5F5F5F5F5F5F5F5F5F5F5F5F5F5F5F5F5F5F5F5F5F5F5F5E2E2EFEFF5F5F5F5F5F5F5F5F5F5F5F5F5F5F5F5F5F5F5F5F5F5F5F5F5F5F5F5F5F5F5F5F5F5F5F5F5F5F5F5F5F5F5F5F5F5F5
310
F5F5F5F5F5F5F5F5F5F5F5F5F5F5F5F5F5F5F5F5F5F5F5F5F5F5F5F5F5F5F5F5F5F5F5F5F5F5F5F5F5F5F5F5F5F5F5F5F5F5F5F5F5F5F5F5F5F5F5F5F5F5F5F5F5F5F5F5F5F5F5F5F5F5F5F5F5F5F5F5F5F5F5F5F5F5F5F5F5F5F5F5F5F5F5F5F5F5F5F5F5F5F5F5F5F5F5F5F5F5F5F5F5F5F5F5F5F5F5F5F5F5F5F5F5F5F5
310
F5F5E2E2EFEFF5F5F5E2E2E2E2E2E2E2E2F5F5F5F5F5F5F5F5F5E2E2E2E2E2E2E2E2E2E2E2E2E2E2E2F5F5F5F5F5F5F5F5F5E2E2E2E2E2E2E2E2E2E2E2E2E2E2E2E2F5F5F5F5F5F5F5F5E2E2E2E2E2E2E2E2E2E2E2E2E2E2E2E2F5F5F5F5F5F5F5F5E2E2E2E2E2E2E2E2E2E2E2E2E2E2E2E2F5F5F5F5F5F5F5F5E2E2E2E2E2
310
E2E2E2E2E2E2E2E2E2E2E2F5F5F5F5F5F5F5F5F5E2E2E2E2E2E2E2E2E2E2E2E2E2E2E2F5F5F5F5F5F5F5F5F5E2E2E2E2E2E2E2E2F5F5F5E2E2EFEFF5F5F5E2F5F5F5F5F5F5F5F5F5F5F5F5F5F5F5F5F5F5F5F5F5F5F5F5F5F5F5F5F5F5F5F5F5F5F5F5F5F5F5F5F5F5F5F5F5F5F5F5F5F5F5F5F5F5F5F5F5F5F5F5F5F5F5F5
310
F5F5F5F5F5F5F5F5F5F5F5F5F5F5F5F5F5F5F5F5F5F5F5F5F5F5F5F5F5F5F5F5F5F5F5F5F5F5F5F5F5F5F5F5F5F5F5F5F5F5F5F5F5F5F5F5F5F5F5F5F5F5F5F5F5F5F5F5F5F5F5F5F5F5F5F5F5F5F5F5F5F5F5F5F5F5F5F5F5F5F5F5F5F5F5F5F5F5F5F5F5F5F5F5E2F5F5F5E2E2EFEFF5F5F5E2F5F5F5F5F5F5F5F5F5F5F5
310
F5F5F5F5F5F5F5F5F5F5F5F5F5F5F5F5F5F5F5F5F5F5F5F5F5F5F5F5F5F5F5F5F5F5F5F5F5F5F5F5F5F5F5F5F5F5F5F5F5F5F5F5F5F5F5F5F5F5F5F5F5F5F5F5F5F5F5F5F5F5F5F5F5F5F5F5F5F5F5F5F5F5F5F5F5F5F5F5F5F5F5F5F5F5F5F5F5F5F5F5F5F5F5F5F5F5F5F5F5F5F5F5F5F5F5F5F5F5F5F5F5F5F5F5F5F5F5
310
F5F5F5F5F5F5F5F5F5F5F5F5F5F5F5F5F5F5F5F5F5F5F5F5F5F5F5F5F5F5E2F5F5F5E2E2EFEFF5F5F5E2F5F5F5F5F5F5F5F5F5F5F5F5F5F5F5F5F5F5F5F5F5F5F5F5F5F5F5F5F5F5F5F5F5F5F5F5F5F5F5F5F5F5F5F5F5F5F5F5F5F5F5F5F5F5F5F5F5F5F5F5F5F5F5F5F5F5F5F5F5F5F5F5F5F5F5F5F5F5F5F5F5F5F5F5F5
310
F5F5F5F5F5F5F5F5F5F5F5F5F5F5F5F5F5F5F5F5F5F5F5F5F5F5F5F5F5F5F5F5F5F5F5F5F5F5F5F5F5F5F5F5F5F5F5F5F5F5F5F5F5F5F5F5F5F5F5F5F5F5F5F5F5F5F5F5F5F5F5F5F5F5F5F5F5F5F5F5F5F5F5E2F5F5F5E2E2EFEFF5F5F5E2F5F5F5F5F5F5F5F5F5F5F5F5F5F5F5F5F5F5F5F5F5F5F5F5F5F5F5F5F5F5F5F5
310
F5F5F5F5F5F5F5F5F5F5F5F5F5F5F5F5F5F5F5F5F5F5F5F5F5F5F5F5F5F5F5F5F5F5F5F5F5F5F5F5F5F5F5F5F5F5F5F5F5F5F5F5F5F5F5F5F5F5F5F5F5F5F5F5F5F5F5F5F5F5F5F5F5F5F5F5F5F5F5F5F5F5F5F5F5F5F5F5F5F5F5F5F5F5F5F5F5F5F5F5F5F5F5F5F5F5F5F5F5F5F5F5F5F5F5F5F5F5F5F5F5F5F5F5F5F5F5
310
F5F5F5F5F5F5F5F5F5E2F5F5F5E2E2EFEFF5F5F5E2F5F5F5F5F5F5F5F5F5F5F5F5F5F5F5F5F5F5F5F5F5F5F5F5F5F5F5F5F5F5F5F5F5F5F5F5F5F5F5F5F5F5F5F5F5F5F5F5F5F5F5F5F5F5F5F5F5F5F5F5F5F5F5F5F5F5F5F5F5F5F5F5F5F5F5F5F5F5F5F5F5F5F5F5F5F5F5F5F5F5F5F5F5F5F5F5F5F5F5F5F5F5F5F5F5F5
310
F5F5F5F5F5F5F5F5F5F5F5F5F5F5F5F5F5F5F5F5F5F5F5F5F5F5F5F5F5F5F5F5F5F5F5F5F5F5F5F5F5F5F5F5F5F5F5F5F5F5F5F5F5F5F5F5F5F5F5F5F5F5E2F5F5F5E2E2EFEFF5F5F5E2F5F5F5F5F5F5F5F5F5F5F5F5F5F5F5F5F5F5F5F5F5F5F5F5F5F5F5F5F5F5F5F5F5F5F5F5F5F5F5F5F5F5F5F5F5F5F5F5F5F5F5F5F5
310
F5F5F5F5F5F5F5F5F5F5F5F5F5F5F5F5F5F5F5F5F5F5F5F5F5F5F5F5F5F5F5F5F5F5F5F5F5F5F5F5F5F5F5F5F5F5F5F5F5F5F5F5F5F5F5F5F5F5F5F5F5F5F5F5F5F5F5F5F5F5F5F5F5F5F5F5F5F5F5F5F5F5F5F5F5F5F5F5F5F5F5F5F5F5F5F5F5F5F5F5F5F5F5F5F5F5F5F5F5F5F5F5F5F5F5E2F5F5F5E2E2EFEFF5F5F5E2
310
F5F5F5F5F5F5F5F5F5F5F5F5F5F5F5F5F5F5F5F5F5F5F5F5F5F5F5F5F5F5F5F5F5F5F5F5F5F5F5F5F5F5F5F5F5F5F5F5F5F5F5F5F5F5F5F5F5F5F5F5F5F5F5F5F5F5F5F5F5F5F5F5F5F5F5F5F5F5F5F5F5F5F5F5F5F5F5F5F5F5F5F5F5F5F5F5F5F5F5F5F5F5F5F5F5F5F5F5F5F5F5F5F5F5F5F5F5F5F5F5F5F5F5F5F5F5F5
310
F5F5F5F5F5F5F5F5F5F5F5F5F5F5F5F5F5F5F5F5F5F5F5F5F5F5F5F5F5F5F5F5F5F5F5F5F5F5F5F5F5E2F5F5F5E2E2EFEFF5F5F5E2F5F5F5F5F5F5F5F5F5F5F5F5F5F5F5F5F5F5F5F5F5F5F5F5F5F5F5F5F5F5F5F5F5F5F5F5F5F5F5F5F5F5F5F5F5F5F5F5F5F5F5F5F5F5F5F5F5F5F5F5F5F5F5F5F5F5F5F5F5F5F5F5F5F5
310
F5F5F5F5F5F5F5F5F5F5F5F5F5F5F5F5F5F5F5F5F5F5F5F5F5F5F5F5F5F5F5F5F5F5F5F5F5F5F5F5F5F5F5F5F5F5F5F5F5F5F5F5F5F5F5F5F5F5F5F5F5F5F5F5F5F5F5F5F5F5F5F5F5F5F5F5F5F5F5F5F5F5F5F5F5F5F5F5F5F5F5F5F5F5E2F5F5F5E2E2EFEFF5F5F5F5F5F5F5F5F5F5F5F5F5F5F5F5F5F5F5F5F5F5F5F5F5
310
F5F5F5F5F5F5F5F5F5F5F5F5F5F5F5F5F5F5F5F5F5F5F5F5F5F5F5F5F5F5F5F5F5F5F5F5F5F5F5F5F5F5F5F5F5F5F5F5F5F5F5F5F5F5F5F5F5F5F5F5F5F5F5F5F5F5F5F5F5F5F5F5F5F5F5F5F5F5F5F5F5F5F5F5F5F5F5F5F5F5F5F5F5F5F5F5F5F5F5F5F5F5F5F5F5F5F5F5F5F5F5F5F5F5F5F5F5F5F5F5F5F5F5F5F5F5F5
310
F5F5F5F5F5F5F5F5F5F5F5F5F5F5F5F5F5F5F5F5F5F5F5F5E2E2EFEFF5F5F5F5F5F5F5F5F5F5F5F5F5F5F5F5F5F5F5F5F5F5F5F5F5F5F5F5F5F5F5F5F5F5F5F5F5F5F5F5F5F5F5F5F5F5F5F5F5F5F5F5F5F5F5F5F5F5F5F5F5F5F5F5F5F5F5F5F5F5F5F5F5F5F5F5F5F5F5F5F5F5F5F5F5F5F5F5F5F5F5F5F5F5F5F5F5F5F5
310
F5F5F5F5F5F5F5F5F5F5F5F5F5F5F5F5F5F5F5F5F5F5F5F5F5F5F5F5F5F5F5F5F5F5F5F5F5F5F5F5F5F5F5F5F5F5F5F5F5F5F5F5F5F5F5F5F5F5F5F5F5F5F5F5F5F5F5F5F5F5F5F5F5F5F5F5F5E2E2EFEFF5F5F5F5F5F5F5F5F5F5F5F5F5F5F5F5F5F5F5F5F5F5F5F5F5F5F5F5F5F5F5F5F5F5F5F5F5F5F5F5F5F5F5F5F5F5
310
F5F5F5F5F5F5F5F5F5F5F5F5F5F5F5F5F5F5F5F5F5F5F5F5F5F5F5F5F5F5F5F5F5F5F5F5F5F5F5F5F5F5F5F5F5F5F5F5F5F5F5F5F5F5F5F5F5F5F5F5F5F5F5F5F5F5F5F5F5F5F5F5F5F5F5F5F5F5F5F5F5F5F5F5F5F5F5F5F5F5F5F5F5F5F5F5F5F5F5F5F5F5F5F5F5F5F5F5F5F5F5F5F5F5F5F5F5F5F5F5F5F5F5F5F5F5F5
310
F5F5F5E2E2EFEFF5F5F5F5F5F5F5F5F5F5F5F5F5F5F5F5F5F5F5F5F5F5F5F5F5F5F5F5F5F5F5F5F5F5F5F5F5F5F5F5F5F5F5F5F5F5F5F5F5F5F5F5F5F5F5F5F5F5F5F5F5F5F5F5F5F5F5F5F5F5F5F5F5F5F5F5F5F5F5F5F5F5F5F5F5F5F5F5F5F5F5F5F5F5F5F5F5F5F5F5F5F5F5F5F5F5F5F5F5F5F5F5F5F5F5F5F5F5F5F5
310
F5F5F5F5F5F5F5F5F5F5F5F5F5F5F5F5F5F5F5F5F5F5F5F5F5F5F5F5F5F5F5F5F5F5F5F5F5F5F5F5F5F5F5F5F5F5F5F5F5F5F5F5F5F5F5F5E2E2EFEFF5F5F5F5F5F5F5F5F5F5F5F5F5F5F5F5F5F5F5F5E2E2E2E2E2E2E2E2E2E2E2E2E2E2E2E2E2E2E2E2E2E2E2E2E2E2E2E2E2E2E2E2E2E2E2E2E2E2E2E2E2E2E2E2E2E2E2
310
E2E2E2E2E2E2E2E2E2E2E2E2E2E2E2E2E2E2E2E2E2E2E2E2E2E2E2E2E2E2E2E2E2E2E2E2E2E2E2E2E2E2E2E2E2E2E2E2E2E2E2E2E2E2E2E2E2E2E2E2E2E2E2E2E2E2E2E2E2E2E2E2E2E2E2E2E2E2E2E2E2E2E2E2E2E2E2E2E2F5F5F5F5F5F5F5F5F5F5F5F5F5F5F5F5F5F5F5F5E2E2EFEFF5F5F5F5F5F5F5F5F5F5F5F5F5F5
310
F5F5F5F5F5F5E2F5F5F5F5F5F5F5F5F5F5F5F5F5F5F5F5F5F5F5F5F5F5F5F5F5F5F5F5F5F5F5F5F5F5F5F5F5F5F5F5F5F5F5F5F5F5F5F5F5F5F5F5F5F5F5F5F5F5F5F5F5F5F5F5F5F5F5F5F5F5F5F5F5F5F5F5F5F5F5F5F5F5F5F5F5F5F5F5F5F5F5F5F5F5F5F5F5F5F5F5F5F5F5F5F5F5F5F5F5F5F5F5F5F5F5F5F5F5F5F5
310
F5F5F5F5F5F5F5F5F5F5F5F5F5F5E2F5F5F5F5F5F5F5F5F5F5F5F5F5F5F5F5F5F5F5F5E2E2EFEFF5F5F5F5F5F5F5F5F5F5F5F5F5F5F5F5F5F5F5F5E2F5F5F5F5F5F5E2F5F5F5F5F5F5F5F5F5F5F5F5F5F5F5F5F5F5F5F5F5F5F5F5F5F5F5F5F5F5F5F5F5F5F5F5F5F5F5F5F5F5F5F5F5E2F5F5F5F5F5F5F5F5F5F5F5F5F5F5
310
F5F5F5F5F5F5F5F5F5F5F5F5F5F5F5F5F5F5F5F5F5F5F5F5F5F5F5F5F5F5F5F5F5F5F5F5F5F5F5F5F5F5F5F5F5F5F5F5F5F5F5F5F5F5F5F5F5F5F5F5F5F5F5F5F5F5F5E2F5F5F5F5F5F5F5F5F5F5F5F5F5F5F5F5F5F5F5F5E2E2EFEFF5F5F5F5F5F5F5F5F5F5F5F5F5F5F5F5F5F5F5F5E2F5F5F5F5F5F5F5F5F5F5F5F5F5F5
310
F5F5F5F5F5F5F5F5F5F5F5F5F5F5F5F5F5F5F5F5F5F5F5F5F5F5F5F5F5F5F5F5F5F5F5F5F5F5F5F5F5F5F5F5F5F5F5F5F5F5F5F5F5F5F5F5F5F5F5F5F5F5F5F5F5F5F5F5F5F5F5F5F5F5F5F5F5F5F5F5F5F5F5F5F5F5F5F5F5F5F5F5F5F5F5F5F5F5F5F5F5F5F5F5F5F5F5F5F5F5F5F5F5F5F5F5F5F5F5F5E2F5F5F5F5F5F5
310
F5F5F5F5F5F5F5F5F5F5F5F5F5F5E2E2EFEFF5F5F5F5F5F5F5F5F5F5F5F5F5F5F5F5F5F5F5F5E2F5F5F5F5F5F5F5F5F5F5F5F5F5F5F5F5F5F5F5F5F5F5F5F5F5F5F5F5F5F5F5F5F5F5F5F5F5F5F5F5F5F5F5F5F5F5F5F5F5F5F5F5F5F5F5F5F5F5F5F5F5F5F5F5F5F5F5F5F5F5F5F5F5F5F5F5F5F5F5F5F5F5F5F5F5F5F5F5
310
F5F5F5F5F5F5F5F5F5F5F5F5F5F5F5F5F5F5F5F5F5F5F5F5F5F5F5F5F5F5F5F5F5F5F5F5F5F5F5F5F5F5F5F5F5F5E2F5F5F5F5F5F5F5F5F5F5F5F5F5F5F5F5F5F5F5F5E2E2EFEFF5F5F5E2F5F5F5F5F5F5F5F5F5F5F5F5F5F5F5F5E2F5F5F5F5F5F5F5F5F5F5F5F5F5F5F5F5F5F5F5F5F5F5F5F5F5F5F5F5F5F5F5F5F5F5F5
310
F5F5F5F5F5F5F5F5F5F5F5F5F5F5F5F5F5F5F5F5F5F5F5F5F5F5F5F5F5F5F5F5F5F5F5F5F5F5F5F5F5F5F5F5F5F5F5F5F5F5F5F5F5F5F5F5F5F5F5F5F5F5F5F5F5F5F5F5F5F5F5F5F5F5F5F5F5F5F5F5F5F5F5F5F5F5F5F5F5F5F5F5F5F5F5F5F5F5F5E2F5F5F5F5F5F5F5F5F5F5F5F5F5F5F5F5E2F5F5F5E2E2EFEFF5F5F5
310
E2F5F5F5F5F5F5F5F5F5F5F5F5F5F5F5F5E2F5F5F5F5F5F5F5F5F5F5F5F5F5F5F5F5F5F5F5F5F5F5F5F5F5F5F5F5F5F5F5F5F5F5F5F5F5F5F5F5F5F5F5F5F5F5F5F5F5F5F5F5F5F5F5F5F5F5F5F5F5F5F5F5F5F5F5F5F5F5F5F5F5F5F5F5F5F5F5F5F5F5F5F5F5F5F5F5F5F5F5F5F5F5F5F5F5F5F5F5F5F5F5F5F5F5F5F5F5
310
F5F5F5F5F5F5F5F5F5F5F5F5F5F5F5F5F5F5F5F5F5F5F5F5F5E2F5F5F5F5F5F5F5F5F5F5F5F5F5F5F5F5E2F5F5F5E2E2EFEFF5F5F5E2F5F5F5F5F5F5F5F5F5F5F5F5F5F5F5F5E2F5F5F5F5F5F5F5F5F5F5F5F5F5F5F5F5F5F5F5F5F5F5F5F5F5F5F5F5F5F5F5F5F5F5F5F5F5F5F5F5F5F5F5F5F5F5F5F5F5F5F5F5F5F5F5F5
310
F5F5F5F5F5F5F5F5F5F5F5F5F5F5F5F5F5F5F5F5F5F5F5F5F5F5F5F5F5F5F5F5F5F5F5F5F5F5F5F5F5F5F5F5F5F5F5F5F5F5F5F5F5F5F5F5F5F5F5F5F5F5F5F5F5F5F5F5F5F5F5F5F5F5F5F5F5F5E2F5F5F5F5F5F5F5F5F5F5F5F5F5F5F5F5E2F5F5F5E2E2EFEFF5F5F5E2F5F5F5F5F5F5F5F5F5F5F5F5F5F5F5F5E2F5F5F5
310
F5F5F5F5F5F5F5F5F5F5F5F5F5F5F5F5F5F5F5F5F5F5F5F5F5F5F5F5F5F5F5F5F5F5F5F5F5F5F5F5F5F5F5F5F5F5F5F5F5F5F5F5F5F5F5F5F5F5F5F5F5F5F5F5F5F5F5F5F5F5F5F5F5F5F5F5F5F5F5F5F5F5F5F5F5F5F5F5F5F5F5F5F5F5F5F5F5F5F5F5F5F5F5F5F5F5F5F5F5F5F5F5F5F5F5F5F5F5F5F5F5F5F5F5F5F5F5
310
F5F5F5F5E2F5F5F5F5F5F5F5F5F5F5F5F5F5F5F5F5E2F5F5F5E2E2EFEFF5F5F5E2F5F5F5F5F5F5F5F5F5F5F5F5F5F5F5F5E2F5F5F5F5F5F5F5F5F5F5F5F5F5F5F5F5F5F5F5F5F5F5F5F5F5F5F5F5F5F5F5F5F5F5F5F5F5F5F5F5F5F5F5F5F5F5F5F5F5F5F5F5F5F5F5F5F5F5F5F5F5F5F5F5F5F5F5F5F5F5F5F5F5F5F5F5F5
310
F5F5F5F5F5F5F5F5F5F5F5F5F5F5F5F5F5F5F5F5F5F5F5F5F5F5F5F5F5F5F5F5F5F5F5F5F5F5F5F5F5F5F5F5F5F5F5F5F5F5F5F5F5F5F5F5F5E2F5F5F5F5F5F5F5F5F5F5F5F5F5F5F5F5E2F5F5F5E2E2EFEFF5F5F5E2F5F5F5F5F5F5F5F5F5F5F5F5F5F5F5F5E2F5F5F5F5F5F5F5F5F5F5F5F5F5F5F5F5F5F5F5F5F5F5F5F5
310
F5F5F5F5F5F5F5F5F5F5F5F5F5F5F5F5F5F5F5F5F5F5F5F5F5F5F5F5F5F5F5F5F5F5F5F5F5F5F5F5F5F5F5F5F5F5F5F5F5F5F5F5F5F5F5F5F5F5F5F5F5F5F5F5F5F5F5F5F5F5F5F5F5F5F5F5F5F5F5F5F5F5F5F5F5F5F5F5F5F5F5F5F5F5F5F5F5F5F5F5F5F5F5F5F5F5F5F5F5F5E2F5F5F5F5F5F5F5F5F5F5F5F5F5F5F5F5
310
E2F5F5F5E2E2EFEFF5F5F5E2F5F5F5F5F5F5F5F5F5F5F5F5F5F5F5F5E2F5F5F5F5F5F5F5F5F5F5F5F5F5F5F5F5F5F5F5F5F5F5F5F5F5F5F5F5F5F5F5F5F5F5F5F5F5F5F5F5F5F5F5F5F5F5F5F5F5F5F5F5F5F5F5F5F5F5F5F5F5F5F5F5F5F5F5F5F5F5F5F5F5F5F5F5F5F5F5F5F5F5F5F5F5F5F5F5F5F5F5F5F5F5F5F5F5F5
310
F5F5F5F5F5F5F5F5F5F5F5F5F5F5F5F5F5F5F5F5F5F5F5F5F5F5F5F5F5F5F5F5F5F5F5F5E2F5F5F5F5F5F5F5F5F5F5F5F5F5F5F5F5E2F5F5F5E2E2EFEFF5F5F5E2F5F5F5F5F5F5F5F5F5F5F5F5F5F5F5F5E2F5F5F5F5F5F5F5F5F5F5F5F5F5F5F5F5F5F5F5F5F5F5F5F5F5F5F5F5F5F5F5F5F5F5F5F5F5F5F5F5F5F5F5F5F5
310
F5F5F5F5F5F5F5F5F5F5F5F5F5F5F5F5F5F5F5F5F5F5F5F5F5F5F5F5F5F5F5F5F5F5F5F5F5F5F5F5F5F5F5F5F5F5F5F5F5F5F5F5F5F5F5F5F5F5F5F5F5F5F5F5F5F5F5F5F5F5F5F5F5F5F5F5F5F5F5F5F5F5F5F5F5F5F5F5F5E2F5F5F5F5F5F5F5F5F5F5F5F5F5F5F5F5E2F5F5F5E2E2EFEFF5F5F5E2F5F5F5F5F5F5F5F5F5
310
F5F5F5F5F5F5F5E2F5F5F5F5F5F5F5F5F5F5F5F5F5F5F5F5F5F5F5F5F5F5F5F5F5F5F5F5F5F5F5F5F5F5F5F5F5F5F5F5F5F5F5F5F5F5F5F5F5F5F5F5F5F5F5F5F5F5F5F5F5F5F5F5F5F5F5F5F5F5F5F5F5F5F5F5F5F5F5F5F5F5F5F5F5F5F5F5F5F5F5F5F5F5F5F5F5F5F5F5F5F5F5F5F5F5F5F5F5F5F5F5F5F5F5F5F5F5F5
310
F5F5F5F5F5F5F5F5F5F5F5F5F5F5F5E2F5F5F5F5F5F5F5F5F5F5F5F5F5F5F5F5E2F5F5F5E2E2EFEFF5F5F5E2F5F5F5F5F5F5F5F5F5F5F5F5F5F5F5F5E2F5F5F5F5F5F5F5F5F5F5F5F5F5F5F5F5F5F5F5F5F5F5F5F5F5F5F5F5F5F5F5F5F5F5F5F5F5F5F5F5F5F5F5F5F5F5F5F5F5F5F5F5F5F5F5F5F5F5F5F5F5F5F5F5F5F5
310
F5F5F5F5F5F5F5F5F5F5F5F5F5F5F5F5F5F5F5F5F5F5F5F5F5F5F5F5F5F5F5F5F5F5F5F5F5F5F5F5F5F5F5F5F5F5F5F5F5F5F5F5F5F5F5F5F5F5F5F5F5F5F5F5F5F5F5F5E2F5F5F5F5F5F5F5F5F5F5F5F5F5F5F5F5E2F5F5F5E2E2EFEFF5F5F5E2F5F5F5F5F5F5F5F5F5F5F5F5F5F5F5F5E2F5F5F5F5F5F5F5F5F5F5F5F5F5
310
F5F5F5F5F5F5F5F5F5F5F5F5F5F5F5F5F5F5F5F5F5F5F5F5F5F5F5F5F5F5F5F5F5F5F5F5F5F5F5F5F5F5F5F5F5F5F5F5F5F5F5F5F5F5F5F5F5F5F5F5F5F5F5F5F5F5F5F5F5F5F5F5F5F5F5F5F5F5F5F5F5F5F5F5F5F5F5F5F5F5F5F5F5F5F5F5F5F5F5F5F5F5F5F5F5F5F5F5F5F5F5F5F5F5F5F5F5F5F5F5F5E2F5F5F5F5F5
310
F5F5F5F5F5F5F5F5F5F5F5E2F5F5F5E2E2EFEFF5F5F5E2F5F5F5F5F5F5F5F5F5F5F5F5F5F5F5F5E2F5F5F5F5F5F5F5F5F5F5F5F5F5F5F5F5F5F5F5F5F5F5F5F5F5F5F5F5F5F5F5F5F5F5F5F5F5F5F5F5F5F5F5F5F5F5F5F5F5F5F5F5F5F5F5F5F5F5F5F5F5F5F5F5F5F5F5F5F5F5F5F5F5F5F5F5F5F5F5F5F5F5F5F5F5F5F5
310
F5F5F5F5F5F5F5F5F5F5F5F5F5F5F5F5F5F5F5F5F5F5F5F5F5F5F5F5F5F5F5F5F5F5F5F5F5F5F5F5F5F5F5F5F5F5F5E2F5F5F5F5F5F5F5F5F5F5F5F5F5F5F5F5E2F5F5F5E2E2EFEFF5F5F5E2F5F5F5F5F5F5F5F5F5F5F5F5F5F5F5F5E2F5F5F5F5F5F5F5F5F5F5F5F5F5F5F5F5F5F5F5F5F5F5F5F5F5F5F5F5F5F5F5F5F5F5
310
F5F5F5F5F5F5F5F5F5F5F5F5F5F5F5F5F5F5F5F5F5F5F5F5F5F5F5F5F5F5F5F5F5F5F5F5F5F5F5F5F5F5F5F5F5F5F5F5F5F5F5F5F5F5F5F5F5F5F5F5F5F5F5F5F5F5F5F5F5F5F5F5F5F5F5F5F5F5F5F5F5F5F5F5F5F5F5F5F5F5F5F5F5F5F5F5F5F5F5F5E2F5F5F5F5F5F5F5F5F5F5F5F5F5F5F5F5E2F5F5F5E2E2EFEFF5F5
310
F5E2F5F5F5F5F5F5F5F5F5F5F5F5F5F5F5F5E2F5F5F5F5F5F5F5F5F5F5F5F5F5F5F5F5F5F5F5F5F5F5F5F5F5F5F5F5F5F5F5F5F5F5F5F5F5F5F5F5F5F5F5F5F5F5F5F5F5F5F5F5F5F5F5F5F5F5F5F5F5F5F5F5F5F5F5F5F5F5F5F5F5F5F5F5F5F5F5F5F5F5F5F5F5F5F5F5F5F5F5F5F5F5F5F5F5F5F5F5F5F5F5F5F5F5F5F5
310
F5F5F5F5F5F5F5F5F5F5F5F5F5F5F5F5F5F5F5F5F5F5F5F5F5F5E2F5F5F5F5F5F5F5F5F5F5F5F5F5F5F5F5E2F5F5F5E2E2EFEFF5F5F5E2F5F5F5F5F5F5F5F5F5F5F5F5F5F5F5F5E2F5F5F5F5F5F5F5F5F5F5F5F5F5F5F5F5F5F5F5F5F5F5F5F5F5F5F5F5F5F5F5F5F5F5F5F5F5F5F5F5F5F5F5F5F5F5F5F5F5F5F5F5F5F5F5
310
F5F5F5F5F5F5F5F5F5F5F5F5F5F5F5F5F5F5F5F5F5F5F5F5F5F5F5F5F5F5F5F5F5F5F5F5F5F5F5F5F5F5F5F5F5F5F5F5F5F5F5F5F5F5F5F5F5F5F5F5F5F5F5F5F5F5F5F5F5F5F5F5F5F5F5F5F5F5F5E2F5F5F5F5F5F5F5F5F5F5F5F5F5F5F5F5E2F5F5F5E2E2EFEFF5F5F5E2F5F5F5F5F5F5F5F5F5F5F5F5F5F5F5F5E2F5F5
310
F5F5F5F5F5F5F5F5F5F5F5F5F5F5F5F5F5F5F5F5F5F5F5F5F5F5F5F5F5F5F5F5F5F5F5F5F5F5F5F5F5F5F5F5F5F5F5F5F5F5F5F5F5F5F5F5F5F5F5F5F5F5F5F5F5F5F5F5F5F5F5F5F5F5F5F5F5F5F5F5F5F5F5F5F5F5F5F5F5F5F5F5F5F5F5F5F5F5F5F5F5F5F5F5F5F5F5F5F5F5F5F5F5F5F5F5F5F5F5F5F5F5F5F5F5F5F5
310
F5F5F5F5F5E2F5F5F5F5F5F5F5F5F5F5F5F5F5F5F5F5E2F5F5F5E2E2EFEFF5F5F5E2F5F5F5F5F5F5F5F5F5F5F5F5F5F5F5F5E2F5F5F5F5F5F5F5F5F5F5F5F5F5F5F5F5F5F5F5F5F5F5F5F5F5F5F5F5F5F5F5F5F5F5F5F5F5F5F5F5F5F5F5F5F5F5F5F5F5F5F5F5F5F5F5F5F5F5F5F5F5F5F5F5F5F5F5F5F5F5F5F5F5F5F5F5
310
F5F5F5F5F5F5F5F5F5F5F5F5F5F5F5F5F5F5F5F5F5F5F5F5F5F5F5F5F5F5F5F5F5F5F5F5F5F5F5F5F5F5F5F5F5F5F5F5F5F5F5F5F5F5F5F5F5F5E2F5F5F5F5F5F5F5F5F5F5F5F5F5F5F5F5E2F5F5F5E2E2EFEFF5F5F5F5F5F5F5F5F5F5F5F5F5F5F5F5F5F5F5F5E2F5F5F5F5F5F5F5F5F5F5F5F5F5F5F5F5F5F5F5F5F5F5F5
310
F5F5F5F5F5F5F5F5F5F5F5F5F5F5F5F5F5F5F5F5F5F5F5F5F5F5F5F5F5F5F5F5F5F5F5F5F5F5F5F5F5F5F5F5F5F5F5F5F5F5F5F5F5F5F5F5F5F5F5F5F5F5F5F5F5F5F5F5F5F5F5F5F5F5F5F5F5F5F5F5F5F5F5F5F5F5F5F5F5F5F5F5F5F5F5F5F5F5F5F5F5F5F5F5F5F5F5F5F5F5F5E2F5F5F5F5F5F5F5F5F5F5F5F5F5F5F5
310
F5F5F5F5F5E2E2EFEFF5F5F5F5F5F5F5F5F5F5F5F5F5F5F5F5F5F5F5F5E2F5F5F5F5F5F5F5F5F5F5F5F5F5F5F5F5F5F5F5F5F5F5F5F5F5F5F5F5F5F5F5F5F5F5F5F5F5F5F5F5F5F5F5F5F5F5F5F5F5F5F5F5F5F5F5F5F5F5F5F5F5F5F5F5F5F5F5F5F5F5F5F5F5F5F5F5F5F5F5F5F5F5F5F5F5F5F5F5F5F5F5F5F5F5F5F5F5
310
F5F5F5F5F5F5F5F5F5F5F5F5F5F5F5F5F5F5F5F5F5F5F5F5F5F5F5F5F5F5F5F5F5F5F5F5F5E2F5F5F5F5F5F5F5F5F5F5F5F5F5F5F5F5F5F5F5F5E2E2EFEFF5F5F5F5F5F5F5F5F5F5F5F5F5F5F5F5F5F5F5F5E2F5F5F5F5F5F5F5F5F5F5F5F5F5F5F5F5F5F5F5F5F5F5F5F5F5F5F5F5F5F5F5F5F5F5F5F5F5F5F5F5F5F5F5F5
310
F5F5F5F5F5F5F5F5F5F5F5F5F5F5F5F5F5F5F5F5F5F5F5F5F5F5F5F5F5F5F5F5F5F5F5F5F5F5F5F5F5F5F5F5F5F5F5F5F5F5F5F5F5F5F5F5F5F5F5F5F5F5F5F5F5F5F5F5F5F5F5F5F5F5F5F5F5F5F5F5F5F5F5F5F5F5F5F5F5F5E2F5F5F5F5F5F5F5F5F5F5F5F5F5F5F5F5F5F5F5F5E2E2EFEFF5F5F5F5F5F5F5F5F5F5F5F5
310
F5F5F5F5F5F5F5F5E2F5F5F5F5F5F5F5F5F5F5F5F5F5F5F5F5F5F5F5F5F5F5F5F5F5F5F5F5F5F5F5F5F5F5F5F5F5F5F5F5F5F5F5F5F5F5F5F5F5F5F5F5F5F5F5F5F5F5F5F5F5F5F5F5F5F5F5F5F5F5F5F5F5F5F5F5F5F5F5F5F5F5F5F5F5F5F5F5F5F5F5F5F5F5F5F5F5F5F5F5F5F5F5F5F5F5F5F5F5F5F5F5F5F5F5F5F5F5
310
F5F5F5F5F5F5F5F5F5F5F5F5F5F5F5F5E2F5F5F5F5F5F5F5F5F5F5F5F5F5F5F5F5F5F5F5F5E2E2EFEFF5F5F5F5F5F5F5F5F5F5F5F5F5F5F5F5F5F5F5F5E2F5F5F5F5F5F5F5F5F5F5F5F5F5F5F5F5F5F5F5F5F5F5F5F5F5F5F5F5F5F5F5F5F5F5F5F5F5F5F5F5F5F5F5F5F5F5F5F5F5F5F5F5F5F5F5F5F5F5F5F5F5F5F5F5F5
310
F5F5F5F5F5F5F5F5F5F5F5F5F5F5F5F5F5F5F5F5F5F5F5F5F5F5F5F5F5F5F5F5F5F5F5F5F5F5F5F5F5F5F5F5F5F5F5F5F5F5F5F5F5F5F5F5F5F5F5F5F5F5F5F5F5F5F5F5F5E2F5F5F5F5F5F5F5F5F5F5F5F5F5F5F5F5F5F5F5F5E2E2EFEFF5F5F5F5F5F5F5F5F5F5F5F5F5F5F5F5F5F5F5F5E2F5F5F5F5F5F5F5F5F5F5F5F5
310
F5F5F5F5F5F5F5F5F5F5F5F5F5F5F5F5F5F5F5F5F5F5F5F5F5F5F5F5F5F5F5F5F5F5F5F5F5F5F5F5F5F5F5F5F5F5F5F5F5F5F5F5F5F5F5F5F5F5F5F5F5F5F5F5F5F5F5F5F5F5F5F5F5F5F5F5F5F5F5F5F5F5F5F5F5F5F5F5F5F5F5F5F5F5F5F5F5F5F5F5F5F5F5F5F5F5F5F5F5F5F5F5F5F5F5F5F5F5F5F5F5F5E2F5F5F5F5
310
F5F5F5F5F5F5F5F5F5F5F5F5F5F5F5F5E2E2EFEFF5F5F5F5F5F5F5F5F5F5F5F5F5F5F5F5F5F5F5F5E2F5F5F5F5F5F5F5F5F5F5F5F5F5F5F5F5F5F5F5F5F5F5F5F5F5F5F5F5F5F5F5F5F5F5F5F5F5F5F5F5F5F5F5F5F5F5F5F5F5F5F5F5F5F5F5F5F5F5F5F5F5F5F5F5F5F5F5F5F5F5F5F5F5F5F5F5F5F5F5F5F5F5F5F5F5F5
310
F5F5F5F5F5F5F5F5F5F5F5F5F5F5F5F5F5F5F5F5F5F5F5F5F5F5F5F5F5F5F5F5F5F5F5F5F5F5F5F5F5F5F5F5F5F5F5F5E2F5F5F5F5F5F5F5F5F5F5F5F5F5F5F5F5F5F5F5F5E2E2EFEFF5F5F5F5F5F5F5F5F5F5F5F5F5F5F5F5F5F5F5F5E2F5F5F5F5F5F5F5F5F5F5F5F5F5F5F5F5F5F5F5F5F5F5F5F5F5F5F5F5F5F5F5F5F5
310
F5F5F5F5F5F5F5F5F5F5F5F5F5F5F5F5F5F5F5F5F5F5F5F5F5F5F5F5F5F5F5F5F5F5F5F5F5F5F5F5F5F5F5F5F5F5F5F5F5F5F5F5F5F5F5F5F5F5F5F5F5F5F5F5F5F5F5F5F5F5F5F5F5F5F5F5F5F5F5F5F5F5F5F5F5F5F5F5F5F5F5F5F5F5F5F5F5F5F5F5F5E2F5F5F5F5F5F5F5F5F5F5F5F5F5F5F5F5F5F5F5F5E2E2EFEFF5
310
F5F5F5F5F5F5F5F5F5F5F5F5F5F5F5F5F5F5F5E2F5F5F5F5F5F5F5F5F5F5F5F5F5F5F5F5F5F5F5F5F5F5F5F5F5F5F5F5F5F5F5F5F5F5F5F5F5F5F5F5F5F5F5F5F5F5F5F5F5F5F5F5F5F5F5F5F5F5F5F5F5F5F5F5F5F5F5F5F5F5F5F5F5F5F5F5F5F5F5F5F5F5F5F5F5F5F5F5F5F5F5F5F5F5F5F5F5F5F5F5F5F5F5F5F5F5F5
310
F5F5F5F5F5F5F5F5F5F5F5F5F5F5F5F5F5F5F5F5F5F5F5F5F5F5F5E2F5F5F5F5F5F5F5F5F5F5F5F5F5F5F5F5F5F5F5F5E2E2EFEFF5F5F5E2F5F5F5F5F5F5F5F5F5F5F5F5F5F5F5F5E2F5F5F5F5F5F5F5F5F5F5F5F5F5F5F5F5F5F5F5F5F5F5F5F5F5F5F5F5F5F5F5F5F5F5F5F5F5F5F5F5F5F5F5F5F5F5F5F5F5F5F5F5F5F5
310
F5F5F5F5F5F5F5F5F5F5F5F5F5F5F5F5F5F5F5F5F5F5F5F5F5F5F5F5F5F5F5F5F5F5F5F5F5F5F5F5F5F5F5F5F5F5F5F5F5F5F5F5F5F5F5F5F5F5F5F5F5F5F5F5F5F5F5F5F5F5F5F5F5F5F5F5F5F5F5F5E2F5F5F5F5F5F5F5F5F5F5F5F5F5F5F5F5E2F5F5F5E2E2EFEFF5F5F5E2F5F5F5F5F5F5F5F5F5F5F5F5F5F5F5F5E2F5
310
F5F5F5F5F5F5F5F5F5F5F5F5F5F5F5F5F5F5F5F5F5F5F5F5F5F5F5F5F5F5F5F5F5F5F5F5F5F5F5F5F5F5F5F5F5F5F5F5F5F5F5F5F5F5F5F5F5F5F5F5F5F5F5F5F5F5F5F5F5F5F5F5F5F5F5F5F5F5F5F5F5F5F5F5F5F5F5F5F5F5F5F5F5F5F5F5F5F5F5F5F5F5F5F5F5F5F5F5F5F5F5F5F5F5F5F5F5F5F5F5F5F5F5F5F5F5F5
310
F5F5F5F5F5F5E2F5F5F5F5F5F5F5F5F5F5F5F5F5F5F5F5E2F5F5F5E2E2EFEFF5F5F5E2F5F5F5F5F5F5F5F5F5F5F5F5F5F5F5F5E2F5F5F5F5F5F5F5F5F5F5F5F5F5F5F5F5F5F5F5F5F5F5F5F5F5F5F5F5F5F5F5F5F5F5F5F5F5F5F5F5F5F5F5F5F5F5F5F5F5F5F5F5F5F5F5F5F5F5F5F5F5F5F5F5F5F5F5F5F5F5F5F5F5F5F5
310
F5F5F5F5F5F5F5F5F5F5F5F5F5F5F5F5F5F5F5F5F5F5F5F5F5F5F5F5F5F5F5F5F5F5F5F5F5F5F5F5F5F5F5F5F5F5F5F5F5F5F5F5F5F5F5F5F5F5F5E2F5F5F5F5F5F5F5F5F5F5F5F5F5F5F5F5E2F5F5F5E2E2EFEFF5F5F5E2F5F5F5F5F5F5F5F5F5F5F5F5F5F5F5F5E2F5F5F5F5F5F5F5F5F5F5F5F5F5F5F5F5F5F5F5F5F5F5
310
F5F5F5F5F5F5F5F5F5F5F5F5F5F5F5F5F5F5F5F5F5F5F5F5F5F5F5F5F5F5F5F5F5F5F5F5F5F5F5F5F5F5F5F5F5F5F5F5F5F5F5F5F5F5F5F5F5F5F5F5F5F5F5F5F5F5F5F5F5F5F5F5F5F5F5F5F5F5F5F5F5F5F5F5F5F5F5F5F5F5F5F5F5F5F5F5F5F5F5F5F5F5F5F5F5F5F5F5F5F5F5F5E2F5F5F5F5F5F5F5F5F5F5F5F5F5F5
310
F5F5E2F5F5F5E2E2EFEFF5F5F5E2F5F5F5F5F5F5F5F5F5F5F5F5F5F5F5F5E2F5F5F5F5F5F5F5F5F5F5F5F5F5F5F5F5F5F5F5F5F5F5F5F5F5F5F5F5F5F5F5F5F5F5F5F5F5F5F5F5F5F5F5F5F5F5F5F5F5F5F5F5F5F5F5F5F5F5F5F5F5F5F5F5F5F5F5F5F5F5F5F5F5F5F5F5F5F5F5F5F5F5F5F5F5F5F5F5F5F5F5F5F5F5F5F5
310
F5F5F5F5F5F5F5F5F5F5F5F5F5F5F5F5F5F5F5F5F5F5F5F5F5F5F5F5F5F5F5F5F5F5F5F5F5F5E2F5F5F5F5F5F5F5F5F5F5F5F5F5F5F5F5E2F5F5F5E2E2EFEFF5F5F5E2F5F5F5F5F5F5F5F5F5F5F5F5F5F5F5F5E2F5F5F5F5F5F5F5F5F5F5F5F5F5F5F5F5F5F5F5F5F5F5F5F5F5F5F5F5F5F5F5F5F5F5F5F5F5F5F5F5F5F5F5
310
F5F5F5F5F5F5F5F5F5F5F5F5F5F5F5F5F5F5F5F5F5F5F5F5F5F5F5F5F5F5F5F5F5F5F5F5F5F5F5F5F5F5F5F5F5F5F5F5F5F5F5F5F5F5F5F5F5F5F5F5F5F5F5F5F5F5F5F5F5F5F5F5F5F5F5F5F5F5F5F5F5F5F5F5F5F5F5F5F5F5F5E2F5F5F5F5F5F5F5F5F5F5F5F5F5F5F5F5E2F5F5F5E2E2EFEFF5F5F5E2F5F5F5F5F5F5F5
310
F5F5F5F5F5F5F5F5F5E2F5F5F5F5F5F5F5F5F5F5F5F5F5F5F5F5F5F5F5F5F5F5F5F5F5F5F5F5F5F5F5F5F5F5F5F5F5F5F5F5F5F5F5F5F5F5F5F5F5F5F5F5F5F5F5F5F5F5F5F5F5F5F5F5F5F5F5F5F5F5F5F5F5F5F5F5F5F5F5F5F5F5F5F5F5F5F5F5F5F5F5F5F5F5F5F5F5F5F5F5F5F5F5F5F5F5F5F5F5F5F5F5F5F5F5F5F5
310
F5F5F5F5F5F5F5F5F5F5F5F5F5F5F5F5F5E2F5F5F5F5F5F5F5F5F5F5F5F5F5F5F5F5E2F5F5F5E2E2EFEFF5F5F5E2F5F5F5F5F5F5F5F5F5F5F5F5F5F5F5F5E2F5F5F5F5F5F5F5F5F5F5F5F5F5F5F5F5F5F5F5F5F5F5F5F5F5F5F5F5F5F5F5F5F5F5F5F5F5F5F5F5F5F5F5F5F5F5F5F5F5F5F5F5F5F5F5F5F5F5F5F5F5F5F5F5
310
F5F5F5F5F5F5F5F5F5F5F5F5F5F5F5F5F5F5F5F5F5F5F5F5F5F5F5F5F5F5F5F5F5F5F5F5F5F5F5F5F5F5F5F5F5F5F5F5F5F5F5F5F5F5F5F5F5F5F5F5F5F5F5F5F5F5F5F5F5F5E2F5F5F5F5F5F5F5F5F5F5F5F5F5F5F5F5E2F5F5F5E2E2EFEFF5F5F5E2F5F5F5F5F5F5F5F5F5F5F5F5F5F5F5F5E2F5F5F5F5F5F5F5F5F5F5F5
310
F5F5F5F5F5F5F5F5F5F5F5F5F5F5F5F5F5F5F5F5F5F5F5F5F5F5F5F5F5F5F5F5F5F5F5F5F5F5F5F5F5F5F5F5F5F5F5F5F5F5F5F5F5F5F5F5F5F5F5F5F5F5F5F5F5F5F5F5F5F5F5F5F5F5F5F5F5F5F5F5F5F5F5F5F5F5F5F5F5F5F5F5F5F5F5F5F5F5F5F5F5F5F5F5F5F5F5F5F5F5F5F5F5F5F5F5F5F5F5F5F5F5F5E2F5F5F5
310
F5F5F5F5F5F5F5F5F5F5F5F5F5E2F5F5F5E2E2EFEFF5F5F5E2F5F5F5F5F5F5F5F5F5F5F5F5F5F5F5F5E2F5F5F5F5F5F5F5F5F5F5F5F5F5F5F5F5F5F5F5F5F5F5F5F5F5F5F5F5F5F5F5F5F5F5F5F5F5F5F5F5F5F5F5F5F5F5F5F5F5F5F5F5F5F5F5F5F5F5F5F5F5F5F5F5F5F5F5F5F5F5F5F5F5F5F5F5F5F5F5F5F5F5F5F5F5
310
F5F5F5F5F5F5F5F5F5F5F5F5F5F5F5F5F5F5F5F5F5F5F5F5F5F5F5F5F5F5F5F5F5F5F5F5F5F5F5F5F5F5F5F5F5F5F5F5F5E2F5F5F5F5F5F5F5F5F5F5F5F5F5F5F5F5E2F5F5F5E2E2EFEFF5F5F5E2F5F5F5F5F5F5F5F5F5F5F5F5F5F5F5F5E2F5F5F5F5F5F5F5F5F5F5F5F5F5F5F5F5F5F5F5F5F5F5F5F5F5F5F5F5F5F5F5F5
310
F5F5F5F5F5F5F5F5F5F5F5F5F5F5F5F5F5F5F5F5F5F5F5F5F5F5F5F5F5F5F5F5F5F5F5F5F5F5F5F5F5F5F5F5F5F5F5F5F5F5F5F5F5F5F5F5F5F5F5F5F5F5F5F5F5F5F5F5F5F5F5F5F5F5F5F5F5F5F5F5F5F5F5F5F5F5F5F5F5F5F5F5F5F5F5F5F5F5F5F5F5F5E2F5F5F5F5F5F5F5F5F5F5F5F5F5F5F5F5E2F5F5F5E2E2EFEF
310
F5F5F5E2F5F5F5F5F5F5F5F5F5F5F5F5F5F5F5F5E2F5F5F5F5F5F5F5F5F5F5F5F5F5F5F5F5F5F5F5F5F5F5F5F5F5F5F5F5F5F5F5F5F5F5F5F5F5F5F5F5F5F5F5F5F5F5F5F5F5F5F5F5F5F5F5F5F5F5F5F5F5F5F5F5F5F5F5F5F5F5F5F5F5F5F5F5F5F5F5F5F5F5F5F5F5F5F5F5F5F5F5F5F5F5F5F5F5F5F5F5F5F5F5F5F5F5
310
F5F5F5F5F5F5F5F5F5F5F5F5F5F5F5F5F5F5F5F5F5F5F5F5F5F5F5F5E2F5F5F5F5F5F5F5F5F5F5F5F5F5F5F5F5E2F5F5F5E2E2EFEFF5F5F5E2F5F5F5F5F5F5F5F5F5F5F5F5F5F5F5F5E2F5F5F5F5F5F5F5F5F5F5F5F5F5F5F5F5F5F5F5F5F5F5F5F5F5F5F5F5F5F5F5F5F5F5F5F5F5F5F5F5F5F5F5F5F5F5F5F5F5F5F5F5F5
310
F5F5F5F5F5F5F5F5F5F5F5F5F5F5F5F5F5F5F5F5F5F5F5F5F5F5F5F5F5F5F5F5F5F5F5F5F5F5F5F5F5F5F5F5F5F5F5F5F5F5F5F5F5F5F5F5F5F5F5F5F5F5F5F5F5F5F5F5F5F5F5F5F5F5F5F5F5F5F5F5F5E2F5F5F5F5F5F5F5F5F5F5F5F5F5F5F5F5E2F5F5F5E2E2EFEFF5F5F5E2F5F5F5F5F5F5F5F5F5F5F5F5F5F5F5F5E2
310
F5F5F5F5F5F5F5F5F5F5F5F5F5F5F5F5F5F5F5F5F5F5F5F5F5F5F5F5F5F5F5F5F5F5F5F5F5F5F5F5F5F5F5F5F5F5F5F5F5F5F5F5F5F5F5F5F5F5F5F5F5F5F5F5F5F5F5F5F5F5F5F5F5F5F5F5F5F5F5F5F5F5F5F5F5F5F5F5F5F5F5F5F5F5F5F5F5F5F5F5F5F5F5F5F5F5F5F5F5F5F5F5F5F5F5F5F5F5F5F5F5F5F5F5F5F5F5
310
F5F5F5F5F5F5F5E2F5F5F5F5F5F5F5F5F5F5F5F5F5F5F5F5E2F5F5F5E2E2EFEFF5F5F5E2F5F5F5F5F5F5F5F5F5F5F5F5F5F5F5F5E2F5F5F5F5F5F5F5F5F5F5F5F5F5F5F5F5F5F5F5F5F5F5F5F5F5F5F5F5F5F5F5F5F5F5F5F5F5F5F5F5F5F5F5F5F5F5F5F5F5F5F5F5F5F5F5F5F5F5F5F5F5F5F5F5F5F5F5F5F5F5F5F5F5F5
310
F5F5F5F5F5F5F5F5F5F5F5F5F5F5F5F5F5F5F5F5F5F5F5F5F5F5F5F5F5F5F5F5F5F5F5F5F5F5F5F5F5F5F5F5F5F5F5F5F5F5F5F5F5F5F5F5F5F5F5F5E2F5F5F5F5F5F5F5F5F5F5F5F5F5F5F5F5E2F5F5F5E2E2EFEFF5F5F5E2F5F5F5F5F5F5F5F5F5F5F5F5F5F5F5F5E2F5F5F5F5F5F5F5F5F5F5F5F5F5F5F5F5F5F5F5F5F5
310
F5F5F5F5F5F5F5F5F5F5F5F5F5F5F5F5F5F5F5F5F5F5F5F5F5F5F5F5F5F5F5F5F5F5F5F5F5F5F5F5F5F5F5F5F5F5F5F5F5F5F5F5F5F5F5F5F5F5F5F5F5F5F5F5F5F5F5F5F5F5F5F5F5F5F5F5F5F5F5F5F5F5F5F5F5F5F5F5F5F5F5F5F5F5F5F5F5F5F5F5F5F5F5F5F5F5F5F5F5F5F5F5F5E2F5F5F5F5F5F5F5F5F5F5F5F5F5
310
F5F5F5E2F5F5F5E2E2EFEFF5F5F5E2F5F5F5F5F5F5F5F5F5F5F5F5F5F5F5F5E2F5F5F5F5F5F5F5F5F5F5F5F5F5F5F5F5F5F5F5F5F5F5F5F5F5F5F5F5F5F5F5F5F5F5F5F5F5F5F5F5F5F5F5F5F5F5F5F5F5F5F5F5F5F5F5F5F5F5F5F5F5F5F5F5F5F5F5F5F5F5F5F5F5F5F5F5F5F5F5F5F5F5F5F5F5F5F5F5F5F5F5F5F5F5F5
310
F5F5F5F5F5F5F5F5F5F5F5F5F5F5F5F5F5F5F5F5F5F5F5F5F5F5F5F5F5F5F5F5F5F5F5F5F5F5F5E2F5F5F5F5F5F5F5F5F5F5F5F5F5F5F5F5E2F5F5F5E2E2EFEFF5F5F5F5F5F5F5F5F5F5F5F5F5F5F5F5F5F5F5F5E2F5F5F5F5F5F5F5F5F5F5F5F5F5F5F5F5F5F5F5F5F5F5F5F5F5F5F5F5F5F5F5F5F5F5F5F5F5F5F5F5F5F5
310
F5F5F5F5F5F5F5F5F5F5F5F5F5F5F5F5F5F5F5F5F5F5F5F5F5F5F5F5F5F5F5F5F5F5F5F5F5F5F5F5F5F5F5F5F5F5F5F5F5F5F5F5F5F5F5F5F5F5F5F5F5F5F5F5F5F5F5F5F5F5F5F5F5F5F5F5F5F5F5F5F5F5F5F5F5F5F5F5F5F5F5F5E2F5F5F5F5F5F5F5F5F5F5F5F5F5F5F5F5F5F5F5F5E2E2EFEFF5F5F5F5F5F5F5F5F5F5
310
F5F5F5F5F5F5F5F5F5F5E2F5F5F5F5F5F5F5F5F5F5F5F5F5F5F5F5F5F5F5F5F5F5F5F5F5F5F5F5F5F5F5F5F5F5F5F5F5F5F5F5F5F5F5F5F5F5F5F5F5F5F5F5F5F5F5F5F5F5F5F5F5F5F5F5F5F5F5F5F5F5F5F5F5F5F5F5F5F5F5F5F5F5F5F5F5F5F5F5F5F5F5F5F5F5F5F5F5F5F5F5F5F5F5F5F5F5F5F5F5F5F5F5F5F5F5F5
310
F5F5F5F5F5F5F5F5F5F5F5F5F5F5F5F5F5F5E2F5F5F5F5F5F5F5F5F5F5F5F5F5F5F5F5F5F5F5F5E2E2EFEFF5F5F5F5F5F5F5F5F5F5F5F5F5F5F5F5F5F5F5F5E2F5F5F5F5F5F5F5F5F5F5F5F5F5F5F5F5F5F5F5F5F5F5F5F5F5F5F5F5F5F5F5F5F5F5F5F5F5F5F5F5F5F5F5F5F5F5F5F5F5F5F5F5F5F5F5F5F5F5F5F5F5F5F5
310
F5F5F5F5F5F5F5F5F5F5F5F5F5F5F5F5F5F5F5F5F5F5F5F5F5F5F5F5F5F5F5F5F5F5F5F5F5F5F5F5F5F5F5F5F5F5F5F5F5F5F5F5F5F5F5F5F5F5F5F5F5F5F5F5F5F5F5F5F5F5F5E2F5F5F5F5F5F5F5F5F5F5F5F5F5F5F5F5F5F5F5F5E2E2EFEFF5F5F5F5F5F5F5F5F5F5F5F5F5F5F5F5F5F5F5F5E2F5F5F5F5F5F5F5F5F5F5
310
F5F5F5F5F5F5F5F5F5F5F5F5F5F5F5F5F5F5F5F5F5F5F5F5F5F5F5F5F5F5F5F5F5F5F5F5F5F5F5F5F5F5F5F5F5F5F5F5F5F5F5F5F5F5F5F5F5F5F5F5F5F5F5F5F5F5F5F5F5F5F5F5F5F5F5F5F5F5F5F5F5F5F5F5F5F5F5F5F5F5F5F5F5F5F5F5F5F5F5F5F5F5F5F5F5F5F5F5F5F5F5F5F5F5F5F5F5F5F5F5F5F5F5F5E2F5F5
310
F5F5F5F5F5F5F5F5F5F5F5F5F5F5F5F5F5F5E2E2EFEFF5F5F5F5F5F5F5F5F5F5F5F5F5F5F5F5F5F5F5F5E2F5F5F5F5F5F5F5F5F5F5F5F5F5F5F5F5F5F5F5F5F5F5F5F5F5F5F5F5F5F5F5F5F5F5F5F5F5F5F5F5F5F5F5F5F5F5F5F5F5F5F5F5F5F5F5F5F5F5F5F5F5F5F5F5F5F5F5F5F5F5F5F5F5F5F5F5F5F5F5F5F5F5F5F5
310
F5F5F5F5F5F5F5F5F5F5F5F5F5F5F5F5F5F5F5F5F5F5F5F5F5F5F5F5F5F5F5F5F5F5F5F5F5F5F5F5F5F5F5F5F5F5F5F5F5F5E2F5F5F5F5F5F5F5F5F5F5F5F5F5F5F5F5F5F5F5F5E2E2EFEFF5F5F5F5F5F5F5F5F5F5F5F5F5F5F5F5F5F5F5F5E2F5F5F5F5F5F5F5F5F5F5F5F5F5F5F5F5F5F5F5F5F5F5F5F5F5F5F5F5F5F5F5
310
F5F5F5F5F5F5F5F5F5F5F5F5F5F5F5F5F5F5F5F5F5F5F5F5F5F5F5F5F5F5F5F5F5F5F5F5F5F5F5F5F5F5F5F5F5F5F5F5F5F5F5F5F5F5F5F5F5F5F5F5F5F5F5F5F5F5F5F5F5F5F5F5F5F5F5F5F5F5F5F5F5F5F5F5F5F5F5F5F5F5F5F5F5F5F5F5F5F5F5F5F5F5F5E2F5F5F5F5F5F5F5F5F5F5F5F5F5F5F5F5F5F5F5F5E2E2EF
310
EFF5F5F5F5F5F5F5F5F5F5F5F5F5F5F5F5F5F5F5F5E2F5F5F5F5F5F5F5F5F5F5F5F5F5F5F5F5F5F5F5F5F5F5F5F5F5F5F5F5F5F5F5F5F5F5F5F5F5F5F5F5F5F5F5F5F5F5F5F5F5F5F5F5F5F5F5F5F5F5F5F5F5F5F5F5F5F5F5F5F5F5F5F5F5F5F5F5F5F5F5F5F5F5F5F5F5F5F5F5F5F5F5F5F5F5F5F5F5F5F5F5F5F5F5F5F5
310
F5F5F5F5F5F5F5F5F5F5F5F5F5F5F5F5F5F5F5F5F5F5F5F5F5F5F5F5F5E2F5F5F5F5F5F5F5F5F5F5F5F5F5F5F5F5F5F5F5F5E2E2EFEFF5F5F5F5F5F5F5F5F5F5F5F5F5F5F5F5F5F5F5F5E2F5F5F5F5F5F5F5F5F5F5F5F5F5F5F5F5F5F5F5F5F5F5F5F5F5F5F5F5F5F5F5F5F5F5F5F5F5F5F5F5F5F5F5F5F5F5F5F5F5F5F5F5
310
F5F5F5F5F5F5F5F5F5F5F5F5F5F5F5F5F5F5F5F5F5F5F5F5F5F5F5F5F5F5F5F5F5F5F5F5F5F5F5F5F5F5F5F5F5F5F5F5F5F5F5F5F5F5F5F5F5F5F5F5F5F5F5F5F5F5F5F5F5F5F5F5F5F5F5F5F5F5F5F5F5F5E2F5F5F5F5F5F5F5F5F5F5F5F5F5F5F5F5F5F5F5F5E2E2EFEFF5F5F5F5F5F5F5F5F5F5F5F5F5F5F5F5F5F5F5F5
310
E2F5F5F5F5F5F5F5F5F5F5F5F5F5F5F5F5F5F5F5F5F5F5F5F5F5F5F5F5F5F5F5F5F5F5F5F5F5F5F5F5F5F5F5F5F5F5F5F5F5F5F5F5F5F5F5F5F5F5F5F5F5F5F5F5F5F5F5F5F5F5F5F5F5F5F5F5F5F5F5F5F5F5F5F5F5F5F5F5F5F5F5F5F5F5F5F5F5F5F5F5F5F5F5F5F5F5F5F5F5F5F5F5F5F5F5F5F5F5F5F5F5F5F5F5F5F5
310
F5F5F5F5F5F5F5F5E2F5F5F5F5F5F5F5F5F5F5F5F5F5F5F5F5F5F5F5F5E2E2EFEFF5F5F5E2F5F5F5F5F5F5F5F5F5F5F5F5F5F5F5F5E2F5F5F5F5F5F5F5F5F5F5F5F5F5F5F5F5F5F5F5F5F5F5F5F5F5F5F5F5F5F5F5F5F5F5F5F5F5F5F5F5F5F5F5F5F5F5F5F5F5F5F5F5F5F5F5F5F5F5F5F5F5F5F5F5F5F5F5F5F5F5F5F5F5
310
F5F5F5F5F5F5F5F5F5F5F5F5F5F5F5F5F5F5F5F5F5F5F5F5F5F5F5F5F5F5F5F5F5F5F5F5F5F5F5F5F5F5F5F5F5F5F5F5F5F5F5F5F5F5F5F5F5F5F5F5F5E2F5F5F5F5F5F5F5F5F5F5F5F5F5F5F5F5E2F5F5F5E2E2EFEFF5F5F5E2F5F5F5F5F5F5F5F5F5F5F5F5F5F5F5F5E2F5F5F5F5F5F5F5F5F5F5F5F5F5F5F5F5F5F5F5F5
310
F5F5F5F5F5F5F5F5F5F5F5F5F5F5F5F5F5F5F5F5F5F5F5F5F5F5F5F5F5F5F5F5F5F5F5F5F5F5F5F5F5F5F5F5F5F5F5F5F5F5F5F5F5F5F5F5F5F5F5F5F5F5F5F5F5F5F5F5F5F5F5F5F5F5F5F5F5F5F5F5F5F5F5F5F5F5F5F5F5F5F5F5F5F5F5F5F5F5F5F5F5F5F5F5F5F5F5F5F5F5F5F5F5F5E2F5F5F5F5F5F5F5F5F5F5F5F5
310
F5F5F5F5E2F5F5F5E2E2EFEFF5F5F5E2F5F5F5F5F5F5F5F5F5F5F5F5F5F5F5F5E2F5F5F5F5F5F5F5F5F5F5F5F5F5F5F5F5F5F5F5F5F5F5F5F5F5F5F5F5F5F5F5F5F5F5F5F5F5F5F5F5F5F5F5F5F5F5F5F5F5F5F5F5F5F5F5F5F5F5F5F5F5F5F5F5F5F5F5F5F5F5F5F5F5F5F5F5F5F5F5F5F5F5F5F5F5F5F5F5F5F5F5F5F5F5
310
F5F5F5F5F5F5F5F5F5F5F5F5F5F5F5F5F5F5F5F5F5F5F5F5F5F5F5F5F5F5F5F5F5F5F5F5F5F5F5F5E2F5F5F5F5F5F5F5F5F5F5F5F5F5F5F5F5E2F5F5F5E2E2EFEFF5F5F5E2F5F5F5F5F5F5F5F5F5F5F5F5F5F5F5F5E2F5F5F5F5F5F5F5F5F5F5F5F5F5F5F5F5F5F5F5F5F5F5F5F5F5F5F5F5F5F5F5F5F5F5F5F5F5F5F5F5F5
310
F5F5F5F5F5F5F5F5F5F5F5F5F5F5F5F5F5F5F5F5F5F5F5F5F5F5F5F5F5F5F5F5F5F5F5F5F5F5F5F5F5F5F5F5F5F5F5F5F5F5F5F5F5F5F5F5F5F5F5F5F5F5F5F5F5F5F5F5F5F5F5F5F5F5F5F5F5F5F5F5F5F5F5F5F5F5F5F5F5F5F5F5F5E2F5F5F5F5F5F5F5F5F5F5F5F5F5F5F5F5E2F5F5F5E2E2EFEFF5F5F5E2F5F5F5F5F5
310
F5F5F5F5F5F5F5F5F5F5F5E2F5F5F5F5F5F5F5F5F5F5F5F5F5F5F5F5F5F5F5F5F5F5F5F5F5F5F5F5F5F5F5F5F5F5F5F5F5F5F5F5F5F5F5F5F5F5F5F5F5F5F5F5F5F5F5F5F5F5F5F5F5F5F5F5F5F5F5F5F5F5F5F5F5F5F5F5F5F5F5F5F5F5F5F5F5F5F5F5F5F5F5F5F5F5F5F5F5F5F5F5F5F5F5F5F5F5F5F5F5F5F5F5F5F5F5
310
F5F5F5F5F5F5F5F5F5F5F5F5F5F5F5F5F5F5F5E2F5F5F5F5F5F5F5F5F5F5F5F5F5F5F5F5E2F5F5F5E2E2EFEFF5F5F5E2F5F5F5F5F5F5F5F5F5F5F5F5F5F5F5F5E2F5F5F5F5F5F5F5F5F5F5F5F5F5F5F5F5F5F5F5F5F5F5F5F5F5F5F5F5F5F5F5F5F5F5F5F5F5F5F5F5F5F5F5F5F5F5F5F5F5F5F5F5F5F5F5F5F5F5F5F5F5F5
310
F5F5F5F5F5F5F5F5F5F5F5F5F5F5F5F5F5F5F5F5F5F5F5F5F5F5F5F5F5F5F5F5F5F5F5F5F5F5F5F5F5F5F5F5F5F5F5F5F5F5F5F5F5F5F5F5F5F5F5F5F5F5F5F5F5F5F5F5F5F5F5F5E2F5F5F5F5F5F5F5F5F5F5F5F5F5F5F5F5E2F5F5F5E2E2EFEFF5F5F5E2F5F5F5F5F5F5F5F5F5F5F5F5F5F5F5F5E2F5F5F5F5F5F5F5F5F5
310
F5F5F5F5F5F5F5F5F5F5F5F5F5F5F5F5F5F5F5F5F5F5F5F5F5F5F5F5F5F5F5F5F5F5F5F5F5F5F5F5F5F5F5F5F5F5F5F5F5F5F5F5F5F5F5F5F5F5F5F5F5F5F5F5F5F5F5F5F5F5F5F5F5F5F5F5F5F5E2E2F5E2E2E2F5E2E2E2F5F5E2E2F5E2E2F5F5F5F5F5F5F5F5F5F5F5F5F5F5F5F5F5F5F5F5F5F5F5F5F5F5F5F5F5F5E2F5
310
F5F5F5F5F5F5F5F5F5F5F5F5F5F5F5E2F5F5F5E2E2EFEFF5F5F5E2F5F5F5F5F5F5F5F5F5F5F5F5F5F5F5F5E2F5F5F5F5F5F5F5F5E2F5F5F5F5F5F5F5F5F5F5F5F5F5F5F5F5F5F5F5F5E2E2F5F5F5F5F5F5F5F5F5F5F5F5F5F5F5F5F5F5F5F5E2F5F5F5F5F5F5F5F5F5F5F5F5F5F5F5F5F5F5F5F5F5F5F5F5F5F5F5F5F5F5F5
310
F5F5F5F5E2E2E2E2E2E2F5E2E2E2E2F5E2F5F5F5E2F5F5F5F5F5F5F5F5F5F5F5F5F5F5F5F5F5F5F5F5F5F5F5F5F5F5F5F5F5F5E2F5F5F5F5F5F5F5F5F5F5F5F5F5F5F5F5E2F5F5F5E2E2EFEFF5F5F5E2F5F5F5F5F5F5F5F5F5F5F5F5F5F5F5F5E2F5F5F5F5F5F5E2E2E2E2E2E2E2E2E2E2E2E2E2E2E2E2E2E2E2E2E2E2E2E2
310
E2E2E2E2E2E2E2E2E2E2E2E2E2E2E2E2E2E2E2E2E2E2E2F5F5F5F5F5F5F5F5F5F5F5F5F5F5F5F5F5F5F5F5F5F5F5F5F5F5F5F5F5F5F5F5F5F5E2F5F5E2E2F5E2E2F5E2F5F5E2E2F5E2E2F5F5F5F5F5F5F5F5F5F5F5F5F5F5F5F5F5F5F5F5F5F5F5F5F5F5F5F5F5F5E2F5F5F5F5F5F5F5F5F5F5F5F5F5F5F5F5E2F5F5F5E2E2
310
EFEFF5F5F5E2F5F5F5F5F5F5F5F5F5F5F5F5F5F5F5F5E2F5F5F5F5F5F5F5F5F5F5F5F5F5F5F5F5F5F5F5F5F5F5F5F5F5F5F5F5F5E2E2F5F5F5F5F5F5F5F5F5F5F5F5F5F5F5F5F5F5F5F5F5F5F5F5F5F5F5F5F5F5F5F5F5F5F5F5F5F5F5F5F5F5F5F5F5F5F5F5F5F5F5F5F5F5F5F5E2F5F5E2E2F5E2E2F5E2F5F5E2E2F5E2E2
310
F5F5F5F5F5F5F5F5F5F5F5F5F5F5F5F5F5F5F5F5F5F5F5F5F5F5F5F5F5F5E2F5F5F5F5F5F5F5F5F5F5F5F5F5F5F5F5E2F5F5F5E2E2EFEFF5F5F5E2F5F5F5F5F5F5F5F5F5F5F5F5F5F5F5F5E2F5F5F5F5F5F5F5F5F5F5F5F5F5F5F5F5F5F5F5F5F5F5F5F5F5F5F5F5F5F5F5F5F5F5F5F5F5F5F5F5F5F5F5F5F5F5F5F5F5F5F5
310
F5F5F5F5F5F5F5F5F5F5F5F5F5F5F5F5F5F5F5F5F5F5F5F5F5F5F5F5F5F5F5F5F5F5F5F5F5F5F5F5F5F5F5F5F5F5F5F5F5F5F5F5F5F5F5F5F5F5F5F5F5F5F5F5F5F5F5F5F5F5F5F5F5F5F5F5F5F5F5F5F5F5F5E2F5F5F5F5F5F5F5F5F5F5F5F5F5F5F5F5E2F5F5F5E2E2EFEFF5F5F5E2F5F5F5F5F5F5F5F5F5F5F5F5F5F5F5
310
F5E2F5F5F5F5F5F5F5F5F5F5F5F5F5F5F5F5F5F5F5F5F5F5F5F5F5F5F5F5F5F5F5F5F5F5F5F5F5F5F5F5F5F5F5F5F5F5F5F5F5F5F5F5F5F5F5F5F5F5F5F5F5F5F5F5F5F5F5F5F5F5F5F5F5F5F5F5F5F5F5F5F5F5F5F5F5F5F5F5F5F5F5F5F5F5F5F5F5F5F5F5F5F5F5F5F5F5F5F5F5F5F5F5F5F5F5F5F5F5F5F5F5F5F5F5F5
310
F5F5F5F5F5F5F5F5F5E2F5F5F5F5F5F5F5F5F5F5F5F5F5F5F5F5E2F5F5F5E2E2EFEFF5F5F5E2F5F5F5F5F5F5F5F5F5F5F5F5F5F5F5F5E2F5F5F5F5F5F5F5F5F5F5F5F5F5F5F5F5F5F5F5F5F5F5F5F5F5F5F5F5F5F5F5F5F5F5F5F5F5F5F5F5F5F5F5F5F5F5F5F5F5F5F5F5F5F5F5F5F5F5F5F5F5F5F5F5F5F5F5F5F5F5F5F5
310
F5F5F5F5F5F5F5F5F5F5F5F5F5F5F5F5F5F5F5F5F5F5F5F5F5F5F5F5F5F5F5F5F5F5F5F5F5F5F5F5F5F5F5F5F5F5F5F5F5F5F5F5F5F5F5F5F5F5F5F5F5F5E2F5F5F5F5F5F5F5F5F5F5F5F5F5F5F5F5E2F5F5F5E2E2EFEFF5F5F5E2F5F5F5F5F5F5F5F5F5F5F5F5F5F5F5F5E2F5F5F5F5F5F5E2E2E2E2E2E2E2E2E2E2E2E2E2
310
E2E2E2E2E2E2E2E2E2E2E2E2E2E2E2E2E2E2E2E2E2E2E2E2E2E2E2E2E2E2E2E2E2E2F5F5F5F5F5F5E2F5F5F5F5F5F5F5F5E2E2E2E2E2E2E2E2E2E2E2E2E2E2E2E2E2E2E2E2E2E2E2E2E2E2E2E2E2E2E2E2E2E2E2E2E2E2E2E2E2E2E2E2E2E2E2E2E2F5F5F5F5F5F5F5F5F5F5F5F5F5F5F5F5F5E2F5F5F5F5F5F5F5F5F5F5F5
310
F5F5F5F5F5E2F5F5F5E2E2EFEFF5F5F5E2F5F5F5F5F5F5F5F5F5F5F5F5F5F5F5F5E2F5F5F5F5F5F5E2F5F5F5F5F5F5F5F5F5F5F5F5F5F5F5F5F5F5F5F5F5F5F5F5F5F5F5F5F5F5F5F5F5F5F5F5F5F5F5F5F5F5F5F5F5E2F5F5F5F5F5E2E2F5F5F5F5F5F5F5F5E2F5F5F5F5F5F5F5F5F5F5F5F5F5F5F5F5F5F5F5F5F5F5F5F5
310
F5F5F5F5F5F5F5F5F5F5F5F5F5F5F5F5F5F5F5F5F5E2F5F5E2E2E2E2F5F5F5F5F5F5F5F5F5F5F5F5F5E2F5F5F5F5F5F5F5F5F5F5F5F5F5F5F5F5E2F5F5F5E2E2EFEFF5F5F5E2F5F5F5F5F5F5F5F5F5F5F5F5F5F5F5F5E2F5F5F5F5F5F5E2F5F5F5F5F5F5F5F5F5F5F5F5F5F5F5F5F5F5F5F5F5F5F5F5F5F5F5F5F5F5F5F5F5
310
F5F5F5F5F5F5F5F5F5F5F5F5E2F5F5F5F5F5F5E2F5F5F5F5F5F5F5F5E2F5F5F5F5F5F5F5F5F5F5F5F5F5F5F5F5F5F5F5F5F5F5F5F5F5F5F5F5F5F5F5F5F5F5F5F5F5F5F5F5F5F5F5F5F5E2F5F5F5F5F5F5E2E2E2E2F5F5F5F5F5F5F5F5F5E2F5F5F5F5F5F5F5F5F5F5F5F5F5F5F5F5E2F5F5F5E2E2EFEFF5F5F5E2F5F5F5F5
310
F5F5F5F5F5F5F5F5F5F5F5F5E2F5F5F5F5F5F5E2F5F5F5F5F5F5F5F5F5F5F5F5F5F5F5F5F5F5F5F5F5F5F5F5F5F5F5F5F5F5F5F5F5F5F5F5F5F5F5F5F5F5F5F5F5E2F5F5F5F5F5F5E2F5F5F5F5F5F5F5F5E2F5F5F5F5F5F5F5F5F5F5F5F5F5F5F5F5F5F5F5F5F5F5F5F5F5F5F5F5F5F5F5F5F5F5F5F5F5F5F5F5F5F5F5F5F5
310
E2F5F5F5F5F5F5F5F5F5F5E2E2E2F5F5F5F5F5F5E2F5F5F5F5F5F5F5F5F5F5F5F5F5F5F5F5E2F5F5F5E2E2EFEFF5F5F5F5F5F5F5F5F5F5F5F5F5F5F5F5F5F5F5F5E2F5F5F5F5F5F5E2F5F5F5F5F5F5F5F5F5F5F5F5F5F5F5F5F5F5F5F5F5F5F5F5F5F5F5F5F5F5F5F5F5F5F5F5F5F5F5F5F5F5F5F5F5E2F5F5F5F5F5F5E2F5
310
F5F5F5F5F5F5F5E2F5F5F5F5F5F5F5F5F5F5F5F5F5F5F5F5F5F5F5F5F5F5F5F5F5F5F5F5F5F5F5F5F5F5F5F5F5F5F5F5F5F5F5F5F5E2F5F5F5F5F5F5F5F5F5F5F5F5E2F5F5F5F5F5F5E2F5F5F5F5F5F5F5F5F5F5F5F5F5F5F5F5F5F5F5F5E2E2EFEFF5F5F5F5F5F5F5F5F5F5F5F5F5F5F5F5F5F5F5F5E2F5F5F5F5F5F5E2F5
310
F5F5F5F5F5F5F5F5F5F5F5F5F5F5F5F5F5F5F5F5F5F5F5F5F5F5F5F5F5F5F5F5F5F5F5F5F5F5F5F5F5F5F5F5E2F5F5F5F5F5F5E2F5F5F5F5F5F5F5F5E2F5F5F5F5F5F5F5F5F5F5F5F5F5F5F5F5F5F5F5F5F5F5F5F5F5F5F5F5F5F5F5F5F5F5F5F5F5F5F5F5F5F5F5F5F5E2F5F5F5F5F5F5F5F5F5F5F5F5E2F5F5F5F5F5F5E2
310
F5F5F5F5F5F5F5F5F5F5F5F5F5F5F5F5F5F5F5F5E2E2EFEFF5F5F5F5F5F5F5F5F5F5F5F5F5F5F5F5F5F5F5F5E2F5F5F5F5F5F5E2F5F5F5F5F5F5F5F5F5F5F5F5F5F5F5F5F5F5F5F5F5F5F5F5F5F5F5F5F5F5F5F5F5F5F5F5F5F5F5F5F5F5F5F5F5E2F5F5F5F5F5F5E2F5F5F5F5F5F5F5F5E2F5F5F5F5F5F5F5F5F5F5F5F5F5
310
F5F5F5F5F5F5F5F5F5F5F5F5F5F5F5F5F5F5F5F5F5F5F5F5F5F5F5F5F5F5F5F5E2F5F5F5F5F5F5F5F5F5F5F5F5E2F5F5F5F5F5F5E2F5F5F5F5F5F5F5F5F5F5F5F5F5F5F5F5F5F5F5F5E2E2EFEFF5F5F5F5F5F5F5F5F5F5F5F5F5F5F5F5F5F5F5F5E2F5F5F5F5F5F5E2F5F5F5F5F5F5F5F5F5F5F5F5F5F5F5F5F5F5F5F5F5F5
310
F5F5F5F5F5F5F5F5F5F5F5F5F5F5F5F5F5F5F5F5F5F5F5E2F5F5F5F5F5F5E2F5F5F5F5F5F5F5F5E2F5F5F5F5F5F5F5F5F5F5F5F5F5F5F5F5F5F5F5F5F5F5F5F5F5F5F5F5F5F5F5F5F5F5F5F5F5F5F5F5F5F5F5F5F5E2F5F5F5F5F5F5F5F5F5F5F5F5E2F5F5F5F5F5F5E2F5F5F5F5F5F5F5F5F5F5F5F5F5F5F5F5F5F5F5F5E2
310
E2EFEFF5F5F5F5F5F5F5F5F5F5F5F5F5F5F5F5F5F5F5F5E2F5F5F5F5F5F5E2F5F5F5F5F5F5F5F5F5F5F5F5F5F5F5F5F5F5F5F5F5F5F5F5F5F5F5F5F5F5F5F5F5F5F5F5F5F5F5F5F5F5F5F5F5E2F5F5F5F5F5F5E2F5F5F5F5F5F5F5F5E2F5F5F5F5F5F5F5F5F5F5F5F5F5F5F5F5F5F5F5F5F5F5F5F5F5F5F5F5F5F5F5F5F5F5
310
F5F5F5F5F5F5F5F5F5F5F5E2F5F5F5F5F5F5F5F5F5F5F5F5E2F5F5F5F5F5F5E2F5F5F5F5F5F5F5F5F5F5F5F5F5F5F5F5F5F5F5F5E2E2EFEFF5F5F5F5F5F5F5F5F5F5F5F5F5F5F5F5F5F5F5F5E2F5F5F5F5F5F5E2F5F5F5F5F5F5F5F5F5F5F5F5F5F5F5F5F5F5F5F5F5F5F5F5F5F5F5F5F5F5F5F5F5F5F5F5F5F5F5F5F5F5F5
310
F5F5E2F5F5F5F5F5F5E2F5F5F5F5F5F5F5F5E2F5F5F5F5F5F5F5F5F5F5F5F5F5F5F5F5F5F5F5F5F5F5F5F5F5F5F5F5F5F5F5F5F5F5F5F5F5F5F5F5F5F5F5F5F5E2F5F5F5F5F5F5F5F5F5F5F5F5E2F5F5F5F5F5F5E2F5F5F5F5F5F5F5F5F5F5F5F5F5F5F5F5F5F5F5F5E2E2EFEFF5F5F5F5F5F5F5F5F5F5F5F5F5F5F5F5F5F5
310
F5F5E2F5F5F5F5F5F5E2F5F5F5F5F5F5F5F5F5F5F5F5F5F5F5F5F5F5F5F5F5F5F5F5F5F5F5F5F5F5F5F5F5F5F5F5F5F5F5F5F5F5F5F5F5E2F5F5F5F5F5F5E2F5F5F5F5F5F5F5F5E2F5F5F5F5F5F5F5F5F5F5F5F5F5F5E2E2E2E2E2E2E2E2E2E2F5F5F5F5F5F5F5F5F5F5F5F5F5F5F5F5F5F5F5F5F5E2F5F5F5F5F5F5F5F5F5
310
F5F5F5E2F5F5F5F5F5F5E2F5F5F5F5F5F5F5F5F5F5F5F5F5F5F5F5F5F5F5F5E2E2EFEFF5F5F5F5F5F5F5F5F5F5F5F5F5F5F5F5F5F5F5F5E2F5F5F5F5F5F5E2F5F5F5F5F5F5F5F5F5F5F5F5F5F5F5F5F5F5F5F5F5F5F5F5F5F5F5F5F5F5F5F5F5F5F5F5F5F5F5F5F5F5F5F5F5E2F5F5F5F5F5F5E2F5F5F5F5F5F5F5F5E2F5F5
310
F5F5F5F5F5F5F5F5F5F5F5F5F5E2E2E2E2E2E2E2E2E2F5F5F5F5F5F5F5F5F5F5F5F5F5F5F5F5F5F5F5F5F5E2F5F5F5F5F5F5F5F5F5F5F5F5E2F5F5F5F5F5F5E2F5F5F5F5F5F5F5F5F5F5F5F5F5F5F5F5F5F5F5F5E2E2EFEFF5F5F5F5F5F5F5F5F5F5F5F5F5F5F5F5F5F5F5F5E2F5F5F5F5F5F5E2F5F5F5F5F5F5F5F5F5F5F5
310
F5F5F5F5F5F5F5F5F5F5F5F5F5F5F5F5F5F5F5F5F5F5F5F5F5F5F5F5F5F5F5F5F5F5E2F5F5F5F5F5F5E2F5F5F5F5F5F5F5F5E2F5F5F5F5F5F5F5F5F5F5F5F5F5F5F5E2E2E2E2E2E2E2E2E2F5F5F5F5F5F5F5F5F5F5F5F5F5F5F5F5F5F5F5F5F5E2F5F5F5F5F5F5F5F5F5F5F5F5E2F5F5F5F5F5F5E2F5F5F5F5F5F5F5F5F5F5
310
F5F5F5F5F5F5F5F5F5F5E2E2EFEFF5F5F5E2F5F5F5F5F5F5F5F5F5F5F5F5F5F5F5F5E2F5F5F5F5F5F5E2F5F5F5F5F5F5F5F5F5F5F5F5F5F5F5F5F5F5F5F5F5F5F5F5F5F5F5F5F5F5F5F5F5F5F5F5F5F5F5F5F5F5F5F5F5E2F5F5F5F5F5F5E2F5F5F5F5F5F5F5F5E2F5F5F5F5F5F5F5F5F5F5F5F5F5F5E2E2E2E2E2E2E2E2E2
310
F5F5F5F5F5F5F5F5F5F5F5F5F5F5F5F5F5F5F5F5F5F5E2F5F5F5F5F5F5F5F5F5F5F5F5E2F5F5F5F5F5F5E2F5F5F5F5F5F5F5F5F5F5F5F5F5F5F5F5E2F5F5F5E2E2EFEFF5F5F5E2F5F5F5F5F5F5F5F5F5F5F5F5F5F5F5F5E2F5F5F5F5F5F5E2F5F5F5F5F5F5F5F5F5F5F5F5F5F5F5F5F5F5F5F5F5F5F5F5F5F5F5F5F5F5F5F5
310
F5F5F5F5F5F5F5F5F5F5F5F5F5E2E2E2F5F5E2E2E2F5E2E2E2E2F5F5F5E2F5F5F5F5F5F5F5F5F5F5F5F5F5F5F5F5F5F5F5F5F5F5F5F5F5F5F5F5F5F5F5F5F5F5F5F5F5F5F5F5F5F5F5F5F5E2F5F5F5F5F5F5F5F5F5F5F5F5E2F5F5F5F5F5F5E2F5F5F5F5F5F5F5F5F5F5F5F5F5F5F5F5E2F5F5F5E2E2EFEFF5F5F5E2F5F5F5
310
F5F5F5F5F5F5F5F5F5F5F5F5F5E2F5F5F5F5F5F5E2F5F5F5F5F5F5F5F5F5F5F5F5F5F5F5F5F5F5F5F5F5F5F5F5F5F5F5F5F5F5F5F5F5F5F5F5F5F5F5F5F5F5F5F5F5E2F5E2F5F5E2E2F5E2F5E2E2E2F5F5F5E2F5F5F5F5F5F5F5F5F5F5F5F5F5F5F5F5F5F5F5F5F5F5F5F5F5F5F5F5F5F5F5F5F5F5F5F5F5F5F5F5F5F5F5F5
310
F5E2F5F5F5F5F5F5F5F5F5F5F5F5E2F5F5F5F5F5F5E2F5F5F5F5F5F5F5F5F5F5F5F5F5F5F5F5E2F5F5F5E2E2EFEFF5F5F5E2F5F5F5F5F5F5F5F5F5F5F5F5F5F5F5F5E2F5F5F5F5F5F5E2F5F5F5F5F5F5F5F5F5F5F5F5F5F5F5F5F5F5F5F5F5F5F5F5F5F5F5F5F5F5F5F5F5F5F5F5F5F5F5F5F5F5F5F5F5E2E2E2F5F5E2E2F5
310
F5E2E2E2E2F5F5F5E2F5F5F5F5F5F5F5F5F5F5F5F5F5F5F5F5F5F5F5F5F5F5F5F5F5F5F5F5F5F5F5F5F5F5F5F5F5F5F5F5F5F5F5F5F5E2F5F5F5F5F5F5F5F5F5F5F5F5E2F5F5F5F5F5F5E2F5F5F5F5F5F5F5F5F5F5F5F5F5F5F5F5E2F5F5F5E2E2EFEFF5F5F5E2F5F5F5F5F5F5F5F5F5F5F5F5F5F5F5F5E2F5F5F5F5F5F5E2
310
F5F5F5F5F5F5F5F5F5F5F5F5F5F5F5F5F5F5F5F5F5F5F5F5F5F5F5F5F5F5F5F5F5F5F5F5F5F5F5F5F5F5F5F5F5E2F5F5F5F5F5F5E2F5F5F5F5F5F5F5F5E2F5F5F5F5F5F5F5F5F5F5F5F5F5F5F5F5F5F5F5F5F5F5F5F5F5F5F5F5F5F5F5F5F5F5F5F5F5F5F5F5F5F5F5F5F5E2F5F5F5F5F5F5F5F5F5F5F5F5E2F5F5F5F5F5F5
310
E2F5F5F5F5F5F5F5F5F5F5F5F5F5F5F5F5E2F5F5F5E2E2EFEFF5F5F5E2F5F5F5F5F5F5F5F5F5F5F5F5F5F5F5F5E2F5F5F5F5F5F5E2F5F5F5F5F5F5F5F5F5F5F5F5F5F5F5F5F5F5F5F5F5F5F5F5F5F5F5F5F5F5F5F5F5F5F5F5F5F5F5F5F5F5F5F5F5E2F5F5F5F5F5F5E2F5F5F5F5F5F5F5F5E2F5F5F5F5F5F5F5F5F5F5F5F5
310
F5F5F5F5F5F5F5F5F5F5F5F5F5F5F5F5F5F5F5F5F5F5F5F5F5F5F5F5F5F5F5F5F5E2F5F5F5F5F5F5F5F5F5F5F5F5E2F5F5F5F5F5F5E2F5F5F5F5F5F5F5F5F5F5F5F5F5F5F5F5E2F5F5F5E2E2EFEFF5F5F5E2F5F5F5F5F5F5F5F5F5F5F5F5F5F5F5F5E2F5F5F5F5F5F5E2F5F5F5F5F5F5F5F5F5F5F5F5F5F5F5F5F5F5F5F5F5
310
F5F5F5F5F5F5F5F5F5F5F5F5F5F5F5F5F5F5F5F5F5F5F5F5E2F5F5F5F5F5F5E2F5F5F5F5F5F5F5F5E2F5F5F5F5F5F5F5F5F5F5F5F5F5F5F5F5F5F5F5F5F5F5F5F5F5F5F5F5F5F5F5F5F5F5F5F5F5F5F5F5F5F5F5F5F5E2F5F5F5F5F5F5F5F5F5F5F5F5E2F5F5F5F5F5F5E2F5F5F5F5F5F5F5F5F5F5F5F5F5F5F5F5E2F5F5F5
310
E2E2EFEFF5F5F5E2F5F5F5F5F5F5F5F5F5F5F5F5F5F5F5F5E2F5F5F5F5F5F5E2F5F5F5F5F5F5F5F5F5F5F5F5F5F5F5F5F5F5F5F5F5F5F5F5F5F5F5F5F5F5F5F5F5F5F5F5F5F5F5F5F5F5F5F5F5E2F5F5F5F5F5F5E2F5F5F5F5F5F5F5F5E2F5F5F5F5F5F5F5F5F5F5F5F5F5F5F5F5F5F5F5F5F5F5F5F5F5F5F5F5F5F5F5F5F5
310
F5F5F5F5F5F5F5F5F5F5F5F5E2F5F5F5F5F5F5F5F5F5F5F5F5E2F5F5F5F5F5F5E2F5F5F5F5F5F5F5F5F5F5F5F5F5F5F5F5E2F5F5F5E2E2EFEFF5F5F5E2F5F5F5F5F5F5F5F5F5F5F5F5F5F5F5F5E2F5F5F5F5F5F5E2F5F5F5F5F5F5F5F5F5F5F5F5F5F5F5F5F5F5F5F5F5F5F5F5F5F5F5F5F5F5F5F5F5F5F5F5F5F5F5F5F5F5
310
F5F5F5E2F5F5F5F5F5F5E2F5F5F5F5F5F5F5F5E2F5F5F5F5F5F5F5F5F5F5F5F5F5F5F5F5F5F5F5F5F5F5F5F5F5F5F5F5F5F5F5F5F5F5F5F5F5F5F5F5F5F5F5F5F5E2F5F5F5F5F5F5F5F5F5F5F5F5E2F5F5F5F5F5F5E2F5F5F5F5F5F5F5F5F5F5F5F5F5F5F5F5E2F5F5F5E2E2EFEFF5F5F5E2F5F5F5F5F5F5F5F5F5F5F5F5F5
310
F5F5F5E2F5F5F5F5F5F5E2F5F5F5F5F5F5F5F5F5F5F5F5F5F5F5F5F5F5F5F5F5F5F5F5F5F5F5F5F5F5F5F5F5F5F5F5F5F5F5F5F5F5F5F5F5E2F5F5F5F5F5F5E2F5F5F5F5F5F5F5F5E2F5F5F5F5F5F5F5F5F5F5F5F5F5F5F5F5F5F5F5F5F5F5F5F5F5F5F5F5F5F5F5F5F5F5F5F5F5F5F5F5F5F5F5F5F5E2F5F5F5F5F5F5F5F5
310
F5F5F5F5E2F5F5F5F5F5F5E2F5F5F5F5F5F5F5F5F5F5F5F5F5F5F5F5E2F5F5F5E2E2EFEFF5F5F5E2F5F5F5F5F5F5F5F5F5F5F5F5F5F5F5F5E2F5F5F5F5F5F5E2F5F5F5F5F5F5F5F5F5F5F5F5F5F5F5F5F5F5F5F5F5F5F5F5F5F5F5F5F5F5F5F5F5F5F5F5F5F5F5F5F5F5F5F5F5E2F5F5F5F5F5F5E2F5F5F5F5F5F5F5F5E2F5
310
F5F5F5F5F5F5F5F5F5F5F5F5F5F5F5F5F5F5F5E2E2E2E2E2E2E2E2E2E2E2E2E2E2E2E2E2E2E2E2E2E2E2E2E2E2E2E2F5F5F5F5F5F5F5F5F5F5E2F5F5F5F5F5F5E2F5F5F5F5F5F5F5F5F5F5F5F5F5F5F5F5E2F5F5F5E2E2EFEFF5F5F5E2F5F5F5F5F5F5F5F5F5F5F5F5F5F5F5F5E2F5F5F5F5F5F5E2F5F5F5F5F5F5F5F5F5F5
310
F5F5F5F5F5F5F5F5F5F5E2E2E2E2E2E2E2E2E2E2E2E2E2E2E2E2E2E2E2E2E2E2E2E2E2E2F5F5F5F5F5F5E2F5F5F5F5F5F5F5F5E2F5F5F5F5F5F5F5F5F5F5F5F5F5F5F5F5F5F5F5F5E2F5F5E2E2E2E2F5F5F5F5F5F5F5F5F5F5F5F5F5F5F5F5F5F5F5F5F5E2E2E2E2F5F5F5F5F5F5E2F5F5F5F5F5F5E2F5F5F5F5F5F5F5F5F5
310
F5F5F5F5F5F5F5E2F5F5F5E2E2EFEFF5F5F5E2F5F5F5F5F5F5F5F5F5F5F5F5F5F5F5F5E2F5F5F5F5F5F5E2F5F5F5F5F5F5F5F5F5F5F5F5F5F5F5F5F5F5F5E2E2F5F5F5F5F5F5F5F5F5F5F5F5F5F5F5F5F5F5F5F5F5F5F5F5F5F5F5F5F5F5F5E2F5F5F5F5F5F5F5F5E2F5F5F5F5F5F5F5F5F5F5F5F5F5F5F5F5F5F5F5E2E2E2
310
E2F5F5F5F5E2E2E2E2F5F5F5F5F5F5F5F5F5F5F5F5F5F5F5F5F5F5F5F5F5E2E2E2E2F5F5E2F5F5F5F5F5F5E2F5F5F5F5F5F5F5F5F5F5F5F5F5F5F5F5E2F5F5F5E2E2EFEFF5F5F5E2F5F5F5F5F5F5F5F5F5F5F5F5F5F5F5F5E2F5F5F5F5F5F5E2F5F5F5F5F5F5F5F5F5F5F5F5F5F5F5F5F5E2E2F5F5F5F5F5F5F5F5F5F5F5F5
310
F5F5F5F5F5F5F5F5F5F5F5F5F5F5F5F5F5F5F5F5F5E2F5F5F5F5F5F5F5F5E2F5F5F5F5F5F5F5F5F5F5F5F5F5F5F5F5F5E2E2F5F5F5F5E2E2E2E2F5F5F5F5E2E2E2E2E2E2E2E2E2E2E2E2E2E2E2E2E2E2E2E2E2E2E2E2E2E2E2E2F5F5F5F5F5F5E2F5F5F5F5F5F5F5F5F5F5F5F5F5F5F5F5E2F5F5F5E2E2EFEFF5F5F5E2F5F5
310
F5F5F5F5F5F5F5F5F5F5F5F5F5F5E2F5F5F5F5F5F5E2F5F5F5F5F5F5F5F5F5F5F5F5F5F5F5E2E2F5F5F5F5F5F5F5F5F5F5F5F5F5F5F5F5F5F5F5F5F5F5F5F5F5F5F5F5F5F5F5F5F5F5F5E2F5F5F5F5F5F5F5F5E2F5F5F5F5F5F5F5F5F5F5F5F5F5F5F5E2E2F5F5F5F5F5F5F5F5F5F5E2E2E2E2F5F5E2F5F5F5F5F5F5F5F5F5
310
F5F5F5F5F5F5F5F5F5F5F5F5F5F5F5F5F5F5F5F5F5F5E2F5F5F5F5F5F5F5F5F5F5F5F5F5F5F5F5E2F5F5F5E2E2EFEFF5F5F5E2F5F5F5F5F5F5F5F5F5F5F5F5F5F5F5F5E2F5F5F5F5F5F5E2F5F5F5F5F5F5F5F5F5F5F5E2E2E2E2F5F5F5F5F5F5F5F5F5F5F5F5F5F5F5F5F5F5F5F5F5F5F5F5F5F5F5F5F5F5F5F5F5F5F5F5E2
310
E2F5F5F5F5F5F5F5F5E2F5F5F5F5F5F5F5F5F5F5F5E2E2E2E2F5F5F5F5F5F5F5F5F5F5F5F5F5F5F5F5E2E2E2F5F5F5F5F5F5F5F5F5F5F5F5F5F5F5F5F5F5F5F5F5F5F5F5F5F5F5F5F5F5F5E2F5F5F5F5F5F5F5F5F5F5F5F5F5F5F5F5E2F5F5F5E2E2EFEFF5F5F5E2F5F5F5F5F5F5F5F5F5F5F5F5F5F5F5F5E2F5F5F5F5F5F5
310
E2F5F5F5F5F5F5F5F5F5F5F5E2F5F5F5F5F5F5F5F5F5F5F5F5F5F5F5F5F5F5F5F5F5F5F5F5F5F5F5F5F5F5F5F5F5F5F5F5F5F5F5F5E2F5F5F5F5F5F5F5F5E2E2E2E2E2E2E2E2E2E2E2E2E2E2E2E2E2E2E2F5F5F5F5F5F5F5F5F5F5F5F5E2E2F5F5F5F5F5F5F5F5F5F5F5F5F5F5F5F5F5F5F5F5F5F5F5F5F5F5F5F5F5F5F5F5
310
F5E2F5F5F5F5F5F5F5F5F5F5F5F5F5F5F5F5E2F5F5F5E2E2EFEFF5F5F5F5F5F5F5F5F5F5F5F5F5F5F5F5F5F5F5F5E2F5F5F5F5F5F5E2E2E2E2E2E2E2E2E2E2E2E2E2F5F5F5F5F5F5F5F5F5F5F5F5F5F5F5F5F5F5F5F5F5F5F5F5F5F5F5F5F5F5F5F5F5F5F5F5F5F5F5F5E2F5F5F5F5F5F5F5F5F5F5F5E2E2E2E2E2F5F5F5F5
310
F5F5F5E2E2E2E2E2E2E2E2F5F5F5F5F5F5E2E2F5F5F5F5F5F5F5F5F5F5F5F5F5F5F5F5F5F5F5F5F5F5F5F5F5F5F5F5F5F5F5F5F5F5F5E2F5F5F5F5F5F5F5F5F5F5F5F5F5F5F5F5F5F5F5F5E2E2EFEFF5F5F5F5F5F5F5F5F5F5F5F5F5F5F5F5F5F5F5F5E2F5F5F5F5F5F5F5F5F5F5F5F5F5F5F5F5F5F5F5F5F5F5F5F5F5F5F5
310
F5F5F5F5F5F5F5F5F5F5F5F5F5F5F5F5F5F5F5F5F5F5F5F5F5F5F5F5F5F5F5F5F5F5F5F5F5F5F5F5F5F5F5F5F5F5F5F5E2E2E2E2F5F5F5F5F5F5F5F5E2E2E2E2E2E2E2E2E2E2F5F5F5F5F5F5F5F5F5F5F5F5F5F5F5F5F5F5F5F5F5F5F5F5F5F5F5F5F5F5F5F5F5F5F5F5F5E2F5F5F5F5F5F5F5F5F5F5F5F5F5F5F5F5F5F5F5
310
F5E2E2EFEFF5F5F5F5F5F5F5F5F5F5F5F5F5F5F5F5F5F5F5F5E2F5F5F5F5F5F5F5F5F5F5F5F5F5F5F5F5F5F5F5F5F5F5F5F5F5F5F5F5F5F5F5F5F5F5F5F5F5F5F5F5F5F5F5F5F5F5F5F5F5F5F5F5F5F5F5F5F5F5F5F5F5F5F5F5F5F5F5F5F5F5F5F5F5F5F5F5F5F5F5E2E2E2E2E2E2E2E2E2E2E2E2E2E2E2F5F5F5F5F5F5F5
310
F5F5F5F5F5F5F5F5F5F5F5F5F5F5F5F5F5F5F5F5F5F5F5F5F5F5F5F5F5F5F5F5F5E2F5F5F5F5F5F5F5F5F5F5F5F5F5F5F5F5F5F5F5F5E2E2EFEFF5F5F5F5F5F5F5F5F5F5F5F5F5F5F5F5F5F5F5F5E2F5F5F5F5F5F5F5F5F5F5F5F5F5F5F5F5F5F5F5F5F5F5F5F5F5F5F5F5F5F5F5F5F5F5F5F5F5F5F5F5F5F5F5F5F5F5F5F5
310
F5F5F5F5F5F5F5F5F5F5F5F5F5F5F5F5F5F5F5F5F5F5F5F5F5F5F5F5F5F5F5F5F5F5F5F5F5F5F5F5F5F5F5F5F5F5F5F5F5F5F5F5F5F5F5F5F5F5F5F5F5F5F5F5F5F5F5F5F5F5F5F5F5F5F5F5F5F5F5F5F5F5F5F5F5F5E2F5F5F5F5F5F5F5F5F5F5F5F5F5F5F5F5F5F5F5F5E2E2EFEFF5F5F5F5F5F5F5F5F5F5F5F5F5F5F5F5
310
F5F5F5F5E2E2E2E2E2E2E2E2E2E2E2E2E2E2E2E2E2E2E2E2E2E2E2E2E2E2E2E2E2E2E2E2E2E2E2E2E2E2E2E2E2E2E2E2E2E2E2E2E2E2E2E2E2E2E2E2E2E2E2E2E2E2E2E2E2E2E2E2E2E2E2E2E2E2E2E2E2E2E2E2E2E2E2E2E2E2E2E2E2E2E2E2E2E2E2E2E2E2E2E2E2E2E2E2E2E2E2E2E2E2E2E2E2E2E2E2E2E2E2E2E2E2E2
310
E2E2E2E2E2E2E2E2E2E2E2E2E2F5F5F5F5F5F5F5F5F5F5F5F5F5F5F5F5F5F5F5F5E2E2EFEFF5F5F5F5F5F5F5F5F5F5F5F5F5F5F5F5F5F5F5F5F5F5F5F5F5F5F5F5F5F5F5F5F5F5F5F5F5F5F5F5F5F5F5F5F5F5F5F5F5F5F5F5F5F5F5F5F5F5F5F5F5F5F5F5F5F5F5F5F5F5F5F5F5F5F5F5F5F5F5F5F5F5F5F5F5F5F5F5F5F5
310
F5F5F5F5F5F5F5F5F5F5F5F5F5F5F5F5F5F5F5F5F5F5F5F5F5F5F5F5F5F5F5F5F5F5F5F5F5F5F5F5F5F5F5F5F5F5F5F5F5F5F5F5F5F5F5F5F5F5F5F5F5F5F5F5F5F5F5F5F5F5F5F5F5F5F5F5F5F5F5F5F5F5F5F5F5F5E2E2EFEFF5F5F5F5F5F5F5F5F5F5F5F5F5F5F5F5F5F5F5F5F5F5F5F5F5F5F5F5F5F5F5F5F5F5F5F5F5
310
F5F5F5F5F5F5F5F5F5F5F5F5F5F5F5F5F5F5F5F5F5F5F5F5F5F5F5F5F5F5F5F5F5F5F5F5F5F5F5F5F5F5F5F5F5F5F5F5F5F5F5F5F5F5F5F5F5F5F5F5F5F5F5F5F5F5F5F5F5F5F5F5F5F5F5F5F5F5F5F5F5F5F5F5F5F5F5F5F5F5F5F5F5F5F5F5F5F5F5F5F5F5F5F5F5F5F5F5F5F5F5F5F5F5F5F5F5F5F5F5F5F5F5F5F5F5F5
310
F5F5F5F5F5F5F5F5F5F5F5F5E2E2EFEFF5F5F5F5F5F5F5F5F5F5F5F5F5F5F5F5F5F5F5F5F5F5F5F5F5F5F5F5F5F5F5F5F5F5F5F5F5F5F5F5F5F5F5F5F5F5F5F5F5F5F5F5F5F5F5F5F5F5F5F5F5F5F5F5F5F5F5F5F5F5F5F5F5F5F5F5F5F5F5F5F5F5F5F5F5F5F5F5F5F5F5F5F5F5F5F5F5F5F5F5F5F5F5F5F5F5F5F5F5F5F5
310
F5F5F5F5F5F5F5F5F5F5F5F5F5F5F5F5F5F5F5F5F5F5F5F5F5F5F5F5F5F5F5F5F5F5F5F5F5F5F5F5F5F5F5F5F5F5F5F5F5F5F5F5F5F5F5F5F5F5F5F5F5F5F5F5F5E2E2EFEFF5F5F5F5F5F5F5F5F5F5F5F5F5F5F5F5F5F5F5F5F5F5F5F5F5F5F5F5F5F5F5F5F5F5F5F5F5F5F5F5F5F5F5F5F5F5F5F5F5F5F5F5F5F5F5F5F5F5
310
F5F5F5F5F5F5F5F5F5F5F5F5F5F5F5F5F5F5F5F5F5F5F5F5F5F5F5F5F5F5F5F5F5F5F5F5F5F5F5F5F5F5F5F5F5F5F5F5F5F5F5F5F5F5F5F5F5F5F5F5F5F5F5F5F5F5F5F5F5F5F5F5F5F5F5F5F5F5F5F5F5F5F5F5F5F5F5F5F5F5F5F5F5F5F5F5F5F5F5F5F5F5F5F5F5F5F5F5F5F5F5F5F5F5F5F5F5F5E2E2EFEFF5F5F5E2F5
310
F5F5F5F5F5F5F5F5F5F5F5F5F5F5F5F5F5F5F5F5F5F5F5F5F5F5F5F5F5F5F5F5F5F5F5F5F5F5F5F5F5F5F5F5F5F5F5F5F5F5F5F5F5F5F5F5F5F5F5F5F5F5F5F5F5F5F5F5F5F5F5F5F5F5F5F5F5F5F5F5F5F5F5F5F5F5F5F5F5F5F5F5F5F5F5F5F5F5F5F5F5F5F5F5F5F5F5F5F5F5F5F5F5F5F5F5F5F5F5F5F5F5F5F5F5F5F5
310
F5F5F5F5F5F5F5F5F5F5F5F5F5F5F5F5F5F5F5F5F5F5F5F5F5F5F5F5F5F5F5F5F5F5F5F5F5F5F5F5E2F5F5F5E2E2EFEFF5F5F5E2F5F5F5F5F5F5F5F5F5F5F5F5F5F5F5F5F5F5F5F5F5F5F5F5F5F5F5F5F5F5F5F5F5F5F5F5F5F5F5F5F5F5F5F5F5F5F5F5F5F5F5F5F5F5F5F5F5F5F5F5F5F5F5F5F5F5F5F5F5F5F5F5F5F5F5
310
F5F5F5F5F5F5F5F5F5F5F5F5F5F5F5F5F5F5F5F5F5F5F5F5F5F5F5F5F5F5F5F5F5F5F5F5F5F5F5F5F5F5F5F5F5F5F5F5F5F5F5F5F5F5F5F5F5F5F5F5F5F5F5F5F5F5F5F5F5F5F5F5F5F5F5F5F5F5F5F5F5F5F5F5F5F5F5F5F5F5F5F5F5E2F5F5F5E2E2EFEFF5F5F5E2F5F5F5F5F5F5F5F5F5F5F5F5F5F5F5F5F5F5F5F5F5F5
310
F5F5F5F5F5F5F5F5F5F5F5F5F5F5F5F5F5F5F5F5F5F5F5F5F5F5F5F5F5F5F5F5F5F5F5F5F5F5F5F5F5F5F5F5F5F5F5F5F5F5F5F5F5F5F5F5F5F5F5F5F5F5F5F5F5F5F5F5F5F5F5F5F5F5F5F5F5F5F5F5F5F5F5F5F5F5F5F5F5F5F5F5F5F5F5F5F5F5F5F5F5F5F5F5F5F5F5F5F5F5F5F5F5F5F5F5F5F5F5F5F5F5F5F5F5F5F5
310
F5F5F5F5F5F5F5F5F5F5F5F5F5F5F5F5F5F5F5E2F5F5F5E2E2EFEFF5F5F5E2F5F5F5F5F5F5F5F5F5F5F5F5F5F5F5F5F5F5F5F5F5F5F5F5F5F5F5F5F5F5F5F5F5F5F5F5F5F5F5F5F5F5F5F5F5F5F5F5F5F5F5F5F5F5F5F5F5F5F5F5F5F5F5F5F5F5F5F5F5F5F5F5F5F5F5F5F5F5F5F5F5F5F5F5F5F5F5F5F5F5F5F5F5F5F5F5
310
F5F5F5F5F5F5F5F5F5F5F5F5F5F5F5F5F5F5F5F5F5F5F5F5F5F5F5F5F5F5F5F5F5F5F5F5F5F5F5F5F5F5F5F5F5F5F5F5F5F5F5F5F5F5F5F5F5F5F5F5F5F5F5F5F5F5F5F5F5F5F5F5E2F5F5F5E2E2EFEFF5F5F5E2F5F5F5F5F5F5F5F5F5F5F5F5F5F5F5F5F5F5F5F5F5F5F5F5F5F5F5F5F5F5F5F5F5F5F5F5F5F5F5F5F5F5F5
310
F5F5F5F5F5F5F5F5F5F5F5F5F5F5F5F5F5F5F5F5F5F5F5F5F5F5F5F5F5F5F5F5F5F5F5F5F5F5F5F5F5F5F5F5F5F5F5F5F5F5F5F5F5F5F5F5F5F5F5F5F5F5F5F5F5F5F5F5F5F5F5F5F5F5F5F5F5F5F5F5F5F5F5F5F5F5F5F5F5F5F5F5F5F5F5F5F5F5F5F5F5F5F5F5F5F5F5F5F5F5F5F5F5F5F5F5F5F5F5F5F5F5F5F5F5E2F5
310
F5F5E2E2EFEFF5F5F5E2F5F5F5F5F5F5F5F5F5F5F5F5F5F5F5F5F5F5F5F5F5F5F5F5F5F5F5F5F5F5F5F5F5F5F5F5F5F5F5F5F5F5F5F5F5F5F5F5F5F5F5F5F5F5F5F5F5F5F5F5F5F5F5F5F5F5F5F5F5F5F5F5F5F5F5F5F5F5F5F5F5F5F5F5F5F5F5F5F5F5F5F5F5F5F5F5F5F5F5F5F5F5F5F5F5F5F5F5F5F5F5F5F5F5F5F5F5
310
F5F5F5F5F5F5F5F5F5F5F5F5F5F5F5F5F5F5F5F5F5F5F5F5F5F5F5F5F5F5F5F5F5F5F5F5F5F5F5F5F5F5F5F5F5F5F5F5F5F5F5E2F5F5F5E2E2EFEFF5F5F5E2F5F5F5F5F5F5F5F5F5F5F5F5F5F5F5F5F5F5F5F5F5F5F5F5F5F5F5F5F5F5F5F5F5F5F5F5F5F5F5F5F5F5F5F5F5F5F5F5F5F5F5F5F5F5F5F5F5F5F5F5F5F5F5F5
310
F5F5F5F5F5F5F5F5F5F5F5F5F5F5F5F5F5F5F5F5F5F5F5F5F5F5F5F5F5F5F5F5F5F5F5F5F5F5F5F5F5F5F5F5F5F5F5F5F5F5F5F5F5F5F5F5F5F5F5F5F5F5F5F5F5F5F5F5F5F5F5F5F5F5F5F5F5F5F5F5F5F5F5F5F5F5F5F5F5F5F5F5F5F5F5F5F5F5F5F5F5F5F5F5E2F5F5F5E2E2EFEFF5F5F5E2F5F5F5F5F5F5F5F5F5F5F5
310
F5F5F5F5F5F5F5F5F5F5F5F5F5F5F5F5F5F5F5F5F5F5F5F5F5F5F5F5F5F5F5F5F5F5F5F5F5F5F5F5F5F5F5F5F5F5F5F5F5F5F5F5F5F5F5F5F5F5F5F5F5F5F5F5F5F5F5F5F5F5F5F5F5F5F5F5F5F5F5F5F5F5F5F5F5F5F5F5F5F5F5F5F5F5F5F5F5F5F5F5F5F5F5F5F5F5F5F5F5F5F5F5F5F5F5F5F5F5F5F5F5F5F5F5F5F5F5
310
F5F5F5F5F5F5F5F5F5F5F5F5F5F5F5F5F5F5F5F5F5F5F5F5F5F5F5F5F5F5E2F5F5F5E2E2EFEFF5F5F5E2E2E2E2E2E2E2E2F5F5F5F5F5F5F5F5F5E2E2E2E2E2E2E2E2E2E2E2E2E2E2E2F5F5F5F5F5F5F5F5F5E2E2E2E2E2E2E2E2E2E2E2E2E2E2E2E2F5F5F5F5F5F5F5F5E2E2E2E2E2E2E2E2E2E2E2E2E2E2E2E2F5F5F5F5F5
310
F5F5F5E2E2E2E2E2E2E2E2E2E2E2E2E2E2E2E2F5F5F5F5F5F5F5F5E2E2E2E2E2E2E2E2E2E2E2E2E2E2E2E2F5F5F5F5F5F5F5F5F5E2E2E2E2E2E2E2E2E2E2E2E2E2E2E2F5F5F5F5F5F5F5F5F5E2E2E2E2E2E2E2E2F5F5F5E2E2EFEFF5F5F5F5F5F5F5F5F5F5F5F5F5F5F5F5F5F5F5F5F5F5F5F5F5F5F5F5F5F5F5F5F5F5F5F5
310
F5F5F5F5F5F5F5F5F5F5F5F5F5F5F5F5F5F5F5F5F5F5F5F5F5F5F5F5F5F5F5F5F5F5F5F5F5F5F5F5F5F5F5F5F5F5F5F5F5F5F5F5F5F5F5F5F5F5F5F5F5F5F5F5F5F5F5F5F5F5F5F5F5F5F5F5F5F5F5F5F5F5F5F5F5F5F5F5F5F5F5F5F5F5F5F5F5F5F5F5F5F5F5F5F5F5F5F5F5F5F5F5F5F5F5F5F5F5F5F5F5F5F5F5F5F5F5
310
F5F5F5F5F5F5F5F5F5F5F5F5F5E2E2EFEFF5F5F5F5F5F5F5F5F5F5F5F5F5F5F5F5F5F5F5F5F5F5F5F5F5F5F5F5F5F5F5F5F5F5F5F5F5F5F5F5F5F5F5F5F5F5F5F5F5F5F5F5F5F5F5F5F5F5F5F5F5F5F5F5F5F5F5F5F5F5F5F5F5F5F5F5F5F5F5F5F5F5F5F5F5F5F5F5F5F5F5F5F5F5F5F5F5F5F5F5F5F5F5F5F5F5F5F5F5F5
310
F5F5F5F5F5F5F5F5F5F5F5F5F5F5F5F5F5F5F5F5F5F5F5F5F5F5F5F5F5F5F5F5F5F5F5F5F5F5F5F5F5F5F5F5F5F5F5F5F5F5F5F5F5F5F5F5F5F5F5F5F5F5F5F5F5F5E2EFEFEFF5F5F5F5F5F5F5F5F5F5F5F5F5F5F5F5F5F5F5F5F5F5F5F5F5F5F5F5F5F5F5F5F5F5F5F5F5F5F5F5F5F5F5F5F5F5F5F5F5F5F5F5F5F5F5F5F5
310
F5F5F5F5F5F5F5F5F5F5F5F5F5F5F5F5F5F5F5F5F5F5F5F5F5F5F5F5F5F5F5F5F5F5F5F5F5F5F5F5F5F5F5F5F5F5F5F5F5F5F5F5F5F5F5F5F5F5F5F5F5F5F5F5F5F5F5F5F5F5F5F5F5F5F5F5F5F5F5F5F5F5F5F5F5F5F5F5F5F5F5F5F5F5F5F5F5F5F5F5F5F5F5F5F5F5F5F5F5F5F5F5F5F5F5F5F5F5F5E2EFEFEFE2E2E2E2
310
E2E2E2E2E2E2E2E2E2E2E2E2E2E2E2E2E2E2E2E2E2E2E2E2E2E2E2E2E2E2E2E2E2E2E2E2E2E2E2E2E2E2E2E2E2E2E2E2E2E2E2E2E2E2E2E2E2E2E2E2E2E2E2E2E2E2E2E2E2E2E2E2E2E2E2E2E2E2E2E2E2E2E2E2E2E2E2E2E2E2E2E2E2E2E2E2E2E2E2E2E2E2E2E2E2E2E2E2E2E2E2E2E2E2E2E2E2E2E2E2E2E2E2E2E2E2E2
310
E2E2E2E2E2E2E2E2E2E2E2E2E2E2E2E2E2E2E2E2E2E2E2E2E2E2E2E2E2E2E2E2E2E2E2E2E2E2E2E2E2E2E2E2E2E2EFEFEF
  0
XRECORD
  5
1F6
102
{ACAD_REACTORS
330
1F4
102
}
330
1F4
100
AcDbXrecord
280
     1
270
     1
271
     1
  0
XRECORD
  5
1F5
102
{ACAD_REACTORS
330
1F4
102
}
330
1F4
100
AcDbXrecord
280
     1
270
     1
271
     1
  0
XRECORD
  5
1F9
102
{ACAD_REACTORS
330
1F4
102
}
330
1F4
100
AcDbXrecord
280
     1
270
     1
271
     1
  0
XRECORD
  5
1F8
102
{ACAD_REACTORS
330
1F4
102
}
330
1F4
100
AcDbXrecord
280
     1
270
     1
271
     1
  0
XRECORD
  5
1FA
102
{ACAD_REACTORS
330
1F4
102
}
330
1F4
100
AcDbXrecord
280
     1
270
     1
271
     1
  0
XRECORD
  5
1F7
102
{ACAD_REACTORS
330
1F4
102
}
330
1F4
100
AcDbXrecord
280
     1
270
     1
271
     1
  0
XRECORD
  5
1EE
102
{ACAD_REACTORS
330
1EC
102
}
330
1EC
100
AcDbXrecord
280
     1
270
     1
271
     1
  0
XRECORD
  5
1ED
102
{ACAD_REACTORS
330
1EC
102
}
330
1EC
100
AcDbXrecord
280
     1
270
     1
271
     1
  0
XRECORD
  5
1F1
102
{ACAD_REACTORS
330
1EC
102
}
330
1EC
100
AcDbXrecord
280
     1
270
     1
271
     1
  0
XRECORD
  5
1F0
102
{ACAD_REACTORS
330
1EC
102
}
330
1EC
100
AcDbXrecord
280
     1
270
     1
271
     1
  0
XRECORD
  5
1F2
102
{ACAD_REACTORS
330
1EC
102
}
330
1EC
100
AcDbXrecord
280
     1
270
     1
271
     1
  0
XRECORD
  5
1EF
102
{ACAD_REACTORS
330
1EC
102
}
330
1EC
100
AcDbXrecord
280
     1
270
     1
271
     1
  0
XRECORD
  5
1FE
102
{ACAD_REACTORS
330
1FC
102
}
330
1FC
100
AcDbXrecord
280
     1
270
     1
271
     1
  0
XRECORD
  5
1FD
102
{ACAD_REACTORS
330
1FC
102
}
330
1FC
100
AcDbXrecord
280
     1
270
     1
271
     1
  0
XRECORD
  5
201
102
{ACAD_REACTORS
330
1FC
102
}
330
1FC
100
AcDbXrecord
280
     1
270
     1
271
     1
  0
XRECORD
  5
200
102
{ACAD_REACTORS
330
1FC
102
}
330
1FC
100
AcDbXrecord
280
     1
270
     1
271
     1
  0
XRECORD
  5
202
102
{ACAD_REACTORS
330
1FC
102
}
330
1FC
100
AcDbXrecord
280
     1
270
     1
271
     1
  0
XRECORD
  5
1FF
102
{ACAD_REACTORS
330
1FC
102
}
330
1FC
100
AcDbXrecord
280
     1
270
     1
271
     1
  0
CELLSTYLEMAP
  5
259
102
{ACAD_REACTORS
330
258
102
}
330
258
100
AcDbCellStyleMap
 90
        3
300
CELLSTYLE
  1
TABLEFORMAT_BEGIN
 90
        5
170
     1
 91
        0
 92
    32768
 62
   257
 93
        1
300
CONTENTFORMAT
  1
CONTENTFORMAT_BEGIN
 90
        0
 91
        0
 92
        4
 93
        0
300

 40
0.0
140
1.0
 94
        5
 62
     0
340
17
144
0.25
309
CONTENTFORMAT_END
171
     0
 94
        6
 95
        1
302
GRIDFORMAT
  1
GRIDFORMAT_BEGIN
 90
        0
 91
        1
 62
     0
 92
       -2
340
0
 93
        0
 40
0.045
309
GRIDFORMAT_END
 95
        2
302
GRIDFORMAT
  1
GRIDFORMAT_BEGIN
 90
        0
 91
        1
 62
     0
 92
       -2
340
0
 93
        0
 40
0.045
309
GRIDFORMAT_END
 95
        4
302
GRIDFORMAT
  1
GRIDFORMAT_BEGIN
 90
        0
 91
        1
 62
     0
 92
       -2
340
0
 93
        0
 40
0.045
309
GRIDFORMAT_END
 95
        8
302
GRIDFORMAT
  1
GRIDFORMAT_BEGIN
 90
        0
 91
        1
 62
     0
 92
       -2
340
0
 93
        0
 40
0.045
309
GRIDFORMAT_END
 95
       16
302
GRIDFORMAT
  1
GRIDFORMAT_BEGIN
 90
        0
 91
        1
 62
     0
 92
       -2
340
0
 93
        0
 40
0.045
309
GRIDFORMAT_END
 95
       32
302
GRIDFORMAT
  1
GRIDFORMAT_BEGIN
 90
        0
 91
        1
 62
     0
 92
       -2
340
0
 93
        0
 40
0.045
309
GRIDFORMAT_END
309
TABLEFORMAT_END
  1
CELLSTYLE_BEGIN
 90
        1
 91
        1
300
_TITLE
309
CELLSTYLE_END
300
CELLSTYLE
  1
TABLEFORMAT_BEGIN
 90
        5
170
     1
 91
        0
 92
        0
 62
   257
 93
        1
300
CONTENTFORMAT
  1
CONTENTFORMAT_BEGIN
 90
        0
 91
        0
 92
        4
 93
        0
300

 40
0.0
140
1.0
 94
        5
 62
     0
340
17
144
0.18
309
CONTENTFORMAT_END
171
     0
 94
        6
 95
        1
302
GRIDFORMAT
  1
GRIDFORMAT_BEGIN
 90
        0
 91
        1
 62
     0
 92
       -2
340
0
 93
        0
 40
0.045
309
GRIDFORMAT_END
 95
        2
302
GRIDFORMAT
  1
GRIDFORMAT_BEGIN
 90
        0
 91
        1
 62
     0
 92
       -2
340
0
 93
        0
 40
0.045
309
GRIDFORMAT_END
 95
        4
302
GRIDFORMAT
  1
GRIDFORMAT_BEGIN
 90
        0
 91
        1
 62
     0
 92
       -2
340
0
 93
        0
 40
0.045
309
GRIDFORMAT_END
 95
        8
302
GRIDFORMAT
  1
GRIDFORMAT_BEGIN
 90
        0
 91
        1
 62
     0
 92
       -2
340
0
 93
        0
 40
0.045
309
GRIDFORMAT_END
 95
       16
302
GRIDFORMAT
  1
GRIDFORMAT_BEGIN
 90
        0
 91
        1
 62
     0
 92
       -2
340
0
 93
        0
 40
0.045
309
GRIDFORMAT_END
 95
       32
302
GRIDFORMAT
  1
GRIDFORMAT_BEGIN
 90
        0
 91
        1
 62
     0
 92
       -2
340
0
 93
        0
 40
0.045
309
GRIDFORMAT_END
309
TABLEFORMAT_END
  1
CELLSTYLE_BEGIN
 90
        2
 91
        1
300
_HEADER
309
CELLSTYLE_END
300
CELLSTYLE
  1
TABLEFORMAT_BEGIN
 90
        5
170
     1
 91
        0
 92
        0
 62
   257
 93
        1
300
CONTENTFORMAT
  1
CONTENTFORMAT_BEGIN
 90
        0
 91
        0
 92
        4
 93
        0
300

 40
0.0
140
1.0
 94
        2
 62
     0
340
17
144
0.18
309
CONTENTFORMAT_END
171
     0
 94
        6
 95
        1
302
GRIDFORMAT
  1
GRIDFORMAT_BEGIN
 90
        0
 91
        1
 62
     0
 92
       -2
340
0
 93
        0
 40
0.045
309
GRIDFORMAT_END
 95
        2
302
GRIDFORMAT
  1
GRIDFORMAT_BEGIN
 90
        0
 91
        1
 62
     0
 92
       -2
340
0
 93
        0
 40
0.045
309
GRIDFORMAT_END
 95
        4
302
GRIDFORMAT
  1
GRIDFORMAT_BEGIN
 90
        0
 91
        1
 62
     0
 92
       -2
340
0
 93
        0
 40
0.045
309
GRIDFORMAT_END
 95
        8
302
GRIDFORMAT
  1
GRIDFORMAT_BEGIN
 90
        0
 91
        1
 62
     0
 92
       -2
340
0
 93
        0
 40
0.045
309
GRIDFORMAT_END
 95
       16
302
GRIDFORMAT
  1
GRIDFORMAT_BEGIN
 90
        0
 91
        1
 62
     0
 92
       -2
340
0
 93
        0
 40
0.045
309
GRIDFORMAT_END
 95
       32
302
GRIDFORMAT
  1
GRIDFORMAT_BEGIN
 90
        0
 91
        1
 62
     0
 92
       -2
340
0
 93
        0
 40
0.045
309
GRIDFORMAT_END
309
TABLEFORMAT_END
  1
CELLSTYLE_BEGIN
 90
        3
 91
        2
300
_DATA
309
CELLSTYLE_END
  0
ENDSEC
  0
EOF
