  0
SECTION
  2
HEADER
  9
$ACADVER
  1
AC1018
  9
$ACADMAINTVER
 70
   104
  9
$DWGCODEPAGE
  3
ANSI_1252
  9
$LASTSAVEDBY
  1
EARL
  9
$INSBASE
 10
0.0
 20
0.0
 30
0.0
  9
$EXTMIN
 10
-2.104453563690185
 20
-0.2182955879880309
 30
0.0
  9
$EXTMAX
 10
2.072126171100691
 20
0.9650298613732843
 30
0.0
  9
$LIMMIN
 10
0.0
 20
0.0
  9
$LIMMAX
 10
0.0
 20
0.0
  9
$ORTHOMODE
 70
     1
  9
$REGENMODE
 70
     1
  9
$FILLMODE
 70
     1
  9
$QTEXTMODE
 70
     0
  9
$MIRRTEXT
 70
     1
  9
$LTSCALE
 40
1.0
  9
$ATTMODE
 70
     1
  9
$TEXTSIZE
 40
0.0
  9
$TRACEWID
 40
0.05
  9
$TEXTSTYLE
  7
Standard
  9
$CLAYER
  8
0
  9
$CELTYPE
  6
Continuous
  9
$CECOLOR
 62
   256
  9
$CELTSCALE
 40
1.0
  9
$DISPSILH
 70
     0
  9
$DIMSCALE
 40
1.0
  9
$DIMASZ
 40
0.18
  9
$DIMEXO
 40
0.0625
  9
$DIMDLI
 40
0.38
  9
$DIMRND
 40
0.0
  9
$DIMDLE
 40
0.0
  9
$DIMEXE
 40
0.18
  9
$DIMTP
 40
0.0
  9
$DIMTM
 40
0.0
  9
$DIMTXT
 40
0.18
  9
$DIMCEN
 40
0.09
  9
$DIMTSZ
 40
0.0
  9
$DIMTOL
 70
     0
  9
$DIMLIM
 70
     0
  9
$DIMTIH
 70
     1
  9
$DIMTOH
 70
     1
  9
$DIMSE1
 70
     0
  9
$DIMSE2
 70
     0
  9
$DIMTAD
 70
     0
  9
$DIMZIN
 70
     0
  9
$DIMBLK
  1

  9
$DIMASO
 70
     1
  9
$DIMSHO
 70
     1
  9
$DIMPOST
  1

  9
$DIMAPOST
  1

  9
$DIMALT
 70
     0
  9
$DIMALTD
 70
     2
  9
$DIMALTF
 40
25.4
  9
$DIMLFAC
 40
1.0
  9
$DIMTOFL
 70
     0
  9
$DIMTVP
 40
0.0
  9
$DIMTIX
 70
     0
  9
$DIMSOXD
 70
     0
  9
$DIMSAH
 70
     0
  9
$DIMBLK1
  1

  9
$DIMBLK2
  1

  9
$DIMSTYLE
  2
Standard
  9
$DIMCLRD
 70
     0
  9
$DIMCLRE
 70
     0
  9
$DIMCLRT
 70
     0
  9
$DIMTFAC
 40
1.0
  9
$DIMGAP
 40
0.09
  9
$DIMJUST
 70
     0
  9
$DIMSD1
 70
     0
  9
$DIMSD2
 70
     0
  9
$DIMTOLJ
 70
     1
  9
$DIMTZIN
 70
     0
  9
$DIMALTZ
 70
     0
  9
$DIMALTTZ
 70
     0
  9
$DIMUPT
 70
     0
  9
$DIMDEC
 70
     4
  9
$DIMTDEC
 70
     4
  9
$DIMALTU
 70
     2
  9
$DIMALTTD
 70
     2
  9
$DIMTXSTY
  7
Standard
  9
$DIMAUNIT
 70
     0
  9
$DIMADEC
 70
     0
  9
$DIMALTRND
 40
0.0
  9
$DIMAZIN
 70
     0
  9
$DIMDSEP
 70
    46
  9
$DIMATFIT
 70
     0
  9
$DIMFRAC
 70
     0
  9
$DIMLDRBLK
  1

  9
$DIMLUNIT
 70
     2
  9
$DIMLWD
 70
    -2
  9
$DIMLWE
 70
    -2
  9
$DIMTMOVE
 70
     0
  9
$LUNITS
 70
     2
  9
$LUPREC
 70
     4
  9
$SKETCHINC
 40
0.1
  9
$FILLETRAD
 40
0.0
  9
$AUNITS
 70
     0
  9
$AUPREC
 70
     0
  9
$MENU
  1
acad
  9
$ELEVATION
 40
0.0
  9
$PELEVATION
 40
0.0
  9
$THICKNESS
 40
0.0
  9
$LIMCHECK
 70
     0
  9
$CHAMFERA
 40
0.0
  9
$CHAMFERB
 40
0.0
  9
$CHAMFERC
 40
0.0
  9
$CHAMFERD
 40
0.0
  9
$SKPOLY
 70
     0
  9
$TDCREATE
 40
2454516.616574074
  9
$TDUCREATE
 40
2454516.783240741
  9
$TDUPDATE
 40
2455104.954901620
  9
$TDUUPDATE
 40
2455105.121568287
  9
$TDINDWG
 40
0.0006009491
  9
$TDUSRTIMER
 40
0.0006009491
  9
$USRTIMER
 70
     1
  9
$ANGBASE
 50
0.0
  9
$ANGDIR
 70
     0
  9
$PDMODE
 70
     0
  9
$PDSIZE
 40
0.0
  9
$PLINEWID
 40
0.0
  9
$SPLFRAME
 70
     0
  9
$SPLINETYPE
 70
     6
  9
$SPLINESEGS
 70
     8
  9
$HANDSEED
  5
1D0
  9
$SURFTAB1
 70
     6
  9
$SURFTAB2
 70
     6
  9
$SURFTYPE
 70
     6
  9
$SURFU
 70
     6
  9
$SURFV
 70
     6
  9
$UCSBASE
  2

  9
$UCSNAME
  2

  9
$UCSORG
 10
0.0
 20
0.0
 30
0.0
  9
$UCSXDIR
 10
1.0
 20
0.0
 30
0.0
  9
$UCSYDIR
 10
0.0
 20
1.0
 30
0.0
  9
$UCSORTHOREF
  2

  9
$UCSORTHOVIEW
 70
     0
  9
$UCSORGTOP
 10
0.0
 20
0.0
 30
0.0
  9
$UCSORGBOTTOM
 10
0.0
 20
0.0
 30
0.0
  9
$UCSORGLEFT
 10
0.0
 20
0.0
 30
0.0
  9
$UCSORGRIGHT
 10
0.0
 20
0.0
 30
0.0
  9
$UCSORGFRONT
 10
0.0
 20
0.0
 30
0.0
  9
$UCSORGBACK
 10
0.0
 20
0.0
 30
0.0
  9
$PUCSBASE
  2

  9
$PUCSNAME
  2

  9
$PUCSORG
 10
0.0
 20
0.0
 30
0.0
  9
$PUCSXDIR
 10
1.0
 20
0.0
 30
0.0
  9
$PUCSYDIR
 10
0.0
 20
1.0
 30
0.0
  9
$PUCSORTHOREF
  2

  9
$PUCSORTHOVIEW
 70
     0
  9
$PUCSORGTOP
 10
0.0
 20
0.0
 30
0.0
  9
$PUCSORGBOTTOM
 10
0.0
 20
0.0
 30
0.0
  9
$PUCSORGLEFT
 10
0.0
 20
0.0
 30
0.0
  9
$PUCSORGRIGHT
 10
0.0
 20
0.0
 30
0.0
  9
$PUCSORGFRONT
 10
0.0
 20
0.0
 30
0.0
  9
$PUCSORGBACK
 10
0.0
 20
0.0
 30
0.0
  9
$USERI1
 70
     0
  9
$USERI2
 70
     0
  9
$USERI3
 70
     0
  9
$USERI4
 70
     0
  9
$USERI5
 70
     0
  9
$USERR1
 40
0.0
  9
$USERR2
 40
0.0
  9
$USERR3
 40
0.0
  9
$USERR4
 40
0.0
  9
$USERR5
 40
0.0
  9
$WORLDVIEW
 70
     1
  9
$SHADEDGE
 70
     3
  9
$SHADEDIF
 70
    70
  9
$TILEMODE
 70
     0
  9
$MAXACTVP
 70
    16
  9
$PINSBASE
 10
0.0
 20
0.0
 30
0.0
  9
$PLIMCHECK
 70
     0
  9
$PEXTMIN
 10
-0.1406330573877526
 20
-0.0786567622131429
 30
-0.0015258207003583
  9
$PEXTMAX
 10
10.46679405276344
 20
7.979776347270039
 30
0.0000000349246037
  9
$PLIMMIN
 10
-0.3280945746555161
 20
-0.2818067443045545
  9
$PLIMMAX
 10
10.67190518504859
 20
8.218193015399554
  9
$UNITMODE
 70
     0
  9
$VISRETAIN
 70
     0
  9
$PLINEGEN
 70
     1
  9
$PSLTSCALE
 70
     0
  9
$TREEDEPTH
 70
  3020
  9
$CMLSTYLE
  2
Standard
  9
$CMLJUST
 70
     0
  9
$CMLSCALE
 40
1.0
  9
$PROXYGRAPHICS
 70
     0
  9
$MEASUREMENT
 70
     0
  9
$CELWEIGHT
370
     0
  9
$ENDCAPS
280
     0
  9
$JOINSTYLE
280
     0
  9
$LWDISPLAY
290
     0
  9
$INSUNITS
 70
     0
  9
$HYPERLINKBASE
  1

  9
$STYLESHEET
  1

  9
$XEDIT
290
     1
  9
$CEPSNTYPE
380
     0
  9
$PSTYLEMODE
290
     1
  9
$FINGERPRINTGUID
  2

  9
$VERSIONGUID
  2
{C2B658CF-2B54-4F5D-ADAC-9B5F0BAFEA13}
  9
$EXTNAMES
290
     1
  9
$PSVPSCALE
 40
0.0
  9
$OLESTARTUP
290
     0
  9
$SORTENTS
280
   127
  9
$INDEXCTL
280
     0
  9
$HIDETEXT
280
     0
  9
$XCLIPFRAME
290
     0
  9
$HALOGAP
280
     0
  9
$OBSCOLOR
 70
   257
  9
$OBSLTYPE
280
     0
  9
$INTERSECTIONDISPLAY
280
     0
  9
$INTERSECTIONCOLOR
 70
   257
  9
$DIMASSOC
280
     1
  9
$PROJECTNAME
  1

  0
ENDSEC
  0
SECTION
  2
CLASSES
  0
CLASS
  1
IMAGE
  2
AcDbRasterImage
  3
ISM
 90
     2175
 91
        0
280
     0
281
     1
  0
CLASS
  1
DICTIONARYVAR
  2
AcDbDictionaryVar
  3
ObjectDBX Classes
 90
        0
 91
        6
280
     0
281
     0
  0
CLASS
  1
RASTERVARIABLES
  2
AcDbRasterVariables
  3
ISM
 90
        0
 91
        0
280
     0
281
     0
  0
CLASS
  1
IMAGEDEF
  2
AcDbRasterImageDef
  3
ISM
 90
        0
 91
        0
280
     0
281
     0
  0
CLASS
  1
IMAGEDEF_REACTOR
  2
AcDbRasterImageDefReactor
  3
ISM
 90
        1
 91
        0
280
     0
281
     0
  0
CLASS
  1
IDBUFFER
  2
AcDbIdBuffer
  3
ObjectDBX Classes
 90
        0
 91
        0
280
     0
281
     0
  0
CLASS
  1
SPATIAL_FILTER
  2
AcDbSpatialFilter
  3
ObjectDBX Classes
 90
        0
 91
        0
280
     0
281
     0
  0
CLASS
  1
SORTENTSTABLE
  2
AcDbSortentsTable
  3
ObjectDBX Classes
 90
        0
 91
        1
280
     0
281
     0
  0
CLASS
  1
LAYER_INDEX
  2
AcDbLayerIndex
  3
ObjectDBX Classes
 90
        0
 91
        0
280
     0
281
     0
  0
CLASS
  1
SPATIAL_INDEX
  2
AcDbSpatialIndex
  3
ObjectDBX Classes
 90
        0
 91
        0
280
     0
281
     0
  0
CLASS
  1
OBJECT_PTR
  2
CAseDLPNTableRecord
  3
ASE-LPNTableRecord
 90
        1
 91
        0
280
     0
281
     0
  0
CLASS
  1
PLOTSETTINGS
  2
AcDbPlotSettings
  3
ObjectDBX Classes
 90
        0
 91
        0
280
     0
281
     0
  0
CLASS
  1
ACDBDICTIONARYWDFLT
  2
AcDbDictionaryWithDefault
  3
ObjectDBX Classes
 90
        0
 91
        1
280
     0
281
     0
  0
CLASS
  1
WIPEOUT
  2
AcDbWipeout
  3
"WipeOut|Product Desc: Object Enabler for WipeOut entity                        |Company: Autodesk, Inc.                        |WEB Address: www.autodesk.com"
 90
     2175
 91
        0
280
     0
281
     1
  0
CLASS
  1
WIPEOUTVARIABLES
  2
AcDbWipeoutVariables
  3
"WipeOut|Product Desc:     WipeOut Dbx Application|Company:          Autodesk, Inc.|WEB Address:      www.autodesk.com"
 90
        0
 91
        1
280
     0
281
     0
  0
CLASS
  1
RTEXT
  2
RText
  3
RText|AutoCAD Express Tool|expresstools@autodesk.com
 90
        0
 91
        0
280
     0
281
     1
  0
CLASS
  1
ARCALIGNEDTEXT
  2
AcDbArcAlignedText
  3
ATEXT|AutoCAD Express Tool|expresstools@autodesk.com
 90
        0
 91
        0
280
     0
281
     1
  0
CLASS
  1
MATERIAL
  2
AcDbMaterial
  3
ObjectDBX Classes
 90
     1153
 91
        3
280
     0
281
     0
  0
CLASS
  1
VISUALSTYLE
  2
AcDbVisualStyle
  3
ObjectDBX Classes
 90
     4095
 91
       16
280
     0
281
     0
  0
CLASS
  1
TABLESTYLE
  2
AcDbTableStyle
  3
ObjectDBX Classes
 90
     4095
 91
        1
280
     0
281
     0
  0
CLASS
  1
SCALE
  2
AcDbScale
  3
ObjectDBX Classes
 90
     1153
 91
       33
280
     0
281
     0
  0
CLASS
  1
MLEADERSTYLE
  2
AcDbMLeaderStyle
  3
ACDB_MLEADERSTYLE_CLASS
 90
     4095
 91
        1
280
     0
281
     0
  0
CLASS
  1
CELLSTYLEMAP
  2
AcDbCellStyleMap
  3
ObjectDBX Classes
 90
     1152
 91
        2
280
     0
281
     0
  0
ENDSEC
  0
SECTION
  2
TABLES
  0
TABLE
  2
VPORT
  5
7
330
0
100
AcDbSymbolTable
 70
     1
  0
VPORT
  5
15
330
7
100
AcDbSymbolTableRecord
100
AcDbViewportTableRecord
  2
*ACTIVE
 70
     0
 10
0.0
 20
0.0
 11
1.0
 21
1.0
 12
12.09279514460998
 22
4.579183999999999
 13
0.0
 23
0.0
 14
1.0
 24
1.0
 15
0.0
 25
0.0
 16
0.0
 26
0.0
 36
1.0
 17
0.0
 27
0.0
 37
0.0
 40
9.158369
 41
1.889980353634577
 42
50.0
 43
0.0
 44
0.0
 50
0.0
 51
0.0
 71
     0
 72
   100
 73
     1
 74
     1
 75
     0
 76
     0
 77
     0
 78
     0
281
     0
 65
     0
110
0.0
120
0.0
130
0.0
111
1.0
121
0.0
131
0.0
112
0.0
122
1.0
132
0.0
 79
     0
146
0.0
  0
ENDTAB
  0
TABLE
  2
LTYPE
  5
4
330
0
100
AcDbSymbolTable
 70
     5
  0
LTYPE
  5
11
330
4
100
AcDbSymbolTableRecord
100
AcDbLinetypeTableRecord
  2
ByBlock
 70
     0
  3

 72
    65
 73
     0
 40
0.0
  0
LTYPE
  5
12
330
4
100
AcDbSymbolTableRecord
100
AcDbLinetypeTableRecord
  2
ByLayer
 70
     0
  3

 72
    65
 73
     0
 40
0.0
  0
LTYPE
  5
13
330
4
100
AcDbSymbolTableRecord
100
AcDbLinetypeTableRecord
  2
Continuous
 70
     0
  3
Solid line
 72
    65
 73
     0
 40
0.0
  0
LTYPE
  5
24
330
4
100
AcDbSymbolTableRecord
100
AcDbLinetypeTableRecord
  2
solid
 70
     0
  3

 72
    65
 73
     0
 40
0.0
  0
LTYPE
  5
25
330
4
100
AcDbSymbolTableRecord
100
AcDbLinetypeTableRecord
  2
dashed
 70
     0
  3

 72
    65
 73
     0
 40
0.0
  0
LTYPE
  5
26
330
4
100
AcDbSymbolTableRecord
100
AcDbLinetypeTableRecord
  2
center
 70
     0
  3

 72
    65
 73
     0
 40
0.0
  0
ENDTAB
  0
TABLE
  2
LAYER
  5
2
330
0
100
AcDbSymbolTable
 70
     2
  0
LAYER
  5
14
102
{ACAD_XDICTIONARY
360
196
102
}
330
2
100
AcDbSymbolTableRecord
100
AcDbLayerTableRecord
  2
0
 70
     0
 62
     7
  6
Continuous
370
    -3
390
1D
  0
LAYER
  5
27
102
{ACAD_XDICTIONARY
360
198
102
}
330
2
100
AcDbSymbolTableRecord
100
AcDbLayerTableRecord
  2
1
 70
     0
 62
     1
  6
solid
370
    -3
390
1D
  0
ENDTAB
  0
TABLE
  2
STYLE
  5
3
330
0
100
AcDbSymbolTable
 70
     2
  0
STYLE
  5
17
330
3
100
AcDbSymbolTableRecord
100
AcDbTextStyleTableRecord
  2
Standard
 70
     0
 40
0.0
 41
1.0
 50
0.0
 71
     0
 42
0.0
  3
txt
  4

  0
ENDTAB
  0
TABLE
  2
VIEW
  5
5
330
0
100
AcDbSymbolTable
 70
     0
  0
ENDTAB
  0
TABLE
  2
UCS
  5
6
330
0
100
AcDbSymbolTable
 70
     0
  0
ENDTAB
  0
TABLE
  2
APPID
  5
8
330
0
100
AcDbSymbolTable
 70
     5
  0
APPID
  5
16
330
8
100
AcDbSymbolTableRecord
100
AcDbRegAppTableRecord
  2
ACAD
 70
     0
  0
APPID
  5
189
330
8
100
AcDbSymbolTableRecord
100
AcDbRegAppTableRecord
  2
ACAD_MLEADERVER
 70
     0
  0
APPID
  5
191
330
8
100
AcDbSymbolTableRecord
100
AcDbRegAppTableRecord
  2
ACAD_PSEXT
 70
     0
  0
APPID
  5
1AC
330
8
100
AcDbSymbolTableRecord
100
AcDbRegAppTableRecord
  2
ACAD_EXEMPT_FROM_CAD_STANDARDS
 70
     0
  0
APPID
  5
1B4
330
8
100
AcDbSymbolTableRecord
100
AcDbRegAppTableRecord
  2
DCO15
 70
     0
  0
ENDTAB
  0
TABLE
  2
DIMSTYLE
  5
9
330
0
100
AcDbSymbolTable
 70
     3
100
AcDbDimStyleTable
 71
     1
340
18
  0
DIMSTYLE
105
18
102
{ACAD_REACTORS
330
45
102
}
330
9
100
AcDbSymbolTableRecord
100
AcDbDimStyleTableRecord
  2
Standard
 70
     0
289
     0
340
17
  0
ENDTAB
  0
TABLE
  2
BLOCK_RECORD
  5
1
330
0
100
AcDbSymbolTable
 70
     4
  0
BLOCK_RECORD
  5
A
102
{ACAD_XDICTIONARY
360
1A9
102
}
330
1
100
AcDbSymbolTableRecord
100
AcDbBlockTableRecord
  2
*MODEL_SPACE
340
20
  0
BLOCK_RECORD
  5
B
330
1
100
AcDbSymbolTableRecord
100
AcDbBlockTableRecord
  2
*PAPER_SPACE
340
21
  0
BLOCK_RECORD
  5
30
330
1
100
AcDbSymbolTableRecord
100
AcDbBlockTableRecord
  2
*D0
340
0
  0
BLOCK_RECORD
  5
3B
330
1
100
AcDbSymbolTableRecord
100
AcDbBlockTableRecord
  2
*D1
340
0
  0
ENDTAB
  0
ENDSEC
  0
SECTION
  2
BLOCKS
  0
BLOCK
  5
D
330
A
100
AcDbEntity
  8
0
100
AcDbBlockBegin
  2
*MODEL_SPACE
 70
     0
 10
0.0
 20
0.0
 30
0.0
  3
*MODEL_SPACE
  1

  0
ENDBLK
  5
E
330
A
100
AcDbEntity
  8
0
100
AcDbBlockEnd
  0
BLOCK
  5
F
330
B
100
AcDbEntity
 67
     1
  8
0
100
AcDbBlockBegin
  2
*PAPER_SPACE
 70
     0
 10
0.0
 20
0.0
 30
0.0
  3
*PAPER_SPACE
  1

  0
ENDBLK
  5
10
330
B
100
AcDbEntity
 67
     1
  8
0
100
AcDbBlockEnd
  0
BLOCK
  5
31
330
30
100
AcDbEntity
  8
1
  6
solid
 62
     0
100
AcDbBlockBegin
  2
*D0
 70
     0
 10
0.0
 20
0.0
 30
0.0
  3
*D0
  1

  0
LINE
  5
32
330
30
100
AcDbEntity
  8
1
  6
solid
 62
     0
100
AcDbLine
 10
-2.104453563690185
 20
-0.1186085911467671
 30
0.0
 11
-2.104453563690185
 21
-0.2182955879880308
 31
0.0
  0
LINE
  5
33
330
30
100
AcDbEntity
  8
1
  6
solid
 62
     0
100
AcDbLine
 10
-0.7294535040855408
 20
-0.1186085911467671
 30
0.0
 11
-0.7294535040855408
 21
-0.2182955879880308
 31
0.0
  0
LINE
  5
34
330
30
100
AcDbEntity
  8
1
  6
solid
 62
     0
100
AcDbLine
 10
-2.104453563690185
 20
-0.1557955879880308
 30
0.0
 11
-1.649145579342408
 21
-0.1557955879880308
 31
0.0
  0
LINE
  5
35
330
30
100
AcDbEntity
  8
1
  6
solid
 62
     0
100
AcDbLine
 10
-0.7294535040855408
 20
-0.1557955879880308
 30
0.0
 11
-1.184761488433317
 21
-0.1557955879880308
 31
0.0
  0
MTEXT
  5
36
330
30
100
AcDbEntity
  8
1
  6
solid
 62
     0
100
AcDbMText
 10
-1.416953533887863
 20
-0.1557955879880308
 30
0.0
 40
0.125
 41
0.0
 71
     5
 72
     1
  1
{\H0.125000;1 3/8}
 73
     1
 44
1.0
  0
SOLID
  5
37
330
30
100
AcDbEntity
  8
1
  6
solid
 62
     0
100
AcDbTrace
 10
-2.062823563690185
 20
-0.1349805879880308
 30
0.0
 11
-2.062823563690185
 21
-0.1766105879880309
 31
0.0
 12
-2.104453563690185
 22
-0.1557955879880308
 32
0.0
 13
-2.104453563690185
 23
-0.1557955879880308
 33
0.0
  0
SOLID
  5
38
330
30
100
AcDbEntity
  8
1
  6
solid
 62
     0
100
AcDbTrace
 10
-0.7710835040855408
 20
-0.1766105879880309
 30
0.0
 11
-0.7710835040855409
 21
-0.1349805879880308
 31
0.0
 12
-0.7294535040855408
 22
-0.1557955879880308
 32
0.0
 13
-0.7294535040855408
 23
-0.1557955879880308
 33
0.0
  0
ENDBLK
  5
39
330
30
100
AcDbEntity
  8
1
  6
solid
 62
     0
100
AcDbBlockEnd
  0
BLOCK
  5
3C
330
3B
100
AcDbEntity
  8
1
  6
solid
 62
     0
100
AcDbBlockBegin
  2
*D1
 70
     0
 10
0.0
 20
0.0
 30
0.0
  3
*D1
  1

  0
LINE
  5
3D
330
3B
100
AcDbEntity
  8
1
  6
solid
 62
     0
100
AcDbLine
 10
-0.6044535040855408
 20
0.0063914088532328
 30
0.0
 11
-0.4205929409046198
 21
0.0063914088532327
 31
0.0
  0
LINE
  5
3E
330
3B
100
AcDbEntity
  8
1
  6
solid
 62
     0
100
AcDbLine
 10
-0.6044535284290645
 20
0.7563914087276129
 30
0.0
 11
-0.4205929409046191
 21
0.7563914087276129
 31
0.0
  0
LINE
  5
3F
330
3B
100
AcDbEntity
  8
1
  6
solid
 62
     0
100
AcDbLine
 10
-0.4830929409046198
 20
0.0063914088532328
 30
0.0
 11
-0.4830929409046196
 21
0.2514851587904228
 31
0.0
  0
LINE
  5
40
330
3B
100
AcDbEntity
  8
1
  6
solid
 62
     0
100
AcDbLine
 10
-0.4830929409046191
 20
0.7563914087276129
 30
0.0
 11
-0.4830929409046193
 21
0.5112976587904229
 31
0.0
  0
MTEXT
  5
41
330
3B
100
AcDbEntity
  8
1
  6
solid
 62
     0
100
AcDbMText
 10
-0.4830929409046194
 20
0.3813914087904228
 30
0.0
 40
0.125
 41
0.0
 71
     5
 72
     1
  1
{\H0.125000;3/4}
 73
     1
 44
1.0
  0
SOLID
  5
42
330
3B
100
AcDbEntity
  8
1
  6
solid
 62
     0
100
AcDbTrace
 10
-0.5039079409046197
 20
0.0480214088532328
 30
0.0
 11
-0.4622779409046197
 21
0.0480214088532327
 31
0.0
 12
-0.4830929409046198
 22
0.0063914088532328
 32
0.0
 13
-0.4830929409046198
 23
0.0063914088532328
 33
0.0
  0
SOLID
  5
43
330
3B
100
AcDbEntity
  8
1
  6
solid
 62
     0
100
AcDbTrace
 10
-0.4622779409046192
 20
0.7147614087276129
 30
0.0
 11
-0.5039079409046192
 21
0.714761408727613
 31
0.0
 12
-0.4830929409046191
 22
0.7563914087276129
 32
0.0
 13
-0.4830929409046191
 23
0.7563914087276129
 33
0.0
  0
ENDBLK
  5
44
330
3B
100
AcDbEntity
  8
1
  6
solid
 62
     0
100
AcDbBlockEnd
  0
ENDSEC
  0
SECTION
  2
ENTITIES
  0
LINE
  5
28
330
A
100
AcDbEntity
  8
1
  6
solid
 62
     0
100
AcDbLine
 10
1.374999999999999
 20
0.75
 30
0.0
 11
1.375
 21
0.0
 31
0.0
  0
LINE
  5
29
330
A
100
AcDbEntity
  8
1
  6
solid
 62
     0
100
AcDbLine
 10
1.375
 20
0.0
 30
0.0
 11
0.0
 21
0.0
 31
0.0
  0
LINE
  5
2A
330
A
100
AcDbEntity
  8
1
  6
solid
 62
     0
100
AcDbLine
 10
0.0
 20
0.0
 30
0.0
 11
0.0
 21
0.75
 31
0.0
  0
LINE
  5
2B
330
A
100
AcDbEntity
  8
1
  6
solid
 62
     0
100
AcDbLine
 10
-0.7294535284290645
 20
0.756391408727613
 30
0.0
 11
-0.7294535284290645
 21
0.006391408727613
 31
0.0
  0
LINE
  5
2C
330
A
100
AcDbEntity
  8
1
  6
solid
 62
     0
100
AcDbLine
 10
-0.7294535284290645
 20
0.006391408727613
 30
0.0
 11
-2.104453528429064
 21
0.006391408727613
 31
0.0
  0
LINE
  5
2D
330
A
100
AcDbEntity
  8
1
  6
solid
 62
     0
100
AcDbLine
 10
-2.104453528429064
 20
0.006391408727613
 30
0.0
 11
-2.104453528429064
 21
0.756391408727613
 31
0.0
  0
LINE
  5
2E
330
A
100
AcDbEntity
  8
1
  6
solid
 62
     0
100
AcDbLine
 10
2.072126171100691
 20
0.9650298613732841
 30
0.0
 11
2.072126171100691
 21
0.2150298613732843
 31
0.0
  0
LINE
  5
2F
330
A
100
AcDbEntity
  8
1
  6
solid
 62
     0
100
AcDbLine
 10
1.375
 20
0.0
 30
0.0
 11
2.072126150131225
 21
0.2150298655033112
 31
0.0
  0
DIMENSION
  5
45
330
A
100
AcDbEntity
  8
1
  6
solid
 62
     0
100
AcDbDimension
  2
*D1
 10
-0.4830929409046194
 20
0.3813914087904228
 30
0.0
 11
-0.4830929409046194
 21
0.3813914087904228
 31
0.0
 70
    33
 71
     5
 42
0.7499999998743802
  3
Standard
100
AcDbAlignedDimension
 13
-0.7294535284290645
 23
0.756391408727613
 33
0.0
 14
-0.7294535040855408
 24
0.0063914088532329
 34
0.0
1001
ACAD
1000
DSTYLE
1002
{
1070
    41
1040
0.04163
1070
    42
1040
0.125
1070
    44
1040
0.0625
1070
    47
1040
0.0005
1070
    48
1040
0.0005
1070
    75
1070
     1
1070
    76
1070
     1
1070
   140
1040
0.125
1070
   146
1040
0.5
1070
   174
1070
     1
1070
   270
1070
     5
1070
   271
1070
     3
1070
   272
1070
     3
1070
   277
1070
     5
1002
}
  0
LINE
  5
46
330
A
100
AcDbEntity
  8
1
  6
solid
 62
     0
100
AcDbLine
 10
0.5101895127417599
 20
0.3607112879080865
 30
0.0
 11
0.5101895127417599
 21
0.3809937398311634
 31
0.0
  0
LINE
  5
47
330
A
100
AcDbEntity
  8
1
  6
solid
 62
     0
100
AcDbLine
 10
0.5101895127417599
 20
0.3809937398311634
 30
0.0
 11
0.5248953950947011
 21
0.3809937398311634
 31
0.0
  0
LINE
  5
48
330
A
100
AcDbEntity
  8
1
  6
solid
 62
     0
100
AcDbLine
 10
0.5248953950947011
 20
0.3809937398311634
 30
0.0
 11
0.5248953950947011
 21
0.4966788359850096
 31
0.0
  0
LINE
  5
49
330
A
100
AcDbEntity
  8
1
  6
solid
 62
     0
100
AcDbLine
 10
0.5248953950947011
 20
0.4966788359850096
 30
0.0
 11
0.5101895127417599
 21
0.4966788359850096
 31
0.0
  0
LINE
  5
4A
330
A
100
AcDbEntity
  8
1
  6
solid
 62
     0
100
AcDbLine
 10
0.5101895127417599
 20
0.4966788359850096
 30
0.0
 11
0.5101895127417599
 21
0.5169612879080865
 31
0.0
  0
LINE
  5
4B
330
A
100
AcDbEntity
  8
1
  6
solid
 62
     0
100
AcDbLine
 10
0.5101895127417599
 20
0.5169612879080865
 30
0.0
 11
0.5549199048986227
 21
0.5169612879080865
 31
0.0
  0
LINE
  5
4C
330
A
100
AcDbEntity
  8
1
  6
solid
 62
     0
100
AcDbLine
 10
0.5549199048986227
 20
0.5169612879080865
 30
0.0
 11
0.5549199048986227
 21
0.4966788359850096
 31
0.0
  0
LINE
  5
4D
330
A
100
AcDbEntity
  8
1
  6
solid
 62
     0
100
AcDbLine
 10
0.5549199048986227
 20
0.4966788359850096
 30
0.0
 11
0.5420522578397992
 21
0.4966788359850096
 31
0.0
  0
LINE
  5
4E
330
A
100
AcDbEntity
  8
1
  6
solid
 62
     0
100
AcDbLine
 10
0.5420522578397992
 20
0.4966788359850096
 30
0.0
 11
0.5420522578397992
 21
0.3809937398311634
 31
0.0
  0
LINE
  5
4F
330
A
100
AcDbEntity
  8
1
  6
solid
 62
     0
100
AcDbLine
 10
0.5420522578397992
 20
0.3809937398311634
 30
0.0
 11
0.5736086303888188
 21
0.3809937398311634
 31
0.0
  0
LINE
  5
50
330
A
100
AcDbEntity
  8
1
  6
solid
 62
     0
100
AcDbLine
 10
0.5736086303888188
 20
0.3809937398311634
 30
0.0
 11
0.5736086303888188
 21
0.4095394129080865
 31
0.0
  0
LINE
  5
51
330
A
100
AcDbEntity
  8
1
  6
solid
 62
     0
100
AcDbLine
 10
0.5736086303888188
 20
0.4095394129080865
 30
0.0
 11
0.5883145127417599
 21
0.4095394129080865
 31
0.0
  0
LINE
  5
52
330
A
100
AcDbEntity
  8
1
  6
solid
 62
     0
100
AcDbLine
 10
0.5883145127417599
 20
0.4095394129080865
 30
0.0
 11
0.5883145127417599
 21
0.3607112879080865
 31
0.0
  0
LINE
  5
53
330
A
100
AcDbEntity
  8
1
  6
solid
 62
     0
100
AcDbLine
 10
0.5883145127417599
 20
0.3607112879080865
 30
0.0
 11
0.5101895127417599
 21
0.3607112879080865
 31
0.0
  0
LINE
  5
54
330
A
100
AcDbEntity
  8
1
  6
solid
 62
     0
100
AcDbLine
 10
0.6226282382319561
 20
0.4531091244465481
 30
0.0
 11
0.6183390225456816
 21
0.4486019129080865
 31
0.0
  0
LINE
  5
55
330
A
100
AcDbEntity
  8
1
  6
solid
 62
     0
100
AcDbLine
 10
0.6183390225456816
 20
0.4486019129080865
 30
0.0
 11
0.614049806859407
 21
0.4433434994465481
 31
0.0
  0
LINE
  5
56
330
A
100
AcDbEntity
  8
1
  6
solid
 62
     0
100
AcDbLine
 10
0.614049806859407
 20
0.4433434994465481
 30
0.0
 11
0.6106797088201913
 21
0.4380850859850096
 31
0.0
  0
LINE
  5
57
330
A
100
AcDbEntity
  8
1
  6
solid
 62
     0
100
AcDbLine
 10
0.6106797088201913
 20
0.4380850859850096
 30
0.0
 11
0.6082287284280345
 21
0.4320754706003943
 31
0.0
  0
LINE
  5
58
330
A
100
AcDbEntity
  8
1
  6
solid
 62
     0
100
AcDbLine
 10
0.6082287284280345
 20
0.4320754706003943
 30
0.0
 11
0.6063904931339169
 21
0.4268170571388558
 31
0.0
  0
LINE
  5
59
330
A
100
AcDbEntity
  8
1
  6
solid
 62
     0
100
AcDbLine
 10
0.6063904931339169
 20
0.4268170571388558
 30
0.0
 11
0.6048586303888188
 21
0.4193050379080865
 31
0.0
  0
LINE
  5
5A
330
A
100
AcDbEntity
  8
1
  6
solid
 62
     0
100
AcDbLine
 10
0.6048586303888188
 20
0.4193050379080865
 30
0.0
 11
0.6039395127417599
 21
0.4140466244465481
 31
0.0
  0
LINE
  5
5B
330
A
100
AcDbEntity
  8
1
  6
solid
 62
     0
100
AcDbLine
 10
0.6039395127417599
 20
0.4140466244465481
 30
0.0
 11
0.6039395127417599
 21
0.4102906148311634
 31
0.0
  0
LINE
  5
5C
330
A
100
AcDbEntity
  8
1
  6
solid
 62
     0
100
AcDbLine
 10
0.6039395127417599
 20
0.4102906148311634
 30
0.0
 11
0.6048586303888188
 21
0.4042809994465481
 31
0.0
  0
LINE
  5
5D
330
A
100
AcDbEntity
  8
1
  6
solid
 62
     0
100
AcDbLine
 10
0.6048586303888188
 20
0.4042809994465481
 30
0.0
 11
0.6057777480358776
 21
0.3975201821388557
 31
0.0
  0
LINE
  5
5E
330
A
100
AcDbEntity
  8
1
  6
solid
 62
     0
100
AcDbLine
 10
0.6057777480358776
 20
0.3975201821388557
 30
0.0
 11
0.6073096107809758
 21
0.3907593648311634
 31
0.0
  0
LINE
  5
5F
330
A
100
AcDbEntity
  8
1
  6
solid
 62
     0
100
AcDbLine
 10
0.6073096107809758
 20
0.3907593648311634
 30
0.0
 11
0.6106797088201913
 21
0.3824961436773173
 31
0.0
  0
LINE
  5
60
330
A
100
AcDbEntity
  8
1
  6
solid
 62
     0
100
AcDbLine
 10
0.6106797088201913
 20
0.3824961436773173
 30
0.0
 11
0.6158880421535247
 21
0.3757353263696249
 31
0.0
  0
LINE
  5
61
330
A
100
AcDbEntity
  8
1
  6
solid
 62
     0
100
AcDbLine
 10
0.6158880421535247
 20
0.3757353263696249
 30
0.0
 11
0.6201772578397992
 21
0.3704769129080865
 31
0.0
  0
LINE
  5
62
330
A
100
AcDbEntity
  8
1
  6
solid
 62
     0
100
AcDbLine
 10
0.6201772578397992
 20
0.3704769129080865
 30
0.0
 11
0.6278365715652895
 21
0.365218499446548
 31
0.0
  0
LINE
  5
63
330
A
100
AcDbEntity
  8
1
  6
solid
 62
     0
100
AcDbLine
 10
0.6278365715652895
 20
0.365218499446548
 30
0.0
 11
0.6354958852907795
 21
0.3614624898311634
 31
0.0
  0
LINE
  5
64
330
A
100
AcDbEntity
  8
1
  6
solid
 62
     0
100
AcDbLine
 10
0.6354958852907795
 20
0.3614624898311634
 30
0.0
 11
0.6413169637221521
 21
0.3607112879080865
 31
0.0
  0
LINE
  5
65
330
A
100
AcDbEntity
  8
1
  6
solid
 62
     0
100
AcDbLine
 10
0.6413169637221521
 20
0.3607112879080865
 30
0.0
 11
0.6480571598005836
 21
0.3607112879080865
 31
0.0
  0
LINE
  5
66
330
A
100
AcDbEntity
  8
1
  6
solid
 62
     0
100
AcDbLine
 10
0.6480571598005836
 20
0.3607112879080865
 30
0.0
 11
0.6547973558790149
 21
0.3629648936773173
 31
0.0
  0
LINE
  5
67
330
A
100
AcDbEntity
  8
1
  6
solid
 62
     0
100
AcDbLine
 10
0.6547973558790149
 20
0.3629648936773173
 30
0.0
 11
0.662456669604505
 21
0.3682233071388557
 31
0.0
  0
LINE
  5
68
330
A
100
AcDbEntity
  8
1
  6
solid
 62
     0
100
AcDbLine
 10
0.662456669604505
 20
0.3682233071388557
 30
0.0
 11
0.6701159833299953
 21
0.374984124446548
 31
0.0
  0
LINE
  5
69
330
A
100
AcDbEntity
  8
1
  6
solid
 62
     0
100
AcDbLine
 10
0.6701159833299953
 20
0.374984124446548
 30
0.0
 11
0.6753243166633287
 21
0.3832473456003942
 31
0.0
  0
LINE
  5
6A
330
A
100
AcDbEntity
  8
1
  6
solid
 62
     0
100
AcDbLine
 10
0.6753243166633287
 20
0.3832473456003942
 30
0.0
 11
0.6786944147025443
 21
0.3922617686773173
 31
0.0
  0
LINE
  5
6B
330
A
100
AcDbEntity
  8
1
  6
solid
 62
     0
100
AcDbLine
 10
0.6786944147025443
 20
0.3922617686773173
 30
0.0
 11
0.6802262774476424
 21
0.3967689802157788
 31
0.0
  0
LINE
  5
6C
330
A
100
AcDbEntity
  8
1
  6
solid
 62
     0
100
AcDbLine
 10
0.6802262774476424
 20
0.3967689802157788
 30
0.0
 11
0.6820645127417599
 21
0.4065346052157788
 31
0.0
  0
LINE
  5
6D
330
A
100
AcDbEntity
  8
1
  6
solid
 62
     0
100
AcDbLine
 10
0.6820645127417599
 20
0.4065346052157788
 30
0.0
 11
0.6820645127417599
 21
0.4147978263696249
 31
0.0
  0
LINE
  5
6E
330
A
100
AcDbEntity
  8
1
  6
solid
 62
     0
100
AcDbLine
 10
0.6820645127417599
 20
0.4147978263696249
 30
0.0
 11
0.6802262774476424
 21
0.4245634513696249
 31
0.0
  0
LINE
  5
6F
330
A
100
AcDbEntity
  8
1
  6
solid
 62
     0
100
AcDbLine
 10
0.6802262774476424
 20
0.4245634513696249
 30
0.0
 11
0.6777752970554855
 21
0.4320754706003943
 31
0.0
  0
LINE
  5
70
330
A
100
AcDbEntity
  8
1
  6
solid
 62
     0
100
AcDbLine
 10
0.6777752970554855
 20
0.4320754706003943
 30
0.0
 11
0.6744051990162698
 21
0.4410898936773173
 31
0.0
  0
LINE
  5
71
330
A
100
AcDbEntity
  8
1
  6
solid
 62
     0
100
AcDbLine
 10
0.6744051990162698
 20
0.4410898936773173
 30
0.0
 11
0.6701159833299953
 21
0.4463483071388558
 31
0.0
  0
LINE
  5
72
330
A
100
AcDbEntity
  8
1
  6
solid
 62
     0
100
AcDbLine
 10
0.6701159833299953
 20
0.4463483071388558
 30
0.0
 11
0.6658267676437207
 21
0.4508555186773173
 31
0.0
  0
LINE
  5
73
330
A
100
AcDbEntity
  8
1
  6
solid
 62
     0
100
AcDbLine
 10
0.6658267676437207
 20
0.4508555186773173
 30
0.0
 11
0.6633757872515639
 21
0.4531091244465481
 31
0.0
  0
LINE
  5
74
330
A
100
AcDbEntity
  8
1
  6
solid
 62
     0
100
AcDbLine
 10
0.6633757872515639
 20
0.4531091244465481
 30
0.0
 11
0.6676650029378384
 21
0.4583675379080865
 31
0.0
  0
LINE
  5
75
330
A
100
AcDbEntity
  8
1
  6
solid
 62
     0
100
AcDbLine
 10
0.6676650029378384
 20
0.4583675379080865
 30
0.0
 11
0.6701159833299953
 21
0.4636259513696249
 31
0.0
  0
LINE
  5
76
330
A
100
AcDbEntity
  8
1
  6
solid
 62
     0
100
AcDbLine
 10
0.6701159833299953
 20
0.4636259513696249
 30
0.0
 11
0.6719542186241129
 21
0.4688843648311634
 31
0.0
  0
LINE
  5
77
330
A
100
AcDbEntity
  8
1
  6
solid
 62
     0
100
AcDbLine
 10
0.6719542186241129
 20
0.4688843648311634
 30
0.0
 11
0.6728733362711717
 21
0.4771475859850096
 31
0.0
  0
LINE
  5
78
330
A
100
AcDbEntity
  8
1
  6
solid
 62
     0
100
AcDbLine
 10
0.6728733362711717
 20
0.4771475859850096
 30
0.0
 11
0.6728733362711717
 21
0.4831572013696249
 31
0.0
  0
LINE
  5
79
330
A
100
AcDbEntity
  8
1
  6
solid
 62
     0
100
AcDbLine
 10
0.6728733362711717
 20
0.4831572013696249
 30
0.0
 11
0.6719542186241129
 21
0.4884156148311634
 31
0.0
  0
LINE
  5
7A
330
A
100
AcDbEntity
  8
1
  6
solid
 62
     0
100
AcDbLine
 10
0.6719542186241129
 20
0.4884156148311634
 30
0.0
 11
0.6701159833299953
 21
0.4944252302157788
 31
0.0
  0
LINE
  5
7B
330
A
100
AcDbEntity
  8
1
  6
solid
 62
     0
100
AcDbLine
 10
0.6701159833299953
 20
0.4944252302157788
 30
0.0
 11
0.6676650029378384
 21
0.5004348456003943
 31
0.0
  0
LINE
  5
7C
330
A
100
AcDbEntity
  8
1
  6
solid
 62
     0
100
AcDbLine
 10
0.6676650029378384
 20
0.5004348456003943
 30
0.0
 11
0.6652140225456816
 21
0.5049420571388558
 31
0.0
  0
LINE
  5
7D
330
A
100
AcDbEntity
  8
1
  6
solid
 62
     0
100
AcDbLine
 10
0.6652140225456816
 20
0.5049420571388558
 30
0.0
 11
0.660924806859407
 21
0.5094492686773174
 31
0.0
  0
LINE
  5
7E
330
A
100
AcDbEntity
  8
1
  6
solid
 62
     0
100
AcDbLine
 10
0.660924806859407
 20
0.5094492686773174
 30
0.0
 11
0.6575547088201913
 21
0.5124540763696249
 31
0.0
  0
LINE
  5
7F
330
A
100
AcDbEntity
  8
1
  6
solid
 62
     0
100
AcDbLine
 10
0.6575547088201913
 20
0.5124540763696249
 30
0.0
 11
0.6532654931339169
 21
0.5147076821388558
 31
0.0
  0
LINE
  5
80
330
A
100
AcDbEntity
  8
1
  6
solid
 62
     0
100
AcDbLine
 10
0.6532654931339169
 20
0.5147076821388558
 30
0.0
 11
0.6471380421535247
 21
0.5169612879080865
 31
0.0
  0
LINE
  5
81
330
A
100
AcDbEntity
  8
1
  6
solid
 62
     0
100
AcDbLine
 10
0.6471380421535247
 20
0.5169612879080865
 30
0.0
 11
0.6403978460750932
 21
0.5169612879080865
 31
0.0
  0
LINE
  5
82
330
A
100
AcDbEntity
  8
1
  6
solid
 62
     0
100
AcDbLine
 10
0.6403978460750932
 20
0.5169612879080865
 30
0.0
 11
0.6327385323496032
 21
0.5147076821388558
 31
0.0
  0
LINE
  5
83
330
A
100
AcDbEntity
  8
1
  6
solid
 62
     0
100
AcDbLine
 10
0.6327385323496032
 20
0.5147076821388558
 30
0.0
 11
0.6259983362711718
 21
0.5102004706003943
 31
0.0
  0
LINE
  5
84
330
A
100
AcDbEntity
  8
1
  6
solid
 62
     0
100
AcDbLine
 10
0.6259983362711718
 20
0.5102004706003943
 30
0.0
 11
0.6217091205848973
 21
0.5064444609850096
 31
0.0
  0
LINE
  5
85
330
A
100
AcDbEntity
  8
1
  6
solid
 62
     0
100
AcDbLine
 10
0.6217091205848973
 20
0.5064444609850096
 30
0.0
 11
0.6183390225456816
 21
0.5004348456003943
 31
0.0
  0
LINE
  5
86
330
A
100
AcDbEntity
  8
1
  6
solid
 62
     0
100
AcDbLine
 10
0.6183390225456816
 20
0.5004348456003943
 30
0.0
 11
0.6158880421535247
 21
0.4944252302157788
 31
0.0
  0
LINE
  5
87
330
A
100
AcDbEntity
  8
1
  6
solid
 62
     0
100
AcDbLine
 10
0.6158880421535247
 20
0.4944252302157788
 30
0.0
 11
0.614049806859407
 21
0.4876644129080865
 31
0.0
  0
LINE
  5
88
330
A
100
AcDbEntity
  8
1
  6
solid
 62
     0
100
AcDbLine
 10
0.614049806859407
 20
0.4876644129080865
 30
0.0
 11
0.6131306892123482
 21
0.4831572013696249
 31
0.0
  0
LINE
  5
89
330
A
100
AcDbEntity
  8
1
  6
solid
 62
     0
100
AcDbLine
 10
0.6131306892123482
 20
0.4831572013696249
 30
0.0
 11
0.6131306892123482
 21
0.4778987879080865
 31
0.0
  0
LINE
  5
8A
330
A
100
AcDbEntity
  8
1
  6
solid
 62
     0
100
AcDbLine
 10
0.6131306892123482
 20
0.4778987879080865
 30
0.0
 11
0.614049806859407
 21
0.4711379706003943
 31
0.0
  0
LINE
  5
8B
330
A
100
AcDbEntity
  8
1
  6
solid
 62
     0
100
AcDbLine
 10
0.614049806859407
 20
0.4711379706003943
 30
0.0
 11
0.6158880421535247
 21
0.4636259513696249
 31
0.0
  0
LINE
  5
8C
330
A
100
AcDbEntity
  8
1
  6
solid
 62
     0
100
AcDbLine
 10
0.6158880421535247
 20
0.4636259513696249
 30
0.0
 11
0.6183390225456816
 21
0.4583675379080865
 31
0.0
  0
LINE
  5
8D
330
A
100
AcDbEntity
  8
1
  6
solid
 62
     0
100
AcDbLine
 10
0.6183390225456816
 20
0.4583675379080865
 30
0.0
 11
0.6207900029378384
 21
0.4553627302157788
 31
0.0
  0
LINE
  5
8E
330
A
100
AcDbEntity
  8
1
  6
solid
 62
     0
100
AcDbLine
 10
0.6207900029378384
 20
0.4553627302157788
 30
0.0
 11
0.6226282382319561
 21
0.4531091244465481
 31
0.0
  0
LINE
  5
8F
330
A
100
AcDbEntity
  8
1
  6
solid
 62
     0
100
AcDbLine
 10
0.6471380421535247
 20
0.3802425379080865
 30
0.0
 11
0.6532654931339169
 21
0.3824961436773173
 31
0.0
  0
LINE
  5
90
330
A
100
AcDbEntity
  8
1
  6
solid
 62
     0
100
AcDbLine
 10
0.6532654931339169
 20
0.3824961436773173
 30
0.0
 11
0.6575547088201913
 21
0.3855009513696249
 31
0.0
  0
LINE
  5
91
330
A
100
AcDbEntity
  8
1
  6
solid
 62
     0
100
AcDbLine
 10
0.6575547088201913
 20
0.3855009513696249
 30
0.0
 11
0.6615375519574462
 21
0.3900081629080865
 31
0.0
  0
LINE
  5
92
330
A
100
AcDbEntity
  8
1
  6
solid
 62
     0
100
AcDbLine
 10
0.6615375519574462
 20
0.3900081629080865
 30
0.0
 11
0.6652140225456816
 21
0.3967689802157788
 31
0.0
  0
LINE
  5
93
330
A
100
AcDbEntity
  8
1
  6
solid
 62
     0
100
AcDbLine
 10
0.6652140225456816
 20
0.3967689802157788
 30
0.0
 11
0.6667458852907795
 21
0.4027785956003943
 31
0.0
  0
LINE
  5
94
330
A
100
AcDbEntity
  8
1
  6
solid
 62
     0
100
AcDbLine
 10
0.6667458852907795
 20
0.4027785956003943
 30
0.0
 11
0.6676650029378384
 21
0.4095394129080865
 31
0.0
  0
LINE
  5
95
330
A
100
AcDbEntity
  8
1
  6
solid
 62
     0
100
AcDbLine
 10
0.6676650029378384
 20
0.4095394129080865
 30
0.0
 11
0.6676650029378384
 21
0.4140466244465481
 31
0.0
  0
LINE
  5
96
330
A
100
AcDbEntity
  8
1
  6
solid
 62
     0
100
AcDbLine
 10
0.6676650029378384
 20
0.4140466244465481
 30
0.0
 11
0.6652140225456816
 21
0.423812249446548
 31
0.0
  0
LINE
  5
97
330
A
100
AcDbEntity
  8
1
  6
solid
 62
     0
100
AcDbLine
 10
0.6652140225456816
 20
0.423812249446548
 30
0.0
 11
0.662456669604505
 21
0.4290706629080865
 31
0.0
  0
LINE
  5
98
330
A
100
AcDbEntity
  8
1
  6
solid
 62
     0
100
AcDbLine
 10
0.662456669604505
 20
0.4290706629080865
 30
0.0
 11
0.6590865715652895
 21
0.4335778744465481
 31
0.0
  0
LINE
  5
99
330
A
100
AcDbEntity
  8
1
  6
solid
 62
     0
100
AcDbLine
 10
0.6590865715652895
 20
0.4335778744465481
 30
0.0
 11
0.6547973558790149
 21
0.4380850859850096
 31
0.0
  0
LINE
  5
9A
330
A
100
AcDbEntity
  8
1
  6
solid
 62
     0
100
AcDbLine
 10
0.6547973558790149
 20
0.4380850859850096
 30
0.0
 11
0.6514272578397992
 21
0.4395874898311634
 31
0.0
  0
LINE
  5
9B
330
A
100
AcDbEntity
  8
1
  6
solid
 62
     0
100
AcDbLine
 10
0.6514272578397992
 20
0.4395874898311634
 30
0.0
 11
0.6465252970554855
 21
0.4410898936773173
 31
0.0
  0
LINE
  5
9C
330
A
100
AcDbEntity
  8
1
  6
solid
 62
     0
100
AcDbLine
 10
0.6465252970554855
 20
0.4410898936773173
 30
0.0
 11
0.6403978460750932
 21
0.4410898936773173
 31
0.0
  0
LINE
  5
9D
330
A
100
AcDbEntity
  8
1
  6
solid
 62
     0
100
AcDbLine
 10
0.6403978460750932
 20
0.4410898936773173
 30
0.0
 11
0.6336576499966619
 21
0.4388362879080865
 31
0.0
  0
LINE
  5
9E
330
A
100
AcDbEntity
  8
1
  6
solid
 62
     0
100
AcDbLine
 10
0.6336576499966619
 20
0.4388362879080865
 30
0.0
 11
0.6293684343103874
 21
0.4358314802157788
 31
0.0
  0
LINE
  5
9F
330
A
100
AcDbEntity
  8
1
  6
solid
 62
     0
100
AcDbLine
 10
0.6293684343103874
 20
0.4358314802157788
 30
0.0
 11
0.6250792186241129
 21
0.4313242686773173
 31
0.0
  0
LINE
  5
A0
330
A
100
AcDbEntity
  8
1
  6
solid
 62
     0
100
AcDbLine
 10
0.6250792186241129
 20
0.4313242686773173
 30
0.0
 11
0.6217091205848973
 21
0.4245634513696249
 31
0.0
  0
LINE
  5
A1
330
A
100
AcDbEntity
  8
1
  6
solid
 62
     0
100
AcDbLine
 10
0.6217091205848973
 20
0.4245634513696249
 30
0.0
 11
0.6201772578397992
 21
0.4193050379080865
 31
0.0
  0
LINE
  5
A2
330
A
100
AcDbEntity
  8
1
  6
solid
 62
     0
100
AcDbLine
 10
0.6201772578397992
 20
0.4193050379080865
 30
0.0
 11
0.6192581401927404
 21
0.4140466244465481
 31
0.0
  0
LINE
  5
A3
330
A
100
AcDbEntity
  8
1
  6
solid
 62
     0
100
AcDbLine
 10
0.6192581401927404
 20
0.4140466244465481
 30
0.0
 11
0.6192581401927404
 21
0.4072858071388558
 31
0.0
  0
LINE
  5
A4
330
A
100
AcDbEntity
  8
1
  6
solid
 62
     0
100
AcDbLine
 10
0.6192581401927404
 20
0.4072858071388558
 30
0.0
 11
0.6201772578397992
 21
0.4005249898311634
 31
0.0
  0
LINE
  5
A5
330
A
100
AcDbEntity
  8
1
  6
solid
 62
     0
100
AcDbLine
 10
0.6201772578397992
 20
0.4005249898311634
 30
0.0
 11
0.6226282382319561
 21
0.3930129706003942
 31
0.0
  0
LINE
  5
A6
330
A
100
AcDbEntity
  8
1
  6
solid
 62
     0
100
AcDbLine
 10
0.6226282382319561
 20
0.3930129706003942
 30
0.0
 11
0.6269174539182306
 21
0.3877545571388557
 31
0.0
  0
LINE
  5
A7
330
A
100
AcDbEntity
  8
1
  6
solid
 62
     0
100
AcDbLine
 10
0.6269174539182306
 20
0.3877545571388557
 30
0.0
 11
0.631206669604505
 21
0.3832473456003942
 31
0.0
  0
LINE
  5
A8
330
A
100
AcDbEntity
  8
1
  6
solid
 62
     0
100
AcDbLine
 10
0.631206669604505
 20
0.3832473456003942
 30
0.0
 11
0.6370277480358776
 21
0.3802425379080865
 31
0.0
  0
LINE
  5
A9
330
A
100
AcDbEntity
  8
1
  6
solid
 62
     0
100
AcDbLine
 10
0.6370277480358776
 20
0.3802425379080865
 30
0.0
 11
0.6471380421535247
 21
0.3802425379080865
 31
0.0
  0
LINE
  5
AA
330
A
100
AcDbEntity
  8
1
  6
solid
 62
     0
100
AcDbLine
 10
0.6456061794084267
 20
0.4606211436773173
 30
0.0
 11
0.6489762774476424
 21
0.4613723456003943
 31
0.0
  0
LINE
  5
AB
330
A
100
AcDbEntity
  8
1
  6
solid
 62
     0
100
AcDbLine
 10
0.6489762774476424
 20
0.4613723456003943
 30
0.0
 11
0.6532654931339169
 21
0.4651283552157788
 31
0.0
  0
LINE
  5
AC
330
A
100
AcDbEntity
  8
1
  6
solid
 62
     0
100
AcDbLine
 10
0.6532654931339169
 20
0.4651283552157788
 30
0.0
 11
0.6557164735260736
 21
0.4688843648311634
 31
0.0
  0
LINE
  5
AD
330
A
100
AcDbEntity
  8
1
  6
solid
 62
     0
100
AcDbLine
 10
0.6557164735260736
 20
0.4688843648311634
 30
0.0
 11
0.6575547088201913
 21
0.4733915763696249
 31
0.0
  0
LINE
  5
AE
330
A
100
AcDbEntity
  8
1
  6
solid
 62
     0
100
AcDbLine
 10
0.6575547088201913
 20
0.4733915763696249
 30
0.0
 11
0.6581674539182306
 21
0.4778987879080865
 31
0.0
  0
LINE
  5
AF
330
A
100
AcDbEntity
  8
1
  6
solid
 62
     0
100
AcDbLine
 10
0.6581674539182306
 20
0.4778987879080865
 30
0.0
 11
0.6581674539182306
 21
0.4809035956003943
 31
0.0
  0
LINE
  5
B0
330
A
100
AcDbEntity
  8
1
  6
solid
 62
     0
100
AcDbLine
 10
0.6581674539182306
 20
0.4809035956003943
 30
0.0
 11
0.6566355911731325
 21
0.4876644129080865
 31
0.0
  0
LINE
  5
B1
330
A
100
AcDbEntity
  8
1
  6
solid
 62
     0
100
AcDbLine
 10
0.6566355911731325
 20
0.4876644129080865
 30
0.0
 11
0.6541846107809758
 21
0.4921716244465481
 31
0.0
  0
LINE
  5
B2
330
A
100
AcDbEntity
  8
1
  6
solid
 62
     0
100
AcDbLine
 10
0.6541846107809758
 20
0.4921716244465481
 30
0.0
 11
0.6514272578397992
 21
0.4951764321388558
 31
0.0
  0
LINE
  5
B3
330
A
100
AcDbEntity
  8
1
  6
solid
 62
     0
100
AcDbLine
 10
0.6514272578397992
 20
0.4951764321388558
 30
0.0
 11
0.6480571598005836
 21
0.4974300379080865
 31
0.0
  0
LINE
  5
B4
330
A
100
AcDbEntity
  8
1
  6
solid
 62
     0
100
AcDbLine
 10
0.6480571598005836
 20
0.4974300379080865
 30
0.0
 11
0.6446870617613678
 21
0.4981812398311634
 31
0.0
  0
LINE
  5
B5
330
A
100
AcDbEntity
  8
1
  6
solid
 62
     0
100
AcDbLine
 10
0.6446870617613678
 20
0.4981812398311634
 30
0.0
 11
0.642236081369211
 21
0.4981812398311634
 31
0.0
  0
LINE
  5
B6
330
A
100
AcDbEntity
  8
1
  6
solid
 62
     0
100
AcDbLine
 10
0.642236081369211
 20
0.4981812398311634
 30
0.0
 11
0.6379468656829364
 21
0.4974300379080865
 31
0.0
  0
LINE
  5
B7
330
A
100
AcDbEntity
  8
1
  6
solid
 62
     0
100
AcDbLine
 10
0.6379468656829364
 20
0.4974300379080865
 30
0.0
 11
0.6345767676437207
 21
0.4951764321388558
 31
0.0
  0
LINE
  5
B8
330
A
100
AcDbEntity
  8
1
  6
solid
 62
     0
100
AcDbLine
 10
0.6345767676437207
 20
0.4951764321388558
 30
0.0
 11
0.6318194147025443
 21
0.4921716244465481
 31
0.0
  0
LINE
  5
B9
330
A
100
AcDbEntity
  8
1
  6
solid
 62
     0
100
AcDbLine
 10
0.6318194147025443
 20
0.4921716244465481
 30
0.0
 11
0.6293684343103874
 21
0.4876644129080865
 31
0.0
  0
LINE
  5
BA
330
A
100
AcDbEntity
  8
1
  6
solid
 62
     0
100
AcDbLine
 10
0.6293684343103874
 20
0.4876644129080865
 30
0.0
 11
0.6284493166633287
 21
0.4831572013696249
 31
0.0
  0
LINE
  5
BB
330
A
100
AcDbEntity
  8
1
  6
solid
 62
     0
100
AcDbLine
 10
0.6284493166633287
 20
0.4831572013696249
 30
0.0
 11
0.6278365715652895
 21
0.4801523936773173
 31
0.0
  0
LINE
  5
BC
330
A
100
AcDbEntity
  8
1
  6
solid
 62
     0
100
AcDbLine
 10
0.6278365715652895
 20
0.4801523936773173
 30
0.0
 11
0.6278365715652895
 21
0.4778987879080865
 31
0.0
  0
LINE
  5
BD
330
A
100
AcDbEntity
  8
1
  6
solid
 62
     0
100
AcDbLine
 10
0.6278365715652895
 20
0.4778987879080865
 30
0.0
 11
0.6293684343103874
 21
0.4711379706003943
 31
0.0
  0
LINE
  5
BE
330
A
100
AcDbEntity
  8
1
  6
solid
 62
     0
100
AcDbLine
 10
0.6293684343103874
 20
0.4711379706003943
 30
0.0
 11
0.631206669604505
 21
0.4681331629080865
 31
0.0
  0
LINE
  5
BF
330
A
100
AcDbEntity
  8
1
  6
solid
 62
     0
100
AcDbLine
 10
0.631206669604505
 20
0.4681331629080865
 30
0.0
 11
0.6336576499966619
 21
0.4636259513696249
 31
0.0
  0
LINE
  5
C0
330
A
100
AcDbEntity
  8
1
  6
solid
 62
     0
100
AcDbLine
 10
0.6336576499966619
 20
0.4636259513696249
 30
0.0
 11
0.6370277480358776
 21
0.4613723456003943
 31
0.0
  0
LINE
  5
C1
330
A
100
AcDbEntity
  8
1
  6
solid
 62
     0
100
AcDbLine
 10
0.6370277480358776
 20
0.4613723456003943
 30
0.0
 11
0.6413169637221521
 21
0.4606211436773173
 31
0.0
  0
LINE
  5
C2
330
A
100
AcDbEntity
  8
1
  6
solid
 62
     0
100
AcDbLine
 10
0.6413169637221521
 20
0.4606211436773173
 30
0.0
 11
0.6456061794084267
 21
0.4606211436773173
 31
0.0
  0
LINE
  5
C3
330
A
100
AcDbEntity
  8
1
  6
solid
 62
     0
100
AcDbLine
 10
0.7163782382319561
 20
0.4531091244465481
 30
0.0
 11
0.7120890225456816
 21
0.4486019129080865
 31
0.0
  0
LINE
  5
C4
330
A
100
AcDbEntity
  8
1
  6
solid
 62
     0
100
AcDbLine
 10
0.7120890225456816
 20
0.4486019129080865
 30
0.0
 11
0.707799806859407
 21
0.4433434994465481
 31
0.0
  0
LINE
  5
C5
330
A
100
AcDbEntity
  8
1
  6
solid
 62
     0
100
AcDbLine
 10
0.707799806859407
 20
0.4433434994465481
 30
0.0
 11
0.7044297088201913
 21
0.4380850859850096
 31
0.0
  0
LINE
  5
C6
330
A
100
AcDbEntity
  8
1
  6
solid
 62
     0
100
AcDbLine
 10
0.7044297088201913
 20
0.4380850859850096
 30
0.0
 11
0.7019787284280345
 21
0.4320754706003943
 31
0.0
  0
LINE
  5
C7
330
A
100
AcDbEntity
  8
1
  6
solid
 62
     0
100
AcDbLine
 10
0.7019787284280345
 20
0.4320754706003943
 30
0.0
 11
0.7001404931339169
 21
0.4268170571388558
 31
0.0
  0
LINE
  5
C8
330
A
100
AcDbEntity
  8
1
  6
solid
 62
     0
100
AcDbLine
 10
0.7001404931339169
 20
0.4268170571388558
 30
0.0
 11
0.6986086303888188
 21
0.4193050379080865
 31
0.0
  0
LINE
  5
C9
330
A
100
AcDbEntity
  8
1
  6
solid
 62
     0
100
AcDbLine
 10
0.6986086303888188
 20
0.4193050379080865
 30
0.0
 11
0.6976895127417599
 21
0.4140466244465481
 31
0.0
  0
LINE
  5
CA
330
A
100
AcDbEntity
  8
1
  6
solid
 62
     0
100
AcDbLine
 10
0.6976895127417599
 20
0.4140466244465481
 30
0.0
 11
0.6976895127417599
 21
0.4102906148311634
 31
0.0
  0
LINE
  5
CB
330
A
100
AcDbEntity
  8
1
  6
solid
 62
     0
100
AcDbLine
 10
0.6976895127417599
 20
0.4102906148311634
 30
0.0
 11
0.6986086303888188
 21
0.4042809994465481
 31
0.0
  0
LINE
  5
CC
330
A
100
AcDbEntity
  8
1
  6
solid
 62
     0
100
AcDbLine
 10
0.6986086303888188
 20
0.4042809994465481
 30
0.0
 11
0.6995277480358776
 21
0.3975201821388557
 31
0.0
  0
LINE
  5
CD
330
A
100
AcDbEntity
  8
1
  6
solid
 62
     0
100
AcDbLine
 10
0.6995277480358776
 20
0.3975201821388557
 30
0.0
 11
0.7010596107809758
 21
0.3907593648311634
 31
0.0
  0
LINE
  5
CE
330
A
100
AcDbEntity
  8
1
  6
solid
 62
     0
100
AcDbLine
 10
0.7010596107809758
 20
0.3907593648311634
 30
0.0
 11
0.7044297088201913
 21
0.3824961436773173
 31
0.0
  0
LINE
  5
CF
330
A
100
AcDbEntity
  8
1
  6
solid
 62
     0
100
AcDbLine
 10
0.7044297088201913
 20
0.3824961436773173
 30
0.0
 11
0.7096380421535247
 21
0.3757353263696249
 31
0.0
  0
LINE
  5
D0
330
A
100
AcDbEntity
  8
1
  6
solid
 62
     0
100
AcDbLine
 10
0.7096380421535247
 20
0.3757353263696249
 30
0.0
 11
0.7139272578397992
 21
0.3704769129080865
 31
0.0
  0
LINE
  5
D1
330
A
100
AcDbEntity
  8
1
  6
solid
 62
     0
100
AcDbLine
 10
0.7139272578397992
 20
0.3704769129080865
 30
0.0
 11
0.7215865715652895
 21
0.365218499446548
 31
0.0
  0
LINE
  5
D2
330
A
100
AcDbEntity
  8
1
  6
solid
 62
     0
100
AcDbLine
 10
0.7215865715652895
 20
0.365218499446548
 30
0.0
 11
0.7292458852907795
 21
0.3614624898311634
 31
0.0
  0
LINE
  5
D3
330
A
100
AcDbEntity
  8
1
  6
solid
 62
     0
100
AcDbLine
 10
0.7292458852907795
 20
0.3614624898311634
 30
0.0
 11
0.7350669637221521
 21
0.3607112879080865
 31
0.0
  0
LINE
  5
D4
330
A
100
AcDbEntity
  8
1
  6
solid
 62
     0
100
AcDbLine
 10
0.7350669637221521
 20
0.3607112879080865
 30
0.0
 11
0.7418071598005836
 21
0.3607112879080865
 31
0.0
  0
LINE
  5
D5
330
A
100
AcDbEntity
  8
1
  6
solid
 62
     0
100
AcDbLine
 10
0.7418071598005836
 20
0.3607112879080865
 30
0.0
 11
0.7485473558790148
 21
0.3629648936773173
 31
0.0
  0
LINE
  5
D6
330
A
100
AcDbEntity
  8
1
  6
solid
 62
     0
100
AcDbLine
 10
0.7485473558790148
 20
0.3629648936773173
 30
0.0
 11
0.756206669604505
 21
0.3682233071388557
 31
0.0
  0
LINE
  5
D7
330
A
100
AcDbEntity
  8
1
  6
solid
 62
     0
100
AcDbLine
 10
0.756206669604505
 20
0.3682233071388557
 30
0.0
 11
0.7638659833299953
 21
0.374984124446548
 31
0.0
  0
LINE
  5
D8
330
A
100
AcDbEntity
  8
1
  6
solid
 62
     0
100
AcDbLine
 10
0.7638659833299953
 20
0.374984124446548
 30
0.0
 11
0.7690743166633285
 21
0.3832473456003942
 31
0.0
  0
LINE
  5
D9
330
A
100
AcDbEntity
  8
1
  6
solid
 62
     0
100
AcDbLine
 10
0.7690743166633285
 20
0.3832473456003942
 30
0.0
 11
0.7724444147025443
 21
0.3922617686773173
 31
0.0
  0
LINE
  5
DA
330
A
100
AcDbEntity
  8
1
  6
solid
 62
     0
100
AcDbLine
 10
0.7724444147025443
 20
0.3922617686773173
 30
0.0
 11
0.7739762774476424
 21
0.3967689802157788
 31
0.0
  0
LINE
  5
DB
330
A
100
AcDbEntity
  8
1
  6
solid
 62
     0
100
AcDbLine
 10
0.7739762774476424
 20
0.3967689802157788
 30
0.0
 11
0.7758145127417599
 21
0.4065346052157788
 31
0.0
  0
LINE
  5
DC
330
A
100
AcDbEntity
  8
1
  6
solid
 62
     0
100
AcDbLine
 10
0.7758145127417599
 20
0.4065346052157788
 30
0.0
 11
0.7758145127417599
 21
0.4147978263696249
 31
0.0
  0
LINE
  5
DD
330
A
100
AcDbEntity
  8
1
  6
solid
 62
     0
100
AcDbLine
 10
0.7758145127417599
 20
0.4147978263696249
 30
0.0
 11
0.7739762774476424
 21
0.4245634513696249
 31
0.0
  0
LINE
  5
DE
330
A
100
AcDbEntity
  8
1
  6
solid
 62
     0
100
AcDbLine
 10
0.7739762774476424
 20
0.4245634513696249
 30
0.0
 11
0.7715252970554854
 21
0.4320754706003943
 31
0.0
  0
LINE
  5
DF
330
A
100
AcDbEntity
  8
1
  6
solid
 62
     0
100
AcDbLine
 10
0.7715252970554854
 20
0.4320754706003943
 30
0.0
 11
0.7681551990162698
 21
0.4410898936773173
 31
0.0
  0
LINE
  5
E0
330
A
100
AcDbEntity
  8
1
  6
solid
 62
     0
100
AcDbLine
 10
0.7681551990162698
 20
0.4410898936773173
 30
0.0
 11
0.7638659833299953
 21
0.4463483071388558
 31
0.0
  0
LINE
  5
E1
330
A
100
AcDbEntity
  8
1
  6
solid
 62
     0
100
AcDbLine
 10
0.7638659833299953
 20
0.4463483071388558
 30
0.0
 11
0.7595767676437207
 21
0.4508555186773173
 31
0.0
  0
LINE
  5
E2
330
A
100
AcDbEntity
  8
1
  6
solid
 62
     0
100
AcDbLine
 10
0.7595767676437207
 20
0.4508555186773173
 30
0.0
 11
0.7571257872515639
 21
0.4531091244465481
 31
0.0
  0
LINE
  5
E3
330
A
100
AcDbEntity
  8
1
  6
solid
 62
     0
100
AcDbLine
 10
0.7571257872515639
 20
0.4531091244465481
 30
0.0
 11
0.7614150029378384
 21
0.4583675379080865
 31
0.0
  0
LINE
  5
E4
330
A
100
AcDbEntity
  8
1
  6
solid
 62
     0
100
AcDbLine
 10
0.7614150029378384
 20
0.4583675379080865
 30
0.0
 11
0.7638659833299953
 21
0.4636259513696249
 31
0.0
  0
LINE
  5
E5
330
A
100
AcDbEntity
  8
1
  6
solid
 62
     0
100
AcDbLine
 10
0.7638659833299953
 20
0.4636259513696249
 30
0.0
 11
0.7657042186241129
 21
0.4688843648311634
 31
0.0
  0
LINE
  5
E6
330
A
100
AcDbEntity
  8
1
  6
solid
 62
     0
100
AcDbLine
 10
0.7657042186241129
 20
0.4688843648311634
 30
0.0
 11
0.7666233362711717
 21
0.4771475859850096
 31
0.0
  0
LINE
  5
E7
330
A
100
AcDbEntity
  8
1
  6
solid
 62
     0
100
AcDbLine
 10
0.7666233362711717
 20
0.4771475859850096
 30
0.0
 11
0.7666233362711717
 21
0.4831572013696249
 31
0.0
  0
LINE
  5
E8
330
A
100
AcDbEntity
  8
1
  6
solid
 62
     0
100
AcDbLine
 10
0.7666233362711717
 20
0.4831572013696249
 30
0.0
 11
0.7657042186241129
 21
0.4884156148311634
 31
0.0
  0
LINE
  5
E9
330
A
100
AcDbEntity
  8
1
  6
solid
 62
     0
100
AcDbLine
 10
0.7657042186241129
 20
0.4884156148311634
 30
0.0
 11
0.7638659833299953
 21
0.4944252302157788
 31
0.0
  0
LINE
  5
EA
330
A
100
AcDbEntity
  8
1
  6
solid
 62
     0
100
AcDbLine
 10
0.7638659833299953
 20
0.4944252302157788
 30
0.0
 11
0.7614150029378384
 21
0.5004348456003943
 31
0.0
  0
LINE
  5
EB
330
A
100
AcDbEntity
  8
1
  6
solid
 62
     0
100
AcDbLine
 10
0.7614150029378384
 20
0.5004348456003943
 30
0.0
 11
0.7589640225456816
 21
0.5049420571388558
 31
0.0
  0
LINE
  5
EC
330
A
100
AcDbEntity
  8
1
  6
solid
 62
     0
100
AcDbLine
 10
0.7589640225456816
 20
0.5049420571388558
 30
0.0
 11
0.754674806859407
 21
0.5094492686773174
 31
0.0
  0
LINE
  5
ED
330
A
100
AcDbEntity
  8
1
  6
solid
 62
     0
100
AcDbLine
 10
0.754674806859407
 20
0.5094492686773174
 30
0.0
 11
0.7513047088201913
 21
0.5124540763696249
 31
0.0
  0
LINE
  5
EE
330
A
100
AcDbEntity
  8
1
  6
solid
 62
     0
100
AcDbLine
 10
0.7513047088201913
 20
0.5124540763696249
 30
0.0
 11
0.7470154931339169
 21
0.5147076821388558
 31
0.0
  0
LINE
  5
EF
330
A
100
AcDbEntity
  8
1
  6
solid
 62
     0
100
AcDbLine
 10
0.7470154931339169
 20
0.5147076821388558
 30
0.0
 11
0.7408880421535247
 21
0.5169612879080865
 31
0.0
  0
LINE
  5
F0
330
A
100
AcDbEntity
  8
1
  6
solid
 62
     0
100
AcDbLine
 10
0.7408880421535247
 20
0.5169612879080865
 30
0.0
 11
0.7341478460750933
 21
0.5169612879080865
 31
0.0
  0
LINE
  5
F1
330
A
100
AcDbEntity
  8
1
  6
solid
 62
     0
100
AcDbLine
 10
0.7341478460750933
 20
0.5169612879080865
 30
0.0
 11
0.7264885323496032
 21
0.5147076821388558
 31
0.0
  0
LINE
  5
F2
330
A
100
AcDbEntity
  8
1
  6
solid
 62
     0
100
AcDbLine
 10
0.7264885323496032
 20
0.5147076821388558
 30
0.0
 11
0.7197483362711717
 21
0.5102004706003943
 31
0.0
  0
LINE
  5
F3
330
A
100
AcDbEntity
  8
1
  6
solid
 62
     0
100
AcDbLine
 10
0.7197483362711717
 20
0.5102004706003943
 30
0.0
 11
0.7154591205848973
 21
0.5064444609850096
 31
0.0
  0
LINE
  5
F4
330
A
100
AcDbEntity
  8
1
  6
solid
 62
     0
100
AcDbLine
 10
0.7154591205848973
 20
0.5064444609850096
 30
0.0
 11
0.7120890225456816
 21
0.5004348456003943
 31
0.0
  0
LINE
  5
F5
330
A
100
AcDbEntity
  8
1
  6
solid
 62
     0
100
AcDbLine
 10
0.7120890225456816
 20
0.5004348456003943
 30
0.0
 11
0.7096380421535247
 21
0.4944252302157788
 31
0.0
  0
LINE
  5
F6
330
A
100
AcDbEntity
  8
1
  6
solid
 62
     0
100
AcDbLine
 10
0.7096380421535247
 20
0.4944252302157788
 30
0.0
 11
0.707799806859407
 21
0.4876644129080865
 31
0.0
  0
LINE
  5
F7
330
A
100
AcDbEntity
  8
1
  6
solid
 62
     0
100
AcDbLine
 10
0.707799806859407
 20
0.4876644129080865
 30
0.0
 11
0.7068806892123482
 21
0.4831572013696249
 31
0.0
  0
LINE
  5
F8
330
A
100
AcDbEntity
  8
1
  6
solid
 62
     0
100
AcDbLine
 10
0.7068806892123482
 20
0.4831572013696249
 30
0.0
 11
0.7068806892123482
 21
0.4778987879080865
 31
0.0
  0
LINE
  5
F9
330
A
100
AcDbEntity
  8
1
  6
solid
 62
     0
100
AcDbLine
 10
0.7068806892123482
 20
0.4778987879080865
 30
0.0
 11
0.707799806859407
 21
0.4711379706003943
 31
0.0
  0
LINE
  5
FA
330
A
100
AcDbEntity
  8
1
  6
solid
 62
     0
100
AcDbLine
 10
0.707799806859407
 20
0.4711379706003943
 30
0.0
 11
0.7096380421535247
 21
0.4636259513696249
 31
0.0
  0
LINE
  5
FB
330
A
100
AcDbEntity
  8
1
  6
solid
 62
     0
100
AcDbLine
 10
0.7096380421535247
 20
0.4636259513696249
 30
0.0
 11
0.7120890225456816
 21
0.4583675379080865
 31
0.0
  0
LINE
  5
FC
330
A
100
AcDbEntity
  8
1
  6
solid
 62
     0
100
AcDbLine
 10
0.7120890225456816
 20
0.4583675379080865
 30
0.0
 11
0.7145400029378384
 21
0.4553627302157788
 31
0.0
  0
LINE
  5
FD
330
A
100
AcDbEntity
  8
1
  6
solid
 62
     0
100
AcDbLine
 10
0.7145400029378384
 20
0.4553627302157788
 30
0.0
 11
0.7163782382319561
 21
0.4531091244465481
 31
0.0
  0
LINE
  5
FE
330
A
100
AcDbEntity
  8
1
  6
solid
 62
     0
100
AcDbLine
 10
0.7408880421535247
 20
0.3802425379080865
 30
0.0
 11
0.7470154931339169
 21
0.3824961436773173
 31
0.0
  0
LINE
  5
FF
330
A
100
AcDbEntity
  8
1
  6
solid
 62
     0
100
AcDbLine
 10
0.7470154931339169
 20
0.3824961436773173
 30
0.0
 11
0.7513047088201913
 21
0.3855009513696249
 31
0.0
  0
LINE
  5
100
330
A
100
AcDbEntity
  8
1
  6
solid
 62
     0
100
AcDbLine
 10
0.7513047088201913
 20
0.3855009513696249
 30
0.0
 11
0.7552875519574462
 21
0.3900081629080865
 31
0.0
  0
LINE
  5
101
330
A
100
AcDbEntity
  8
1
  6
solid
 62
     0
100
AcDbLine
 10
0.7552875519574462
 20
0.3900081629080865
 30
0.0
 11
0.7589640225456816
 21
0.3967689802157788
 31
0.0
  0
LINE
  5
102
330
A
100
AcDbEntity
  8
1
  6
solid
 62
     0
100
AcDbLine
 10
0.7589640225456816
 20
0.3967689802157788
 30
0.0
 11
0.7604958852907795
 21
0.4027785956003943
 31
0.0
  0
LINE
  5
103
330
A
100
AcDbEntity
  8
1
  6
solid
 62
     0
100
AcDbLine
 10
0.7604958852907795
 20
0.4027785956003943
 30
0.0
 11
0.7614150029378384
 21
0.4095394129080865
 31
0.0
  0
LINE
  5
104
330
A
100
AcDbEntity
  8
1
  6
solid
 62
     0
100
AcDbLine
 10
0.7614150029378384
 20
0.4095394129080865
 30
0.0
 11
0.7614150029378384
 21
0.4140466244465481
 31
0.0
  0
LINE
  5
105
330
A
100
AcDbEntity
  8
1
  6
solid
 62
     0
100
AcDbLine
 10
0.7614150029378384
 20
0.4140466244465481
 30
0.0
 11
0.7589640225456816
 21
0.423812249446548
 31
0.0
  0
LINE
  5
106
330
A
100
AcDbEntity
  8
1
  6
solid
 62
     0
100
AcDbLine
 10
0.7589640225456816
 20
0.423812249446548
 30
0.0
 11
0.756206669604505
 21
0.4290706629080865
 31
0.0
  0
LINE
  5
107
330
A
100
AcDbEntity
  8
1
  6
solid
 62
     0
100
AcDbLine
 10
0.756206669604505
 20
0.4290706629080865
 30
0.0
 11
0.7528365715652895
 21
0.4335778744465481
 31
0.0
  0
LINE
  5
108
330
A
100
AcDbEntity
  8
1
  6
solid
 62
     0
100
AcDbLine
 10
0.7528365715652895
 20
0.4335778744465481
 30
0.0
 11
0.7485473558790148
 21
0.4380850859850096
 31
0.0
  0
LINE
  5
109
330
A
100
AcDbEntity
  8
1
  6
solid
 62
     0
100
AcDbLine
 10
0.7485473558790148
 20
0.4380850859850096
 30
0.0
 11
0.7451772578397992
 21
0.4395874898311634
 31
0.0
  0
LINE
  5
10A
330
A
100
AcDbEntity
  8
1
  6
solid
 62
     0
100
AcDbLine
 10
0.7451772578397992
 20
0.4395874898311634
 30
0.0
 11
0.7402752970554855
 21
0.4410898936773173
 31
0.0
  0
LINE
  5
10B
330
A
100
AcDbEntity
  8
1
  6
solid
 62
     0
100
AcDbLine
 10
0.7402752970554855
 20
0.4410898936773173
 30
0.0
 11
0.7341478460750933
 21
0.4410898936773173
 31
0.0
  0
LINE
  5
10C
330
A
100
AcDbEntity
  8
1
  6
solid
 62
     0
100
AcDbLine
 10
0.7341478460750933
 20
0.4410898936773173
 30
0.0
 11
0.727407649996662
 21
0.4388362879080865
 31
0.0
  0
LINE
  5
10D
330
A
100
AcDbEntity
  8
1
  6
solid
 62
     0
100
AcDbLine
 10
0.727407649996662
 20
0.4388362879080865
 30
0.0
 11
0.7231184343103874
 21
0.4358314802157788
 31
0.0
  0
LINE
  5
10E
330
A
100
AcDbEntity
  8
1
  6
solid
 62
     0
100
AcDbLine
 10
0.7231184343103874
 20
0.4358314802157788
 30
0.0
 11
0.7188292186241129
 21
0.4313242686773173
 31
0.0
  0
LINE
  5
10F
330
A
100
AcDbEntity
  8
1
  6
solid
 62
     0
100
AcDbLine
 10
0.7188292186241129
 20
0.4313242686773173
 30
0.0
 11
0.7154591205848973
 21
0.4245634513696249
 31
0.0
  0
LINE
  5
110
330
A
100
AcDbEntity
  8
1
  6
solid
 62
     0
100
AcDbLine
 10
0.7154591205848973
 20
0.4245634513696249
 30
0.0
 11
0.7139272578397992
 21
0.4193050379080865
 31
0.0
  0
LINE
  5
111
330
A
100
AcDbEntity
  8
1
  6
solid
 62
     0
100
AcDbLine
 10
0.7139272578397992
 20
0.4193050379080865
 30
0.0
 11
0.7130081401927404
 21
0.4140466244465481
 31
0.0
  0
LINE
  5
112
330
A
100
AcDbEntity
  8
1
  6
solid
 62
     0
100
AcDbLine
 10
0.7130081401927404
 20
0.4140466244465481
 30
0.0
 11
0.7130081401927404
 21
0.4072858071388558
 31
0.0
  0
LINE
  5
113
330
A
100
AcDbEntity
  8
1
  6
solid
 62
     0
100
AcDbLine
 10
0.7130081401927404
 20
0.4072858071388558
 30
0.0
 11
0.7139272578397992
 21
0.4005249898311634
 31
0.0
  0
LINE
  5
114
330
A
100
AcDbEntity
  8
1
  6
solid
 62
     0
100
AcDbLine
 10
0.7139272578397992
 20
0.4005249898311634
 30
0.0
 11
0.7163782382319561
 21
0.3930129706003942
 31
0.0
  0
LINE
  5
115
330
A
100
AcDbEntity
  8
1
  6
solid
 62
     0
100
AcDbLine
 10
0.7163782382319561
 20
0.3930129706003942
 30
0.0
 11
0.7206674539182306
 21
0.3877545571388557
 31
0.0
  0
LINE
  5
116
330
A
100
AcDbEntity
  8
1
  6
solid
 62
     0
100
AcDbLine
 10
0.7206674539182306
 20
0.3877545571388557
 30
0.0
 11
0.7249566696045051
 21
0.3832473456003942
 31
0.0
  0
LINE
  5
117
330
A
100
AcDbEntity
  8
1
  6
solid
 62
     0
100
AcDbLine
 10
0.7249566696045051
 20
0.3832473456003942
 30
0.0
 11
0.7307777480358776
 21
0.3802425379080865
 31
0.0
  0
LINE
  5
118
330
A
100
AcDbEntity
  8
1
  6
solid
 62
     0
100
AcDbLine
 10
0.7307777480358776
 20
0.3802425379080865
 30
0.0
 11
0.7408880421535247
 21
0.3802425379080865
 31
0.0
  0
LINE
  5
119
330
A
100
AcDbEntity
  8
1
  6
solid
 62
     0
100
AcDbLine
 10
0.7393561794084266
 20
0.4606211436773173
 30
0.0
 11
0.7427262774476424
 21
0.4613723456003943
 31
0.0
  0
LINE
  5
11A
330
A
100
AcDbEntity
  8
1
  6
solid
 62
     0
100
AcDbLine
 10
0.7427262774476424
 20
0.4613723456003943
 30
0.0
 11
0.7470154931339169
 21
0.4651283552157788
 31
0.0
  0
LINE
  5
11B
330
A
100
AcDbEntity
  8
1
  6
solid
 62
     0
100
AcDbLine
 10
0.7470154931339169
 20
0.4651283552157788
 30
0.0
 11
0.7494664735260736
 21
0.4688843648311634
 31
0.0
  0
LINE
  5
11C
330
A
100
AcDbEntity
  8
1
  6
solid
 62
     0
100
AcDbLine
 10
0.7494664735260736
 20
0.4688843648311634
 30
0.0
 11
0.7513047088201913
 21
0.4733915763696249
 31
0.0
  0
LINE
  5
11D
330
A
100
AcDbEntity
  8
1
  6
solid
 62
     0
100
AcDbLine
 10
0.7513047088201913
 20
0.4733915763696249
 30
0.0
 11
0.7519174539182306
 21
0.4778987879080865
 31
0.0
  0
LINE
  5
11E
330
A
100
AcDbEntity
  8
1
  6
solid
 62
     0
100
AcDbLine
 10
0.7519174539182306
 20
0.4778987879080865
 30
0.0
 11
0.7519174539182306
 21
0.4809035956003943
 31
0.0
  0
LINE
  5
11F
330
A
100
AcDbEntity
  8
1
  6
solid
 62
     0
100
AcDbLine
 10
0.7519174539182306
 20
0.4809035956003943
 30
0.0
 11
0.7503855911731325
 21
0.4876644129080865
 31
0.0
  0
LINE
  5
120
330
A
100
AcDbEntity
  8
1
  6
solid
 62
     0
100
AcDbLine
 10
0.7503855911731325
 20
0.4876644129080865
 30
0.0
 11
0.7479346107809758
 21
0.4921716244465481
 31
0.0
  0
LINE
  5
121
330
A
100
AcDbEntity
  8
1
  6
solid
 62
     0
100
AcDbLine
 10
0.7479346107809758
 20
0.4921716244465481
 30
0.0
 11
0.7451772578397992
 21
0.4951764321388558
 31
0.0
  0
LINE
  5
122
330
A
100
AcDbEntity
  8
1
  6
solid
 62
     0
100
AcDbLine
 10
0.7451772578397992
 20
0.4951764321388558
 30
0.0
 11
0.7418071598005836
 21
0.4974300379080865
 31
0.0
  0
LINE
  5
123
330
A
100
AcDbEntity
  8
1
  6
solid
 62
     0
100
AcDbLine
 10
0.7418071598005836
 20
0.4974300379080865
 30
0.0
 11
0.7384370617613678
 21
0.4981812398311634
 31
0.0
  0
LINE
  5
124
330
A
100
AcDbEntity
  8
1
  6
solid
 62
     0
100
AcDbLine
 10
0.7384370617613678
 20
0.4981812398311634
 30
0.0
 11
0.735986081369211
 21
0.4981812398311634
 31
0.0
  0
LINE
  5
125
330
A
100
AcDbEntity
  8
1
  6
solid
 62
     0
100
AcDbLine
 10
0.735986081369211
 20
0.4981812398311634
 30
0.0
 11
0.7316968656829364
 21
0.4974300379080865
 31
0.0
  0
LINE
  5
126
330
A
100
AcDbEntity
  8
1
  6
solid
 62
     0
100
AcDbLine
 10
0.7316968656829364
 20
0.4974300379080865
 30
0.0
 11
0.7283267676437207
 21
0.4951764321388558
 31
0.0
  0
LINE
  5
127
330
A
100
AcDbEntity
  8
1
  6
solid
 62
     0
100
AcDbLine
 10
0.7283267676437207
 20
0.4951764321388558
 30
0.0
 11
0.7255694147025443
 21
0.4921716244465481
 31
0.0
  0
LINE
  5
128
330
A
100
AcDbEntity
  8
1
  6
solid
 62
     0
100
AcDbLine
 10
0.7255694147025443
 20
0.4921716244465481
 30
0.0
 11
0.7231184343103874
 21
0.4876644129080865
 31
0.0
  0
LINE
  5
129
330
A
100
AcDbEntity
  8
1
  6
solid
 62
     0
100
AcDbLine
 10
0.7231184343103874
 20
0.4876644129080865
 30
0.0
 11
0.7221993166633287
 21
0.4831572013696249
 31
0.0
  0
LINE
  5
12A
330
A
100
AcDbEntity
  8
1
  6
solid
 62
     0
100
AcDbLine
 10
0.7221993166633287
 20
0.4831572013696249
 30
0.0
 11
0.7215865715652895
 21
0.4801523936773173
 31
0.0
  0
LINE
  5
12B
330
A
100
AcDbEntity
  8
1
  6
solid
 62
     0
100
AcDbLine
 10
0.7215865715652895
 20
0.4801523936773173
 30
0.0
 11
0.7215865715652895
 21
0.4778987879080865
 31
0.0
  0
LINE
  5
12C
330
A
100
AcDbEntity
  8
1
  6
solid
 62
     0
100
AcDbLine
 10
0.7215865715652895
 20
0.4778987879080865
 30
0.0
 11
0.7231184343103874
 21
0.4711379706003943
 31
0.0
  0
LINE
  5
12D
330
A
100
AcDbEntity
  8
1
  6
solid
 62
     0
100
AcDbLine
 10
0.7231184343103874
 20
0.4711379706003943
 30
0.0
 11
0.7249566696045051
 21
0.4681331629080865
 31
0.0
  0
LINE
  5
12E
330
A
100
AcDbEntity
  8
1
  6
solid
 62
     0
100
AcDbLine
 10
0.7249566696045051
 20
0.4681331629080865
 30
0.0
 11
0.727407649996662
 21
0.4636259513696249
 31
0.0
  0
LINE
  5
12F
330
A
100
AcDbEntity
  8
1
  6
solid
 62
     0
100
AcDbLine
 10
0.727407649996662
 20
0.4636259513696249
 30
0.0
 11
0.7307777480358776
 21
0.4613723456003943
 31
0.0
  0
LINE
  5
130
330
A
100
AcDbEntity
  8
1
  6
solid
 62
     0
100
AcDbLine
 10
0.7307777480358776
 20
0.4613723456003943
 30
0.0
 11
0.7350669637221521
 21
0.4606211436773173
 31
0.0
  0
LINE
  5
131
330
A
100
AcDbEntity
  8
1
  6
solid
 62
     0
100
AcDbLine
 10
0.7350669637221521
 20
0.4606211436773173
 30
0.0
 11
0.7393561794084266
 21
0.4606211436773173
 31
0.0
  0
LINE
  5
132
330
A
100
AcDbEntity
  8
1
  6
solid
 62
     0
100
AcDbLine
 10
0.0
 20
0.75
 30
0.0
 11
1.375
 21
0.75
 31
0.0
  0
LINE
  5
133
330
A
100
AcDbEntity
  8
1
  6
solid
 62
     0
100
AcDbLine
 10
-2.104453528429064
 20
0.756391408727613
 30
0.0
 11
-0.7294535284290645
 21
0.756391408727613
 31
0.0
  0
LINE
  5
134
330
A
100
AcDbEntity
  8
1
  6
solid
 62
     0
100
AcDbLine
 10
0.6971261711006918
 20
0.9650298613732843
 30
0.0
 11
2.072126171100691
 21
0.9650298613732843
 31
0.0
  0
LINE
  5
135
330
A
100
AcDbEntity
  8
1
  6
solid
 62
     0
100
AcDbLine
 10
0.0
 20
0.75
 30
0.0
 11
0.6971261501312256
 21
0.9650298357009887
 31
0.0
  0
LINE
  5
136
330
A
100
AcDbEntity
  8
1
  6
solid
 62
     0
100
AcDbLine
 10
1.375
 20
0.75
 30
0.0
 11
2.072126150131225
 21
0.9650298357009887
 31
0.0
  0
LINE
  5
1A2
330
A
100
AcDbEntity
  8
1
  6
solid
 62
     0
370
     0
100
AcDbLine
 10
-2.104453563690185
 20
-0.1186085911467671
 30
0.0
 11
-2.104453563690185
 21
-0.2182955879880308
 31
0.0
  0
LINE
  5
1A3
330
A
100
AcDbEntity
  8
1
  6
solid
 62
     0
370
     0
100
AcDbLine
 10
-0.7294535040855408
 20
-0.1186085911467671
 30
0.0
 11
-0.7294535040855408
 21
-0.2182955879880308
 31
0.0
  0
LINE
  5
1A4
330
A
100
AcDbEntity
  8
1
  6
solid
 62
     0
370
     0
100
AcDbLine
 10
-2.104453563690185
 20
-0.1557955879880308
 30
0.0
 11
-1.808615826899311
 21
-0.1557955879880308
 31
0.0
  0
LINE
  5
1A5
330
A
100
AcDbEntity
  8
1
  6
solid
 62
     0
370
     0
100
AcDbLine
 10
-0.7294535040855408
 20
-0.1557955879880308
 30
0.0
 11
-1.088028872464631
 21
-0.1557955879880308
 31
0.0
  0
MTEXT
  5
1A6
330
A
100
AcDbEntity
  8
1
  6
solid
 62
     0
370
     0
100
AcDbMText
 10
-1.416953533887863
 20
-0.1557955879880308
 30
0.0
 40
0.125
 41
0.0
 71
     5
 72
     1
  1
{\H0.125000;1 3/8}
 73
     1
 44
1.0
  0
SOLID
  5
1A7
330
A
100
AcDbEntity
  8
1
  6
solid
 62
     0
370
     0
100
AcDbTrace
 10
-2.062823563690185
 20
-0.1349805879880308
 30
0.0
 11
-2.062823563690185
 21
-0.1766105879880309
 31
0.0
 12
-2.104453563690185
 22
-0.1557955879880308
 32
0.0
 13
-2.104453563690185
 23
-0.1557955879880308
 33
0.0
  0
SOLID
  5
1A8
330
A
100
AcDbEntity
  8
1
  6
solid
 62
     0
370
     0
100
AcDbTrace
 10
-0.7710835040855408
 20
-0.1766105879880309
 30
0.0
 11
-0.7710835040855409
 21
-0.1349805879880308
 31
0.0
 12
-0.7294535040855408
 22
-0.1557955879880308
 32
0.0
 13
-0.7294535040855408
 23
-0.1557955879880308
 33
0.0
  0
VIEWPORT
  5
18E
102
{ACAD_XDICTIONARY
360
18F
102
}
330
B
100
AcDbEntity
 67
     1
  8
0
  6
Continuous
370
     0
100
AcDbViewport
 10
5.171905305196538
 20
3.9681931355475
 30
0.0
 40
16.99659283974028
 41
8.992999745766949
 68
     1
 69
     1
 12
5.171905305196538
 22
3.9681931355475
 13
0.0
 23
0.0
 14
0.5
 24
0.5
 15
0.5
 25
0.5
 16
0.0
 26
0.0
 36
1.0
 17
0.0
 27
0.0
 37
0.0
 42
50.0
 43
0.0
 44
0.0
 45
8.992999745766949
 50
0.0
 51
0.0
 72
   100
 90
   819232
  1

281
     0
 71
     1
 74
     0
110
0.0
120
0.0
130
0.0
111
1.0
121
0.0
131
0.0
112
0.0
122
1.0
132
0.0
 79
     0
146
0.0
170
     0
  0
VIEWPORT
  5
193
102
{ACAD_XDICTIONARY
360
194
102
}
330
B
100
AcDbEntity
 67
     1
  8
0
  6
Continuous
370
     0
100
AcDbViewport
 10
5.163080497687843
 20
3.950559792528448
 30
0.0
 40
10.60742711015119
 41
8.058433109483182
 68
     2
 69
     2
 12
-0.02065943407794
 22
0.3644942976663587
 13
0.0
 23
0.0
 14
0.5
 24
0.5
 15
0.5
 25
0.5
 16
0.0
 26
0.0
 36
1.0
 17
0.0
 27
0.0
 37
0.0
 42
50.0
 43
0.0
 44
0.0
 45
4.119417985580976
 50
0.0
 51
0.0
 72
   100
 90
   819232
  1

281
     0
 71
     1
 74
     0
110
0.0
120
0.0
130
0.0
111
1.0
121
0.0
131
0.0
112
0.0
122
1.0
132
0.0
 79
     0
146
0.0
170
     0
  0
ENDSEC
  0
SECTION
  2
OBJECTS
  0
DICTIONARY
  5
19
330
0
100
AcDbDictionary
281
     1
  3
ACAD_COLOR
350
162
  3
ACAD_GROUP
350
1A
  3
ACAD_LAYOUT
350
1E
  3
ACAD_MATERIAL
350
138
  3
ACAD_MLEADERSTYLE
350
187
  3
ACAD_MLINESTYLE
350
1B
  3
ACAD_PLOTSETTINGS
350
22
  3
ACAD_PLOTSTYLENAME
350
1F
  3
ACAD_SCALELIST
350
165
  3
ACAD_TABLESTYLE
350
163
  3
ACAD_VISUALSTYLE
350
151
  3
ACAD_WIPEOUT_VARS
350
23
  3
ACDB_RECOMPOSE_DATA
350
1CB
  3
AcDbVariableDictionary
350
1C5
  3
ASE_INDEX_DICTIONARY
350
1B3
  0
DICTIONARY
  5
196
330
14
100
AcDbDictionary
280
     1
281
     1
  3
ADSK_XREC_LAYER_RECONCILED
360
197
  0
DICTIONARY
  5
198
330
27
100
AcDbDictionary
280
     1
281
     1
  3
ADSK_XREC_LAYER_RECONCILED
360
199
  0
DICTIONARY
  5
1A9
330
A
100
AcDbDictionary
280
     1
281
     1
  3
ACAD_SORTENTS
360
1AA
  0
DICTIONARY
  5
18F
330
18E
100
AcDbDictionary
280
     1
281
     1
  3
ASDK_XREC_ANNOTATION_SCALE_INFO
360
190
  0
DICTIONARY
  5
194
330
193
100
AcDbDictionary
280
     1
281
     1
  3
ASDK_XREC_ANNOTATION_SCALE_INFO
360
195
  0
DICTIONARY
  5
162
102
{ACAD_REACTORS
330
19
102
}
330
19
100
AcDbDictionary
281
     1
  0
DICTIONARY
  5
1A
102
{ACAD_REACTORS
330
19
102
}
330
19
100
AcDbDictionary
281
     1
  0
DICTIONARY
  5
1E
102
{ACAD_REACTORS
330
19
102
}
330
19
100
AcDbDictionary
281
     1
  3
Layout1
350
21
  3
Model
350
20
  0
DICTIONARY
  5
138
102
{ACAD_REACTORS
330
19
102
}
330
19
100
AcDbDictionary
281
     1
  3
ByBlock
350
141
  3
ByLayer
350
139
  3
Global
350
149
  0
DICTIONARY
  5
187
102
{ACAD_REACTORS
330
19
102
}
330
19
100
AcDbDictionary
281
     1
  3
Standard
350
188
  0
DICTIONARY
  5
1B
102
{ACAD_REACTORS
330
19
102
}
330
19
100
AcDbDictionary
281
     1
  3
Standard
350
1C
  0
DICTIONARY
  5
22
102
{ACAD_REACTORS
330
19
102
}
330
19
100
AcDbDictionary
281
     1
  0
ACDBDICTIONARYWDFLT
  5
1F
102
{ACAD_REACTORS
330
19
102
}
330
19
100
AcDbDictionary
281
     1
  3
Normal
350
1D
100
AcDbDictionaryWithDefault
340
1D
  0
DICTIONARY
  5
165
102
{ACAD_REACTORS
330
19
102
}
330
19
100
AcDbDictionary
281
     1
  3
A0
350
166
  3
A1
350
167
  3
A2
350
168
  3
A3
350
169
  3
A4
350
16A
  3
A5
350
16B
  3
A6
350
16C
  3
A7
350
16D
  3
A8
350
16E
  3
A9
350
16F
  3
B0
350
170
  3
B1
350
171
  3
B2
350
172
  3
B3
350
173
  3
B4
350
174
  3
B5
350
175
  3
B6
350
176
  3
B7
350
177
  3
B8
350
178
  3
B9
350
179
  3
C0
350
17A
  3
C1
350
17B
  3
C2
350
17C
  3
C3
350
17D
  3
C4
350
17E
  3
C5
350
17F
  3
C6
350
180
  3
C7
350
181
  3
C8
350
182
  3
C9
350
183
  3
D0
350
184
  3
D1
350
185
  3
D2
350
186
  0
DICTIONARY
  5
163
102
{ACAD_REACTORS
330
19
102
}
330
19
100
AcDbDictionary
281
     1
  3
Standard
350
164
  0
DICTIONARY
  5
151
102
{ACAD_REACTORS
330
19
102
}
330
19
100
AcDbDictionary
281
     1
  3
2dWireframe
350
157
  3
3D Hidden
350
159
  3
3dWireframe
350
158
  3
Basic
350
156
  3
Brighten
350
15D
  3
ColorChange
350
161
  3
Conceptual
350
15A
  3
Dim
350
15C
  3
Facepattern
350
160
  3
Flat
350
152
  3
FlatWithEdges
350
153
  3
Gouraud
350
154
  3
GouraudWithEdges
350
155
  3
Linepattern
350
15F
  3
Realistic
350
15B
  3
Thicken
350
15E
  0
WIPEOUTVARIABLES
  5
23
330
19
100
AcDbWipeoutVariables
 70
     1
  0
XRECORD
  5
1CB
102
{ACAD_REACTORS
330
19
102
}
330
19
100
AcDbXrecord
280
     1
 90
        1
330
164
  0
DICTIONARY
  5
1C5
102
{ACAD_REACTORS
330
19
102
}
330
19
100
AcDbDictionary
281
     1
  3
CANNOSCALE
350
1C8
  3
CMLEADERSTYLE
350
1C7
  3
CTABLESTYLE
350
1C6
  0
DICTIONARY
  5
1B3
102
{ACAD_REACTORS
330
19
102
}
330
19
100
AcDbDictionary
281
     1
  3
ASEBlockHierarchyIndexRecord
350
1B5
1001
DCO15
1040
1667670599.5
  0
XRECORD
  5
197
102
{ACAD_REACTORS
330
196
102
}
330
196
100
AcDbXrecord
280
     1
290
     1
  0
XRECORD
  5
199
102
{ACAD_REACTORS
330
198
102
}
330
198
100
AcDbXrecord
280
     1
290
     1
  0
SORTENTSTABLE
  5
1AA
102
{ACAD_REACTORS
330
1A9
102
}
330
1A9
100
AcDbSortentsTable
330
A
331
115
  5
11C
331
F3
  5
FA
331
D9
  5
E0
331
126
  5
12D
331
104
  5
10B
331
EA
  5
F1
331
C8
  5
CF
331
A6
  5
AD
331
84
  5
8B
331
6C
  5
73
331
4A
  5
51
331
95
  5
9C
331
5B
  5
62
331
B7
  5
BE
331
1A6
  5
49
331
28
  5
28
331
135
  5
1A7
331
113
  5
11A
331
F1
  5
F8
331
124
  5
12B
331
102
  5
109
331
E8
  5
EF
331
C6
  5
CD
331
A4
  5
AB
331
82
  5
89
331
6A
  5
71
331
48
  5
4F
331
93
  5
9A
331
D7
  5
DE
331
B5
  5
BC
331
1A4
  5
47
331
59
  5
60
331
133
  5
1A5
331
111
  5
118
331
122
  5
129
331
100
  5
107
331
E6
  5
ED
331
C4
  5
CB
331
A2
  5
A9
331
80
  5
87
331
68
  5
6F
331
46
  5
4D
331
91
  5
98
331
D5
  5
DC
331
B3
  5
BA
331
1A2
  5
45
331
57
  5
5E
331
131
  5
1A3
331
120
  5
127
331
FE
  5
105
331
E4
  5
EB
331
C2
  5
C9
331
A0
  5
A7
331
7E
  5
85
331
66
  5
6D
331
10F
  5
116
331
D3
  5
DA
331
B1
  5
B8
331
8F
  5
96
331
77
  5
7E
331
55
  5
5C
331
11E
  5
125
331
FC
  5
103
331
E2
  5
E9
331
C0
  5
C7
331
9E
  5
A5
331
7C
  5
83
331
64
  5
6B
331
12F
  5
136
331
10D
  5
114
331
D1
  5
D8
331
AF
  5
B6
331
8D
  5
94
331
75
  5
7C
331
53
  5
5A
331
11C
  5
123
331
FA
  5
101
331
E0
  5
E7
331
BE
  5
C5
331
9C
  5
A3
331
7A
  5
81
331
62
  5
69
331
12D
  5
134
331
10B
  5
112
331
CF
  5
D6
331
AD
  5
B4
331
8B
  5
92
331
73
  5
7A
331
51
  5
58
331
2F
  5
2F
331
11A
  5
121
331
F8
  5
FF
331
DE
  5
E5
331
BC
  5
C3
331
9A
  5
A1
331
78
  5
7F
331
60
  5
67
331
12B
  5
132
331
109
  5
110
331
EF
  5
F6
331
CD
  5
D4
331
AB
  5
B2
331
89
  5
90
331
71
  5
78
331
4F
  5
56
331
2D
  5
2D
331
118
  5
11F
331
F6
  5
FD
331
DC
  5
E3
331
BA
  5
C1
331
98
  5
9F
331
129
  5
130
331
107
  5
10E
331
ED
  5
F4
331
CB
  5
D2
331
A9
  5
B0
331
87
  5
8E
331
6F
  5
76
331
4D
  5
54
331
5E
  5
65
331
2B
  5
2B
331
116
  5
11D
331
F4
  5
FB
331
DA
  5
E1
331
B8
  5
BF
331
127
  5
12E
331
105
  5
10C
331
EB
  5
F2
331
C9
  5
D0
331
A7
  5
AE
331
85
  5
8C
331
6D
  5
74
331
4B
  5
52
331
96
  5
9D
331
5C
  5
63
331
1A7
  5
4A
331
29
  5
29
331
136
  5
1A8
331
114
  5
11B
331
F2
  5
F9
331
D8
  5
DF
331
125
  5
12C
331
103
  5
10A
331
E9
  5
F0
331
C7
  5
CE
331
A5
  5
AC
331
83
  5
8A
331
6B
  5
72
331
49
  5
50
331
94
  5
9B
331
B6
  5
BD
331
1A5
  5
48
331
5A
  5
61
331
134
  5
1A6
331
112
  5
119
331
F0
  5
F7
331
123
  5
12A
331
101
  5
108
331
E7
  5
EE
331
C5
  5
CC
331
A3
  5
AA
331
81
  5
88
331
69
  5
70
331
47
  5
4E
331
92
  5
99
331
D6
  5
DD
331
B4
  5
BB
331
1A3
  5
46
331
58
  5
5F
331
132
  5
1A4
331
110
  5
117
331
121
  5
128
331
FF
  5
106
331
E5
  5
EC
331
C3
  5
CA
331
A1
  5
A8
331
7F
  5
86
331
67
  5
6E
331
45
  5
4C
331
D4
  5
DB
331
B2
  5
B9
331
90
  5
97
331
56
  5
5D
331
130
  5
1A2
331
11F
  5
126
331
FD
  5
104
331
E3
  5
EA
331
C1
  5
C8
331
9F
  5
A6
331
7D
  5
84
331
65
  5
6C
331
10E
  5
115
331
D2
  5
D9
331
B0
  5
B7
331
8E
  5
95
331
76
  5
7D
331
54
  5
5B
331
11D
  5
124
331
FB
  5
102
331
E1
  5
E8
331
BF
  5
C6
331
9D
  5
A4
331
7B
  5
82
331
63
  5
6A
331
12E
  5
135
331
10C
  5
113
331
D0
  5
D7
331
AE
  5
B5
331
8C
  5
93
331
74
  5
7B
331
52
  5
59
331
11B
  5
122
331
F9
  5
100
331
DF
  5
E6
331
BD
  5
C4
331
9B
  5
A2
331
79
  5
80
331
61
  5
68
331
12C
  5
133
331
10A
  5
111
331
CE
  5
D5
331
AC
  5
B3
331
8A
  5
91
331
72
  5
79
331
50
  5
57
331
2E
  5
2E
331
119
  5
120
331
F7
  5
FE
331
DD
  5
E4
331
BB
  5
C2
331
99
  5
A0
331
12A
  5
131
331
108
  5
10F
331
EE
  5
F5
331
CC
  5
D3
331
AA
  5
B1
331
88
  5
8F
331
70
  5
77
331
4E
  5
55
331
5F
  5
66
331
2C
  5
2C
331
117
  5
11E
331
F5
  5
FC
331
DB
  5
E2
331
B9
  5
C0
331
1A8
  5
4B
331
128
  5
12F
331
106
  5
10D
331
EC
  5
F3
331
CA
  5
D1
331
A8
  5
AF
331
86
  5
8D
331
6E
  5
75
331
4C
  5
53
331
97
  5
9E
331
5D
  5
64
331
2A
  5
2A
  0
XRECORD
  5
190
102
{ACAD_REACTORS
330
18F
102
}
330
18F
100
AcDbXrecord
280
     1
 90
        1
340
166
  0
XRECORD
  5
195
102
{ACAD_REACTORS
330
194
102
}
330
194
100
AcDbXrecord
280
     1
 90
        1
340
166
  0
LAYOUT
  5
21
102
{ACAD_REACTORS
330
1E
102
}
330
1E
100
AcDbPlotSettings
  1

  2
Foxit PDF Printer
  4
Letter
  6

 40
3.174999952316284
 41
3.174999952316284
 42
3.17498779296875
 43
3.175003051757812
 44
279.3999938964844
 45
215.8999938964844
 46
31.4267670466818
 47
24.13747564896765
 48
0.0
 49
0.0
140
0.0
141
0.0
142
1.0
143
1.0
 70
     4
 72
     0
 73
     0
 74
     1
  7

 75
    16
147
1.0
 76
     1
 77
     2
 78
   300
148
-26.26816480274797
149
-20.15458429594825
100
AcDbLayout
  1
Layout1
 70
     0
 71
     1
 10
-0.3280945746555161
 20
-0.2818067443045545
 11
10.67190518504859
 21
8.218193015399554
 12
0.0
 22
0.0
 32
0.0
 14
-0.1406330573877526
 24
-0.0786567622131429
 34
-0.0015258207003583
 15
10.46679405276344
 25
7.979776347270039
 35
0.0000000349246037
146
0.0
 13
0.0
 23
0.0
 33
0.0
 16
1.0
 26
0.0
 36
0.0
 17
0.0
 27
1.0
 37
0.0
 76
     0
330
B
331
18E
1001
ACAD_PSEXT
1000
Foxit PDF Printer
1000
Foxit PDF Printer Driver
1000
FOXIT_PDF
1000

1070
     0
  0
LAYOUT
  5
20
102
{ACAD_REACTORS
330
1E
102
}
330
1E
100
AcDbPlotSettings
  1

  2

  4

  6

 40
0.0
 41
0.0
 42
0.0
 43
0.0
 44
0.0
 45
0.0
 46
0.0
 47
0.0
 48
0.0
 49
0.0
140
0.0
141
0.0
142
1.0
143
1.0
 70
  1024
 72
     0
 73
     0
 74
     0
  7

 75
     0
147
1.0
 76
     0
 77
     2
 78
   300
148
0.0
149
0.0
100
AcDbLayout
  1
Model
 70
     0
 71
     0
 10
0.0
 20
0.0
 11
0.0
 21
0.0
 12
0.0
 22
0.0
 32
0.0
 14
0.0
 24
0.0
 34
0.0
 15
0.0
 25
0.0
 35
0.0
146
0.0
 13
0.0
 23
0.0
 33
0.0
 16
0.0
 26
0.0
 36
0.0
 17
0.0
 27
0.0
 37
0.0
 76
     0
330
A
  0
MATERIAL
  5
141
102
{ACAD_XDICTIONARY
360
142
102
}
102
{ACAD_REACTORS
330
138
102
}
330
138
100
AcDbMaterial
  1
ByBlock
 72
     0
 43
0.0208333333333333
 43
0.0
 43
0.0
 43
0.0
 43
0.0
 43
0.0208333333333333
 43
0.0
 43
0.0
 43
0.0
 43
0.0
 43
1.0
 43
0.0
 43
0.0
 43
0.0
 43
0.0
 43
1.0
 77
     0
 47
0.0208333333333333
 47
0.0
 47
0.0
 47
0.0
 47
0.0
 47
0.0208333333333333
 47
0.0
 47
0.0
 47
0.0
 47
0.0
 47
1.0
 47
0.0
 47
0.0
 47
0.0
 47
0.0
 47
1.0
171
     0
 49
0.0208333333333333
 49
0.0
 49
0.0
 49
0.0
 49
0.0
 49
0.0208333333333333
 49
0.0
 49
0.0
 49
0.0
 49
0.0
 49
1.0
 49
0.0
 49
0.0
 49
0.0
 49
0.0
 49
1.0
175
     0
142
0.0208333333333333
142
0.0
142
0.0
142
0.0
142
0.0
142
0.0208333333333333
142
0.0
142
0.0
142
0.0
142
0.0
142
1.0
142
0.0
142
0.0
142
0.0
142
0.0
142
1.0
179
     0
144
0.0208333333333333
144
0.0
144
0.0
144
0.0
144
0.0
144
0.0208333333333333
144
0.0
144
0.0
144
0.0
144
0.0
144
1.0
144
0.0
144
0.0
144
0.0
144
0.0
144
1.0
147
0.0208333333333333
147
0.0
147
0.0
147
0.0
147
0.0
147
0.0208333333333333
147
0.0
147
0.0
147
0.0
147
0.0
147
1.0
147
0.0
147
0.0
147
0.0
147
0.0
147
1.0
  0
MATERIAL
  5
139
102
{ACAD_XDICTIONARY
360
13A
102
}
102
{ACAD_REACTORS
330
138
102
}
330
138
100
AcDbMaterial
  1
ByLayer
 72
     0
 43
0.0208333333333333
 43
0.0
 43
0.0
 43
0.0
 43
0.0
 43
0.0208333333333333
 43
0.0
 43
0.0
 43
0.0
 43
0.0
 43
1.0
 43
0.0
 43
0.0
 43
0.0
 43
0.0
 43
1.0
 77
     0
 47
0.0208333333333333
 47
0.0
 47
0.0
 47
0.0
 47
0.0
 47
0.0208333333333333
 47
0.0
 47
0.0
 47
0.0
 47
0.0
 47
1.0
 47
0.0
 47
0.0
 47
0.0
 47
0.0
 47
1.0
171
     0
 49
0.0208333333333333
 49
0.0
 49
0.0
 49
0.0
 49
0.0
 49
0.0208333333333333
 49
0.0
 49
0.0
 49
0.0
 49
0.0
 49
1.0
 49
0.0
 49
0.0
 49
0.0
 49
0.0
 49
1.0
175
     0
142
0.0208333333333333
142
0.0
142
0.0
142
0.0
142
0.0
142
0.0208333333333333
142
0.0
142
0.0
142
0.0
142
0.0
142
1.0
142
0.0
142
0.0
142
0.0
142
0.0
142
1.0
179
     0
144
0.0208333333333333
144
0.0
144
0.0
144
0.0
144
0.0
144
0.0208333333333333
144
0.0
144
0.0
144
0.0
144
0.0
144
1.0
144
0.0
144
0.0
144
0.0
144
0.0
144
1.0
147
0.0208333333333333
147
0.0
147
0.0
147
0.0
147
0.0
147
0.0208333333333333
147
0.0
147
0.0
147
0.0
147
0.0
147
1.0
147
0.0
147
0.0
147
0.0
147
0.0
147
1.0
  0
MATERIAL
  5
149
102
{ACAD_XDICTIONARY
360
14A
102
}
102
{ACAD_REACTORS
330
138
102
}
330
138
100
AcDbMaterial
  1
Global
 72
     0
 43
0.0208333333333333
 43
0.0
 43
0.0
 43
0.0
 43
0.0
 43
0.0208333333333333
 43
0.0
 43
0.0
 43
0.0
 43
0.0
 43
1.0
 43
0.0
 43
0.0
 43
0.0
 43
0.0
 43
1.0
 77
     0
 47
0.0208333333333333
 47
0.0
 47
0.0
 47
0.0
 47
0.0
 47
0.0208333333333333
 47
0.0
 47
0.0
 47
0.0
 47
0.0
 47
1.0
 47
0.0
 47
0.0
 47
0.0
 47
0.0
 47
1.0
171
     0
 49
0.0208333333333333
 49
0.0
 49
0.0
 49
0.0
 49
0.0
 49
0.0208333333333333
 49
0.0
 49
0.0
 49
0.0
 49
0.0
 49
1.0
 49
0.0
 49
0.0
 49
0.0
 49
0.0
 49
1.0
175
     0
142
0.0208333333333333
142
0.0
142
0.0
142
0.0
142
0.0
142
0.0208333333333333
142
0.0
142
0.0
142
0.0
142
0.0
142
1.0
142
0.0
142
0.0
142
0.0
142
0.0
142
1.0
179
     0
144
0.0208333333333333
144
0.0
144
0.0
144
0.0
144
0.0
144
0.0208333333333333
144
0.0
144
0.0
144
0.0
144
0.0
144
1.0
144
0.0
144
0.0
144
0.0
144
0.0
144
1.0
147
0.0208333333333333
147
0.0
147
0.0
147
0.0
147
0.0
147
0.0208333333333333
147
0.0
147
0.0
147
0.0
147
0.0
147
1.0
147
0.0
147
0.0
147
0.0
147
0.0
147
1.0
  0
MLEADERSTYLE
  5
188
102
{ACAD_REACTORS
330
187
102
}
330
187
100
AcDbMLeaderStyle
170
     2
171
     1
172
     0
 90
        2
 40
0.0
 41
0.0
173
     1
 91
-1056964608
340
11
 92
       -2
290
     1
 42
0.09
291
     1
 43
0.36
  3
Standard
 44
0.18
300

342
17
174
     1
178
     6
175
     1
176
     0
 93
-1056964608
 45
0.18
292
     0
297
     0
 46
0.18
 94
-1056964608
 47
1.0
 49
1.0
140
1.0
293
     1
141
0.0
294
     1
177
     0
142
1.0
295
     0
296
     0
143
0.125
1001
ACAD_MLEADERVER
1070
     2
  0
MLINESTYLE
  5
1C
102
{ACAD_REACTORS
330
1B
102
}
330
1B
100
AcDbMlineStyle
  2
STANDARD
 70
     0
  3

 62
     0
 51
90.0
 52
90.0
 71
     2
 49
0.5
 62
   256
  6
BYLAYER
 49
-0.5
 62
   256
  6
BYLAYER
  0
ACDBPLACEHOLDER
  5
1D
102
{ACAD_REACTORS
330
1F
102
}
330
1F
  0
SCALE
  5
166
102
{ACAD_REACTORS
330
165
102
}
330
165
100
AcDbScale
 70
     0
300
1:1
140
1.0
141
1.0
290
     1
  0
SCALE
  5
167
102
{ACAD_REACTORS
330
165
102
}
330
165
100
AcDbScale
 70
     0
300
1:2
140
1.0
141
2.0
290
     0
  0
SCALE
  5
168
102
{ACAD_REACTORS
330
165
102
}
330
165
100
AcDbScale
 70
     0
300
1:4
140
1.0
141
4.0
290
     0
  0
SCALE
  5
169
102
{ACAD_REACTORS
330
165
102
}
330
165
100
AcDbScale
 70
     0
300
1:5
140
1.0
141
5.0
290
     0
  0
SCALE
  5
16A
102
{ACAD_REACTORS
330
165
102
}
330
165
100
AcDbScale
 70
     0
300
1:8
140
1.0
141
8.0
290
     0
  0
SCALE
  5
16B
102
{ACAD_REACTORS
330
165
102
}
330
165
100
AcDbScale
 70
     0
300
1:10
140
1.0
141
10.0
290
     0
  0
SCALE
  5
16C
102
{ACAD_REACTORS
330
165
102
}
330
165
100
AcDbScale
 70
     0
300
1:16
140
1.0
141
16.0
290
     0
  0
SCALE
  5
16D
102
{ACAD_REACTORS
330
165
102
}
330
165
100
AcDbScale
 70
     0
300
1:20
140
1.0
141
20.0
290
     0
  0
SCALE
  5
16E
102
{ACAD_REACTORS
330
165
102
}
330
165
100
AcDbScale
 70
     0
300
1:30
140
1.0
141
30.0
290
     0
  0
SCALE
  5
16F
102
{ACAD_REACTORS
330
165
102
}
330
165
100
AcDbScale
 70
     0
300
1:40
140
1.0
141
40.0
290
     0
  0
SCALE
  5
170
102
{ACAD_REACTORS
330
165
102
}
330
165
100
AcDbScale
 70
     0
300
1:50
140
1.0
141
50.0
290
     0
  0
SCALE
  5
171
102
{ACAD_REACTORS
330
165
102
}
330
165
100
AcDbScale
 70
     0
300
1:100
140
1.0
141
100.0
290
     0
  0
SCALE
  5
172
102
{ACAD_REACTORS
330
165
102
}
330
165
100
AcDbScale
 70
     0
300
2:1
140
2.0
141
1.0
290
     0
  0
SCALE
  5
173
102
{ACAD_REACTORS
330
165
102
}
330
165
100
AcDbScale
 70
     0
300
4:1
140
4.0
141
1.0
290
     0
  0
SCALE
  5
174
102
{ACAD_REACTORS
330
165
102
}
330
165
100
AcDbScale
 70
     0
300
8:1
140
8.0
141
1.0
290
     0
  0
SCALE
  5
175
102
{ACAD_REACTORS
330
165
102
}
330
165
100
AcDbScale
 70
     0
300
10:1
140
10.0
141
1.0
290
     0
  0
SCALE
  5
176
102
{ACAD_REACTORS
330
165
102
}
330
165
100
AcDbScale
 70
     0
300
100:1
140
100.0
141
1.0
290
     0
  0
SCALE
  5
177
102
{ACAD_REACTORS
330
165
102
}
330
165
100
AcDbScale
 70
     0
300
1/128" = 1'-0"
140
0.0078125
141
12.0
290
     0
  0
SCALE
  5
178
102
{ACAD_REACTORS
330
165
102
}
330
165
100
AcDbScale
 70
     0
300
1/64" = 1'-0"
140
0.015625
141
12.0
290
     0
  0
SCALE
  5
179
102
{ACAD_REACTORS
330
165
102
}
330
165
100
AcDbScale
 70
     0
300
1/32" = 1'-0"
140
0.03125
141
12.0
290
     0
  0
SCALE
  5
17A
102
{ACAD_REACTORS
330
165
102
}
330
165
100
AcDbScale
 70
     0
300
1/16" = 1'-0"
140
0.0625
141
12.0
290
     0
  0
SCALE
  5
17B
102
{ACAD_REACTORS
330
165
102
}
330
165
100
AcDbScale
 70
     0
300
3/32" = 1'-0"
140
0.09375
141
12.0
290
     0
  0
SCALE
  5
17C
102
{ACAD_REACTORS
330
165
102
}
330
165
100
AcDbScale
 70
     0
300
1/8" = 1'-0"
140
0.125
141
12.0
290
     0
  0
SCALE
  5
17D
102
{ACAD_REACTORS
330
165
102
}
330
165
100
AcDbScale
 70
     0
300
3/16" = 1'-0"
140
0.1875
141
12.0
290
     0
  0
SCALE
  5
17E
102
{ACAD_REACTORS
330
165
102
}
330
165
100
AcDbScale
 70
     0
300
1/4" = 1'-0"
140
0.25
141
12.0
290
     0
  0
SCALE
  5
17F
102
{ACAD_REACTORS
330
165
102
}
330
165
100
AcDbScale
 70
     0
300
3/8" = 1'-0"
140
0.375
141
12.0
290
     0
  0
SCALE
  5
180
102
{ACAD_REACTORS
330
165
102
}
330
165
100
AcDbScale
 70
     0
300
1/2" = 1'-0"
140
0.5
141
12.0
290
     0
  0
SCALE
  5
181
102
{ACAD_REACTORS
330
165
102
}
330
165
100
AcDbScale
 70
     0
300
3/4" = 1'-0"
140
0.75
141
12.0
290
     0
  0
SCALE
  5
182
102
{ACAD_REACTORS
330
165
102
}
330
165
100
AcDbScale
 70
     0
300
1" = 1'-0"
140
1.0
141
12.0
290
     0
  0
SCALE
  5
183
102
{ACAD_REACTORS
330
165
102
}
330
165
100
AcDbScale
 70
     0
300
1-1/2" = 1'-0"
140
1.5
141
12.0
290
     0
  0
SCALE
  5
184
102
{ACAD_REACTORS
330
165
102
}
330
165
100
AcDbScale
 70
     0
300
3" = 1'-0"
140
3.0
141
12.0
290
     0
  0
SCALE
  5
185
102
{ACAD_REACTORS
330
165
102
}
330
165
100
AcDbScale
 70
     0
300
6" = 1'-0"
140
6.0
141
12.0
290
     0
  0
SCALE
  5
186
102
{ACAD_REACTORS
330
165
102
}
330
165
100
AcDbScale
 70
     0
300
1'-0" = 1'-0"
140
12.0
141
12.0
290
     0
  0
TABLESTYLE
  5
164
102
{ACAD_XDICTIONARY
360
1C9
102
}
102
{ACAD_REACTORS
330
163
102
}
330
163
100
AcDbTableStyle
  3
Standard
 70
     0
 71
     0
 40
0.06
 41
0.06
280
     0
281
     0
  7
Standard
140
0.18
170
     2
 62
     0
 63
     7
283
     0
274
    -2
284
     1
 64
     0
275
    -2
285
     1
 65
     0
276
    -2
286
     1
 66
     0
277
    -2
287
     1
 67
     0
278
    -2
288
     1
 68
     0
279
    -2
289
     1
 69
     0
  7
Standard
140
0.25
170
     5
 62
     0
 63
     7
283
     0
274
    -2
284
     1
 64
     0
275
    -2
285
     1
 65
     0
276
    -2
286
     1
 66
     0
277
    -2
287
     1
 67
     0
278
    -2
288
     1
 68
     0
279
    -2
289
     1
 69
     0
  7
Standard
140
0.18
170
     5
 62
     0
 63
     7
283
     0
274
    -2
284
     1
 64
     0
275
    -2
285
     1
 65
     0
276
    -2
286
     1
 66
     0
277
    -2
287
     1
 67
     0
278
    -2
288
     1
 68
     0
279
    -2
289
     1
 69
     0
  0
VISUALSTYLE
  5
157
102
{ACAD_REACTORS
330
151
102
}
330
151
100
AcDbVisualStyle
  2
2dWireframe
 70
     4
 71
     0
 72
     2
 73
     0
 90
        0
 40
-0.6
 41
-30.0
 62
     5
 63
     7
421
 16777215
 74
     1
 91
        4
 64
     7
 65
   257
 75
     1
175
     1
 42
1.0
 92
        0
 66
   257
 43
1.0
 76
     1
 77
     6
 78
     2
 67
     7
 79
     5
170
     0
171
     0
290
     0
174
     0
 93
        1
 44
0.0
173
     0
291
     0
 45
0.0
1001
ACAD
1000
AcDbSavedByObjectVersion
1070
     0
  0
VISUALSTYLE
  5
159
102
{ACAD_REACTORS
330
151
102
}
330
151
100
AcDbVisualStyle
  2
3D Hidden
 70
     6
 71
     1
 72
     2
 73
     2
 90
        0
 40
-0.6
 41
-30.0
 62
     5
 63
     7
421
 16777215
 74
     2
 91
        2
 64
     7
 65
   257
 75
     2
175
     1
 42
40.0
 92
        0
 66
   257
 43
1.0
 76
     1
 77
     6
 78
     2
 67
     7
 79
     3
170
     0
171
     0
290
     0
174
     0
 93
        1
 44
0.0
173
     0
291
     0
 45
0.0
1001
ACAD
1000
AcDbSavedByObjectVersion
1070
     0
  0
VISUALSTYLE
  5
158
102
{ACAD_REACTORS
330
151
102
}
330
151
100
AcDbVisualStyle
  2
3dWireframe
 70
     5
 71
     0
 72
     2
 73
     0
 90
        0
 40
-0.6
 41
-30.0
 62
     5
 63
     7
421
 16777215
 74
     1
 91
        4
 64
     7
 65
   257
 75
     1
175
     1
 42
1.0
 92
        0
 66
   257
 43
1.0
 76
     1
 77
     6
 78
     2
 67
     7
 79
     5
170
     0
171
     0
290
     0
174
     0
 93
        1
 44
0.0
173
     0
291
     0
 45
0.0
1001
ACAD
1000
AcDbSavedByObjectVersion
1070
     0
  0
VISUALSTYLE
  5
156
102
{ACAD_REACTORS
330
151
102
}
330
151
100
AcDbVisualStyle
  2
Basic
 70
     7
 71
     1
 72
     0
 73
     1
 90
        0
 40
-0.6
 41
-30.0
 62
     5
 63
     7
421
 16777215
 74
     0
 91
        4
 64
     7
 65
   257
 75
     1
175
     1
 42
1.0
 92
        8
 66
     7
 43
1.0
 76
     1
 77
     6
 78
     2
 67
     7
 79
     5
170
     0
171
     0
290
     0
174
     0
 93
        1
 44
0.0
173
     0
291
     1
 45
0.0
1001
ACAD
1000
AcDbSavedByObjectVersion
1070
     0
  0
VISUALSTYLE
  5
15D
102
{ACAD_REACTORS
330
151
102
}
330
151
100
AcDbVisualStyle
  2
Brighten
 70
    12
 71
     2
 72
     2
 73
     0
 90
        0
 40
-0.6
 41
-30.0
 62
     5
 63
     7
421
 16777215
 74
     1
 91
        4
 64
     7
 65
   257
 75
     1
175
     1
 42
1.0
 92
        8
 66
     7
 43
1.0
 76
     1
 77
     6
 78
     2
 67
     7
 79
     5
170
     0
171
     0
290
     0
174
     0
 93
        1
 44
50.0
173
     0
291
     1
 45
0.0
1001
ACAD
1000
AcDbSavedByObjectVersion
1070
     0
  0
VISUALSTYLE
  5
161
102
{ACAD_REACTORS
330
151
102
}
330
151
100
AcDbVisualStyle
  2
ColorChange
 70
    16
 71
     2
 72
     2
 73
     3
 90
        0
 40
-0.6
 41
-30.0
 62
     5
 63
     8
421
  8421504
 74
     1
 91
        4
 64
     7
 65
   257
 75
     1
175
     1
 42
1.0
 92
        8
 66
     8
424
  8421504
 43
1.0
 76
     1
 77
     6
 78
     2
 67
     7
 79
     5
170
     0
171
     0
290
     0
174
     0
 93
        1
 44
0.0
173
     0
291
     1
 45
0.0
1001
ACAD
1000
AcDbSavedByObjectVersion
1070
     0
  0
VISUALSTYLE
  5
15A
102
{ACAD_REACTORS
330
151
102
}
330
151
100
AcDbVisualStyle
  2
Conceptual
 70
     9
 71
     3
 72
     2
 73
     0
 90
        0
 40
-0.6
 41
-30.0
 62
     5
 63
     7
421
 16777215
 74
     2
 91
        2
 64
     7
 65
   257
 75
     1
175
     1
 42
40.0
 92
        8
 66
     7
 43
1.0
 76
     1
 77
     6
 78
     2
 67
     7
 79
     3
170
     0
171
     0
290
     0
174
     0
 93
        1
 44
0.0
173
     0
291
     0
 45
0.0
1001
ACAD
1000
AcDbSavedByObjectVersion
1070
     0
  0
VISUALSTYLE
  5
15C
102
{ACAD_REACTORS
330
151
102
}
330
151
100
AcDbVisualStyle
  2
Dim
 70
    11
 71
     2
 72
     2
 73
     0
 90
        0
 40
-0.6
 41
-30.0
 62
     5
 63
     7
421
 16777215
 74
     1
 91
        4
 64
     7
 65
   257
 75
     1
175
     1
 42
1.0
 92
        8
 66
     7
 43
1.0
 76
     1
 77
     6
 78
     2
 67
     7
 79
     5
170
     0
171
     0
290
     0
174
     0
 93
        1
 44
-50.0
173
     0
291
     1
 45
0.0
1001
ACAD
1000
AcDbSavedByObjectVersion
1070
     0
  0
VISUALSTYLE
  5
160
102
{ACAD_REACTORS
330
151
102
}
330
151
100
AcDbVisualStyle
  2
Facepattern
 70
    15
 71
     2
 72
     2
 73
     0
 90
        0
 40
-0.6
 41
-30.0
 62
     5
 63
     7
421
 16777215
 74
     1
 91
        4
 64
     7
 65
   257
 75
     1
175
     1
 42
1.0
 92
        8
 66
     7
 43
1.0
 76
     1
 77
     6
 78
     2
 67
     7
 79
     5
170
     0
171
     0
290
     0
174
     0
 93
        1
 44
0.0
173
     0
291
     1
 45
0.0
1001
ACAD
1000
AcDbSavedByObjectVersion
1070
     0
  0
VISUALSTYLE
  5
152
102
{ACAD_REACTORS
330
151
102
}
330
151
100
AcDbVisualStyle
  2
Flat
 70
     0
 71
     2
 72
     1
 73
     1
 90
        2
 40
-0.6
 41
30.0
 62
     5
 63
     7
421
 16777215
 74
     0
 91
        4
 64
     7
 65
   257
 75
     1
175
     1
 42
1.0
 92
        8
 66
     7
 43
1.0
 76
     1
 77
     6
 78
     2
 67
     7
 79
     5
170
     0
171
     0
290
     0
174
     0
 93
       13
 44
0.0
173
     0
291
     1
 45
0.0
1001
ACAD
1000
AcDbSavedByObjectVersion
1070
     0
  0
VISUALSTYLE
  5
153
102
{ACAD_REACTORS
330
151
102
}
330
151
100
AcDbVisualStyle
  2
FlatWithEdges
 70
     1
 71
     2
 72
     1
 73
     1
 90
        2
 40
-0.6
 41
30.0
 62
     5
 63
     7
421
 16777215
 74
     1
 91
        4
 64
     7
 65
   257
 75
     1
175
     1
 42
1.0
 92
        0
 66
   257
 43
1.0
 76
     1
 77
     6
 78
     2
 67
     7
 79
     5
170
     0
171
     0
290
     0
174
     0
 93
       13
 44
0.0
173
     0
291
     1
 45
0.0
1001
ACAD
1000
AcDbSavedByObjectVersion
1070
     0
  0
VISUALSTYLE
  5
154
102
{ACAD_REACTORS
330
151
102
}
330
151
100
AcDbVisualStyle
  2
Gouraud
 70
     2
 71
     2
 72
     2
 73
     1
 90
        2
 40
-0.6
 41
30.0
 62
     5
 63
     7
421
 16777215
 74
     0
 91
        4
 64
     7
 65
   257
 75
     1
175
     1
 42
1.0
 92
        0
 66
     7
 43
1.0
 76
     1
 77
     6
 78
     2
 67
     7
 79
     5
170
     0
171
     0
290
     0
174
     0
 93
       13
 44
0.0
173
     0
291
     1
 45
0.0
1001
ACAD
1000
AcDbSavedByObjectVersion
1070
     0
  0
VISUALSTYLE
  5
155
102
{ACAD_REACTORS
330
151
102
}
330
151
100
AcDbVisualStyle
  2
GouraudWithEdges
 70
     3
 71
     2
 72
     2
 73
     1
 90
        2
 40
-0.6
 41
30.0
 62
     5
 63
     7
421
 16777215
 74
     1
 91
        4
 64
     7
 65
   257
 75
     1
175
     1
 42
1.0
 92
        0
 66
   257
 43
1.0
 76
     1
 77
     6
 78
     2
 67
     7
 79
     5
170
     0
171
     0
290
     0
174
     0
 93
       13
 44
0.0
173
     0
291
     1
 45
0.0
1001
ACAD
1000
AcDbSavedByObjectVersion
1070
     0
  0
VISUALSTYLE
  5
15F
102
{ACAD_REACTORS
330
151
102
}
330
151
100
AcDbVisualStyle
  2
Linepattern
 70
    14
 71
     2
 72
     2
 73
     0
 90
        0
 40
-0.6
 41
-30.0
 62
     5
 63
     7
421
 16777215
 74
     1
 91
        4
 64
     7
 65
   257
 75
     7
175
     7
 42
1.0
 92
        8
 66
     7
 43
1.0
 76
     1
 77
     6
 78
     2
 67
     7
 79
     5
170
     0
171
     0
290
     0
174
     0
 93
        1
 44
0.0
173
     0
291
     1
 45
0.0
1001
ACAD
1000
AcDbSavedByObjectVersion
1070
     0
  0
VISUALSTYLE
  5
15B
102
{ACAD_REACTORS
330
151
102
}
330
151
100
AcDbVisualStyle
  2
Realistic
 70
     8
 71
     2
 72
     2
 73
     0
 90
        0
 40
-0.6
 41
-30.0
 62
     5
 63
     7
421
 16777215
 74
     1
 91
        0
 64
     7
 65
   257
 75
     1
175
     1
 42
1.0
 92
        8
 66
     8
424
  7895160
 43
1.0
 76
     1
 77
     6
 78
     2
 67
     7
 79
     5
170
     0
171
     0
290
     0
174
     0
 93
       13
 44
0.0
173
     0
291
     0
 45
0.0
1001
ACAD
1000
AcDbSavedByObjectVersion
1070
     0
  0
VISUALSTYLE
  5
15E
102
{ACAD_REACTORS
330
151
102
}
330
151
100
AcDbVisualStyle
  2
Thicken
 70
    13
 71
     2
 72
     2
 73
     0
 90
        0
 40
-0.6
 41
-30.0
 62
     5
 63
     7
421
 16777215
 74
     1
 91
        4
 64
     7
 65
   257
 75
     1
175
     1
 42
1.0
 92
       12
 66
     7
 43
1.0
 76
     1
 77
     6
 78
     2
 67
     7
 79
     5
170
     0
171
     0
290
     0
174
     0
 93
        1
 44
0.0
173
     0
291
     1
 45
0.0
1001
ACAD
1000
AcDbSavedByObjectVersion
1070
     0
  0
DICTIONARYVAR
  5
1C8
102
{ACAD_REACTORS
330
1C5
102
}
330
1C5
100
DictionaryVariables
280
     0
  1
1:1
  0
DICTIONARYVAR
  5
1C7
102
{ACAD_REACTORS
330
1C5
102
}
330
1C5
100
DictionaryVariables
280
     0
  1
STANDARD
  0
DICTIONARYVAR
  5
1C6
102
{ACAD_REACTORS
330
1C5
102
}
330
1C5
100
DictionaryVariables
280
     0
  1
STANDARD
  0
XRECORD
  5
1B5
102
{ACAD_REACTORS
330
1B3
102
}
330
1B3
100
AcDbXrecord
280
     1
  0
DICTIONARY
  5
142
330
141
100
AcDbDictionary
280
     1
281
     1
  3
ACAD_XREC_ROUNDTRIP
360
1CD
  3
BUMPTILE
360
144
  3
DIFFUSETILE
360
143
  3
OPACITYTILE
360
147
  3
REFLECTIONTILE
360
146
  3
REFRACTIONTILE
360
148
  3
SPECULARTILE
360
145
  0
DICTIONARY
  5
13A
330
139
100
AcDbDictionary
280
     1
281
     1
  3
ACAD_XREC_ROUNDTRIP
360
1CC
  3
BUMPTILE
360
13C
  3
DIFFUSETILE
360
13B
  3
OPACITYTILE
360
13F
  3
REFLECTIONTILE
360
13E
  3
REFRACTIONTILE
360
140
  3
SPECULARTILE
360
13D
  0
DICTIONARY
  5
14A
330
149
100
AcDbDictionary
280
     1
281
     1
  3
ACAD_XREC_ROUNDTRIP
360
1CE
  3
BUMPTILE
360
14C
  3
DIFFUSETILE
360
14B
  3
OPACITYTILE
360
14F
  3
REFLECTIONTILE
360
14E
  3
REFRACTIONTILE
360
150
  3
SPECULARTILE
360
14D
  0
DICTIONARY
  5
1C9
330
164
100
AcDbDictionary
280
     1
281
     1
  3
ACAD_ROUNDTRIP_2008_TABLESTYLE_CELLSTYLEMAP
360
1CA
  3
ACAD_XREC_ROUNDTRIP
360
1CF
  0
XRECORD
  5
1CD
102
{ACAD_REACTORS
330
142
102
}
330
142
100
AcDbXrecord
280
     1
102
MATERIAL
148
0.0
149
0.0
149
0.0
 93
        0
 94
      127
282
     0
 72
     0
 77
     0
171
     0
175
     0
179
     0
273
     0
  0
XRECORD
  5
144
102
{ACAD_REACTORS
330
142
102
}
330
142
100
AcDbXrecord
280
     1
270
     1
271
     1
  0
XRECORD
  5
143
102
{ACAD_REACTORS
330
142
102
}
330
142
100
AcDbXrecord
280
     1
270
     1
271
     1
  0
XRECORD
  5
147
102
{ACAD_REACTORS
330
142
102
}
330
142
100
AcDbXrecord
280
     1
270
     1
271
     1
  0
XRECORD
  5
146
102
{ACAD_REACTORS
330
142
102
}
330
142
100
AcDbXrecord
280
     1
270
     1
271
     1
  0
XRECORD
  5
148
102
{ACAD_REACTORS
330
142
102
}
330
142
100
AcDbXrecord
280
     1
270
     1
271
     1
  0
XRECORD
  5
145
102
{ACAD_REACTORS
330
142
102
}
330
142
100
AcDbXrecord
280
     1
270
     1
271
     1
  0
XRECORD
  5
1CC
102
{ACAD_REACTORS
330
13A
102
}
330
13A
100
AcDbXrecord
280
     1
102
MATERIAL
148
0.0
149
0.0
149
0.0
 93
        0
 94
      127
282
     0
 72
     0
 77
     0
171
     0
175
     0
179
     0
273
     0
  0
XRECORD
  5
13C
102
{ACAD_REACTORS
330
13A
102
}
330
13A
100
AcDbXrecord
280
     1
270
     1
271
     1
  0
XRECORD
  5
13B
102
{ACAD_REACTORS
330
13A
102
}
330
13A
100
AcDbXrecord
280
     1
270
     1
271
     1
  0
XRECORD
  5
13F
102
{ACAD_REACTORS
330
13A
102
}
330
13A
100
AcDbXrecord
280
     1
270
     1
271
     1
  0
XRECORD
  5
13E
102
{ACAD_REACTORS
330
13A
102
}
330
13A
100
AcDbXrecord
280
     1
270
     1
271
     1
  0
XRECORD
  5
140
102
{ACAD_REACTORS
330
13A
102
}
330
13A
100
AcDbXrecord
280
     1
270
     1
271
     1
  0
XRECORD
  5
13D
102
{ACAD_REACTORS
330
13A
102
}
330
13A
100
AcDbXrecord
280
     1
270
     1
271
     1
  0
XRECORD
  5
1CE
102
{ACAD_REACTORS
330
14A
102
}
330
14A
100
AcDbXrecord
280
     1
102
MATERIAL
148
0.0
149
0.0
149
0.0
 93
        0
 94
      127
282
     0
 72
     0
 77
     0
171
     0
175
     0
179
     0
273
     0
  0
XRECORD
  5
14C
102
{ACAD_REACTORS
330
14A
102
}
330
14A
100
AcDbXrecord
280
     1
270
     1
271
     1
  0
XRECORD
  5
14B
102
{ACAD_REACTORS
330
14A
102
}
330
14A
100
AcDbXrecord
280
     1
270
     1
271
     1
  0
XRECORD
  5
14F
102
{ACAD_REACTORS
330
14A
102
}
330
14A
100
AcDbXrecord
280
     1
270
     1
271
     1
  0
XRECORD
  5
14E
102
{ACAD_REACTORS
330
14A
102
}
330
14A
100
AcDbXrecord
280
     1
270
     1
271
     1
  0
XRECORD
  5
150
102
{ACAD_REACTORS
330
14A
102
}
330
14A
100
AcDbXrecord
280
     1
270
     1
271
     1
  0
XRECORD
  5
14D
102
{ACAD_REACTORS
330
14A
102
}
330
14A
100
AcDbXrecord
280
     1
270
     1
271
     1
  0
CELLSTYLEMAP
  5
1CA
102
{ACAD_REACTORS
330
1C9
102
}
330
1C9
100
AcDbCellStyleMap
 90
        3
300
CELLSTYLE
  1
TABLEFORMAT_BEGIN
 90
        5
170
     1
 91
        0
 92
    32768
 62
   257
 93
        1
300
CONTENTFORMAT
  1
CONTENTFORMAT_BEGIN
 90
        0
 91
        0
 92
      512
 93
        0
300

 40
0.0
140
1.0
 94
        5
 62
     0
340
17
144
0.25
309
CONTENTFORMAT_END
171
     0
 94
        0
309
TABLEFORMAT_END
  1
CELLSTYLE_BEGIN
 90
        1
 91
        1
300
_TITLE
309
CELLSTYLE_END
300
CELLSTYLE
  1
TABLEFORMAT_BEGIN
 90
        5
170
     1
 91
        0
 92
        0
 62
   257
 93
        1
300
CONTENTFORMAT
  1
CONTENTFORMAT_BEGIN
 90
        0
 91
        0
 92
      512
 93
        0
300

 40
0.0
140
1.0
 94
        5
 62
     0
340
17
144
0.18
309
CONTENTFORMAT_END
171
     0
 94
        0
309
TABLEFORMAT_END
  1
CELLSTYLE_BEGIN
 90
        2
 91
        1
300
_HEADER
309
CELLSTYLE_END
300
CELLSTYLE
  1
TABLEFORMAT_BEGIN
 90
        5
170
     1
 91
        0
 92
        0
 62
   257
 93
        1
300
CONTENTFORMAT
  1
CONTENTFORMAT_BEGIN
 90
        0
 91
        0
 92
      512
 93
        0
300

 40
0.0
140
1.0
 94
        2
 62
     0
340
17
144
0.18
309
CONTENTFORMAT_END
171
     0
 94
        0
309
TABLEFORMAT_END
  1
CELLSTYLE_BEGIN
 90
        3
 91
        2
300
_DATA
309
CELLSTYLE_END
  0
XRECORD
  5
1CF
102
{ACAD_REACTORS
330
1C9
102
}
330
1C9
100
AcDbXrecord
280
     1
102
ACAD_ROUNDTRIP_PRE2007_TABLESTYLE
 90
      512
 91
        0
  1

 92
      512
 93
        0
  2

 94
      512
 95
        0
  3

  0
ENDSEC
  0
EOF
