  0
SECTION
  2
HEADER
  9
$ACADVER
  1
AC1018
  9
$ACADMAINTVER
 70
   104
  9
$DWGCODEPAGE
  3
ANSI_1252
  9
$LASTSAVEDBY
  1
EARL
  9
$INSBASE
 10
0.0
 20
0.0
 30
0.0
  9
$EXTMIN
 10
-2.290756527073475
 20
-0.2023470255136495
 30
0.0
  9
$EXTMAX
 10
2.193118436465035
 20
0.6470745205879212
 30
0.0
  9
$LIMMIN
 10
0.0
 20
0.0
  9
$LIMMAX
 10
0.0
 20
0.0
  9
$ORTHOMODE
 70
     1
  9
$REGENMODE
 70
     1
  9
$FILLMODE
 70
     1
  9
$QTEXTMODE
 70
     0
  9
$MIRRTEXT
 70
     1
  9
$LTSCALE
 40
1.0
  9
$ATTMODE
 70
     1
  9
$TEXTSIZE
 40
0.0
  9
$TRACEWID
 40
0.05
  9
$TEXTSTYLE
  7
Standard
  9
$CLAYER
  8
0
  9
$CELTYPE
  6
Continuous
  9
$CECOLOR
 62
   256
  9
$CELTSCALE
 40
1.0
  9
$DISPSILH
 70
     0
  9
$DIMSCALE
 40
1.0
  9
$DIMASZ
 40
0.18
  9
$DIMEXO
 40
0.0625
  9
$DIMDLI
 40
0.38
  9
$DIMRND
 40
0.0
  9
$DIMDLE
 40
0.0
  9
$DIMEXE
 40
0.18
  9
$DIMTP
 40
0.0
  9
$DIMTM
 40
0.0
  9
$DIMTXT
 40
0.18
  9
$DIMCEN
 40
0.09
  9
$DIMTSZ
 40
0.0
  9
$DIMTOL
 70
     0
  9
$DIMLIM
 70
     0
  9
$DIMTIH
 70
     1
  9
$DIMTOH
 70
     1
  9
$DIMSE1
 70
     0
  9
$DIMSE2
 70
     0
  9
$DIMTAD
 70
     0
  9
$DIMZIN
 70
     0
  9
$DIMBLK
  1

  9
$DIMASO
 70
     1
  9
$DIMSHO
 70
     1
  9
$DIMPOST
  1

  9
$DIMAPOST
  1

  9
$DIMALT
 70
     0
  9
$DIMALTD
 70
     2
  9
$DIMALTF
 40
25.4
  9
$DIMLFAC
 40
1.0
  9
$DIMTOFL
 70
     0
  9
$DIMTVP
 40
0.0
  9
$DIMTIX
 70
     0
  9
$DIMSOXD
 70
     0
  9
$DIMSAH
 70
     0
  9
$DIMBLK1
  1

  9
$DIMBLK2
  1

  9
$DIMSTYLE
  2
Standard
  9
$DIMCLRD
 70
     0
  9
$DIMCLRE
 70
     0
  9
$DIMCLRT
 70
     0
  9
$DIMTFAC
 40
1.0
  9
$DIMGAP
 40
0.09
  9
$DIMJUST
 70
     0
  9
$DIMSD1
 70
     0
  9
$DIMSD2
 70
     0
  9
$DIMTOLJ
 70
     1
  9
$DIMTZIN
 70
     0
  9
$DIMALTZ
 70
     0
  9
$DIMALTTZ
 70
     0
  9
$DIMUPT
 70
     0
  9
$DIMDEC
 70
     4
  9
$DIMTDEC
 70
     4
  9
$DIMALTU
 70
     2
  9
$DIMALTTD
 70
     2
  9
$DIMTXSTY
  7
Standard
  9
$DIMAUNIT
 70
     0
  9
$DIMADEC
 70
     0
  9
$DIMALTRND
 40
0.0
  9
$DIMAZIN
 70
     0
  9
$DIMDSEP
 70
    46
  9
$DIMATFIT
 70
     0
  9
$DIMFRAC
 70
     0
  9
$DIMLDRBLK
  1

  9
$DIMLUNIT
 70
     2
  9
$DIMLWD
 70
    -2
  9
$DIMLWE
 70
    -2
  9
$DIMTMOVE
 70
     0
  9
$LUNITS
 70
     2
  9
$LUPREC
 70
     4
  9
$SKETCHINC
 40
0.1
  9
$FILLETRAD
 40
0.0
  9
$AUNITS
 70
     0
  9
$AUPREC
 70
     0
  9
$MENU
  1
acad
  9
$ELEVATION
 40
0.0
  9
$PELEVATION
 40
0.0
  9
$THICKNESS
 40
0.0
  9
$LIMCHECK
 70
     0
  9
$CHAMFERA
 40
0.0
  9
$CHAMFERB
 40
0.0
  9
$CHAMFERC
 40
0.0
  9
$CHAMFERD
 40
0.0
  9
$SKPOLY
 70
     0
  9
$TDCREATE
 40
2454516.524305556
  9
$TDUCREATE
 40
2454516.690972222
  9
$TDUPDATE
 40
2455104.950814526
  9
$TDUUPDATE
 40
2455105.117481192
  9
$TDINDWG
 40
0.0004964236
  9
$TDUSRTIMER
 40
0.0004964236
  9
$USRTIMER
 70
     1
  9
$ANGBASE
 50
0.0
  9
$ANGDIR
 70
     0
  9
$PDMODE
 70
     0
  9
$PDSIZE
 40
0.0
  9
$PLINEWID
 40
0.0
  9
$SPLFRAME
 70
     0
  9
$SPLINETYPE
 70
     6
  9
$SPLINESEGS
 70
     8
  9
$HANDSEED
  5
13B
  9
$SURFTAB1
 70
     6
  9
$SURFTAB2
 70
     6
  9
$SURFTYPE
 70
     6
  9
$SURFU
 70
     6
  9
$SURFV
 70
     6
  9
$UCSBASE
  2

  9
$UCSNAME
  2

  9
$UCSORG
 10
0.0
 20
0.0
 30
0.0
  9
$UCSXDIR
 10
1.0
 20
0.0
 30
0.0
  9
$UCSYDIR
 10
0.0
 20
1.0
 30
0.0
  9
$UCSORTHOREF
  2

  9
$UCSORTHOVIEW
 70
     0
  9
$UCSORGTOP
 10
0.0
 20
0.0
 30
0.0
  9
$UCSORGBOTTOM
 10
0.0
 20
0.0
 30
0.0
  9
$UCSORGLEFT
 10
0.0
 20
0.0
 30
0.0
  9
$UCSORGRIGHT
 10
0.0
 20
0.0
 30
0.0
  9
$UCSORGFRONT
 10
0.0
 20
0.0
 30
0.0
  9
$UCSORGBACK
 10
0.0
 20
0.0
 30
0.0
  9
$PUCSBASE
  2

  9
$PUCSNAME
  2

  9
$PUCSORG
 10
0.0
 20
0.0
 30
0.0
  9
$PUCSXDIR
 10
1.0
 20
0.0
 30
0.0
  9
$PUCSYDIR
 10
0.0
 20
1.0
 30
0.0
  9
$PUCSORTHOREF
  2

  9
$PUCSORTHOVIEW
 70
     0
  9
$PUCSORGTOP
 10
0.0
 20
0.0
 30
0.0
  9
$PUCSORGBOTTOM
 10
0.0
 20
0.0
 30
0.0
  9
$PUCSORGLEFT
 10
0.0
 20
0.0
 30
0.0
  9
$PUCSORGRIGHT
 10
0.0
 20
0.0
 30
0.0
  9
$PUCSORGFRONT
 10
0.0
 20
0.0
 30
0.0
  9
$PUCSORGBACK
 10
0.0
 20
0.0
 30
0.0
  9
$USERI1
 70
     0
  9
$USERI2
 70
     0
  9
$USERI3
 70
     0
  9
$USERI4
 70
     0
  9
$USERI5
 70
     0
  9
$USERR1
 40
0.0
  9
$USERR2
 40
0.0
  9
$USERR3
 40
0.0
  9
$USERR4
 40
0.0
  9
$USERR5
 40
0.0
  9
$WORLDVIEW
 70
     1
  9
$SHADEDGE
 70
     3
  9
$SHADEDIF
 70
    70
  9
$TILEMODE
 70
     0
  9
$MAXACTVP
 70
    16
  9
$PINSBASE
 10
0.0
 20
0.0
 30
0.0
  9
$PLIMCHECK
 70
     0
  9
$PEXTMIN
 10
-0.1053337817208941
 20
-0.1668234243214535
 30
-0.0015258207003583
  9
$PEXTMAX
 10
10.48444369059687
 20
8.050309685338589
 30
0.0000000349246037
  9
$PLIMMIN
 10
-0.3280945746555161
 20
-0.2818067443045545
  9
$PLIMMAX
 10
10.67190518504859
 20
8.218193015399554
  9
$UNITMODE
 70
     0
  9
$VISRETAIN
 70
     0
  9
$PLINEGEN
 70
     1
  9
$PSLTSCALE
 70
     0
  9
$TREEDEPTH
 70
  3020
  9
$CMLSTYLE
  2
Standard
  9
$CMLJUST
 70
     0
  9
$CMLSCALE
 40
1.0
  9
$PROXYGRAPHICS
 70
     0
  9
$MEASUREMENT
 70
     0
  9
$CELWEIGHT
370
     0
  9
$ENDCAPS
280
     0
  9
$JOINSTYLE
280
     0
  9
$LWDISPLAY
290
     0
  9
$INSUNITS
 70
     0
  9
$HYPERLINKBASE
  1

  9
$STYLESHEET
  1

  9
$XEDIT
290
     1
  9
$CEPSNTYPE
380
     0
  9
$PSTYLEMODE
290
     1
  9
$FINGERPRINTGUID
  2

  9
$VERSIONGUID
  2
{4C1761F5-7794-46F2-A3CA-DB4B049EF0FC}
  9
$EXTNAMES
290
     1
  9
$PSVPSCALE
 40
0.0
  9
$OLESTARTUP
290
     0
  9
$SORTENTS
280
   127
  9
$INDEXCTL
280
     0
  9
$HIDETEXT
280
     0
  9
$XCLIPFRAME
290
     0
  9
$HALOGAP
280
     0
  9
$OBSCOLOR
 70
   257
  9
$OBSLTYPE
280
     0
  9
$INTERSECTIONDISPLAY
280
     0
  9
$INTERSECTIONCOLOR
 70
   257
  9
$DIMASSOC
280
     1
  9
$PROJECTNAME
  1

  0
ENDSEC
  0
SECTION
  2
CLASSES
  0
CLASS
  1
IMAGE
  2
AcDbRasterImage
  3
ISM
 90
     2175
 91
        0
280
     0
281
     1
  0
CLASS
  1
DICTIONARYVAR
  2
AcDbDictionaryVar
  3
ObjectDBX Classes
 90
        0
 91
        6
280
     0
281
     0
  0
CLASS
  1
RASTERVARIABLES
  2
AcDbRasterVariables
  3
ISM
 90
        0
 91
        0
280
     0
281
     0
  0
CLASS
  1
IMAGEDEF
  2
AcDbRasterImageDef
  3
ISM
 90
        0
 91
        0
280
     0
281
     0
  0
CLASS
  1
IMAGEDEF_REACTOR
  2
AcDbRasterImageDefReactor
  3
ISM
 90
        1
 91
        0
280
     0
281
     0
  0
CLASS
  1
IDBUFFER
  2
AcDbIdBuffer
  3
ObjectDBX Classes
 90
        0
 91
        0
280
     0
281
     0
  0
CLASS
  1
SPATIAL_FILTER
  2
AcDbSpatialFilter
  3
ObjectDBX Classes
 90
        0
 91
        0
280
     0
281
     0
  0
CLASS
  1
SORTENTSTABLE
  2
AcDbSortentsTable
  3
ObjectDBX Classes
 90
        0
 91
        1
280
     0
281
     0
  0
CLASS
  1
LAYER_INDEX
  2
AcDbLayerIndex
  3
ObjectDBX Classes
 90
        0
 91
        0
280
     0
281
     0
  0
CLASS
  1
SPATIAL_INDEX
  2
AcDbSpatialIndex
  3
ObjectDBX Classes
 90
        0
 91
        0
280
     0
281
     0
  0
CLASS
  1
OBJECT_PTR
  2
CAseDLPNTableRecord
  3
ASE-LPNTableRecord
 90
        1
 91
        0
280
     0
281
     0
  0
CLASS
  1
PLOTSETTINGS
  2
AcDbPlotSettings
  3
ObjectDBX Classes
 90
        0
 91
        0
280
     0
281
     0
  0
CLASS
  1
ACDBDICTIONARYWDFLT
  2
AcDbDictionaryWithDefault
  3
ObjectDBX Classes
 90
        0
 91
        1
280
     0
281
     0
  0
CLASS
  1
WIPEOUT
  2
AcDbWipeout
  3
"WipeOut|Product Desc: Object Enabler for WipeOut entity                        |Company: Autodesk, Inc.                        |WEB Address: www.autodesk.com"
 90
     2175
 91
        0
280
     0
281
     1
  0
CLASS
  1
WIPEOUTVARIABLES
  2
AcDbWipeoutVariables
  3
"WipeOut|Product Desc:     WipeOut Dbx Application|Company:          Autodesk, Inc.|WEB Address:      www.autodesk.com"
 90
        0
 91
        1
280
     0
281
     0
  0
CLASS
  1
RTEXT
  2
RText
  3
RText|AutoCAD Express Tool|expresstools@autodesk.com
 90
        0
 91
        0
280
     0
281
     1
  0
CLASS
  1
ARCALIGNEDTEXT
  2
AcDbArcAlignedText
  3
ATEXT|AutoCAD Express Tool|expresstools@autodesk.com
 90
        0
 91
        0
280
     0
281
     1
  0
CLASS
  1
MATERIAL
  2
AcDbMaterial
  3
ObjectDBX Classes
 90
     1153
 91
        3
280
     0
281
     0
  0
CLASS
  1
VISUALSTYLE
  2
AcDbVisualStyle
  3
ObjectDBX Classes
 90
     4095
 91
       16
280
     0
281
     0
  0
CLASS
  1
TABLESTYLE
  2
AcDbTableStyle
  3
ObjectDBX Classes
 90
     4095
 91
        1
280
     0
281
     0
  0
CLASS
  1
SCALE
  2
AcDbScale
  3
ObjectDBX Classes
 90
     1153
 91
       33
280
     0
281
     0
  0
CLASS
  1
MLEADERSTYLE
  2
AcDbMLeaderStyle
  3
ACDB_MLEADERSTYLE_CLASS
 90
     4095
 91
        1
280
     0
281
     0
  0
CLASS
  1
CELLSTYLEMAP
  2
AcDbCellStyleMap
  3
ObjectDBX Classes
 90
     1152
 91
        2
280
     0
281
     0
  0
ENDSEC
  0
SECTION
  2
TABLES
  0
TABLE
  2
VPORT
  5
7
330
0
100
AcDbSymbolTable
 70
     1
  0
VPORT
  5
15
330
7
100
AcDbSymbolTableRecord
100
AcDbViewportTableRecord
  2
*ACTIVE
 70
     0
 10
0.0
 20
0.0
 11
1.0
 21
1.0
 12
12.09279514460998
 22
4.579183999999999
 13
0.0
 23
0.0
 14
1.0
 24
1.0
 15
0.0
 25
0.0
 16
0.0
 26
0.0
 36
1.0
 17
0.0
 27
0.0
 37
0.0
 40
9.158369
 41
1.889980353634577
 42
50.0
 43
0.0
 44
0.0
 50
0.0
 51
0.0
 71
     0
 72
   100
 73
     1
 74
     1
 75
     0
 76
     0
 77
     0
 78
     0
281
     0
 65
     0
110
0.0
120
0.0
130
0.0
111
1.0
121
0.0
131
0.0
112
0.0
122
1.0
132
0.0
 79
     0
146
0.0
  0
ENDTAB
  0
TABLE
  2
LTYPE
  5
4
330
0
100
AcDbSymbolTable
 70
     5
  0
LTYPE
  5
11
330
4
100
AcDbSymbolTableRecord
100
AcDbLinetypeTableRecord
  2
ByBlock
 70
     0
  3

 72
    65
 73
     0
 40
0.0
  0
LTYPE
  5
12
330
4
100
AcDbSymbolTableRecord
100
AcDbLinetypeTableRecord
  2
ByLayer
 70
     0
  3

 72
    65
 73
     0
 40
0.0
  0
LTYPE
  5
13
330
4
100
AcDbSymbolTableRecord
100
AcDbLinetypeTableRecord
  2
Continuous
 70
     0
  3
Solid line
 72
    65
 73
     0
 40
0.0
  0
LTYPE
  5
24
330
4
100
AcDbSymbolTableRecord
100
AcDbLinetypeTableRecord
  2
solid
 70
     0
  3

 72
    65
 73
     0
 40
0.0
  0
LTYPE
  5
25
330
4
100
AcDbSymbolTableRecord
100
AcDbLinetypeTableRecord
  2
dashed
 70
     0
  3

 72
    65
 73
     0
 40
0.0
  0
LTYPE
  5
26
330
4
100
AcDbSymbolTableRecord
100
AcDbLinetypeTableRecord
  2
center
 70
     0
  3

 72
    65
 73
     0
 40
0.0
  0
ENDTAB
  0
TABLE
  2
LAYER
  5
2
330
0
100
AcDbSymbolTable
 70
     2
  0
LAYER
  5
14
102
{ACAD_XDICTIONARY
360
101
102
}
330
2
100
AcDbSymbolTableRecord
100
AcDbLayerTableRecord
  2
0
 70
     0
 62
     7
  6
Continuous
370
    -3
390
1D
  0
LAYER
  5
27
102
{ACAD_XDICTIONARY
360
103
102
}
330
2
100
AcDbSymbolTableRecord
100
AcDbLayerTableRecord
  2
1
 70
     0
 62
     1
  6
solid
370
    -3
390
1D
  0
ENDTAB
  0
TABLE
  2
STYLE
  5
3
330
0
100
AcDbSymbolTable
 70
     2
  0
STYLE
  5
17
330
3
100
AcDbSymbolTableRecord
100
AcDbTextStyleTableRecord
  2
Standard
 70
     0
 40
0.0
 41
1.0
 50
0.0
 71
     0
 42
0.0
  3
txt
  4

  0
ENDTAB
  0
TABLE
  2
VIEW
  5
5
330
0
100
AcDbSymbolTable
 70
     0
  0
ENDTAB
  0
TABLE
  2
UCS
  5
6
330
0
100
AcDbSymbolTable
 70
     0
  0
ENDTAB
  0
TABLE
  2
APPID
  5
8
330
0
100
AcDbSymbolTable
 70
     5
  0
APPID
  5
16
330
8
100
AcDbSymbolTableRecord
100
AcDbRegAppTableRecord
  2
ACAD
 70
     0
  0
APPID
  5
F4
330
8
100
AcDbSymbolTableRecord
100
AcDbRegAppTableRecord
  2
ACAD_MLEADERVER
 70
     0
  0
APPID
  5
FC
330
8
100
AcDbSymbolTableRecord
100
AcDbRegAppTableRecord
  2
ACAD_PSEXT
 70
     0
  0
APPID
  5
117
330
8
100
AcDbSymbolTableRecord
100
AcDbRegAppTableRecord
  2
ACAD_EXEMPT_FROM_CAD_STANDARDS
 70
     0
  0
APPID
  5
11F
330
8
100
AcDbSymbolTableRecord
100
AcDbRegAppTableRecord
  2
DCO15
 70
     0
  0
ENDTAB
  0
TABLE
  2
DIMSTYLE
  5
9
330
0
100
AcDbSymbolTable
 70
     3
100
AcDbDimStyleTable
 71
     1
340
18
  0
DIMSTYLE
105
18
102
{ACAD_REACTORS
330
3A
102
}
330
9
100
AcDbSymbolTableRecord
100
AcDbDimStyleTableRecord
  2
Standard
 70
     0
289
     0
340
17
  0
ENDTAB
  0
TABLE
  2
BLOCK_RECORD
  5
1
330
0
100
AcDbSymbolTable
 70
     4
  0
BLOCK_RECORD
  5
A
102
{ACAD_XDICTIONARY
360
114
102
}
330
1
100
AcDbSymbolTableRecord
100
AcDbBlockTableRecord
  2
*MODEL_SPACE
340
20
  0
BLOCK_RECORD
  5
B
330
1
100
AcDbSymbolTableRecord
100
AcDbBlockTableRecord
  2
*PAPER_SPACE
340
21
  0
BLOCK_RECORD
  5
30
330
1
100
AcDbSymbolTableRecord
100
AcDbBlockTableRecord
  2
*D0
340
0
  0
BLOCK_RECORD
  5
3B
330
1
100
AcDbSymbolTableRecord
100
AcDbBlockTableRecord
  2
*D1
340
0
  0
ENDTAB
  0
ENDSEC
  0
SECTION
  2
BLOCKS
  0
BLOCK
  5
D
330
A
100
AcDbEntity
  8
0
100
AcDbBlockBegin
  2
*MODEL_SPACE
 70
     0
 10
0.0
 20
0.0
 30
0.0
  3
*MODEL_SPACE
  1

  0
ENDBLK
  5
E
330
A
100
AcDbEntity
  8
0
100
AcDbBlockEnd
  0
BLOCK
  5
F
330
B
100
AcDbEntity
 67
     1
  8
0
100
AcDbBlockBegin
  2
*PAPER_SPACE
 70
     0
 10
0.0
 20
0.0
 30
0.0
  3
*PAPER_SPACE
  1

  0
ENDBLK
  5
10
330
B
100
AcDbEntity
 67
     1
  8
0
100
AcDbBlockEnd
  0
BLOCK
  5
31
330
30
100
AcDbEntity
  8
1
  6
solid
 62
     0
100
AcDbBlockBegin
  2
*D0
 70
     0
 10
0.0
 20
0.0
 30
0.0
  3
*D0
  1

  0
LINE
  5
32
330
30
100
AcDbEntity
  8
1
  6
solid
 62
     0
100
AcDbLine
 10
-0.4157565236091614
 20
0.0063205468468367
 30
0.0
 11
-0.2400575203493278
 21
0.0063205468468366
 31
0.0
  0
LINE
  5
33
330
30
100
AcDbEntity
  8
1
  6
solid
 62
     0
100
AcDbLine
 10
-0.4157565270734751
 20
0.50632054679435
 30
0.0
 11
-0.2400575203493274
 21
0.5063205467943499
 31
0.0
  0
LINE
  5
34
330
30
100
AcDbEntity
  8
1
  6
solid
 62
     0
100
AcDbLine
 10
-0.3025575203493278
 20
0.0063205468468366
 30
0.0
 11
-0.3025575203493277
 21
0.1264142968205933
 31
0.0
  0
LINE
  5
35
330
30
100
AcDbEntity
  8
1
  6
solid
 62
     0
100
AcDbLine
 10
-0.3025575203493274
 20
0.5063205467943499
 30
0.0
 11
-0.3025575203493275
 21
0.3862267968205933
 31
0.0
  0
MTEXT
  5
36
330
30
100
AcDbEntity
  8
1
  6
solid
 62
     0
100
AcDbMText
 10
-0.3025575203493276
 20
0.2563205468205933
 30
0.0
 40
0.125
 41
0.0
 71
     5
 72
     1
  1
{\H0.125000;1/2}
 73
     1
 44
1.0
  0
SOLID
  5
37
330
30
100
AcDbEntity
  8
1
  6
solid
 62
     0
100
AcDbTrace
 10
-0.3233725203493277
 20
0.0479505468468367
 30
0.0
 11
-0.2817425203493277
 21
0.0479505468468366
 31
0.0
 12
-0.3025575203493278
 22
0.0063205468468366
 32
0.0
 13
-0.3025575203493278
 23
0.0063205468468366
 33
0.0
  0
SOLID
  5
38
330
30
100
AcDbEntity
  8
1
  6
solid
 62
     0
100
AcDbTrace
 10
-0.2817425203493275
 20
0.46469054679435
 30
0.0
 11
-0.3233725203493274
 21
0.46469054679435
 31
0.0
 12
-0.3025575203493274
 22
0.5063205467943499
 32
0.0
 13
-0.3025575203493274
 23
0.5063205467943499
 33
0.0
  0
ENDBLK
  5
39
330
30
100
AcDbEntity
  8
1
  6
solid
 62
     0
100
AcDbBlockEnd
  0
BLOCK
  5
3C
330
3B
100
AcDbEntity
  8
1
  6
solid
 62
     0
100
AcDbBlockBegin
  2
*D1
 70
     0
 10
0.0
 20
0.0
 30
0.0
  3
*D1
  1

  0
LINE
  5
3D
330
3B
100
AcDbEntity
  8
1
  6
solid
 62
     0
100
AcDbLine
 10
-2.290756464004516
 20
-0.1186794531531632
 30
0.0
 11
-2.290756464004516
 21
-0.2023470255136494
 31
0.0
  0
LINE
  5
3E
330
3B
100
AcDbEntity
  8
1
  6
solid
 62
     0
100
AcDbLine
 10
-0.5407565236091614
 20
-0.1186794531531632
 30
0.0
 11
-0.5407565236091614
 21
-0.2023470255136494
 31
0.0
  0
LINE
  5
3F
330
3B
100
AcDbEntity
  8
1
  6
solid
 62
     0
100
AcDbLine
 10
-2.290756464004516
 20
-0.1398470255136494
 30
0.0
 11
-1.650789448352293
 21
-0.1398470255136494
 31
0.0
  0
LINE
  5
40
330
3B
100
AcDbEntity
  8
1
  6
solid
 62
     0
100
AcDbLine
 10
-0.5407565236091614
 20
-0.1398470255136494
 30
0.0
 11
-1.180723539261384
 21
-0.1398470255136494
 31
0.0
  0
MTEXT
  5
41
330
3B
100
AcDbEntity
  8
1
  6
solid
 62
     0
100
AcDbMText
 10
-1.415756493806838
 20
-0.1398470255136494
 30
0.0
 40
0.125
 41
0.0
 71
     5
 72
     1
  1
{\H0.125000;1 3/4}
 73
     1
 44
1.0
  0
SOLID
  5
42
330
3B
100
AcDbEntity
  8
1
  6
solid
 62
     0
100
AcDbTrace
 10
-2.249126464004516
 20
-0.1190320255136494
 30
0.0
 11
-2.249126464004516
 21
-0.1606620255136494
 31
0.0
 12
-2.290756464004516
 22
-0.1398470255136494
 32
0.0
 13
-2.290756464004516
 23
-0.1398470255136494
 33
0.0
  0
SOLID
  5
43
330
3B
100
AcDbEntity
  8
1
  6
solid
 62
     0
100
AcDbTrace
 10
-0.5823865236091615
 20
-0.1606620255136494
 30
0.0
 11
-0.5823865236091615
 21
-0.1190320255136494
 31
0.0
 12
-0.5407565236091614
 22
-0.1398470255136494
 32
0.0
 13
-0.5407565236091614
 23
-0.1398470255136494
 33
0.0
  0
ENDBLK
  5
44
330
3B
100
AcDbEntity
  8
1
  6
solid
 62
     0
100
AcDbBlockEnd
  0
ENDSEC
  0
SECTION
  2
ENTITIES
  0
LINE
  5
28
330
A
100
AcDbEntity
  8
1
  6
solid
 62
     0
100
AcDbLine
 10
1.75
 20
0.5
 30
0.0
 11
1.75
 21
0.0
 31
0.0
  0
LINE
  5
29
330
A
100
AcDbEntity
  8
1
  6
solid
 62
     0
100
AcDbLine
 10
1.75
 20
0.0
 30
0.0
 11
0.0
 21
0.0
 31
0.0
  0
LINE
  5
2A
330
A
100
AcDbEntity
  8
1
  6
solid
 62
     0
100
AcDbLine
 10
0.0
 20
0.0
 30
0.0
 11
0.0
 21
0.5
 31
0.0
  0
LINE
  5
2B
330
A
100
AcDbEntity
  8
1
  6
solid
 62
     0
100
AcDbLine
 10
-0.5407565270734751
 20
0.5063205467943501
 30
0.0
 11
-0.5407565270734751
 21
0.0063205467943501
 31
0.0
  0
LINE
  5
2C
330
A
100
AcDbEntity
  8
1
  6
solid
 62
     0
100
AcDbLine
 10
-0.5407565270734751
 20
0.0063205467943501
 30
0.0
 11
-2.290756527073475
 21
0.0063205467943501
 31
0.0
  0
LINE
  5
2D
330
A
100
AcDbEntity
  8
1
  6
solid
 62
     0
100
AcDbLine
 10
-2.290756527073475
 20
0.0063205467943501
 30
0.0
 11
-2.290756527073475
 21
0.5063205467943501
 31
0.0
  0
LINE
  5
2E
330
A
100
AcDbEntity
  8
1
  6
solid
 62
     0
100
AcDbLine
 10
2.193118436465035
 20
0.6470745053131646
 30
0.0
 11
2.193118436465035
 21
0.1470745053131645
 31
0.0
  0
LINE
  5
2F
330
A
100
AcDbEntity
  8
1
  6
solid
 62
     0
100
AcDbLine
 10
1.75
 20
0.0
 30
0.0
 11
2.193118333816528
 21
0.1470745056867599
 31
0.0
  0
DIMENSION
  5
3A
330
A
100
AcDbEntity
  8
1
  6
solid
 62
     0
100
AcDbDimension
  2
*D0
 10
-0.3025575203493276
 20
0.2563205468205933
 30
0.0
 11
-0.3025575203493276
 21
0.2563205468205933
 31
0.0
 70
    33
 71
     5
 42
0.4999999999475133
  3
Standard
100
AcDbAlignedDimension
 13
-0.5407565270734751
 23
0.5063205467943501
 33
0.0
 14
-0.5407565236091614
 24
0.0063205468468368
 34
0.0
1001
ACAD
1000
DSTYLE
1002
{
1070
    41
1040
0.04163
1070
    42
1040
0.125
1070
    44
1040
0.0625
1070
    47
1040
0.0005
1070
    48
1040
0.0005
1070
    75
1070
     1
1070
    76
1070
     1
1070
   140
1040
0.125
1070
   146
1040
0.5
1070
   174
1070
     1
1070
   270
1070
     5
1070
   271
1070
     3
1070
   272
1070
     3
1070
   277
1070
     5
1002
}
  0
LINE
  5
46
330
A
100
AcDbEntity
  8
1
  6
solid
 62
     0
100
AcDbLine
 10
0.6610657341256326
 20
0.1579017328915349
 30
0.0
 11
0.6610657341256326
 21
0.1741276944299964
 31
0.0
  0
LINE
  5
47
330
A
100
AcDbEntity
  8
1
  6
solid
 62
     0
100
AcDbLine
 10
0.6610657341256326
 20
0.1741276944299964
 30
0.0
 11
0.6728304400079855
 21
0.1741276944299964
 31
0.0
  0
LINE
  5
48
330
A
100
AcDbEntity
  8
1
  6
solid
 62
     0
100
AcDbLine
 10
0.6728304400079855
 20
0.1741276944299964
 30
0.0
 11
0.6728304400079855
 21
0.2666757713530734
 31
0.0
  0
LINE
  5
49
330
A
100
AcDbEntity
  8
1
  6
solid
 62
     0
100
AcDbLine
 10
0.6728304400079855
 20
0.2666757713530734
 30
0.0
 11
0.6610657341256326
 21
0.2666757713530734
 31
0.0
  0
LINE
  5
4A
330
A
100
AcDbEntity
  8
1
  6
solid
 62
     0
100
AcDbLine
 10
0.6610657341256326
 20
0.2666757713530734
 30
0.0
 11
0.6610657341256326
 21
0.2829017328915348
 31
0.0
  0
LINE
  5
4B
330
A
100
AcDbEntity
  8
1
  6
solid
 62
     0
100
AcDbLine
 10
0.6610657341256326
 20
0.2829017328915348
 30
0.0
 11
0.6968500478511227
 21
0.2829017328915348
 31
0.0
  0
LINE
  5
4C
330
A
100
AcDbEntity
  8
1
  6
solid
 62
     0
100
AcDbLine
 10
0.6968500478511227
 20
0.2829017328915348
 30
0.0
 11
0.6968500478511227
 21
0.2666757713530734
 31
0.0
  0
LINE
  5
4D
330
A
100
AcDbEntity
  8
1
  6
solid
 62
     0
100
AcDbLine
 10
0.6968500478511227
 20
0.2666757713530734
 30
0.0
 11
0.6865559302040639
 21
0.2666757713530734
 31
0.0
  0
LINE
  5
4E
330
A
100
AcDbEntity
  8
1
  6
solid
 62
     0
100
AcDbLine
 10
0.6865559302040639
 20
0.2666757713530734
 30
0.0
 11
0.6865559302040639
 21
0.1741276944299964
 31
0.0
  0
LINE
  5
4F
330
A
100
AcDbEntity
  8
1
  6
solid
 62
     0
100
AcDbLine
 10
0.6865559302040639
 20
0.1741276944299964
 30
0.0
 11
0.7118010282432797
 21
0.1741276944299964
 31
0.0
  0
LINE
  5
50
330
A
100
AcDbEntity
  8
1
  6
solid
 62
     0
100
AcDbLine
 10
0.7118010282432797
 20
0.1741276944299964
 30
0.0
 11
0.7118010282432797
 21
0.1969642328915349
 31
0.0
  0
LINE
  5
51
330
A
100
AcDbEntity
  8
1
  6
solid
 62
     0
100
AcDbLine
 10
0.7118010282432797
 20
0.1969642328915349
 30
0.0
 11
0.7235657341256326
 21
0.1969642328915349
 31
0.0
  0
LINE
  5
52
330
A
100
AcDbEntity
  8
1
  6
solid
 62
     0
100
AcDbLine
 10
0.7235657341256326
 20
0.1969642328915349
 30
0.0
 11
0.7235657341256326
 21
0.1579017328915349
 31
0.0
  0
LINE
  5
53
330
A
100
AcDbEntity
  8
1
  6
solid
 62
     0
100
AcDbLine
 10
0.7235657341256326
 20
0.1579017328915349
 30
0.0
 11
0.6610657341256326
 21
0.1579017328915349
 31
0.0
  0
LINE
  5
54
330
A
100
AcDbEntity
  8
1
  6
solid
 62
     0
100
AcDbLine
 10
0.7439088713805346
 20
0.1579017328915349
 30
0.0
 11
0.7828794596158286
 21
0.2666757713530734
 31
0.0
  0
LINE
  5
55
330
A
100
AcDbEntity
  8
1
  6
solid
 62
     0
100
AcDbLine
 10
0.7828794596158286
 20
0.2666757713530734
 30
0.0
 11
0.7488108321648483
 21
0.2666757713530734
 31
0.0
  0
LINE
  5
56
330
A
100
AcDbEntity
  8
1
  6
solid
 62
     0
100
AcDbLine
 10
0.7488108321648483
 20
0.2666757713530734
 30
0.0
 11
0.7488108321648483
 21
0.2438392328915349
 31
0.0
  0
LINE
  5
57
330
A
100
AcDbEntity
  8
1
  6
solid
 62
     0
100
AcDbLine
 10
0.7488108321648483
 20
0.2438392328915349
 30
0.0
 11
0.7360657341256325
 21
0.2438392328915349
 31
0.0
  0
LINE
  5
58
330
A
100
AcDbEntity
  8
1
  6
solid
 62
     0
100
AcDbLine
 10
0.7360657341256325
 20
0.2438392328915349
 30
0.0
 11
0.7360657341256325
 21
0.2829017328915348
 31
0.0
  0
LINE
  5
59
330
A
100
AcDbEntity
  8
1
  6
solid
 62
     0
100
AcDbLine
 10
0.7360657341256325
 20
0.2829017328915348
 30
0.0
 11
0.7985657341256325
 21
0.2829017328915348
 31
0.0
  0
LINE
  5
5A
330
A
100
AcDbEntity
  8
1
  6
solid
 62
     0
100
AcDbLine
 10
0.7985657341256325
 20
0.2829017328915348
 30
0.0
 11
0.7985657341256325
 21
0.2666757713530734
 31
0.0
  0
LINE
  5
5B
330
A
100
AcDbEntity
  8
1
  6
solid
 62
     0
100
AcDbLine
 10
0.7985657341256325
 20
0.2666757713530734
 30
0.0
 11
0.7588598517726913
 21
0.1579017328915349
 31
0.0
  0
LINE
  5
5C
330
A
100
AcDbEntity
  8
1
  6
solid
 62
     0
100
AcDbLine
 10
0.7588598517726913
 20
0.1579017328915349
 30
0.0
 11
0.7439088713805346
 21
0.1579017328915349
 31
0.0
  0
LINE
  5
5D
330
A
100
AcDbEntity
  8
1
  6
solid
 62
     0
100
AcDbLine
 10
0.8431735772628874
 20
0.1579017328915349
 30
0.0
 11
0.8698892635373971
 21
0.2179978867376887
 31
0.0
  0
LINE
  5
5E
330
A
100
AcDbEntity
  8
1
  6
solid
 62
     0
100
AcDbLine
 10
0.8698892635373971
 20
0.2179978867376887
 30
0.0
 11
0.8716049498119071
 21
0.2252094251992272
 31
0.0
  0
LINE
  5
5F
330
A
100
AcDbEntity
  8
1
  6
solid
 62
     0
100
AcDbLine
 10
0.8716049498119071
 20
0.2252094251992272
 30
0.0
 11
0.8728304400079855
 21
0.2342238482761503
 31
0.0
  0
LINE
  5
60
330
A
100
AcDbEntity
  8
1
  6
solid
 62
     0
100
AcDbLine
 10
0.8728304400079855
 20
0.2342238482761503
 30
0.0
 11
0.8735657341256326
 21
0.2402334636607657
 31
0.0
  0
LINE
  5
61
330
A
100
AcDbEntity
  8
1
  6
solid
 62
     0
100
AcDbLine
 10
0.8735657341256326
 20
0.2402334636607657
 30
0.0
 11
0.872340243929554
 21
0.2480459636607657
 31
0.0
  0
LINE
  5
62
330
A
100
AcDbEntity
  8
1
  6
solid
 62
     0
100
AcDbLine
 10
0.872340243929554
 20
0.2480459636607657
 30
0.0
 11
0.8703794596158285
 21
0.2564594251992272
 31
0.0
  0
LINE
  5
63
330
A
100
AcDbEntity
  8
1
  6
solid
 62
     0
100
AcDbLine
 10
0.8703794596158285
 20
0.2564594251992272
 30
0.0
 11
0.8679284792236716
 21
0.2636709636607657
 31
0.0
  0
LINE
  5
64
330
A
100
AcDbEntity
  8
1
  6
solid
 62
     0
100
AcDbLine
 10
0.8679284792236716
 20
0.2636709636607657
 30
0.0
 11
0.8642520086354362
 21
0.2696805790453811
 31
0.0
  0
LINE
  5
65
330
A
100
AcDbEntity
  8
1
  6
solid
 62
     0
100
AcDbLine
 10
0.8642520086354362
 20
0.2696805790453811
 30
0.0
 11
0.8605755380472011
 21
0.2738873098146119
 31
0.0
  0
LINE
  5
66
330
A
100
AcDbEntity
  8
1
  6
solid
 62
     0
100
AcDbLine
 10
0.8605755380472011
 20
0.2738873098146119
 30
0.0
 11
0.8568990674589658
 21
0.2774930790453811
 31
0.0
  0
LINE
  5
67
330
A
100
AcDbEntity
  8
1
  6
solid
 62
     0
100
AcDbLine
 10
0.8568990674589658
 20
0.2774930790453811
 30
0.0
 11
0.8524873027530833
 21
0.2804978867376887
 31
0.0
  0
LINE
  5
68
330
A
100
AcDbEntity
  8
1
  6
solid
 62
     0
100
AcDbLine
 10
0.8524873027530833
 20
0.2804978867376887
 30
0.0
 11
0.8480755380472011
 21
0.2823007713530734
 31
0.0
  0
LINE
  5
69
330
A
100
AcDbEntity
  8
1
  6
solid
 62
     0
100
AcDbLine
 10
0.8480755380472011
 20
0.2823007713530734
 30
0.0
 11
0.8439088713805345
 21
0.2829017328915348
 31
0.0
  0
LINE
  5
6A
330
A
100
AcDbEntity
  8
1
  6
solid
 62
     0
100
AcDbLine
 10
0.8439088713805345
 20
0.2829017328915348
 30
0.0
 11
0.8402324007922992
 21
0.2829017328915348
 31
0.0
  0
LINE
  5
6B
330
A
100
AcDbEntity
  8
1
  6
solid
 62
     0
100
AcDbLine
 10
0.8402324007922992
 20
0.2829017328915348
 30
0.0
 11
0.8358206360864169
 21
0.2823007713530734
 31
0.0
  0
LINE
  5
6C
330
A
100
AcDbEntity
  8
1
  6
solid
 62
     0
100
AcDbLine
 10
0.8358206360864169
 20
0.2823007713530734
 30
0.0
 11
0.830918675302103
 21
0.2792959636607657
 31
0.0
  0
LINE
  5
6D
330
A
100
AcDbEntity
  8
1
  6
solid
 62
     0
100
AcDbLine
 10
0.830918675302103
 20
0.2792959636607657
 30
0.0
 11
0.8247912243217109
 21
0.2750892328915349
 31
0.0
  0
LINE
  5
6E
330
A
100
AcDbEntity
  8
1
  6
solid
 62
     0
100
AcDbLine
 10
0.8247912243217109
 20
0.2750892328915349
 30
0.0
 11
0.8196441654981814
 21
0.268478655968458
 31
0.0
  0
LINE
  5
6F
330
A
100
AcDbEntity
  8
1
  6
solid
 62
     0
100
AcDbLine
 10
0.8196441654981814
 20
0.268478655968458
 30
0.0
 11
0.8154774988315148
 21
0.260666155968458
 31
0.0
  0
LINE
  5
70
330
A
100
AcDbEntity
  8
1
  6
solid
 62
     0
100
AcDbLine
 10
0.8154774988315148
 20
0.260666155968458
 30
0.0
 11
0.813026518439358
 21
0.2534546175069195
 31
0.0
  0
LINE
  5
71
330
A
100
AcDbEntity
  8
1
  6
solid
 62
     0
100
AcDbLine
 10
0.813026518439358
 20
0.2534546175069195
 30
0.0
 11
0.8118010282432795
 21
0.2468440405838426
 31
0.0
  0
LINE
  5
72
330
A
100
AcDbEntity
  8
1
  6
solid
 62
     0
100
AcDbLine
 10
0.8118010282432795
 20
0.2468440405838426
 30
0.0
 11
0.8110657341256326
 21
0.2414353867376887
 31
0.0
  0
LINE
  5
73
330
A
100
AcDbEntity
  8
1
  6
solid
 62
     0
100
AcDbLine
 10
0.8110657341256326
 20
0.2414353867376887
 30
0.0
 11
0.8110657341256326
 21
0.2348248098146118
 31
0.0
  0
LINE
  5
74
330
A
100
AcDbEntity
  8
1
  6
solid
 62
     0
100
AcDbLine
 10
0.8110657341256326
 20
0.2348248098146118
 30
0.0
 11
0.813026518439358
 21
0.2246084636607657
 31
0.0
  0
LINE
  5
75
330
A
100
AcDbEntity
  8
1
  6
solid
 62
     0
100
AcDbLine
 10
0.813026518439358
 20
0.2246084636607657
 30
0.0
 11
0.8154774988315148
 21
0.2155940405838426
 31
0.0
  0
LINE
  5
76
330
A
100
AcDbEntity
  8
1
  6
solid
 62
     0
100
AcDbLine
 10
0.8154774988315148
 20
0.2155940405838426
 30
0.0
 11
0.8196441654981814
 21
0.2077815405838426
 31
0.0
  0
LINE
  5
77
330
A
100
AcDbEntity
  8
1
  6
solid
 62
     0
100
AcDbLine
 10
0.8196441654981814
 20
0.2077815405838426
 30
0.0
 11
0.8240559302040638
 21
0.2023728867376887
 31
0.0
  0
LINE
  5
78
330
A
100
AcDbEntity
  8
1
  6
solid
 62
     0
100
AcDbLine
 10
0.8240559302040638
 20
0.2023728867376887
 30
0.0
 11
0.8289578909883775
 21
0.1987671175069195
 31
0.0
  0
LINE
  5
79
330
A
100
AcDbEntity
  8
1
  6
solid
 62
     0
100
AcDbLine
 10
0.8289578909883775
 20
0.1987671175069195
 30
0.0
 11
0.8326343615766129
 21
0.1957623098146118
 31
0.0
  0
LINE
  5
7A
330
A
100
AcDbEntity
  8
1
  6
solid
 62
     0
100
AcDbLine
 10
0.8326343615766129
 20
0.1957623098146118
 30
0.0
 11
0.8365559302040638
 21
0.1951613482761503
 31
0.0
  0
LINE
  5
7B
330
A
100
AcDbEntity
  8
1
  6
solid
 62
     0
100
AcDbLine
 10
0.8365559302040638
 20
0.1951613482761503
 30
0.0
 11
0.8414578909883775
 21
0.1939594251992272
 31
0.0
  0
LINE
  5
7C
330
A
100
AcDbEntity
  8
1
  6
solid
 62
     0
100
AcDbLine
 10
0.8414578909883775
 20
0.1939594251992272
 30
0.0
 11
0.8451343615766129
 21
0.1939594251992272
 31
0.0
  0
LINE
  5
7D
330
A
100
AcDbEntity
  8
1
  6
solid
 62
     0
100
AcDbLine
 10
0.8451343615766129
 20
0.1939594251992272
 30
0.0
 11
0.8468500478511227
 21
0.1951613482761503
 31
0.0
  0
LINE
  5
7E
330
A
100
AcDbEntity
  8
1
  6
solid
 62
     0
100
AcDbLine
 10
0.8468500478511227
 20
0.1951613482761503
 30
0.0
 11
0.8301833811844561
 21
0.1579017328915349
 31
0.0
  0
LINE
  5
7F
330
A
100
AcDbEntity
  8
1
  6
solid
 62
     0
100
AcDbLine
 10
0.8301833811844561
 20
0.1579017328915349
 30
0.0
 11
0.8431735772628874
 21
0.1579017328915349
 31
0.0
  0
LINE
  5
80
330
A
100
AcDbEntity
  8
1
  6
solid
 62
     0
100
AcDbLine
 10
0.8220951458903384
 20
0.2348248098146118
 30
0.0
 11
0.8228304400079855
 21
0.2288151944299964
 31
0.0
  0
LINE
  5
81
330
A
100
AcDbEntity
  8
1
  6
solid
 62
     0
100
AcDbLine
 10
0.8228304400079855
 20
0.2288151944299964
 30
0.0
 11
0.8247912243217109
 21
0.2234065405838426
 31
0.0
  0
LINE
  5
82
330
A
100
AcDbEntity
  8
1
  6
solid
 62
     0
100
AcDbLine
 10
0.8247912243217109
 20
0.2234065405838426
 30
0.0
 11
0.8265069105962206
 21
0.2198007713530734
 31
0.0
  0
LINE
  5
83
330
A
100
AcDbEntity
  8
1
  6
solid
 62
     0
100
AcDbLine
 10
0.8265069105962206
 20
0.2198007713530734
 30
0.0
 11
0.8289578909883775
 21
0.2161950021223041
 31
0.0
  0
LINE
  5
84
330
A
100
AcDbEntity
  8
1
  6
solid
 62
     0
100
AcDbLine
 10
0.8289578909883775
 20
0.2161950021223041
 30
0.0
 11
0.8326343615766129
 21
0.2125892328915349
 31
0.0
  0
LINE
  5
85
330
A
100
AcDbEntity
  8
1
  6
solid
 62
     0
100
AcDbLine
 10
0.8326343615766129
 20
0.2125892328915349
 30
0.0
 11
0.8370461262824953
 21
0.2101853867376887
 31
0.0
  0
LINE
  5
86
330
A
100
AcDbEntity
  8
1
  6
solid
 62
     0
100
AcDbLine
 10
0.8370461262824953
 20
0.2101853867376887
 30
0.0
 11
0.8414578909883775
 21
0.2095844251992272
 31
0.0
  0
LINE
  5
87
330
A
100
AcDbEntity
  8
1
  6
solid
 62
     0
100
AcDbLine
 10
0.8414578909883775
 20
0.2095844251992272
 30
0.0
 11
0.8443990674589658
 21
0.2095844251992272
 31
0.0
  0
LINE
  5
88
330
A
100
AcDbEntity
  8
1
  6
solid
 62
     0
100
AcDbLine
 10
0.8443990674589658
 20
0.2095844251992272
 30
0.0
 11
0.8495461262824953
 21
0.2113873098146118
 31
0.0
  0
LINE
  5
89
330
A
100
AcDbEntity
  8
1
  6
solid
 62
     0
100
AcDbLine
 10
0.8495461262824953
 20
0.2113873098146118
 30
0.0
 11
0.8537127929491619
 21
0.213791155968458
 31
0.0
  0
LINE
  5
8A
330
A
100
AcDbEntity
  8
1
  6
solid
 62
     0
100
AcDbLine
 10
0.8537127929491619
 20
0.213791155968458
 30
0.0
 11
0.8568990674589658
 21
0.2179978867376887
 31
0.0
  0
LINE
  5
8B
330
A
100
AcDbEntity
  8
1
  6
solid
 62
     0
100
AcDbLine
 10
0.8568990674589658
 20
0.2179978867376887
 30
0.0
 11
0.8593500478511227
 21
0.222805579045381
 31
0.0
  0
LINE
  5
8C
330
A
100
AcDbEntity
  8
1
  6
solid
 62
     0
100
AcDbLine
 10
0.8593500478511227
 20
0.222805579045381
 30
0.0
 11
0.8613108321648482
 21
0.2282142328915349
 31
0.0
  0
LINE
  5
8D
330
A
100
AcDbEntity
  8
1
  6
solid
 62
     0
100
AcDbLine
 10
0.8613108321648482
 20
0.2282142328915349
 30
0.0
 11
0.8625363223609266
 21
0.2342238482761503
 31
0.0
  0
LINE
  5
8E
330
A
100
AcDbEntity
  8
1
  6
solid
 62
     0
100
AcDbLine
 10
0.8625363223609266
 20
0.2342238482761503
 30
0.0
 11
0.8625363223609266
 21
0.2414353867376887
 31
0.0
  0
LINE
  5
8F
330
A
100
AcDbEntity
  8
1
  6
solid
 62
     0
100
AcDbLine
 10
0.8625363223609266
 20
0.2414353867376887
 30
0.0
 11
0.8613108321648482
 21
0.2480459636607657
 31
0.0
  0
LINE
  5
90
330
A
100
AcDbEntity
  8
1
  6
solid
 62
     0
100
AcDbLine
 10
0.8613108321648482
 20
0.2480459636607657
 30
0.0
 11
0.8593500478511227
 21
0.2546565405838426
 31
0.0
  0
LINE
  5
91
330
A
100
AcDbEntity
  8
1
  6
solid
 62
     0
100
AcDbLine
 10
0.8593500478511227
 20
0.2546565405838426
 30
0.0
 11
0.8556735772628874
 21
0.2600651944299964
 31
0.0
  0
LINE
  5
92
330
A
100
AcDbEntity
  8
1
  6
solid
 62
     0
100
AcDbLine
 10
0.8556735772628874
 20
0.2600651944299964
 30
0.0
 11
0.8519971066746521
 21
0.2642719251992272
 31
0.0
  0
LINE
  5
93
330
A
100
AcDbEntity
  8
1
  6
solid
 62
     0
100
AcDbLine
 10
0.8519971066746521
 20
0.2642719251992272
 30
0.0
 11
0.8488108321648482
 21
0.2660748098146119
 31
0.0
  0
LINE
  5
94
330
A
100
AcDbEntity
  8
1
  6
solid
 62
     0
100
AcDbLine
 10
0.8488108321648482
 20
0.2660748098146119
 30
0.0
 11
0.8439088713805345
 21
0.2678776944299964
 31
0.0
  0
LINE
  5
95
330
A
100
AcDbEntity
  8
1
  6
solid
 62
     0
100
AcDbLine
 10
0.8439088713805345
 20
0.2678776944299964
 30
0.0
 11
0.8407225968707304
 21
0.2678776944299964
 31
0.0
  0
LINE
  5
96
330
A
100
AcDbEntity
  8
1
  6
solid
 62
     0
100
AcDbLine
 10
0.8407225968707304
 20
0.2678776944299964
 30
0.0
 11
0.8358206360864169
 21
0.2660748098146119
 31
0.0
  0
LINE
  5
97
330
A
100
AcDbEntity
  8
1
  6
solid
 62
     0
100
AcDbLine
 10
0.8358206360864169
 20
0.2660748098146119
 30
0.0
 11
0.8314088713805345
 21
0.2636709636607657
 31
0.0
  0
LINE
  5
98
330
A
100
AcDbEntity
  8
1
  6
solid
 62
     0
100
AcDbLine
 10
0.8314088713805345
 20
0.2636709636607657
 30
0.0
 11
0.8277324007922992
 21
0.2588632713530734
 31
0.0
  0
LINE
  5
99
330
A
100
AcDbEntity
  8
1
  6
solid
 62
     0
100
AcDbLine
 10
0.8277324007922992
 20
0.2588632713530734
 30
0.0
 11
0.8247912243217109
 21
0.2534546175069195
 31
0.0
  0
LINE
  5
9A
330
A
100
AcDbEntity
  8
1
  6
solid
 62
     0
100
AcDbLine
 10
0.8247912243217109
 20
0.2534546175069195
 30
0.0
 11
0.8228304400079855
 21
0.2474450021223041
 31
0.0
  0
LINE
  5
9B
330
A
100
AcDbEntity
  8
1
  6
solid
 62
     0
100
AcDbLine
 10
0.8228304400079855
 20
0.2474450021223041
 30
0.0
 11
0.8220951458903384
 21
0.2420363482761503
 31
0.0
  0
LINE
  5
9C
330
A
100
AcDbEntity
  8
1
  6
solid
 62
     0
100
AcDbLine
 10
0.8220951458903384
 20
0.2420363482761503
 30
0.0
 11
0.8220951458903384
 21
0.2348248098146118
 31
0.0
  0
LINE
  5
9D
330
A
100
AcDbEntity
  8
1
  6
solid
 62
     0
100
AcDbLine
 10
-2.290756527073475
 20
0.5063205467943501
 30
0.0
 11
-0.5407565270734751
 21
0.5063205467943501
 31
0.0
  0
LINE
  5
9E
330
A
100
AcDbEntity
  8
1
  6
solid
 62
     0
100
AcDbLine
 10
0.0
 20
0.5
 30
0.0
 11
1.75
 21
0.5
 31
0.0
  0
LINE
  5
9F
330
A
100
AcDbEntity
  8
1
  6
solid
 62
     0
100
AcDbLine
 10
0.4431184364650358
 20
0.6470745053131646
 30
0.0
 11
2.193118436465035
 21
0.6470745053131646
 31
0.0
  0
LINE
  5
A0
330
A
100
AcDbEntity
  8
1
  6
solid
 62
     0
100
AcDbLine
 10
0.0
 20
0.5
 30
0.0
 11
0.4431184232234955
 21
0.6470745205879212
 31
0.0
  0
LINE
  5
A1
330
A
100
AcDbEntity
  8
1
  6
solid
 62
     0
100
AcDbLine
 10
1.75
 20
0.5
 30
0.0
 11
2.193118333816528
 21
0.6470745205879212
 31
0.0
  0
LINE
  5
10D
330
A
100
AcDbEntity
  8
1
  6
solid
 62
     0
370
     0
100
AcDbLine
 10
-2.290756464004516
 20
-0.1186794531531632
 30
0.0
 11
-2.290756464004516
 21
-0.2023470255136494
 31
0.0
  0
LINE
  5
10E
330
A
100
AcDbEntity
  8
1
  6
solid
 62
     0
370
     0
100
AcDbLine
 10
-0.5407565236091614
 20
-0.1186794531531632
 30
0.0
 11
-0.5407565236091614
 21
-0.2023470255136494
 31
0.0
  0
LINE
  5
10F
330
A
100
AcDbEntity
  8
1
  6
solid
 62
     0
370
     0
100
AcDbLine
 10
-2.290756464004516
 20
-0.1398470255136494
 30
0.0
 11
-1.779722032001892
 21
-0.1398470255136494
 31
0.0
  0
LINE
  5
110
330
A
100
AcDbEntity
  8
1
  6
solid
 62
     0
370
     0
100
AcDbLine
 10
-0.5407565236091614
 20
-0.1398470255136494
 30
0.0
 11
-1.02545953259108
 21
-0.1398470255136494
 31
0.0
  0
MTEXT
  5
111
330
A
100
AcDbEntity
  8
1
  6
solid
 62
     0
370
     0
100
AcDbMText
 10
-1.415756493806838
 20
-0.1398470255136494
 30
0.0
 40
0.125
 41
0.0
 71
     5
 72
     1
  1
{\H0.125000;1 3/4}
 73
     1
 44
1.0
  0
SOLID
  5
112
330
A
100
AcDbEntity
  8
1
  6
solid
 62
     0
370
     0
100
AcDbTrace
 10
-2.249126464004516
 20
-0.1190320255136494
 30
0.0
 11
-2.249126464004516
 21
-0.1606620255136494
 31
0.0
 12
-2.290756464004516
 22
-0.1398470255136494
 32
0.0
 13
-2.290756464004516
 23
-0.1398470255136494
 33
0.0
  0
SOLID
  5
113
330
A
100
AcDbEntity
  8
1
  6
solid
 62
     0
370
     0
100
AcDbTrace
 10
-0.5823865236091615
 20
-0.1606620255136494
 30
0.0
 11
-0.5823865236091615
 21
-0.1190320255136494
 31
0.0
 12
-0.5407565236091614
 22
-0.1398470255136494
 32
0.0
 13
-0.5407565236091614
 23
-0.1398470255136494
 33
0.0
  0
VIEWPORT
  5
F9
102
{ACAD_XDICTIONARY
360
FA
102
}
330
B
100
AcDbEntity
 67
     1
  8
0
  6
Continuous
370
     0
100
AcDbViewport
 10
5.171905305196538
 20
3.9681931355475
 30
0.0
 40
16.99659283974028
 41
8.992999745766949
 68
     1
 69
     1
 12
5.171905305196538
 22
3.9681931355475
 13
0.0
 23
0.0
 14
0.5
 24
0.5
 15
0.5
 25
0.5
 16
0.0
 26
0.0
 36
1.0
 17
0.0
 27
0.0
 37
0.0
 42
50.0
 43
0.0
 44
0.0
 45
8.992999745766949
 50
0.0
 51
0.0
 72
   100
 90
   819232
  1

281
     0
 71
     1
 74
     0
110
0.0
120
0.0
130
0.0
111
1.0
121
0.0
131
0.0
112
0.0
122
1.0
132
0.0
 79
     0
146
0.0
170
     0
  0
VIEWPORT
  5
FE
102
{ACAD_XDICTIONARY
360
FF
102
}
330
B
100
AcDbEntity
 67
     1
  8
0
  6
Continuous
370
     0
100
AcDbViewport
 10
5.189554954437987
 20
3.941743130508568
 30
0.0
 40
10.58977747231776
 41
8.217133109660043
 68
     2
 69
     2
 12
-0.0391162493153023
 22
0.2079994549842255
 13
0.0
 23
0.0
 14
0.5
 24
0.5
 15
0.5
 25
0.5
 16
0.0
 26
0.0
 36
1.0
 17
0.0
 27
0.0
 37
0.0
 42
50.0
 43
0.0
 44
0.0
 45
4.509602828508276
 50
0.0
 51
0.0
 72
   100
 90
   819232
  1

281
     0
 71
     1
 74
     0
110
0.0
120
0.0
130
0.0
111
1.0
121
0.0
131
0.0
112
0.0
122
1.0
132
0.0
 79
     0
146
0.0
170
     0
  0
ENDSEC
  0
SECTION
  2
OBJECTS
  0
DICTIONARY
  5
19
330
0
100
AcDbDictionary
281
     1
  3
ACAD_COLOR
350
CD
  3
ACAD_GROUP
350
1A
  3
ACAD_LAYOUT
350
1E
  3
ACAD_MATERIAL
350
A3
  3
ACAD_MLEADERSTYLE
350
F2
  3
ACAD_MLINESTYLE
350
1B
  3
ACAD_PLOTSETTINGS
350
22
  3
ACAD_PLOTSTYLENAME
350
1F
  3
ACAD_SCALELIST
350
D0
  3
ACAD_TABLESTYLE
350
CE
  3
ACAD_VISUALSTYLE
350
BC
  3
ACAD_WIPEOUT_VARS
350
23
  3
ACDB_RECOMPOSE_DATA
350
136
  3
AcDbVariableDictionary
350
130
  3
ASE_INDEX_DICTIONARY
350
11E
  0
DICTIONARY
  5
101
330
14
100
AcDbDictionary
280
     1
281
     1
  3
ADSK_XREC_LAYER_RECONCILED
360
102
  0
DICTIONARY
  5
103
330
27
100
AcDbDictionary
280
     1
281
     1
  3
ADSK_XREC_LAYER_RECONCILED
360
104
  0
DICTIONARY
  5
114
330
A
100
AcDbDictionary
280
     1
281
     1
  3
ACAD_SORTENTS
360
115
  0
DICTIONARY
  5
FA
330
F9
100
AcDbDictionary
280
     1
281
     1
  3
ASDK_XREC_ANNOTATION_SCALE_INFO
360
FB
  0
DICTIONARY
  5
FF
330
FE
100
AcDbDictionary
280
     1
281
     1
  3
ASDK_XREC_ANNOTATION_SCALE_INFO
360
100
  0
DICTIONARY
  5
CD
102
{ACAD_REACTORS
330
19
102
}
330
19
100
AcDbDictionary
281
     1
  0
DICTIONARY
  5
1A
102
{ACAD_REACTORS
330
19
102
}
330
19
100
AcDbDictionary
281
     1
  0
DICTIONARY
  5
1E
102
{ACAD_REACTORS
330
19
102
}
330
19
100
AcDbDictionary
281
     1
  3
Layout1
350
21
  3
Model
350
20
  0
DICTIONARY
  5
A3
102
{ACAD_REACTORS
330
19
102
}
330
19
100
AcDbDictionary
281
     1
  3
ByBlock
350
AC
  3
ByLayer
350
A4
  3
Global
350
B4
  0
DICTIONARY
  5
F2
102
{ACAD_REACTORS
330
19
102
}
330
19
100
AcDbDictionary
281
     1
  3
Standard
350
F3
  0
DICTIONARY
  5
1B
102
{ACAD_REACTORS
330
19
102
}
330
19
100
AcDbDictionary
281
     1
  3
Standard
350
1C
  0
DICTIONARY
  5
22
102
{ACAD_REACTORS
330
19
102
}
330
19
100
AcDbDictionary
281
     1
  0
ACDBDICTIONARYWDFLT
  5
1F
102
{ACAD_REACTORS
330
19
102
}
330
19
100
AcDbDictionary
281
     1
  3
Normal
350
1D
100
AcDbDictionaryWithDefault
340
1D
  0
DICTIONARY
  5
D0
102
{ACAD_REACTORS
330
19
102
}
330
19
100
AcDbDictionary
281
     1
  3
A0
350
D1
  3
A1
350
D2
  3
A2
350
D3
  3
A3
350
D4
  3
A4
350
D5
  3
A5
350
D6
  3
A6
350
D7
  3
A7
350
D8
  3
A8
350
D9
  3
A9
350
DA
  3
B0
350
DB
  3
B1
350
DC
  3
B2
350
DD
  3
B3
350
DE
  3
B4
350
DF
  3
B5
350
E0
  3
B6
350
E1
  3
B7
350
E2
  3
B8
350
E3
  3
B9
350
E4
  3
C0
350
E5
  3
C1
350
E6
  3
C2
350
E7
  3
C3
350
E8
  3
C4
350
E9
  3
C5
350
EA
  3
C6
350
EB
  3
C7
350
EC
  3
C8
350
ED
  3
C9
350
EE
  3
D0
350
EF
  3
D1
350
F0
  3
D2
350
F1
  0
DICTIONARY
  5
CE
102
{ACAD_REACTORS
330
19
102
}
330
19
100
AcDbDictionary
281
     1
  3
Standard
350
CF
  0
DICTIONARY
  5
BC
102
{ACAD_REACTORS
330
19
102
}
330
19
100
AcDbDictionary
281
     1
  3
2dWireframe
350
C2
  3
3D Hidden
350
C4
  3
3dWireframe
350
C3
  3
Basic
350
C1
  3
Brighten
350
C8
  3
ColorChange
350
CC
  3
Conceptual
350
C5
  3
Dim
350
C7
  3
Facepattern
350
CB
  3
Flat
350
BD
  3
FlatWithEdges
350
BE
  3
Gouraud
350
BF
  3
GouraudWithEdges
350
C0
  3
Linepattern
350
CA
  3
Realistic
350
C6
  3
Thicken
350
C9
  0
WIPEOUTVARIABLES
  5
23
330
19
100
AcDbWipeoutVariables
 70
     1
  0
XRECORD
  5
136
102
{ACAD_REACTORS
330
19
102
}
330
19
100
AcDbXrecord
280
     1
 90
        1
330
CF
  0
DICTIONARY
  5
130
102
{ACAD_REACTORS
330
19
102
}
330
19
100
AcDbDictionary
281
     1
  3
CANNOSCALE
350
133
  3
CMLEADERSTYLE
350
132
  3
CTABLESTYLE
350
131
  0
DICTIONARY
  5
11E
102
{ACAD_REACTORS
330
19
102
}
330
19
100
AcDbDictionary
281
     1
  3
ASEBlockHierarchyIndexRecord
350
120
1001
DCO15
1040
1667670246.375
  0
XRECORD
  5
102
102
{ACAD_REACTORS
330
101
102
}
330
101
100
AcDbXrecord
280
     1
290
     1
  0
XRECORD
  5
104
102
{ACAD_REACTORS
330
103
102
}
330
103
100
AcDbXrecord
280
     1
290
     1
  0
SORTENTSTABLE
  5
115
102
{ACAD_REACTORS
330
114
102
}
330
114
100
AcDbSortentsTable
330
A
331
86
  5
8D
331
6C
  5
73
331
4A
  5
51
331
97
  5
9E
331
5B
  5
62
331
28
  5
28
331
84
  5
8B
331
6A
  5
71
331
48
  5
4F
331
95
  5
9C
331
59
  5
60
331
82
  5
89
331
68
  5
6F
331
46
  5
4D
331
113
  5
4C
331
93
  5
9A
331
57
  5
5E
331
80
  5
87
331
66
  5
6D
331
111
  5
4A
331
91
  5
98
331
77
  5
7E
331
55
  5
5C
331
A0
  5
112
331
7E
  5
85
331
64
  5
6B
331
8F
  5
96
331
75
  5
7C
331
53
  5
5A
331
10F
  5
48
331
9E
  5
110
331
7C
  5
83
331
62
  5
69
331
8D
  5
94
331
73
  5
7A
331
51
  5
58
331
10D
  5
46
331
2F
  5
2F
331
9C
  5
10E
331
7A
  5
81
331
60
  5
67
331
8B
  5
92
331
71
  5
78
331
4F
  5
56
331
2D
  5
2D
331
9A
  5
A1
331
78
  5
7F
331
89
  5
90
331
6F
  5
76
331
4D
  5
54
331
5E
  5
65
331
2B
  5
2B
331
98
  5
9F
331
87
  5
8E
331
6D
  5
74
331
4B
  5
52
331
5C
  5
63
331
3A
  5
3A
331
29
  5
29
331
85
  5
8C
331
6B
  5
72
331
49
  5
50
331
96
  5
9D
331
5A
  5
61
331
83
  5
8A
331
69
  5
70
331
47
  5
4E
331
94
  5
9B
331
58
  5
5F
331
112
  5
4B
331
81
  5
88
331
67
  5
6E
331
92
  5
99
331
56
  5
5D
331
A1
  5
113
331
7F
  5
86
331
65
  5
6C
331
110
  5
49
331
90
  5
97
331
76
  5
7D
331
54
  5
5B
331
9F
  5
111
331
7D
  5
84
331
63
  5
6A
331
8E
  5
95
331
74
  5
7B
331
52
  5
59
331
10E
  5
47
331
9D
  5
10F
331
7B
  5
82
331
61
  5
68
331
8C
  5
93
331
72
  5
79
331
50
  5
57
331
2E
  5
2E
331
9B
  5
10D
331
79
  5
80
331
8A
  5
91
331
70
  5
77
331
4E
  5
55
331
5F
  5
66
331
2C
  5
2C
331
99
  5
A0
331
88
  5
8F
331
6E
  5
75
331
4C
  5
53
331
5D
  5
64
331
2A
  5
2A
  0
XRECORD
  5
FB
102
{ACAD_REACTORS
330
FA
102
}
330
FA
100
AcDbXrecord
280
     1
 90
        1
340
D1
  0
XRECORD
  5
100
102
{ACAD_REACTORS
330
FF
102
}
330
FF
100
AcDbXrecord
280
     1
 90
        1
340
D1
  0
LAYOUT
  5
21
102
{ACAD_REACTORS
330
1E
102
}
330
1E
100
AcDbPlotSettings
  1

  2
Foxit PDF Printer
  4
Letter
  6

 40
3.174999952316284
 41
3.174999952316284
 42
3.17498779296875
 43
3.175003051757812
 44
279.3999938964844
 45
215.8999938964844
 46
31.4267670466818
 47
24.13747564896765
 48
0.0
 49
0.0
140
0.0
141
0.0
142
1.0
143
1.0
 70
     4
 72
     0
 73
     0
 74
     1
  7

 75
    16
147
1.0
 76
     1
 77
     2
 78
   300
148
-26.26816480274797
149
-20.15458429594825
100
AcDbLayout
  1
Layout1
 70
     0
 71
     1
 10
-0.3280945746555161
 20
-0.2818067443045545
 11
10.67190518504859
 21
8.218193015399554
 12
0.0
 22
0.0
 32
0.0
 14
-0.1053337817208941
 24
-0.1668234243214535
 34
-0.0015258207003583
 15
10.48444369059687
 25
8.050309685338589
 35
0.0000000349246037
146
0.0
 13
0.0
 23
0.0
 33
0.0
 16
1.0
 26
0.0
 36
0.0
 17
0.0
 27
1.0
 37
0.0
 76
     0
330
B
331
F9
1001
ACAD_PSEXT
1000
Foxit PDF Printer
1000
Foxit PDF Printer Driver
1000
FOXIT_PDF
1000

1070
     0
  0
LAYOUT
  5
20
102
{ACAD_REACTORS
330
1E
102
}
330
1E
100
AcDbPlotSettings
  1

  2

  4

  6

 40
0.0
 41
0.0
 42
0.0
 43
0.0
 44
0.0
 45
0.0
 46
0.0
 47
0.0
 48
0.0
 49
0.0
140
0.0
141
0.0
142
1.0
143
1.0
 70
  1024
 72
     0
 73
     0
 74
     0
  7

 75
     0
147
1.0
 76
     0
 77
     2
 78
   300
148
0.0
149
0.0
100
AcDbLayout
  1
Model
 70
     0
 71
     0
 10
0.0
 20
0.0
 11
0.0
 21
0.0
 12
0.0
 22
0.0
 32
0.0
 14
0.0
 24
0.0
 34
0.0
 15
0.0
 25
0.0
 35
0.0
146
0.0
 13
0.0
 23
0.0
 33
0.0
 16
0.0
 26
0.0
 36
0.0
 17
0.0
 27
0.0
 37
0.0
 76
     0
330
A
  0
MATERIAL
  5
AC
102
{ACAD_XDICTIONARY
360
AD
102
}
102
{ACAD_REACTORS
330
A3
102
}
330
A3
100
AcDbMaterial
  1
ByBlock
 72
     0
 43
0.0208333333333333
 43
0.0
 43
0.0
 43
0.0
 43
0.0
 43
0.0208333333333333
 43
0.0
 43
0.0
 43
0.0
 43
0.0
 43
1.0
 43
0.0
 43
0.0
 43
0.0
 43
0.0
 43
1.0
 77
     0
 47
0.0208333333333333
 47
0.0
 47
0.0
 47
0.0
 47
0.0
 47
0.0208333333333333
 47
0.0
 47
0.0
 47
0.0
 47
0.0
 47
1.0
 47
0.0
 47
0.0
 47
0.0
 47
0.0
 47
1.0
171
     0
 49
0.0208333333333333
 49
0.0
 49
0.0
 49
0.0
 49
0.0
 49
0.0208333333333333
 49
0.0
 49
0.0
 49
0.0
 49
0.0
 49
1.0
 49
0.0
 49
0.0
 49
0.0
 49
0.0
 49
1.0
175
     0
142
0.0208333333333333
142
0.0
142
0.0
142
0.0
142
0.0
142
0.0208333333333333
142
0.0
142
0.0
142
0.0
142
0.0
142
1.0
142
0.0
142
0.0
142
0.0
142
0.0
142
1.0
179
     0
144
0.0208333333333333
144
0.0
144
0.0
144
0.0
144
0.0
144
0.0208333333333333
144
0.0
144
0.0
144
0.0
144
0.0
144
1.0
144
0.0
144
0.0
144
0.0
144
0.0
144
1.0
147
0.0208333333333333
147
0.0
147
0.0
147
0.0
147
0.0
147
0.0208333333333333
147
0.0
147
0.0
147
0.0
147
0.0
147
1.0
147
0.0
147
0.0
147
0.0
147
0.0
147
1.0
  0
MATERIAL
  5
A4
102
{ACAD_XDICTIONARY
360
A5
102
}
102
{ACAD_REACTORS
330
A3
102
}
330
A3
100
AcDbMaterial
  1
ByLayer
 72
     0
 43
0.0208333333333333
 43
0.0
 43
0.0
 43
0.0
 43
0.0
 43
0.0208333333333333
 43
0.0
 43
0.0
 43
0.0
 43
0.0
 43
1.0
 43
0.0
 43
0.0
 43
0.0
 43
0.0
 43
1.0
 77
     0
 47
0.0208333333333333
 47
0.0
 47
0.0
 47
0.0
 47
0.0
 47
0.0208333333333333
 47
0.0
 47
0.0
 47
0.0
 47
0.0
 47
1.0
 47
0.0
 47
0.0
 47
0.0
 47
0.0
 47
1.0
171
     0
 49
0.0208333333333333
 49
0.0
 49
0.0
 49
0.0
 49
0.0
 49
0.0208333333333333
 49
0.0
 49
0.0
 49
0.0
 49
0.0
 49
1.0
 49
0.0
 49
0.0
 49
0.0
 49
0.0
 49
1.0
175
     0
142
0.0208333333333333
142
0.0
142
0.0
142
0.0
142
0.0
142
0.0208333333333333
142
0.0
142
0.0
142
0.0
142
0.0
142
1.0
142
0.0
142
0.0
142
0.0
142
0.0
142
1.0
179
     0
144
0.0208333333333333
144
0.0
144
0.0
144
0.0
144
0.0
144
0.0208333333333333
144
0.0
144
0.0
144
0.0
144
0.0
144
1.0
144
0.0
144
0.0
144
0.0
144
0.0
144
1.0
147
0.0208333333333333
147
0.0
147
0.0
147
0.0
147
0.0
147
0.0208333333333333
147
0.0
147
0.0
147
0.0
147
0.0
147
1.0
147
0.0
147
0.0
147
0.0
147
0.0
147
1.0
  0
MATERIAL
  5
B4
102
{ACAD_XDICTIONARY
360
B5
102
}
102
{ACAD_REACTORS
330
A3
102
}
330
A3
100
AcDbMaterial
  1
Global
 72
     0
 43
0.0208333333333333
 43
0.0
 43
0.0
 43
0.0
 43
0.0
 43
0.0208333333333333
 43
0.0
 43
0.0
 43
0.0
 43
0.0
 43
1.0
 43
0.0
 43
0.0
 43
0.0
 43
0.0
 43
1.0
 77
     0
 47
0.0208333333333333
 47
0.0
 47
0.0
 47
0.0
 47
0.0
 47
0.0208333333333333
 47
0.0
 47
0.0
 47
0.0
 47
0.0
 47
1.0
 47
0.0
 47
0.0
 47
0.0
 47
0.0
 47
1.0
171
     0
 49
0.0208333333333333
 49
0.0
 49
0.0
 49
0.0
 49
0.0
 49
0.0208333333333333
 49
0.0
 49
0.0
 49
0.0
 49
0.0
 49
1.0
 49
0.0
 49
0.0
 49
0.0
 49
0.0
 49
1.0
175
     0
142
0.0208333333333333
142
0.0
142
0.0
142
0.0
142
0.0
142
0.0208333333333333
142
0.0
142
0.0
142
0.0
142
0.0
142
1.0
142
0.0
142
0.0
142
0.0
142
0.0
142
1.0
179
     0
144
0.0208333333333333
144
0.0
144
0.0
144
0.0
144
0.0
144
0.0208333333333333
144
0.0
144
0.0
144
0.0
144
0.0
144
1.0
144
0.0
144
0.0
144
0.0
144
0.0
144
1.0
147
0.0208333333333333
147
0.0
147
0.0
147
0.0
147
0.0
147
0.0208333333333333
147
0.0
147
0.0
147
0.0
147
0.0
147
1.0
147
0.0
147
0.0
147
0.0
147
0.0
147
1.0
  0
MLEADERSTYLE
  5
F3
102
{ACAD_REACTORS
330
F2
102
}
330
F2
100
AcDbMLeaderStyle
170
     2
171
     1
172
     0
 90
        2
 40
0.0
 41
0.0
173
     1
 91
-1056964608
340
11
 92
       -2
290
     1
 42
0.09
291
     1
 43
0.36
  3
Standard
 44
0.18
300

342
17
174
     1
178
     6
175
     1
176
     0
 93
-1056964608
 45
0.18
292
     0
297
     0
 46
0.18
 94
-1056964608
 47
1.0
 49
1.0
140
1.0
293
     1
141
0.0
294
     1
177
     0
142
1.0
295
     0
296
     0
143
0.125
1001
ACAD_MLEADERVER
1070
     2
  0
MLINESTYLE
  5
1C
102
{ACAD_REACTORS
330
1B
102
}
330
1B
100
AcDbMlineStyle
  2
STANDARD
 70
     0
  3

 62
     0
 51
90.0
 52
90.0
 71
     2
 49
0.5
 62
   256
  6
BYLAYER
 49
-0.5
 62
   256
  6
BYLAYER
  0
ACDBPLACEHOLDER
  5
1D
102
{ACAD_REACTORS
330
1F
102
}
330
1F
  0
SCALE
  5
D1
102
{ACAD_REACTORS
330
D0
102
}
330
D0
100
AcDbScale
 70
     0
300
1:1
140
1.0
141
1.0
290
     1
  0
SCALE
  5
D2
102
{ACAD_REACTORS
330
D0
102
}
330
D0
100
AcDbScale
 70
     0
300
1:2
140
1.0
141
2.0
290
     0
  0
SCALE
  5
D3
102
{ACAD_REACTORS
330
D0
102
}
330
D0
100
AcDbScale
 70
     0
300
1:4
140
1.0
141
4.0
290
     0
  0
SCALE
  5
D4
102
{ACAD_REACTORS
330
D0
102
}
330
D0
100
AcDbScale
 70
     0
300
1:5
140
1.0
141
5.0
290
     0
  0
SCALE
  5
D5
102
{ACAD_REACTORS
330
D0
102
}
330
D0
100
AcDbScale
 70
     0
300
1:8
140
1.0
141
8.0
290
     0
  0
SCALE
  5
D6
102
{ACAD_REACTORS
330
D0
102
}
330
D0
100
AcDbScale
 70
     0
300
1:10
140
1.0
141
10.0
290
     0
  0
SCALE
  5
D7
102
{ACAD_REACTORS
330
D0
102
}
330
D0
100
AcDbScale
 70
     0
300
1:16
140
1.0
141
16.0
290
     0
  0
SCALE
  5
D8
102
{ACAD_REACTORS
330
D0
102
}
330
D0
100
AcDbScale
 70
     0
300
1:20
140
1.0
141
20.0
290
     0
  0
SCALE
  5
D9
102
{ACAD_REACTORS
330
D0
102
}
330
D0
100
AcDbScale
 70
     0
300
1:30
140
1.0
141
30.0
290
     0
  0
SCALE
  5
DA
102
{ACAD_REACTORS
330
D0
102
}
330
D0
100
AcDbScale
 70
     0
300
1:40
140
1.0
141
40.0
290
     0
  0
SCALE
  5
DB
102
{ACAD_REACTORS
330
D0
102
}
330
D0
100
AcDbScale
 70
     0
300
1:50
140
1.0
141
50.0
290
     0
  0
SCALE
  5
DC
102
{ACAD_REACTORS
330
D0
102
}
330
D0
100
AcDbScale
 70
     0
300
1:100
140
1.0
141
100.0
290
     0
  0
SCALE
  5
DD
102
{ACAD_REACTORS
330
D0
102
}
330
D0
100
AcDbScale
 70
     0
300
2:1
140
2.0
141
1.0
290
     0
  0
SCALE
  5
DE
102
{ACAD_REACTORS
330
D0
102
}
330
D0
100
AcDbScale
 70
     0
300
4:1
140
4.0
141
1.0
290
     0
  0
SCALE
  5
DF
102
{ACAD_REACTORS
330
D0
102
}
330
D0
100
AcDbScale
 70
     0
300
8:1
140
8.0
141
1.0
290
     0
  0
SCALE
  5
E0
102
{ACAD_REACTORS
330
D0
102
}
330
D0
100
AcDbScale
 70
     0
300
10:1
140
10.0
141
1.0
290
     0
  0
SCALE
  5
E1
102
{ACAD_REACTORS
330
D0
102
}
330
D0
100
AcDbScale
 70
     0
300
100:1
140
100.0
141
1.0
290
     0
  0
SCALE
  5
E2
102
{ACAD_REACTORS
330
D0
102
}
330
D0
100
AcDbScale
 70
     0
300
1/128" = 1'-0"
140
0.0078125
141
12.0
290
     0
  0
SCALE
  5
E3
102
{ACAD_REACTORS
330
D0
102
}
330
D0
100
AcDbScale
 70
     0
300
1/64" = 1'-0"
140
0.015625
141
12.0
290
     0
  0
SCALE
  5
E4
102
{ACAD_REACTORS
330
D0
102
}
330
D0
100
AcDbScale
 70
     0
300
1/32" = 1'-0"
140
0.03125
141
12.0
290
     0
  0
SCALE
  5
E5
102
{ACAD_REACTORS
330
D0
102
}
330
D0
100
AcDbScale
 70
     0
300
1/16" = 1'-0"
140
0.0625
141
12.0
290
     0
  0
SCALE
  5
E6
102
{ACAD_REACTORS
330
D0
102
}
330
D0
100
AcDbScale
 70
     0
300
3/32" = 1'-0"
140
0.09375
141
12.0
290
     0
  0
SCALE
  5
E7
102
{ACAD_REACTORS
330
D0
102
}
330
D0
100
AcDbScale
 70
     0
300
1/8" = 1'-0"
140
0.125
141
12.0
290
     0
  0
SCALE
  5
E8
102
{ACAD_REACTORS
330
D0
102
}
330
D0
100
AcDbScale
 70
     0
300
3/16" = 1'-0"
140
0.1875
141
12.0
290
     0
  0
SCALE
  5
E9
102
{ACAD_REACTORS
330
D0
102
}
330
D0
100
AcDbScale
 70
     0
300
1/4" = 1'-0"
140
0.25
141
12.0
290
     0
  0
SCALE
  5
EA
102
{ACAD_REACTORS
330
D0
102
}
330
D0
100
AcDbScale
 70
     0
300
3/8" = 1'-0"
140
0.375
141
12.0
290
     0
  0
SCALE
  5
EB
102
{ACAD_REACTORS
330
D0
102
}
330
D0
100
AcDbScale
 70
     0
300
1/2" = 1'-0"
140
0.5
141
12.0
290
     0
  0
SCALE
  5
EC
102
{ACAD_REACTORS
330
D0
102
}
330
D0
100
AcDbScale
 70
     0
300
3/4" = 1'-0"
140
0.75
141
12.0
290
     0
  0
SCALE
  5
ED
102
{ACAD_REACTORS
330
D0
102
}
330
D0
100
AcDbScale
 70
     0
300
1" = 1'-0"
140
1.0
141
12.0
290
     0
  0
SCALE
  5
EE
102
{ACAD_REACTORS
330
D0
102
}
330
D0
100
AcDbScale
 70
     0
300
1-1/2" = 1'-0"
140
1.5
141
12.0
290
     0
  0
SCALE
  5
EF
102
{ACAD_REACTORS
330
D0
102
}
330
D0
100
AcDbScale
 70
     0
300
3" = 1'-0"
140
3.0
141
12.0
290
     0
  0
SCALE
  5
F0
102
{ACAD_REACTORS
330
D0
102
}
330
D0
100
AcDbScale
 70
     0
300
6" = 1'-0"
140
6.0
141
12.0
290
     0
  0
SCALE
  5
F1
102
{ACAD_REACTORS
330
D0
102
}
330
D0
100
AcDbScale
 70
     0
300
1'-0" = 1'-0"
140
12.0
141
12.0
290
     0
  0
TABLESTYLE
  5
CF
102
{ACAD_XDICTIONARY
360
134
102
}
102
{ACAD_REACTORS
330
CE
102
}
330
CE
100
AcDbTableStyle
  3
Standard
 70
     0
 71
     0
 40
0.06
 41
0.06
280
     0
281
     0
  7
Standard
140
0.18
170
     2
 62
     0
 63
     7
283
     0
274
    -2
284
     1
 64
     0
275
    -2
285
     1
 65
     0
276
    -2
286
     1
 66
     0
277
    -2
287
     1
 67
     0
278
    -2
288
     1
 68
     0
279
    -2
289
     1
 69
     0
  7
Standard
140
0.25
170
     5
 62
     0
 63
     7
283
     0
274
    -2
284
     1
 64
     0
275
    -2
285
     1
 65
     0
276
    -2
286
     1
 66
     0
277
    -2
287
     1
 67
     0
278
    -2
288
     1
 68
     0
279
    -2
289
     1
 69
     0
  7
Standard
140
0.18
170
     5
 62
     0
 63
     7
283
     0
274
    -2
284
     1
 64
     0
275
    -2
285
     1
 65
     0
276
    -2
286
     1
 66
     0
277
    -2
287
     1
 67
     0
278
    -2
288
     1
 68
     0
279
    -2
289
     1
 69
     0
  0
VISUALSTYLE
  5
C2
102
{ACAD_REACTORS
330
BC
102
}
330
BC
100
AcDbVisualStyle
  2
2dWireframe
 70
     4
 71
     0
 72
     2
 73
     0
 90
        0
 40
-0.6
 41
-30.0
 62
     5
 63
     7
421
 16777215
 74
     1
 91
        4
 64
     7
 65
   257
 75
     1
175
     1
 42
1.0
 92
        0
 66
   257
 43
1.0
 76
     1
 77
     6
 78
     2
 67
     7
 79
     5
170
     0
171
     0
290
     0
174
     0
 93
        1
 44
0.0
173
     0
291
     0
 45
0.0
1001
ACAD
1000
AcDbSavedByObjectVersion
1070
     0
  0
VISUALSTYLE
  5
C4
102
{ACAD_REACTORS
330
BC
102
}
330
BC
100
AcDbVisualStyle
  2
3D Hidden
 70
     6
 71
     1
 72
     2
 73
     2
 90
        0
 40
-0.6
 41
-30.0
 62
     5
 63
     7
421
 16777215
 74
     2
 91
        2
 64
     7
 65
   257
 75
     2
175
     1
 42
40.0
 92
        0
 66
   257
 43
1.0
 76
     1
 77
     6
 78
     2
 67
     7
 79
     3
170
     0
171
     0
290
     0
174
     0
 93
        1
 44
0.0
173
     0
291
     0
 45
0.0
1001
ACAD
1000
AcDbSavedByObjectVersion
1070
     0
  0
VISUALSTYLE
  5
C3
102
{ACAD_REACTORS
330
BC
102
}
330
BC
100
AcDbVisualStyle
  2
3dWireframe
 70
     5
 71
     0
 72
     2
 73
     0
 90
        0
 40
-0.6
 41
-30.0
 62
     5
 63
     7
421
 16777215
 74
     1
 91
        4
 64
     7
 65
   257
 75
     1
175
     1
 42
1.0
 92
        0
 66
   257
 43
1.0
 76
     1
 77
     6
 78
     2
 67
     7
 79
     5
170
     0
171
     0
290
     0
174
     0
 93
        1
 44
0.0
173
     0
291
     0
 45
0.0
1001
ACAD
1000
AcDbSavedByObjectVersion
1070
     0
  0
VISUALSTYLE
  5
C1
102
{ACAD_REACTORS
330
BC
102
}
330
BC
100
AcDbVisualStyle
  2
Basic
 70
     7
 71
     1
 72
     0
 73
     1
 90
        0
 40
-0.6
 41
-30.0
 62
     5
 63
     7
421
 16777215
 74
     0
 91
        4
 64
     7
 65
   257
 75
     1
175
     1
 42
1.0
 92
        8
 66
     7
 43
1.0
 76
     1
 77
     6
 78
     2
 67
     7
 79
     5
170
     0
171
     0
290
     0
174
     0
 93
        1
 44
0.0
173
     0
291
     1
 45
0.0
1001
ACAD
1000
AcDbSavedByObjectVersion
1070
     0
  0
VISUALSTYLE
  5
C8
102
{ACAD_REACTORS
330
BC
102
}
330
BC
100
AcDbVisualStyle
  2
Brighten
 70
    12
 71
     2
 72
     2
 73
     0
 90
        0
 40
-0.6
 41
-30.0
 62
     5
 63
     7
421
 16777215
 74
     1
 91
        4
 64
     7
 65
   257
 75
     1
175
     1
 42
1.0
 92
        8
 66
     7
 43
1.0
 76
     1
 77
     6
 78
     2
 67
     7
 79
     5
170
     0
171
     0
290
     0
174
     0
 93
        1
 44
50.0
173
     0
291
     1
 45
0.0
1001
ACAD
1000
AcDbSavedByObjectVersion
1070
     0
  0
VISUALSTYLE
  5
CC
102
{ACAD_REACTORS
330
BC
102
}
330
BC
100
AcDbVisualStyle
  2
ColorChange
 70
    16
 71
     2
 72
     2
 73
     3
 90
        0
 40
-0.6
 41
-30.0
 62
     5
 63
     8
421
  8421504
 74
     1
 91
        4
 64
     7
 65
   257
 75
     1
175
     1
 42
1.0
 92
        8
 66
     8
424
  8421504
 43
1.0
 76
     1
 77
     6
 78
     2
 67
     7
 79
     5
170
     0
171
     0
290
     0
174
     0
 93
        1
 44
0.0
173
     0
291
     1
 45
0.0
1001
ACAD
1000
AcDbSavedByObjectVersion
1070
     0
  0
VISUALSTYLE
  5
C5
102
{ACAD_REACTORS
330
BC
102
}
330
BC
100
AcDbVisualStyle
  2
Conceptual
 70
     9
 71
     3
 72
     2
 73
     0
 90
        0
 40
-0.6
 41
-30.0
 62
     5
 63
     7
421
 16777215
 74
     2
 91
        2
 64
     7
 65
   257
 75
     1
175
     1
 42
40.0
 92
        8
 66
     7
 43
1.0
 76
     1
 77
     6
 78
     2
 67
     7
 79
     3
170
     0
171
     0
290
     0
174
     0
 93
        1
 44
0.0
173
     0
291
     0
 45
0.0
1001
ACAD
1000
AcDbSavedByObjectVersion
1070
     0
  0
VISUALSTYLE
  5
C7
102
{ACAD_REACTORS
330
BC
102
}
330
BC
100
AcDbVisualStyle
  2
Dim
 70
    11
 71
     2
 72
     2
 73
     0
 90
        0
 40
-0.6
 41
-30.0
 62
     5
 63
     7
421
 16777215
 74
     1
 91
        4
 64
     7
 65
   257
 75
     1
175
     1
 42
1.0
 92
        8
 66
     7
 43
1.0
 76
     1
 77
     6
 78
     2
 67
     7
 79
     5
170
     0
171
     0
290
     0
174
     0
 93
        1
 44
-50.0
173
     0
291
     1
 45
0.0
1001
ACAD
1000
AcDbSavedByObjectVersion
1070
     0
  0
VISUALSTYLE
  5
CB
102
{ACAD_REACTORS
330
BC
102
}
330
BC
100
AcDbVisualStyle
  2
Facepattern
 70
    15
 71
     2
 72
     2
 73
     0
 90
        0
 40
-0.6
 41
-30.0
 62
     5
 63
     7
421
 16777215
 74
     1
 91
        4
 64
     7
 65
   257
 75
     1
175
     1
 42
1.0
 92
        8
 66
     7
 43
1.0
 76
     1
 77
     6
 78
     2
 67
     7
 79
     5
170
     0
171
     0
290
     0
174
     0
 93
        1
 44
0.0
173
     0
291
     1
 45
0.0
1001
ACAD
1000
AcDbSavedByObjectVersion
1070
     0
  0
VISUALSTYLE
  5
BD
102
{ACAD_REACTORS
330
BC
102
}
330
BC
100
AcDbVisualStyle
  2
Flat
 70
     0
 71
     2
 72
     1
 73
     1
 90
        2
 40
-0.6
 41
30.0
 62
     5
 63
     7
421
 16777215
 74
     0
 91
        4
 64
     7
 65
   257
 75
     1
175
     1
 42
1.0
 92
        8
 66
     7
 43
1.0
 76
     1
 77
     6
 78
     2
 67
     7
 79
     5
170
     0
171
     0
290
     0
174
     0
 93
       13
 44
0.0
173
     0
291
     1
 45
0.0
1001
ACAD
1000
AcDbSavedByObjectVersion
1070
     0
  0
VISUALSTYLE
  5
BE
102
{ACAD_REACTORS
330
BC
102
}
330
BC
100
AcDbVisualStyle
  2
FlatWithEdges
 70
     1
 71
     2
 72
     1
 73
     1
 90
        2
 40
-0.6
 41
30.0
 62
     5
 63
     7
421
 16777215
 74
     1
 91
        4
 64
     7
 65
   257
 75
     1
175
     1
 42
1.0
 92
        0
 66
   257
 43
1.0
 76
     1
 77
     6
 78
     2
 67
     7
 79
     5
170
     0
171
     0
290
     0
174
     0
 93
       13
 44
0.0
173
     0
291
     1
 45
0.0
1001
ACAD
1000
AcDbSavedByObjectVersion
1070
     0
  0
VISUALSTYLE
  5
BF
102
{ACAD_REACTORS
330
BC
102
}
330
BC
100
AcDbVisualStyle
  2
Gouraud
 70
     2
 71
     2
 72
     2
 73
     1
 90
        2
 40
-0.6
 41
30.0
 62
     5
 63
     7
421
 16777215
 74
     0
 91
        4
 64
     7
 65
   257
 75
     1
175
     1
 42
1.0
 92
        0
 66
     7
 43
1.0
 76
     1
 77
     6
 78
     2
 67
     7
 79
     5
170
     0
171
     0
290
     0
174
     0
 93
       13
 44
0.0
173
     0
291
     1
 45
0.0
1001
ACAD
1000
AcDbSavedByObjectVersion
1070
     0
  0
VISUALSTYLE
  5
C0
102
{ACAD_REACTORS
330
BC
102
}
330
BC
100
AcDbVisualStyle
  2
GouraudWithEdges
 70
     3
 71
     2
 72
     2
 73
     1
 90
        2
 40
-0.6
 41
30.0
 62
     5
 63
     7
421
 16777215
 74
     1
 91
        4
 64
     7
 65
   257
 75
     1
175
     1
 42
1.0
 92
        0
 66
   257
 43
1.0
 76
     1
 77
     6
 78
     2
 67
     7
 79
     5
170
     0
171
     0
290
     0
174
     0
 93
       13
 44
0.0
173
     0
291
     1
 45
0.0
1001
ACAD
1000
AcDbSavedByObjectVersion
1070
     0
  0
VISUALSTYLE
  5
CA
102
{ACAD_REACTORS
330
BC
102
}
330
BC
100
AcDbVisualStyle
  2
Linepattern
 70
    14
 71
     2
 72
     2
 73
     0
 90
        0
 40
-0.6
 41
-30.0
 62
     5
 63
     7
421
 16777215
 74
     1
 91
        4
 64
     7
 65
   257
 75
     7
175
     7
 42
1.0
 92
        8
 66
     7
 43
1.0
 76
     1
 77
     6
 78
     2
 67
     7
 79
     5
170
     0
171
     0
290
     0
174
     0
 93
        1
 44
0.0
173
     0
291
     1
 45
0.0
1001
ACAD
1000
AcDbSavedByObjectVersion
1070
     0
  0
VISUALSTYLE
  5
C6
102
{ACAD_REACTORS
330
BC
102
}
330
BC
100
AcDbVisualStyle
  2
Realistic
 70
     8
 71
     2
 72
     2
 73
     0
 90
        0
 40
-0.6
 41
-30.0
 62
     5
 63
     7
421
 16777215
 74
     1
 91
        0
 64
     7
 65
   257
 75
     1
175
     1
 42
1.0
 92
        8
 66
     8
424
  7895160
 43
1.0
 76
     1
 77
     6
 78
     2
 67
     7
 79
     5
170
     0
171
     0
290
     0
174
     0
 93
       13
 44
0.0
173
     0
291
     0
 45
0.0
1001
ACAD
1000
AcDbSavedByObjectVersion
1070
     0
  0
VISUALSTYLE
  5
C9
102
{ACAD_REACTORS
330
BC
102
}
330
BC
100
AcDbVisualStyle
  2
Thicken
 70
    13
 71
     2
 72
     2
 73
     0
 90
        0
 40
-0.6
 41
-30.0
 62
     5
 63
     7
421
 16777215
 74
     1
 91
        4
 64
     7
 65
   257
 75
     1
175
     1
 42
1.0
 92
       12
 66
     7
 43
1.0
 76
     1
 77
     6
 78
     2
 67
     7
 79
     5
170
     0
171
     0
290
     0
174
     0
 93
        1
 44
0.0
173
     0
291
     1
 45
0.0
1001
ACAD
1000
AcDbSavedByObjectVersion
1070
     0
  0
DICTIONARYVAR
  5
133
102
{ACAD_REACTORS
330
130
102
}
330
130
100
DictionaryVariables
280
     0
  1
1:1
  0
DICTIONARYVAR
  5
132
102
{ACAD_REACTORS
330
130
102
}
330
130
100
DictionaryVariables
280
     0
  1
STANDARD
  0
DICTIONARYVAR
  5
131
102
{ACAD_REACTORS
330
130
102
}
330
130
100
DictionaryVariables
280
     0
  1
STANDARD
  0
XRECORD
  5
120
102
{ACAD_REACTORS
330
11E
102
}
330
11E
100
AcDbXrecord
280
     1
  0
DICTIONARY
  5
AD
330
AC
100
AcDbDictionary
280
     1
281
     1
  3
ACAD_XREC_ROUNDTRIP
360
138
  3
BUMPTILE
360
AF
  3
DIFFUSETILE
360
AE
  3
OPACITYTILE
360
B2
  3
REFLECTIONTILE
360
B1
  3
REFRACTIONTILE
360
B3
  3
SPECULARTILE
360
B0
  0
DICTIONARY
  5
A5
330
A4
100
AcDbDictionary
280
     1
281
     1
  3
ACAD_XREC_ROUNDTRIP
360
137
  3
BUMPTILE
360
A7
  3
DIFFUSETILE
360
A6
  3
OPACITYTILE
360
AA
  3
REFLECTIONTILE
360
A9
  3
REFRACTIONTILE
360
AB
  3
SPECULARTILE
360
A8
  0
DICTIONARY
  5
B5
330
B4
100
AcDbDictionary
280
     1
281
     1
  3
ACAD_XREC_ROUNDTRIP
360
139
  3
BUMPTILE
360
B7
  3
DIFFUSETILE
360
B6
  3
OPACITYTILE
360
BA
  3
REFLECTIONTILE
360
B9
  3
REFRACTIONTILE
360
BB
  3
SPECULARTILE
360
B8
  0
DICTIONARY
  5
134
330
CF
100
AcDbDictionary
280
     1
281
     1
  3
ACAD_ROUNDTRIP_2008_TABLESTYLE_CELLSTYLEMAP
360
135
  3
ACAD_XREC_ROUNDTRIP
360
13A
  0
XRECORD
  5
138
102
{ACAD_REACTORS
330
AD
102
}
330
AD
100
AcDbXrecord
280
     1
102
MATERIAL
148
0.0
149
0.0
149
0.0
 93
        0
 94
      127
282
     0
 72
     0
 77
     0
171
     0
175
     0
179
     0
273
     0
  0
XRECORD
  5
AF
102
{ACAD_REACTORS
330
AD
102
}
330
AD
100
AcDbXrecord
280
     1
270
     1
271
     1
  0
XRECORD
  5
AE
102
{ACAD_REACTORS
330
AD
102
}
330
AD
100
AcDbXrecord
280
     1
270
     1
271
     1
  0
XRECORD
  5
B2
102
{ACAD_REACTORS
330
AD
102
}
330
AD
100
AcDbXrecord
280
     1
270
     1
271
     1
  0
XRECORD
  5
B1
102
{ACAD_REACTORS
330
AD
102
}
330
AD
100
AcDbXrecord
280
     1
270
     1
271
     1
  0
XRECORD
  5
B3
102
{ACAD_REACTORS
330
AD
102
}
330
AD
100
AcDbXrecord
280
     1
270
     1
271
     1
  0
XRECORD
  5
B0
102
{ACAD_REACTORS
330
AD
102
}
330
AD
100
AcDbXrecord
280
     1
270
     1
271
     1
  0
XRECORD
  5
137
102
{ACAD_REACTORS
330
A5
102
}
330
A5
100
AcDbXrecord
280
     1
102
MATERIAL
148
0.0
149
0.0
149
0.0
 93
        0
 94
      127
282
     0
 72
     0
 77
     0
171
     0
175
     0
179
     0
273
     0
  0
XRECORD
  5
A7
102
{ACAD_REACTORS
330
A5
102
}
330
A5
100
AcDbXrecord
280
     1
270
     1
271
     1
  0
XRECORD
  5
A6
102
{ACAD_REACTORS
330
A5
102
}
330
A5
100
AcDbXrecord
280
     1
270
     1
271
     1
  0
XRECORD
  5
AA
102
{ACAD_REACTORS
330
A5
102
}
330
A5
100
AcDbXrecord
280
     1
270
     1
271
     1
  0
XRECORD
  5
A9
102
{ACAD_REACTORS
330
A5
102
}
330
A5
100
AcDbXrecord
280
     1
270
     1
271
     1
  0
XRECORD
  5
AB
102
{ACAD_REACTORS
330
A5
102
}
330
A5
100
AcDbXrecord
280
     1
270
     1
271
     1
  0
XRECORD
  5
A8
102
{ACAD_REACTORS
330
A5
102
}
330
A5
100
AcDbXrecord
280
     1
270
     1
271
     1
  0
XRECORD
  5
139
102
{ACAD_REACTORS
330
B5
102
}
330
B5
100
AcDbXrecord
280
     1
102
MATERIAL
148
0.0
149
0.0
149
0.0
 93
        0
 94
      127
282
     0
 72
     0
 77
     0
171
     0
175
     0
179
     0
273
     0
  0
XRECORD
  5
B7
102
{ACAD_REACTORS
330
B5
102
}
330
B5
100
AcDbXrecord
280
     1
270
     1
271
     1
  0
XRECORD
  5
B6
102
{ACAD_REACTORS
330
B5
102
}
330
B5
100
AcDbXrecord
280
     1
270
     1
271
     1
  0
XRECORD
  5
BA
102
{ACAD_REACTORS
330
B5
102
}
330
B5
100
AcDbXrecord
280
     1
270
     1
271
     1
  0
XRECORD
  5
B9
102
{ACAD_REACTORS
330
B5
102
}
330
B5
100
AcDbXrecord
280
     1
270
     1
271
     1
  0
XRECORD
  5
BB
102
{ACAD_REACTORS
330
B5
102
}
330
B5
100
AcDbXrecord
280
     1
270
     1
271
     1
  0
XRECORD
  5
B8
102
{ACAD_REACTORS
330
B5
102
}
330
B5
100
AcDbXrecord
280
     1
270
     1
271
     1
  0
CELLSTYLEMAP
  5
135
102
{ACAD_REACTORS
330
134
102
}
330
134
100
AcDbCellStyleMap
 90
        3
300
CELLSTYLE
  1
TABLEFORMAT_BEGIN
 90
        5
170
     1
 91
        0
 92
    32768
 62
   257
 93
        1
300
CONTENTFORMAT
  1
CONTENTFORMAT_BEGIN
 90
        0
 91
        0
 92
      512
 93
        0
300

 40
0.0
140
1.0
 94
        5
 62
     0
340
17
144
0.25
309
CONTENTFORMAT_END
171
     0
 94
        0
309
TABLEFORMAT_END
  1
CELLSTYLE_BEGIN
 90
        1
 91
        1
300
_TITLE
309
CELLSTYLE_END
300
CELLSTYLE
  1
TABLEFORMAT_BEGIN
 90
        5
170
     1
 91
        0
 92
        0
 62
   257
 93
        1
300
CONTENTFORMAT
  1
CONTENTFORMAT_BEGIN
 90
        0
 91
        0
 92
      512
 93
        0
300

 40
0.0
140
1.0
 94
        5
 62
     0
340
17
144
0.18
309
CONTENTFORMAT_END
171
     0
 94
        0
309
TABLEFORMAT_END
  1
CELLSTYLE_BEGIN
 90
        2
 91
        1
300
_HEADER
309
CELLSTYLE_END
300
CELLSTYLE
  1
TABLEFORMAT_BEGIN
 90
        5
170
     1
 91
        0
 92
        0
 62
   257
 93
        1
300
CONTENTFORMAT
  1
CONTENTFORMAT_BEGIN
 90
        0
 91
        0
 92
      512
 93
        0
300

 40
0.0
140
1.0
 94
        2
 62
     0
340
17
144
0.18
309
CONTENTFORMAT_END
171
     0
 94
        0
309
TABLEFORMAT_END
  1
CELLSTYLE_BEGIN
 90
        3
 91
        2
300
_DATA
309
CELLSTYLE_END
  0
XRECORD
  5
13A
102
{ACAD_REACTORS
330
134
102
}
330
134
100
AcDbXrecord
280
     1
102
ACAD_ROUNDTRIP_PRE2007_TABLESTYLE
 90
      512
 91
        0
  1

 92
      512
 93
        0
  2

 94
      512
 95
        0
  3

  0
ENDSEC
  0
EOF
