  0
SECTION
  2
HEADER
  9
$ACADVER
  1
AC1018
  9
$ACADMAINTVER
 70
   104
  9
$DWGCODEPAGE
  3
ANSI_1252
  9
$LASTSAVEDBY
  1
EARL
  9
$INSBASE
 10
0.0
 20
0.0
 30
0.0
  9
$EXTMIN
 10
-0.9210097402042032
 20
-0.0949265138811367
 30
0.0
  9
$EXTMAX
 10
0.690168
 20
0.347906
 30
0.0
  9
$LIMMIN
 10
0.0
 20
0.0
  9
$LIMMAX
 10
0.0
 20
0.0
  9
$ORTHOMODE
 70
     0
  9
$REGENMODE
 70
     1
  9
$FILLMODE
 70
     1
  9
$QTEXTMODE
 70
     0
  9
$MIRRTEXT
 70
     1
  9
$LTSCALE
 40
1.0
  9
$ATTMODE
 70
     1
  9
$TEXTSIZE
 40
0.0
  9
$TRACEWID
 40
0.05
  9
$TEXTSTYLE
  7
Standard
  9
$CLAYER
  8
0
  9
$CELTYPE
  6
Continuous
  9
$CECOLOR
 62
   256
  9
$CELTSCALE
 40
1.0
  9
$DISPSILH
 70
     0
  9
$DIMSCALE
 40
1.0
  9
$DIMASZ
 40
0.18
  9
$DIMEXO
 40
0.0625
  9
$DIMDLI
 40
0.38
  9
$DIMRND
 40
0.0
  9
$DIMDLE
 40
0.0
  9
$DIMEXE
 40
0.18
  9
$DIMTP
 40
0.0
  9
$DIMTM
 40
0.0
  9
$DIMTXT
 40
0.18
  9
$DIMCEN
 40
0.09
  9
$DIMTSZ
 40
0.0
  9
$DIMTOL
 70
     0
  9
$DIMLIM
 70
     0
  9
$DIMTIH
 70
     1
  9
$DIMTOH
 70
     1
  9
$DIMSE1
 70
     0
  9
$DIMSE2
 70
     0
  9
$DIMTAD
 70
     0
  9
$DIMZIN
 70
     0
  9
$DIMBLK
  1

  9
$DIMASO
 70
     1
  9
$DIMSHO
 70
     1
  9
$DIMPOST
  1

  9
$DIMAPOST
  1

  9
$DIMALT
 70
     0
  9
$DIMALTD
 70
     2
  9
$DIMALTF
 40
25.4
  9
$DIMLFAC
 40
1.0
  9
$DIMTOFL
 70
     0
  9
$DIMTVP
 40
0.0
  9
$DIMTIX
 70
     0
  9
$DIMSOXD
 70
     0
  9
$DIMSAH
 70
     0
  9
$DIMBLK1
  1

  9
$DIMBLK2
  1

  9
$DIMSTYLE
  2
Standard
  9
$DIMCLRD
 70
     0
  9
$DIMCLRE
 70
     0
  9
$DIMCLRT
 70
     0
  9
$DIMTFAC
 40
1.0
  9
$DIMGAP
 40
0.09
  9
$DIMJUST
 70
     0
  9
$DIMSD1
 70
     0
  9
$DIMSD2
 70
     0
  9
$DIMTOLJ
 70
     1
  9
$DIMTZIN
 70
     0
  9
$DIMALTZ
 70
     0
  9
$DIMALTTZ
 70
     0
  9
$DIMUPT
 70
     0
  9
$DIMDEC
 70
     4
  9
$DIMTDEC
 70
     4
  9
$DIMALTU
 70
     2
  9
$DIMALTTD
 70
     2
  9
$DIMTXSTY
  7
Standard
  9
$DIMAUNIT
 70
     0
  9
$DIMADEC
 70
     0
  9
$DIMALTRND
 40
0.0
  9
$DIMAZIN
 70
     0
  9
$DIMDSEP
 70
    46
  9
$DIMATFIT
 70
     0
  9
$DIMFRAC
 70
     0
  9
$DIMLDRBLK
  1

  9
$DIMLUNIT
 70
     2
  9
$DIMLWD
 70
    -2
  9
$DIMLWE
 70
    -2
  9
$DIMTMOVE
 70
     0
  9
$LUNITS
 70
     2
  9
$LUPREC
 70
     4
  9
$SKETCHINC
 40
0.1
  9
$FILLETRAD
 40
0.0
  9
$AUNITS
 70
     0
  9
$AUPREC
 70
     0
  9
$MENU
  1
acad
  9
$ELEVATION
 40
0.0
  9
$PELEVATION
 40
0.0
  9
$THICKNESS
 40
0.0
  9
$LIMCHECK
 70
     0
  9
$CHAMFERA
 40
0.0
  9
$CHAMFERB
 40
0.0
  9
$CHAMFERC
 40
0.0
  9
$CHAMFERD
 40
0.0
  9
$SKPOLY
 70
     0
  9
$TDCREATE
 40
2454503.671342592
  9
$TDUCREATE
 40
2454503.838009259
  9
$TDUPDATE
 40
2455104.901744792
  9
$TDUUPDATE
 40
2455105.068411458
  9
$TDINDWG
 40
0.0007174421
  9
$TDUSRTIMER
 40
0.0007174421
  9
$USRTIMER
 70
     1
  9
$ANGBASE
 50
0.0
  9
$ANGDIR
 70
     0
  9
$PDMODE
 70
     0
  9
$PDSIZE
 40
0.0
  9
$PLINEWID
 40
0.0
  9
$SPLFRAME
 70
     0
  9
$SPLINETYPE
 70
     6
  9
$SPLINESEGS
 70
     8
  9
$HANDSEED
  5
14F
  9
$SURFTAB1
 70
     6
  9
$SURFTAB2
 70
     6
  9
$SURFTYPE
 70
     6
  9
$SURFU
 70
     6
  9
$SURFV
 70
     6
  9
$UCSBASE
  2

  9
$UCSNAME
  2

  9
$UCSORG
 10
0.0
 20
0.0
 30
0.0
  9
$UCSXDIR
 10
1.0
 20
0.0
 30
0.0
  9
$UCSYDIR
 10
0.0
 20
1.0
 30
0.0
  9
$UCSORTHOREF
  2

  9
$UCSORTHOVIEW
 70
     0
  9
$UCSORGTOP
 10
0.0
 20
0.0
 30
0.0
  9
$UCSORGBOTTOM
 10
0.0
 20
0.0
 30
0.0
  9
$UCSORGLEFT
 10
0.0
 20
0.0
 30
0.0
  9
$UCSORGRIGHT
 10
0.0
 20
0.0
 30
0.0
  9
$UCSORGFRONT
 10
0.0
 20
0.0
 30
0.0
  9
$UCSORGBACK
 10
0.0
 20
0.0
 30
0.0
  9
$PUCSBASE
  2

  9
$PUCSNAME
  2

  9
$PUCSORG
 10
0.0
 20
0.0
 30
0.0
  9
$PUCSXDIR
 10
1.0
 20
0.0
 30
0.0
  9
$PUCSYDIR
 10
0.0
 20
1.0
 30
0.0
  9
$PUCSORTHOREF
  2

  9
$PUCSORTHOVIEW
 70
     0
  9
$PUCSORGTOP
 10
0.0
 20
0.0
 30
0.0
  9
$PUCSORGBOTTOM
 10
0.0
 20
0.0
 30
0.0
  9
$PUCSORGLEFT
 10
0.0
 20
0.0
 30
0.0
  9
$PUCSORGRIGHT
 10
0.0
 20
0.0
 30
0.0
  9
$PUCSORGFRONT
 10
0.0
 20
0.0
 30
0.0
  9
$PUCSORGBACK
 10
0.0
 20
0.0
 30
0.0
  9
$USERI1
 70
     0
  9
$USERI2
 70
     0
  9
$USERI3
 70
     0
  9
$USERI4
 70
     0
  9
$USERI5
 70
     0
  9
$USERR1
 40
0.0
  9
$USERR2
 40
0.0
  9
$USERR3
 40
0.0
  9
$USERR4
 40
0.0
  9
$USERR5
 40
0.0
  9
$WORLDVIEW
 70
     1
  9
$SHADEDGE
 70
     3
  9
$SHADEDIF
 70
    70
  9
$TILEMODE
 70
     0
  9
$MAXACTVP
 70
    16
  9
$PINSBASE
 10
0.0
 20
0.0
 30
0.0
  9
$PLIMCHECK
 70
     0
  9
$PEXTMIN
 10
-0.0556788165195279
 20
-0.078529332350616
 30
-0.0015258207003583
  9
$PEXTMAX
 10
10.39445523190006
 20
7.962852275722276
 30
0.0000000349246037
  9
$PLIMMIN
 10
-0.3306119115190196
 20
-0.2812499079328949
  9
$PLIMMAX
 10
10.66938784818509
 20
8.218749851771214
  9
$UNITMODE
 70
     0
  9
$VISRETAIN
 70
     0
  9
$PLINEGEN
 70
     1
  9
$PSLTSCALE
 70
     0
  9
$TREEDEPTH
 70
  3020
  9
$CMLSTYLE
  2
Standard
  9
$CMLJUST
 70
     0
  9
$CMLSCALE
 40
1.0
  9
$PROXYGRAPHICS
 70
     0
  9
$MEASUREMENT
 70
     0
  9
$CELWEIGHT
370
     0
  9
$ENDCAPS
280
     0
  9
$JOINSTYLE
280
     0
  9
$LWDISPLAY
290
     0
  9
$INSUNITS
 70
     0
  9
$HYPERLINKBASE
  1

  9
$STYLESHEET
  1

  9
$XEDIT
290
     1
  9
$CEPSNTYPE
380
     0
  9
$PSTYLEMODE
290
     1
  9
$FINGERPRINTGUID
  2

  9
$VERSIONGUID
  2
{EC8483D3-2E98-4517-91E1-5E7129EA8545}
  9
$EXTNAMES
290
     1
  9
$PSVPSCALE
 40
0.0
  9
$OLESTARTUP
290
     0
  9
$SORTENTS
280
   127
  9
$INDEXCTL
280
     0
  9
$HIDETEXT
280
     0
  9
$XCLIPFRAME
290
     0
  9
$HALOGAP
280
     0
  9
$OBSCOLOR
 70
   257
  9
$OBSLTYPE
280
     0
  9
$INTERSECTIONDISPLAY
280
     0
  9
$INTERSECTIONCOLOR
 70
   257
  9
$DIMASSOC
280
     1
  9
$PROJECTNAME
  1

  0
ENDSEC
  0
SECTION
  2
CLASSES
  0
CLASS
  1
IMAGE
  2
AcDbRasterImage
  3
ISM
 90
     2175
 91
        0
280
     0
281
     1
  0
CLASS
  1
DICTIONARYVAR
  2
AcDbDictionaryVar
  3
ObjectDBX Classes
 90
        0
 91
        5
280
     0
281
     0
  0
CLASS
  1
RASTERVARIABLES
  2
AcDbRasterVariables
  3
ISM
 90
        0
 91
        0
280
     0
281
     0
  0
CLASS
  1
IMAGEDEF
  2
AcDbRasterImageDef
  3
ISM
 90
        0
 91
        0
280
     0
281
     0
  0
CLASS
  1
IMAGEDEF_REACTOR
  2
AcDbRasterImageDefReactor
  3
ISM
 90
        1
 91
        0
280
     0
281
     0
  0
CLASS
  1
IDBUFFER
  2
AcDbIdBuffer
  3
ObjectDBX Classes
 90
        0
 91
        0
280
     0
281
     0
  0
CLASS
  1
SPATIAL_FILTER
  2
AcDbSpatialFilter
  3
ObjectDBX Classes
 90
        0
 91
        0
280
     0
281
     0
  0
CLASS
  1
SORTENTSTABLE
  2
AcDbSortentsTable
  3
ObjectDBX Classes
 90
        0
 91
        1
280
     0
281
     0
  0
CLASS
  1
LAYER_INDEX
  2
AcDbLayerIndex
  3
ObjectDBX Classes
 90
        0
 91
        0
280
     0
281
     0
  0
CLASS
  1
SPATIAL_INDEX
  2
AcDbSpatialIndex
  3
ObjectDBX Classes
 90
        0
 91
        0
280
     0
281
     0
  0
CLASS
  1
OBJECT_PTR
  2
CAseDLPNTableRecord
  3
ASE-LPNTableRecord
 90
        1
 91
        0
280
     0
281
     0
  0
CLASS
  1
PLOTSETTINGS
  2
AcDbPlotSettings
  3
ObjectDBX Classes
 90
        0
 91
        0
280
     0
281
     0
  0
CLASS
  1
ACDBDICTIONARYWDFLT
  2
AcDbDictionaryWithDefault
  3
ObjectDBX Classes
 90
        0
 91
        1
280
     0
281
     0
  0
CLASS
  1
WIPEOUT
  2
AcDbWipeout
  3
"WipeOut|Product Desc: Object Enabler for WipeOut entity                        |Company: Autodesk, Inc.                        |WEB Address: www.autodesk.com"
 90
     2175
 91
        0
280
     0
281
     1
  0
CLASS
  1
WIPEOUTVARIABLES
  2
AcDbWipeoutVariables
  3
"WipeOut|Product Desc:     WipeOut Dbx Application|Company:          Autodesk, Inc.|WEB Address:      www.autodesk.com"
 90
        0
 91
        1
280
     0
281
     0
  0
CLASS
  1
RTEXT
  2
RText
  3
RText|AutoCAD Express Tool|expresstools@autodesk.com
 90
        0
 91
        0
280
     0
281
     1
  0
CLASS
  1
ARCALIGNEDTEXT
  2
AcDbArcAlignedText
  3
ATEXT|AutoCAD Express Tool|expresstools@autodesk.com
 90
        0
 91
        0
280
     0
281
     1
  0
CLASS
  1
MATERIAL
  2
AcDbMaterial
  3
ObjectDBX Classes
 90
     1153
 91
        3
280
     0
281
     0
  0
CLASS
  1
VISUALSTYLE
  2
AcDbVisualStyle
  3
ObjectDBX Classes
 90
     4095
 91
       16
280
     0
281
     0
  0
CLASS
  1
TABLESTYLE
  2
AcDbTableStyle
  3
ObjectDBX Classes
 90
     4095
 91
        1
280
     0
281
     0
  0
CLASS
  1
SCALE
  2
AcDbScale
  3
ObjectDBX Classes
 90
     1153
 91
       33
280
     0
281
     0
  0
CLASS
  1
MLEADERSTYLE
  2
AcDbMLeaderStyle
  3
ACDB_MLEADERSTYLE_CLASS
 90
     4095
 91
        1
280
     0
281
     0
  0
CLASS
  1
CELLSTYLEMAP
  2
AcDbCellStyleMap
  3
ObjectDBX Classes
 90
     1152
 91
        2
280
     0
281
     0
  0
ENDSEC
  0
SECTION
  2
TABLES
  0
TABLE
  2
VPORT
  5
7
330
0
100
AcDbSymbolTable
 70
     1
  0
VPORT
  5
15
330
7
100
AcDbSymbolTableRecord
100
AcDbViewportTableRecord
  2
*ACTIVE
 70
     0
 10
0.0
 20
0.0
 11
1.0
 21
1.0
 12
13.28065635736906
 22
4.579183999999999
 13
0.0
 23
0.0
 14
1.0
 24
1.0
 15
0.0
 25
0.0
 16
0.0
 26
0.0
 36
1.0
 17
0.0
 27
0.0
 37
0.0
 40
9.158369
 41
2.149384885764499
 42
50.0
 43
0.0
 44
0.0
 50
0.0
 51
0.0
 71
     0
 72
   100
 73
     1
 74
     1
 75
     0
 76
     0
 77
     0
 78
     0
281
     0
 65
     0
110
0.0
120
0.0
130
0.0
111
1.0
121
0.0
131
0.0
112
0.0
122
1.0
132
0.0
 79
     0
146
0.0
  0
ENDTAB
  0
TABLE
  2
LTYPE
  5
4
330
0
100
AcDbSymbolTable
 70
     5
  0
LTYPE
  5
11
330
4
100
AcDbSymbolTableRecord
100
AcDbLinetypeTableRecord
  2
ByBlock
 70
     0
  3

 72
    65
 73
     0
 40
0.0
  0
LTYPE
  5
12
330
4
100
AcDbSymbolTableRecord
100
AcDbLinetypeTableRecord
  2
ByLayer
 70
     0
  3

 72
    65
 73
     0
 40
0.0
  0
LTYPE
  5
13
330
4
100
AcDbSymbolTableRecord
100
AcDbLinetypeTableRecord
  2
Continuous
 70
     0
  3
Solid line
 72
    65
 73
     0
 40
0.0
  0
LTYPE
  5
24
330
4
100
AcDbSymbolTableRecord
100
AcDbLinetypeTableRecord
  2
solid
 70
     0
  3

 72
    65
 73
     0
 40
0.0
  0
LTYPE
  5
25
330
4
100
AcDbSymbolTableRecord
100
AcDbLinetypeTableRecord
  2
dashed
 70
     0
  3

 72
    65
 73
     0
 40
0.0
  0
LTYPE
  5
26
330
4
100
AcDbSymbolTableRecord
100
AcDbLinetypeTableRecord
  2
center
 70
     0
  3

 72
    65
 73
     0
 40
0.0
  0
ENDTAB
  0
TABLE
  2
LAYER
  5
2
330
0
100
AcDbSymbolTable
 70
     3
  0
LAYER
  5
14
102
{ACAD_XDICTIONARY
360
10F
102
}
330
2
100
AcDbSymbolTableRecord
100
AcDbLayerTableRecord
  2
0
 70
     0
 62
     7
  6
Continuous
370
    -3
390
1D
  0
LAYER
  5
27
102
{ACAD_XDICTIONARY
360
111
102
}
330
2
100
AcDbSymbolTableRecord
100
AcDbLayerTableRecord
  2
1
 70
     0
 62
     1
  6
solid
370
    -3
390
1D
  0
LAYER
  5
A9
102
{ACAD_XDICTIONARY
360
113
102
}
330
2
100
AcDbSymbolTableRecord
100
AcDbLayerTableRecord
  2
0
 70
     0
 62
     1
  6
solid
370
    -3
390
1D
  0
ENDTAB
  0
TABLE
  2
STYLE
  5
3
330
0
100
AcDbSymbolTable
 70
     2
  0
STYLE
  5
17
330
3
100
AcDbSymbolTableRecord
100
AcDbTextStyleTableRecord
  2
Standard
 70
     0
 40
0.0
 41
1.0
 50
0.0
 71
     0
 42
0.0
  3
txt
  4

  0
ENDTAB
  0
TABLE
  2
VIEW
  5
5
330
0
100
AcDbSymbolTable
 70
     0
  0
ENDTAB
  0
TABLE
  2
UCS
  5
6
330
0
100
AcDbSymbolTable
 70
     0
  0
ENDTAB
  0
TABLE
  2
APPID
  5
8
330
0
100
AcDbSymbolTable
 70
     5
  0
APPID
  5
16
330
8
100
AcDbSymbolTableRecord
100
AcDbRegAppTableRecord
  2
ACAD
 70
     0
  0
APPID
  5
DE
330
8
100
AcDbSymbolTableRecord
100
AcDbRegAppTableRecord
  2
ACAD_PSEXT
 70
     0
  0
APPID
  5
108
330
8
100
AcDbSymbolTableRecord
100
AcDbRegAppTableRecord
  2
ACAD_MLEADERVER
 70
     0
  0
APPID
  5
127
330
8
100
AcDbSymbolTableRecord
100
AcDbRegAppTableRecord
  2
ACAD_EXEMPT_FROM_CAD_STANDARDS
 70
     0
  0
APPID
  5
12F
330
8
100
AcDbSymbolTableRecord
100
AcDbRegAppTableRecord
  2
DCO15
 70
     0
  0
ENDTAB
  0
TABLE
  2
DIMSTYLE
  5
9
330
0
100
AcDbSymbolTable
 70
     3
100
AcDbDimStyleTable
 71
     1
340
18
  0
DIMSTYLE
105
18
102
{ACAD_REACTORS
330
BF
102
}
330
9
100
AcDbSymbolTableRecord
100
AcDbDimStyleTableRecord
  2
Standard
 70
     0
289
     0
340
17
  0
ENDTAB
  0
TABLE
  2
BLOCK_RECORD
  5
1
330
0
100
AcDbSymbolTable
 70
     4
  0
BLOCK_RECORD
  5
A
102
{ACAD_XDICTIONARY
360
124
102
}
330
1
100
AcDbSymbolTableRecord
100
AcDbBlockTableRecord
  2
*MODEL_SPACE
340
20
  0
BLOCK_RECORD
  5
B
330
1
100
AcDbSymbolTableRecord
100
AcDbBlockTableRecord
  2
*PAPER_SPACE
340
21
  0
BLOCK_RECORD
  5
AA
330
1
100
AcDbSymbolTableRecord
100
AcDbBlockTableRecord
  2
*D0
340
0
  0
BLOCK_RECORD
  5
B5
330
1
100
AcDbSymbolTableRecord
100
AcDbBlockTableRecord
  2
*D1
340
0
  0
ENDTAB
  0
ENDSEC
  0
SECTION
  2
BLOCKS
  0
BLOCK
  5
D
330
A
100
AcDbEntity
  8
0
100
AcDbBlockBegin
  2
*MODEL_SPACE
 70
     0
 10
0.0
 20
0.0
 30
0.0
  3
*MODEL_SPACE
  1

  0
ENDBLK
  5
E
330
A
100
AcDbEntity
  8
0
100
AcDbBlockEnd
  0
BLOCK
  5
F
330
B
100
AcDbEntity
 67
     1
  8
0
100
AcDbBlockBegin
  2
*PAPER_SPACE
 70
     0
 10
0.0
 20
0.0
 30
0.0
  3
*PAPER_SPACE
  1

  0
ENDBLK
  5
10
330
B
100
AcDbEntity
 67
     1
  8
0
100
AcDbBlockEnd
  0
BLOCK
  5
AB
330
AA
100
AcDbEntity
  8
0
  6
solid
 62
     0
100
AcDbBlockBegin
  2
*D0
 70
     0
 10
0.0
 20
0.0
 30
0.0
  3
*D0
  1

  0
LINE
  5
AC
330
AA
100
AcDbEntity
  8
0
  6
solid
 62
     0
100
AcDbLine
 10
-0.233509749174118
 20
0.0017209869110956
 30
0.0
 11
-0.1115919095171445
 21
0.0017209869110955
 31
0.0
  0
LINE
  5
AD
330
AA
100
AcDbEntity
  8
0
  6
solid
 62
     0
100
AcDbLine
 10
-0.5460097193717957
 20
0.3142209947109222
 30
0.0
 11
-0.1115919095171443
 21
0.3142209947109219
 31
0.0
  0
LINE
  5
AE
330
AA
100
AcDbEntity
  8
0
  6
solid
 62
     0
100
AcDbLine
 10
-0.1428419095171445
 20
0.0017209869110956
 30
0.0
 11
-0.1428419095171445
 21
0.0930178658110089
 31
0.0
  0
LINE
  5
AF
330
AA
100
AcDbEntity
  8
0
  6
solid
 62
     0
100
AcDbLine
 10
-0.1428419095171443
 20
0.3142209947109219
 30
0.0
 11
-0.1428419095171444
 21
0.2229241158110089
 31
0.0
  0
MTEXT
  5
B0
330
AA
100
AcDbEntity
  8
0
  6
solid
 62
     0
100
AcDbMText
 10
-0.1428419095171444
 20
0.1579709908110088
 30
0.0
 40
0.0625
 41
0.0
 71
     5
 72
     1
  1
{\H0.062500;5/16}
 73
     1
 44
1.0
  0
SOLID
  5
B1
330
AA
100
AcDbEntity
  8
0
  6
solid
 62
     0
100
AcDbTrace
 10
-0.1532469095171444
 20
0.0642209869110956
 30
0.0
 11
-0.1324369095171444
 21
0.0642209869110956
 31
0.0
 12
-0.1428419095171445
 22
0.0017209869110956
 32
0.0
 13
-0.1428419095171445
 23
0.0017209869110956
 33
0.0
  0
SOLID
  5
B2
330
AA
100
AcDbEntity
  8
0
  6
solid
 62
     0
100
AcDbTrace
 10
-0.1324369095171443
 20
0.2517209947109219
 30
0.0
 11
-0.1532469095171443
 21
0.2517209947109219
 31
0.0
 12
-0.1428419095171443
 22
0.3142209947109219
 32
0.0
 13
-0.1428419095171443
 23
0.3142209947109219
 33
0.0
  0
ENDBLK
  5
B3
330
AA
100
AcDbEntity
  8
0
  6
solid
 62
     0
100
AcDbBlockEnd
  0
BLOCK
  5
B6
330
B5
100
AcDbEntity
  8
0
  6
solid
 62
     0
100
AcDbBlockBegin
  2
*D1
 70
     0
 10
0.0
 20
0.0
 30
0.0
  3
*D1
  1

  0
LINE
  5
B7
330
B5
100
AcDbEntity
  8
0
  6
solid
 62
     0
100
AcDbLine
 10
-0.9210097193717956
 20
-0.0607790130889043
 30
0.0
 11
-0.9210097193717956
 21
-0.0949265138811367
 31
0.0
  0
LINE
  5
B8
330
B5
100
AcDbEntity
  8
0
  6
solid
 62
     0
100
AcDbLine
 10
-0.296009749174118
 20
-0.0607790130889043
 30
0.0
 11
-0.296009749174118
 21
-0.0949265138811367
 31
0.0
  0
LINE
  5
B9
330
B5
100
AcDbEntity
  8
0
  6
solid
 62
     0
100
AcDbLine
 10
-0.9210097193717956
 20
-0.0636765138811367
 30
0.0
 11
-0.6894495070002296
 21
-0.0636765138811367
 31
0.0
  0
LINE
  5
BA
330
B5
100
AcDbEntity
  8
0
  6
solid
 62
     0
100
AcDbLine
 10
-0.296009749174118
 20
-0.0636765138811367
 30
0.0
 11
-0.5275699615456842
 21
-0.0636765138811367
 31
0.0
  0
MTEXT
  5
BB
330
B5
100
AcDbEntity
  8
0
  6
solid
 62
     0
100
AcDbMText
 10
-0.6085097342729569
 20
-0.0636765138811367
 30
0.0
 40
0.0625
 41
0.0
 71
     5
 72
     1
  1
{\H0.062500;5/8}
 73
     1
 44
1.0
  0
SOLID
  5
BC
330
B5
100
AcDbEntity
  8
0
  6
solid
 62
     0
100
AcDbTrace
 10
-0.8585097193717956
 20
-0.0532715138811367
 30
0.0
 11
-0.8585097193717956
 21
-0.0740815138811367
 31
0.0
 12
-0.9210097193717956
 22
-0.0636765138811367
 32
0.0
 13
-0.9210097193717956
 23
-0.0636765138811367
 33
0.0
  0
SOLID
  5
BD
330
B5
100
AcDbEntity
  8
0
  6
solid
 62
     0
100
AcDbTrace
 10
-0.358509749174118
 20
-0.0740815138811367
 30
0.0
 11
-0.358509749174118
 21
-0.0532715138811367
 31
0.0
 12
-0.296009749174118
 22
-0.0636765138811367
 32
0.0
 13
-0.296009749174118
 23
-0.0636765138811367
 33
0.0
  0
ENDBLK
  5
BE
330
B5
100
AcDbEntity
  8
0
  6
solid
 62
     0
100
AcDbBlockEnd
  0
ENDSEC
  0
SECTION
  2
ENTITIES
  0
ARC
  5
28
330
A
100
AcDbEntity
  8
1
  6
solid
 62
     0
100
AcDbCircle
 10
0.3125
 20
0.0
 30
0.0
 40
0.3125
100
AcDbArc
 50
0.0
 51
180.0
  0
LINE
  5
29
330
A
100
AcDbEntity
  8
1
  6
solid
 62
     0
100
AcDbLine
 10
0.0
 20
0.0
 30
0.0
 11
0.625
 21
0.0
 31
0.0
  0
ARC
  5
2A
330
A
100
AcDbEntity
  8
1
  6
solid
 62
     0
100
AcDbCircle
 10
0.377668
 20
0.035406
 30
0.0
 40
0.3125
100
AcDbArc
 50
0.0
 51
125.330582
  0
LINE
  5
2B
330
A
100
AcDbEntity
  8
1
  6
solid
 62
     0
100
AcDbLine
 10
0.625
 20
0.0
 30
0.0
 11
0.690168
 21
0.035406
 31
0.0
  0
LINE
  5
2C
330
A
100
AcDbEntity
  8
1
  6
solid
 62
     0
100
AcDbLine
 10
0.177834
 20
0.227905
 30
0.0
 11
0.198909
 21
0.227905
 31
0.0
  0
LINE
  5
2D
330
A
100
AcDbEntity
  8
1
  6
solid
 62
     0
100
AcDbLine
 10
0.198909
 20
0.227905
 30
0.0
 11
0.198909
 21
0.18212
 31
0.0
  0
LINE
  5
2E
330
A
100
AcDbEntity
  8
1
  6
solid
 62
     0
100
AcDbLine
 10
0.198909
 20
0.18212
 30
0.0
 11
0.228706
 21
0.18212
 31
0.0
  0
LINE
  5
2F
330
A
100
AcDbEntity
  8
1
  6
solid
 62
     0
100
AcDbLine
 10
0.228706
 20
0.18212
 30
0.0
 11
0.228706
 21
0.165405
 31
0.0
  0
LINE
  5
30
330
A
100
AcDbEntity
  8
1
  6
solid
 62
     0
100
AcDbLine
 10
0.228706
 20
0.165405
 30
0.0
 11
0.177834
 21
0.165405
 31
0.0
  0
LINE
  5
31
330
A
100
AcDbEntity
  8
1
  6
solid
 62
     0
100
AcDbLine
 10
0.177834
 20
0.227905
 30
0.0
 11
0.177834
 21
0.165405
 31
0.0
  0
LINE
  5
32
330
A
100
AcDbEntity
  8
1
  6
solid
 62
     0
100
AcDbLine
 10
0.254873
 20
0.208283
 30
0.0
 11
0.236333
 21
0.210791
 31
0.0
  0
SPLINE
  5
33
330
A
100
AcDbEntity
  8
1
  6
solid
 62
     0
100
AcDbSpline
210
0.0
220
0.0
230
1.0
 70
     8
 71
     2
 72
     7
 73
     4
 74
     0
 42
0.0000000001
 43
0.0000000001
 40
0.0
 40
0.0
 40
0.0
 40
1.0
 40
2.0
 40
2.0
 40
2.0
 10
0.2363325408407171
 20
0.2107909236741546
 30
0.0
 10
0.2382250989802519
 20
0.2199111562322941
 30
0.0
 10
0.2503341687476938
 20
0.2286320864648523
 30
0.0
 10
0.2611906803756008
 20
0.2286320864648523
 30
0.0
  0
SPLINE
  5
34
330
A
100
AcDbEntity
  8
1
  6
solid
 62
     0
100
AcDbSpline
210
0.0
220
0.0
230
1.0
 70
     8
 71
     2
 72
     7
 73
     4
 74
     0
 42
0.0000000001
 43
0.0000000001
 40
0.0
 40
0.0
 40
0.0
 40
1.0
 40
2.0
 40
2.0
 40
2.0
 10
0.2611906803756008
 20
0.2286320864648523
 30
0.0
 10
0.2741232385151357
 20
0.2286320864648523
 30
0.0
 10
0.2857511454918799
 20
0.2193332492555499
 30
0.0
 10
0.2857511454918799
 20
0.2127404585578756
 30
0.0
  0
SPLINE
  5
35
330
A
100
AcDbEntity
  8
1
  6
solid
 62
     0
100
AcDbSpline
210
0.0
220
0.0
230
1.0
 70
     8
 71
     2
 72
     7
 73
     4
 74
     0
 42
0.0000000001
 43
0.0000000001
 40
0.0
 40
0.0
 40
0.0
 40
1.0
 40
2.0
 40
2.0
 40
2.0
 10
0.2857511454918799
 20
0.2127404585578756
 30
0.0
 10
0.2857511454918799
 20
0.2087148771625267
 30
0.0
 10
0.2810211454918799
 20
0.2021890632090383
 30
0.0
 10
0.2770599827011822
 20
0.200527202743922
 30
0.0
  0
SPLINE
  5
36
330
A
100
AcDbEntity
  8
1
  6
solid
 62
     0
100
AcDbSpline
210
0.0
220
0.0
230
1.0
 70
     8
 71
     2
 72
     6
 73
     3
 74
     0
 42
0.0000000001
 43
0.0000000001
 40
0.0
 40
0.0
 40
0.0
 40
1.0
 40
1.0
 40
1.0
 10
0.2770599827011822
 20
0.200527202743922
 30
0.0
 10
0.2796569594453682
 20
0.1999418539067127
 30
0.0
 10
0.2815916106081589
 20
0.1989323190229918
 30
0.0
  0
SPLINE
  5
37
330
A
100
AcDbEntity
  8
1
  6
solid
 62
     0
100
AcDbSpline
210
0.0
220
0.0
230
1.0
 70
     8
 71
     2
 72
     7
 73
     4
 74
     0
 42
0.0000000001
 43
0.0000000001
 40
0.0
 40
0.0
 40
0.0
 40
1.0
 40
2.0
 40
2.0
 40
2.0
 10
0.2815916106081589
 20
0.1989323190229918
 30
0.0
 10
0.2851434710732752
 20
0.1967297608834569
 30
0.0
 10
0.2886581222360659
 20
0.1902411562322941
 30
0.0
 10
0.2886581222360659
 20
0.1859253422788058
 30
0.0
  0
SPLINE
  5
38
330
A
100
AcDbEntity
  8
1
  6
solid
 62
     0
100
AcDbSpline
210
0.0
220
0.0
230
1.0
 70
     8
 71
     2
 72
     8
 73
     5
 74
     0
 42
0.0000000001
 43
0.0000000001
 40
0.0
 40
0.0
 40
0.0
 40
1.0
 40
2.0
 40
3.0
 40
3.0
 40
3.0
 10
0.2886581222360659
 20
0.1859253422788058
 30
0.0
 10
0.2886581222360659
 20
0.1803941794881081
 30
0.0
 10
0.2825862617709496
 20
0.1701825515811314
 30
0.0
 10
0.2713948664221124
 20
0.1646785980927592
 30
0.0
 10
0.2621704478174612
 20
0.1646785980927592
 30
0.0
  0
SPLINE
  5
39
330
A
100
AcDbEntity
  8
1
  6
solid
 62
     0
100
AcDbSpline
210
0.0
220
0.0
230
1.0
 70
     8
 71
     2
 72
     8
 73
     5
 74
     0
 42
0.0000000001
 43
0.0000000001
 40
0.0
 40
0.0
 40
0.0
 40
1.0
 40
2.0
 40
3.0
 40
3.0
 40
3.0
 10
0.2621704478174612
 20
0.1646785980927592
 30
0.0
 10
0.2537967268872287
 20
0.1646785980927592
 30
0.0
 10
0.2437488199104845
 20
0.1686397608834569
 30
0.0
 10
0.2372527733988566
 20
0.1766488306508988
 30
0.0
 10
0.2356057966546706
 20
0.1836334818136895
 30
0.0
  0
LINE
  5
3A
330
A
100
AcDbEntity
  8
1
  6
solid
 62
     0
100
AcDbLine
 10
0.235606
 20
0.183633
 30
0.0
 11
0.254109
 21
0.185754
 31
0.0
  0
SPLINE
  5
3B
330
A
100
AcDbEntity
  8
1
  6
solid
 62
     0
100
AcDbSpline
210
0.0
220
0.0
230
1.0
 70
     8
 71
     2
 72
     7
 73
     4
 74
     0
 42
0.0000000001
 43
0.0000000001
 40
0.0
 40
0.0
 40
0.0
 40
1.0
 40
2.0
 40
2.0
 40
2.0
 10
0.2541092850267636
 20
0.1857541794881081
 30
0.0
 10
0.2554139361895543
 20
0.1806818539067127
 30
0.0
 10
0.259122075724438
 20
0.1777599934415964
 30
0.0
 10
0.2619397501430427
 20
0.1777599934415964
 30
0.0
  0
SPLINE
  5
3C
330
A
100
AcDbEntity
  8
1
  6
solid
 62
     0
100
AcDbSpline
210
0.0
220
0.0
230
1.0
 70
     8
 71
     2
 72
     7
 73
     4
 74
     0
 42
0.0000000001
 43
0.0000000001
 40
0.0
 40
0.0
 40
0.0
 40
1.0
 40
2.0
 40
2.0
 40
2.0
 10
0.2619397501430427
 20
0.1777599934415964
 30
0.0
 10
0.2651295175849031
 20
0.1777599934415964
 30
0.0
 10
0.2697627733988566
 20
0.1817732492555499
 30
0.0
 10
0.2697627733988566
 20
0.1853399934415964
 30
0.0
  0
SPLINE
  5
3D
330
A
100
AcDbEntity
  8
1
  6
solid
 62
     0
100
AcDbSpline
210
0.0
220
0.0
230
1.0
 70
     8
 71
     2
 72
     7
 73
     4
 74
     0
 42
0.0000000001
 43
0.0000000001
 40
0.0
 40
0.0
 40
0.0
 40
1.0
 40
2.0
 40
2.0
 40
2.0
 10
0.2697627733988566
 20
0.1853399934415964
 30
0.0
 10
0.2697627733988566
 20
0.1889513887904337
 30
0.0
 10
0.2654841687476938
 20
0.1930216213485732
 30
0.0
 10
0.2618057966546706
 20
0.1930216213485732
 30
0.0
  0
SPLINE
  5
3E
330
A
100
AcDbEntity
  8
1
  6
solid
 62
     0
100
AcDbSpline
210
0.0
220
0.0
230
1.0
 70
     8
 71
     2
 72
     6
 73
     3
 74
     0
 42
0.0000000001
 43
0.0000000001
 40
0.0
 40
0.0
 40
0.0
 40
1.0
 40
1.0
 40
1.0
 10
0.2618057966546706
 20
0.1930216213485732
 30
0.0
 10
0.2598488199104845
 20
0.1930216213485732
 30
0.0
 10
0.2552278896779264
 20
0.1919179004183406
 30
0.0
  0
LINE
  5
3F
330
A
100
AcDbEntity
  8
1
  6
solid
 62
     0
100
AcDbLine
 10
0.255228
 20
0.191918
 30
0.0
 11
0.256096
 21
0.206215
 31
0.0
  0
SPLINE
  5
40
330
A
100
AcDbEntity
  8
1
  6
solid
 62
     0
100
AcDbSpline
210
0.0
220
0.0
230
1.0
 70
     8
 71
     2
 72
     6
 73
     3
 74
     0
 42
0.0000000001
 43
0.0000000001
 40
0.0
 40
0.0
 40
0.0
 40
1.0
 40
1.0
 40
1.0
 10
0.2560960292128101
 20
0.2062146446043871
 30
0.0
 10
0.2583357966546706
 20
0.2058451097206662
 30
0.0
 10
0.2590923082825775
 20
0.2061030166974104
 30
0.0
  0
SPLINE
  5
41
330
A
100
AcDbEntity
  8
1
  6
solid
 62
     0
100
AcDbSpline
210
0.0
220
0.0
230
1.0
 70
     8
 71
     2
 72
     7
 73
     4
 74
     0
 42
0.0000000001
 43
0.0000000001
 40
0.0
 40
0.0
 40
0.0
 40
1.0
 40
2.0
 40
2.0
 40
2.0
 10
0.2590923082825775
 20
0.2061030166974104
 30
0.0
 10
0.2625399827011821
 20
0.2061030166974104
 30
0.0
 10
0.2668557966546706
 20
0.2091513887904337
 30
0.0
 10
0.2668557966546706
 20
0.2112348771625267
 30
0.0
  0
SPLINE
  5
42
330
A
100
AcDbEntity
  8
1
  6
solid
 62
     0
100
AcDbSpline
210
0.0
220
0.0
230
1.0
 70
     8
 71
     2
 72
     7
 73
     4
 74
     0
 42
0.0000000001
 43
0.0000000001
 40
0.0
 40
0.0
 40
0.0
 40
1.0
 40
2.0
 40
2.0
 40
2.0
 10
0.2668557966546706
 20
0.2112348771625267
 30
0.0
 10
0.2668557966546706
 20
0.2130009236741546
 30
0.0
 10
0.2639488199104845
 20
0.2155506911160151
 30
0.0
 10
0.2611906803756008
 20
0.2155506911160151
 30
0.0
  0
SPLINE
  5
43
330
A
100
AcDbEntity
  8
1
  6
solid
 62
     0
100
AcDbSpline
210
0.0
220
0.0
230
1.0
 70
     8
 71
     2
 72
     7
 73
     4
 74
     0
 42
0.0000000001
 43
0.0000000001
 40
0.0
 40
0.0
 40
0.0
 40
1.0
 40
2.0
 40
2.0
 40
2.0
 10
0.2611906803756008
 20
0.2155506911160151
 30
0.0
 10
0.258928587352345
 20
0.2155506911160151
 30
0.0
 10
0.255652075724438
 20
0.2128223190229918
 30
0.0
 10
0.2548732385151357
 20
0.2082832492555499
 30
0.0
  0
LINE
  5
44
330
A
100
AcDbEntity
  8
1
  6
solid
 62
     0
100
AcDbLine
 10
0.333349
 20
0.228632
 30
0.0
 11
0.333349
 21
0.165405
 31
0.0
  0
LINE
  5
45
330
A
100
AcDbEntity
  8
1
  6
solid
 62
     0
100
AcDbLine
 10
0.333349
 20
0.165405
 30
0.0
 11
0.313727
 21
0.165405
 31
0.0
  0
LINE
  5
46
330
A
100
AcDbEntity
  8
1
  6
solid
 62
     0
100
AcDbLine
 10
0.313727
 20
0.165405
 30
0.0
 11
0.313727
 21
0.206155
 31
0.0
  0
SPLINE
  5
47
330
A
100
AcDbEntity
  8
1
  6
solid
 62
     0
100
AcDbSpline
210
0.0
220
0.0
230
1.0
 70
     8
 71
     2
 72
     7
 73
     4
 74
     0
 42
0.0000000001
 43
0.0000000001
 40
0.0
 40
0.0
 40
0.0
 40
1.0
 40
2.0
 40
2.0
 40
2.0
 10
0.3137267268872287
 20
0.2061551097206662
 30
0.0
 10
0.3111025408407171
 20
0.2032630166974104
 30
0.0
 10
0.3029595175849031
 20
0.1991258073950848
 30
0.0
 10
0.2955581222360659
 20
0.1973820864648523
 30
0.0
  0
LINE
  5
48
330
A
100
AcDbEntity
  8
1
  6
solid
 62
     0
100
AcDbLine
 10
0.295558
 20
0.197382
 30
0.0
 11
0.295558
 21
0.212267
 31
0.0
  0
SPLINE
  5
49
330
A
100
AcDbEntity
  8
1
  6
solid
 62
     0
100
AcDbSpline
210
0.0
220
0.0
230
1.0
 70
     8
 71
     2
 72
     7
 73
     4
 74
     0
 42
0.0000000001
 43
0.0000000001
 40
0.0
 40
0.0
 40
0.0
 40
1.0
 40
2.0
 40
2.0
 40
2.0
 10
0.2955581222360659
 20
0.212266737627643
 30
0.0
 10
0.3046064943290892
 20
0.2151365050695034
 30
0.0
 10
0.3140913780500194
 20
0.2225304585578755
 30
0.0
 10
0.3169909129337403
 20
0.2286320864648523
 30
0.0
  0
LINE
  5
4A
330
A
100
AcDbEntity
  8
1
  6
solid
 62
     0
100
AcDbLine
 10
0.333349
 20
0.228632
 30
0.0
 11
0.316991
 21
0.228632
 31
0.0
  0
LINE
  5
4B
330
A
100
AcDbEntity
  8
1
  6
solid
 62
     0
100
AcDbLine
 10
0.094407
 20
0.113732
 30
0.0
 11
0.137226
 21
0.113732
 31
0.0
  0
LINE
  5
4C
330
A
100
AcDbEntity
  8
1
  6
solid
 62
     0
100
AcDbLine
 10
0.137226
 20
0.113732
 30
0.0
 11
0.137226
 21
0.09847
 31
0.0
  0
LINE
  5
4D
330
A
100
AcDbEntity
  8
1
  6
solid
 62
     0
100
AcDbLine
 10
0.137226
 20
0.09847
 30
0.0
 11
0.109285
 21
0.09847
 31
0.0
  0
LINE
  5
4E
330
A
100
AcDbEntity
  8
1
  6
solid
 62
     0
100
AcDbLine
 10
0.109285
 20
0.09847
 30
0.0
 11
0.108342
 21
0.090922
 31
0.0
  0
SPLINE
  5
4F
330
A
100
AcDbEntity
  8
1
  6
solid
 62
     0
100
AcDbSpline
210
0.0
220
0.0
230
1.0
 70
     8
 71
     2
 72
     7
 73
     4
 74
     0
 42
0.0000000001
 43
0.0000000001
 40
0.0
 40
0.0
 40
0.0
 40
1.0
 40
2.0
 40
2.0
 40
2.0
 10
0.1083419578986928
 20
0.0909224408581195
 30
0.0
 10
0.1093142834800881
 20
0.0923536036488172
 30
0.0
 10
0.1150835858056695
 20
0.0941096501604451
 30
0.0
 10
0.1179161439452044
 20
0.0941096501604451
 30
0.0
  0
SPLINE
  5
50
330
A
100
AcDbEntity
  8
1
  6
solid
 62
     0
100
AcDbSpline
210
0.0
220
0.0
230
1.0
 70
     8
 71
     2
 72
     7
 73
     4
 74
     0
 42
0.0000000001
 43
0.0000000001
 40
0.0
 40
0.0
 40
0.0
 40
1.0
 40
2.0
 40
2.0
 40
2.0
 10
0.1179161439452044
 20
0.0941096501604451
 30
0.0
 10
0.1279417253405532
 20
0.0941096501604451
 30
0.0
 10
0.1401326555731114
 20
0.0821419757418405
 30
0.0
 10
0.1401326555731114
 20
0.0738203478348637
 30
0.0
  0
SPLINE
  5
51
330
A
100
AcDbEntity
  8
1
  6
solid
 62
     0
100
AcDbSpline
210
0.0
220
0.0
230
1.0
 70
     8
 71
     2
 72
     8
 73
     5
 74
     0
 42
0.0000000001
 43
0.0000000001
 40
0.0
 40
0.0
 40
0.0
 40
1.0
 40
2.0
 40
3.0
 40
3.0
 40
3.0
 10
0.1401326555731114
 20
0.0738203478348637
 30
0.0
 10
0.1401326555731114
 20
0.0676740687650963
 30
0.0
 10
0.1339119578986928
 20
0.05654220829998
 30
0.0
 10
0.1223287020847393
 20
0.0505049989976544
 30
0.0
 10
0.1134514927824137
 20
0.0505049989976544
 30
0.0
  0
SPLINE
  5
52
330
A
100
AcDbEntity
  8
1
  6
solid
 62
     0
100
AcDbSpline
210
0.0
220
0.0
230
1.0
 70
     8
 71
     2
 72
     9
 73
     6
 74
     0
 42
0.0000000001
 43
0.0000000001
 40
0.0
 40
0.0
 40
0.0
 40
1.0
 40
2.0
 40
3.0
 40
4.0
 40
4.0
 40
4.0
 10
0.1134514927824137
 20
0.0505049989976544
 30
0.0
 10
0.1071563765033439
 20
0.0505049989976544
 30
0.0
 10
0.0983461439452044
 20
0.0528340687650963
 30
0.0
 10
0.0922270741777625
 20
0.0574996501604451
 30
0.0
 10
0.0881791672010183
 20
0.0637352315557939
 30
0.0
 10
0.087080329991716
 20
0.068978719927887
 30
0.0
  0
LINE
  5
53
330
A
100
AcDbEntity
  8
1
  6
solid
 62
     0
100
AcDbLine
 10
0.08708
 20
0.068979
 30
0.0
 11
0.105606
 21
0.070854
 31
0.0
  0
SPLINE
  5
54
330
A
100
AcDbEntity
  8
1
  6
solid
 62
     0
100
AcDbSpline
210
0.0
220
0.0
230
1.0
 70
     8
 71
     2
 72
     7
 73
     4
 74
     0
 42
0.0000000001
 43
0.0000000001
 40
0.0
 40
0.0
 40
0.0
 40
1.0
 40
2.0
 40
2.0
 40
2.0
 10
0.1056061439452044
 20
0.0708538362069567
 30
0.0
 10
0.1063775392940416
 20
0.0666347664395149
 30
0.0
 10
0.1105519578986928
 20
0.0635863943464916
 30
0.0
 10
0.1133175392940416
 20
0.0635863943464916
 30
0.0
  0
SPLINE
  5
55
330
A
100
AcDbEntity
  8
1
  6
solid
 62
     0
100
AcDbSpline
210
0.0
220
0.0
230
1.0
 70
     8
 71
     2
 72
     7
 73
     4
 74
     0
 42
0.0000000001
 43
0.0000000001
 40
0.0
 40
0.0
 40
0.0
 40
1.0
 40
2.0
 40
2.0
 40
2.0
 10
0.1133175392940416
 20
0.0635863943464916
 30
0.0
 10
0.1165742834800881
 20
0.0635863943464916
 30
0.0
 10
0.1212373067359021
 20
0.0676889524860265
 30
0.0
 10
0.1212373067359021
 20
0.0723594176023056
 30
0.0
  0
SPLINE
  5
56
330
A
100
AcDbEntity
  8
1
  6
solid
 62
     0
100
AcDbSpline
210
0.0
220
0.0
230
1.0
 70
     8
 71
     2
 72
     7
 73
     4
 74
     0
 42
0.0000000001
 43
0.0000000001
 40
0.0
 40
0.0
 40
0.0
 40
1.0
 40
2.0
 40
2.0
 40
2.0
 10
0.1212373067359021
 20
0.0723594176023056
 30
0.0
 10
0.1212373067359021
 20
0.0768315106255614
 30
0.0
 10
0.1168842834800881
 20
0.0810282548116079
 30
0.0
 10
0.1129777718521811
 20
0.0810282548116079
 30
0.0
  0
SPLINE
  5
57
330
A
100
AcDbEntity
  8
1
  6
solid
 62
     0
100
AcDbSpline
210
0.0
220
0.0
230
1.0
 70
     8
 71
     2
 72
     6
 73
     3
 74
     0
 42
0.0000000001
 43
0.0000000001
 40
0.0
 40
0.0
 40
0.0
 40
1.0
 40
1.0
 40
1.0
 10
0.1129777718521811
 20
0.0810282548116079
 30
0.0
 10
0.111129864875437
 20
0.0810282548116079
 30
0.0
 10
0.1089124230149718
 20
0.0798575571371893
 30
0.0
  0
SPLINE
  5
58
330
A
100
AcDbEntity
  8
1
  6
solid
 62
     0
100
AcDbSpline
210
0.0
220
0.0
230
1.0
 70
     8
 71
     2
 72
     6
 73
     3
 74
     0
 42
0.0000000001
 43
0.0000000001
 40
0.0
 40
0.0
 40
0.0
 40
1.0
 40
1.0
 40
1.0
 10
0.1089124230149718
 20
0.0798575571371893
 30
0.0
 10
0.1075928881312509
 20
0.0792498827185846
 30
0.0
 10
0.1049687020847393
 20
0.0769729059743986
 30
0.0
  0
LINE
  5
59
330
A
100
AcDbEntity
  8
1
  6
solid
 62
     0
100
AcDbLine
 10
0.104969
 20
0.076973
 30
0.0
 11
0.089261
 21
0.079004
 31
0.0
  0
LINE
  5
5A
330
A
100
AcDbEntity
  8
1
  6
solid
 62
     0
100
AcDbLine
 10
0.094407
 20
0.113732
 30
0.0
 11
0.089261
 21
0.079004
 31
0.0
  0
LINE
  5
5B
330
A
100
AcDbEntity
  8
1
  6
solid
 62
     0
100
AcDbLine
 10
0.166051
 20
0.114458
 30
0.0
 11
0.176795
 21
0.114458
 31
0.0
  0
LINE
  5
5C
330
A
100
AcDbEntity
  8
1
  6
solid
 62
     0
100
AcDbLine
 10
0.176795
 20
0.114458
 30
0.0
 11
0.161105
 21
0.050505
 31
0.0
  0
LINE
  5
5D
330
A
100
AcDbEntity
  8
1
  6
solid
 62
     0
100
AcDbLine
 10
0.161105
 20
0.050505
 30
0.0
 11
0.150633
 21
0.050505
 31
0.0
  0
LINE
  5
5E
330
A
100
AcDbEntity
  8
1
  6
solid
 62
     0
100
AcDbLine
 10
0.166051
 20
0.114458
 30
0.0
 11
0.150633
 21
0.050505
 31
0.0
  0
LINE
  5
5F
330
A
100
AcDbEntity
  8
1
  6
solid
 62
     0
100
AcDbLine
 10
0.225086
 20
0.114458
 30
0.0
 11
0.225086
 21
0.051232
 31
0.0
  0
LINE
  5
60
330
A
100
AcDbEntity
  8
1
  6
solid
 62
     0
100
AcDbLine
 10
0.225086
 20
0.051232
 30
0.0
 11
0.205464
 21
0.051232
 31
0.0
  0
LINE
  5
61
330
A
100
AcDbEntity
  8
1
  6
solid
 62
     0
100
AcDbLine
 10
0.205464
 20
0.051232
 30
0.0
 11
0.205464
 21
0.091982
 31
0.0
  0
SPLINE
  5
62
330
A
100
AcDbEntity
  8
1
  6
solid
 62
     0
100
AcDbSpline
210
0.0
220
0.0
230
1.0
 70
     8
 71
     2
 72
     7
 73
     4
 74
     0
 42
0.0000000001
 43
0.0000000001
 40
0.0
 40
0.0
 40
0.0
 40
1.0
 40
2.0
 40
2.0
 40
2.0
 10
0.2054640509219486
 20
0.0919815106255614
 30
0.0
 10
0.202839864875437
 20
0.0890894176023056
 30
0.0
 10
0.194696841619623
 20
0.08495220829998
 30
0.0
 10
0.1872954462707858
 20
0.0832084873697474
 30
0.0
  0
LINE
  5
63
330
A
100
AcDbEntity
  8
1
  6
solid
 62
     0
100
AcDbLine
 10
0.187295
 20
0.083208
 30
0.0
 11
0.187295
 21
0.098093
 31
0.0
  0
SPLINE
  5
64
330
A
100
AcDbEntity
  8
1
  6
solid
 62
     0
100
AcDbSpline
210
0.0
220
0.0
230
1.0
 70
     8
 71
     2
 72
     7
 73
     4
 74
     0
 42
0.0000000001
 43
0.0000000001
 40
0.0
 40
0.0
 40
0.0
 40
1.0
 40
2.0
 40
2.0
 40
2.0
 10
0.1872954462707858
 20
0.0980931385325381
 30
0.0
 10
0.196343818363809
 20
0.1009629059743986
 30
0.0
 10
0.2058287020847393
 20
0.1083568594627707
 30
0.0
 10
0.2087282369684602
 20
0.1144584873697474
 30
0.0
  0
LINE
  5
65
330
A
100
AcDbEntity
  8
1
  6
solid
 62
     0
100
AcDbLine
 10
0.225086
 20
0.114458
 30
0.0
 11
0.208728
 21
0.114458
 31
0.0
  0
LINE
  5
66
330
A
100
AcDbEntity
  8
1
  6
solid
 62
     0
100
AcDbLine
 10
0.287185
 20
0.097396
 30
0.0
 11
0.268394
 21
0.095563
 31
0.0
  0
SPLINE
  5
67
330
A
100
AcDbEntity
  8
1
  6
solid
 62
     0
100
AcDbSpline
210
0.0
220
0.0
230
1.0
 70
     8
 71
     2
 72
     7
 73
     4
 74
     0
 42
0.0000000001
 43
0.0000000001
 40
0.0
 40
0.0
 40
0.0
 40
1.0
 40
2.0
 40
2.0
 40
2.0
 10
0.268393818363809
 20
0.0955631385325381
 30
0.0
 10
0.2676149811545067
 20
0.0988570920209102
 30
0.0
 10
0.2646856788289253
 20
0.1013770920209102
 30
0.0
 10
0.2624980044103207
 20
0.1013770920209102
 30
0.0
  0
SPLINE
  5
68
330
A
100
AcDbEntity
  8
1
  6
solid
 62
     0
100
AcDbSpline
210
0.0
220
0.0
230
1.0
 70
     8
 71
     2
 72
     6
 73
     3
 74
     0
 42
0.0000000001
 43
0.0000000001
 40
0.0
 40
0.0
 40
0.0
 40
1.0
 40
1.0
 40
1.0
 10
0.2624980044103207
 20
0.1013770920209102
 30
0.0
 10
0.2590428881312508
 20
0.1013770920209102
 30
0.0
 10
0.2568105625498555
 20
0.0973961617883521
 30
0.0
  0
SPLINE
  5
69
330
A
100
AcDbEntity
  8
1
  6
solid
 62
     0
100
AcDbSpline
210
0.0
220
0.0
230
1.0
 70
     8
 71
     2
 72
     6
 73
     3
 74
     0
 42
0.0000000001
 43
0.0000000001
 40
0.0
 40
0.0
 40
0.0
 40
1.0
 40
1.0
 40
1.0
 10
0.2568105625498555
 20
0.0973961617883521
 30
0.0
 10
0.2552752137126462
 20
0.094925696672073
 30
0.0
 10
0.2544814927824137
 20
0.0857682548116079
 30
0.0
  0
SPLINE
  5
6A
330
A
100
AcDbEntity
  8
1
  6
solid
 62
     0
100
AcDbSpline
210
0.0
220
0.0
230
1.0
 70
     8
 71
     2
 72
     7
 73
     4
 74
     0
 42
0.0000000001
 43
0.0000000001
 40
0.0
 40
0.0
 40
0.0
 40
1.0
 40
2.0
 40
2.0
 40
2.0
 10
0.2544814927824137
 20
0.0857682548116079
 30
0.0
 10
0.2555356788289253
 20
0.0891712780674219
 30
0.0
 10
0.2625724230149718
 20
0.0926561617883521
 30
0.0
 10
0.2670221904568323
 20
0.0926561617883521
 30
0.0
  0
SPLINE
  5
6B
330
A
100
AcDbEntity
  8
1
  6
solid
 62
     0
100
AcDbSpline
210
0.0
220
0.0
230
1.0
 70
     8
 71
     2
 72
     7
 73
     4
 74
     0
 42
0.0000000001
 43
0.0000000001
 40
0.0
 40
0.0
 40
0.0
 40
1.0
 40
2.0
 40
2.0
 40
2.0
 10
0.2670221904568323
 20
0.0926561617883521
 30
0.0
 10
0.2763135858056695
 20
0.0926561617883521
 30
0.0
 10
0.2886384695265997
 20
0.0805173245790498
 30
0.0
 10
0.2886384695265997
 20
0.0717517431837009
 30
0.0
  0
SPLINE
  5
6C
330
A
100
AcDbEntity
  8
1
  6
solid
 62
     0
100
AcDbSpline
210
0.0
220
0.0
230
1.0
 70
     8
 71
     2
 72
     8
 73
     5
 74
     0
 42
0.0000000001
 43
0.0000000001
 40
0.0
 40
0.0
 40
0.0
 40
1.0
 40
2.0
 40
3.0
 40
3.0
 40
3.0
 10
0.2886384695265997
 20
0.0717517431837009
 30
0.0
 10
0.2886384695265997
 20
0.0658708129511428
 30
0.0
 10
0.282477306735902
 20
0.0557782548116079
 30
0.0
 10
0.2715091672010183
 20
0.0505049989976544
 30
0.0
 10
0.2633810276661346
 20
0.0505049989976544
 30
0.0
  0
SPLINE
  5
6D
330
A
100
AcDbEntity
  8
1
  6
solid
 62
     0
100
AcDbSpline
210
0.0
220
0.0
230
1.0
 70
     8
 71
     2
 72
     8
 73
     5
 74
     0
 42
0.0000000001
 43
0.0000000001
 40
0.0
 40
0.0
 40
0.0
 40
1.0
 40
2.0
 40
3.0
 40
3.0
 40
3.0
 10
0.2633810276661346
 20
0.0505049989976544
 30
0.0
 10
0.2539184695265997
 20
0.0505049989976544
 30
0.0
 10
0.2423426555731113
 20
0.0566910455092823
 30
0.0
 10
0.2355861439452044
 20
0.0705661617883521
 30
0.0
 10
0.2355861439452044
 20
0.0820154641139335
 30
0.0
  0
SPLINE
  5
6E
330
A
100
AcDbEntity
  8
1
  6
solid
 62
     0
100
AcDbSpline
210
0.0
220
0.0
230
1.0
 70
     8
 71
     2
 72
     7
 73
     4
 74
     0
 42
0.0000000001
 43
0.0000000001
 40
0.0
 40
0.0
 40
0.0
 40
1.0
 40
2.0
 40
2.0
 40
2.0
 10
0.2355861439452044
 20
0.0820154641139335
 30
0.0
 10
0.2355861439452044
 20
0.0986933710906777
 30
0.0
 10
0.2497961439452044
 20
0.1144584873697474
 30
0.0
 10
0.2626617253405532
 20
0.1144584873697474
 30
0.0
  0
SPLINE
  5
6F
330
A
100
AcDbEntity
  8
1
  6
solid
 62
     0
100
AcDbSpline
210
0.0
220
0.0
230
1.0
 70
     8
 71
     2
 72
     8
 73
     5
 74
     0
 42
0.0000000001
 43
0.0000000001
 40
0.0
 40
0.0
 40
0.0
 40
1.0
 40
2.0
 40
3.0
 40
3.0
 40
3.0
 10
0.2626617253405532
 20
0.1144584873697474
 30
0.0
 10
0.2705070741777625
 20
0.1144584873697474
 30
0.0
 10
0.2795777718521811
 20
0.1104254641139335
 30
0.0
 10
0.2854512602242741
 20
0.1032249989976544
 30
0.0
 10
0.2871849811545067
 20
0.0973961617883521
 30
0.0
  0
SPLINE
  5
70
330
A
100
AcDbEntity
  8
1
  6
solid
 62
     0
100
AcDbSpline
210
0.0
220
0.0
230
1.0
 70
     8
 71
     2
 72
     7
 73
     4
 74
     0
 42
0.0000000001
 43
0.0000000001
 40
0.0
 40
0.0
 40
0.0
 40
1.0
 40
2.0
 40
2.0
 40
2.0
 10
0.2548759113870648
 20
0.0717070920209102
 30
0.0
 10
0.2548759113870648
 20
0.0675177896953288
 30
0.0
 10
0.2592810276661346
 20
0.0635863943464916
 30
0.0
 10
0.262210329991716
 20
0.0635863943464916
 30
0.0
  0
SPLINE
  5
71
330
A
100
AcDbEntity
  8
1
  6
solid
 62
     0
100
AcDbSpline
210
0.0
220
0.0
230
1.0
 70
     8
 71
     2
 72
     7
 73
     4
 74
     0
 42
0.0000000001
 43
0.0000000001
 40
0.0
 40
0.0
 40
0.0
 40
1.0
 40
2.0
 40
2.0
 40
2.0
 10
0.262210329991716
 20
0.0635863943464916
 30
0.0
 10
0.2655166090614834
 20
0.0635863943464916
 30
0.0
 10
0.2697431206893904
 20
0.0673689524860265
 30
0.0
 10
0.2697431206893904
 20
0.0712036036488172
 30
0.0
  0
SPLINE
  5
72
330
A
100
AcDbEntity
  8
1
  6
solid
 62
     0
100
AcDbSpline
210
0.0
220
0.0
230
1.0
 70
     8
 71
     2
 72
     7
 73
     4
 74
     0
 42
0.0000000001
 43
0.0000000001
 40
0.0
 40
0.0
 40
0.0
 40
1.0
 40
2.0
 40
2.0
 40
2.0
 10
0.2697431206893904
 20
0.0712036036488172
 30
0.0
 10
0.2697431206893904
 20
0.0753408129511428
 30
0.0
 10
0.2653900974335765
 20
0.0795747664395149
 30
0.0
 10
0.262016841619623
 20
0.0795747664395149
 30
0.0
  0
SPLINE
  5
73
330
A
100
AcDbEntity
  8
1
  6
solid
 62
     0
100
AcDbSpline
210
0.0
220
0.0
230
1.0
 70
     8
 71
     2
 72
     7
 73
     4
 74
     0
 42
0.0000000001
 43
0.0000000001
 40
0.0
 40
0.0
 40
0.0
 40
1.0
 40
2.0
 40
2.0
 40
2.0
 10
0.262016841619623
 20
0.0795747664395149
 30
0.0
 10
0.2591321904568323
 20
0.0795747664395149
 30
0.0
 10
0.2548759113870648
 20
0.0755938362069567
 30
0.0
 10
0.2548759113870648
 20
0.0717070920209102
 30
0.0
  0
LINE
  5
74
330
A
100
AcDbEntity
  8
1
  6
solid
 62
     0
100
AcDbLine
 10
0.312545
 20
0.113732
 30
0.0
 11
0.334549
 21
0.113732
 31
0.0
  0
LINE
  5
75
330
A
100
AcDbEntity
  8
1
  6
solid
 62
     0
100
AcDbLine
 10
0.334549
 20
0.113732
 30
0.0
 11
0.344731
 21
0.094911
 31
0.0
  0
LINE
  5
76
330
A
100
AcDbEntity
  8
1
  6
solid
 62
     0
100
AcDbLine
 10
0.344731
 20
0.094911
 30
0.0
 11
0.354898
 21
0.113732
 31
0.0
  0
LINE
  5
77
330
A
100
AcDbEntity
  8
1
  6
solid
 62
     0
100
AcDbLine
 10
0.354898
 20
0.113732
 30
0.0
 11
0.377226
 21
0.113732
 31
0.0
  0
LINE
  5
78
330
A
100
AcDbEntity
  8
1
  6
solid
 62
     0
100
AcDbLine
 10
0.377226
 20
0.113732
 30
0.0
 11
0.357953
 21
0.08335
 31
0.0
  0
LINE
  5
79
330
A
100
AcDbEntity
  8
1
  6
solid
 62
     0
100
AcDbLine
 10
0.357953
 20
0.08335
 30
0.0
 11
0.378679
 21
0.051232
 31
0.0
  0
LINE
  5
7A
330
A
100
AcDbEntity
  8
1
  6
solid
 62
     0
100
AcDbLine
 10
0.378679
 20
0.051232
 30
0.0
 11
0.356366
 21
0.051232
 31
0.0
  0
LINE
  5
7B
330
A
100
AcDbEntity
  8
1
  6
solid
 62
     0
100
AcDbLine
 10
0.356366
 20
0.051232
 30
0.0
 11
0.344227
 21
0.070596
 31
0.0
  0
LINE
  5
7C
330
A
100
AcDbEntity
  8
1
  6
solid
 62
     0
100
AcDbLine
 10
0.344227
 20
0.070596
 30
0.0
 11
0.332339
 21
0.051232
 31
0.0
  0
LINE
  5
7D
330
A
100
AcDbEntity
  8
1
  6
solid
 62
     0
100
AcDbLine
 10
0.332339
 20
0.051232
 30
0.0
 11
0.310365
 21
0.051232
 31
0.0
  0
LINE
  5
7E
330
A
100
AcDbEntity
  8
1
  6
solid
 62
     0
100
AcDbLine
 10
0.310365
 20
0.051232
 30
0.0
 11
0.331471
 21
0.083581
 31
0.0
  0
LINE
  5
7F
330
A
100
AcDbEntity
  8
1
  6
solid
 62
     0
100
AcDbLine
 10
0.312545
 20
0.113732
 30
0.0
 11
0.331471
 21
0.083581
 31
0.0
  0
LINE
  5
80
330
A
100
AcDbEntity
  8
1
  6
solid
 62
     0
100
AcDbLine
 10
0.407733
 20
0.113732
 30
0.0
 11
0.4505510000000001
 21
0.113732
 31
0.0
  0
LINE
  5
81
330
A
100
AcDbEntity
  8
1
  6
solid
 62
     0
100
AcDbLine
 10
0.4505510000000001
 20
0.113732
 30
0.0
 11
0.4505510000000001
 21
0.09847
 31
0.0
  0
LINE
  5
82
330
A
100
AcDbEntity
  8
1
  6
solid
 62
     0
100
AcDbLine
 10
0.4505510000000001
 20
0.09847
 30
0.0
 11
0.42261
 21
0.09847
 31
0.0
  0
LINE
  5
83
330
A
100
AcDbEntity
  8
1
  6
solid
 62
     0
100
AcDbLine
 10
0.42261
 20
0.09847
 30
0.0
 11
0.4216680000000001
 21
0.090922
 31
0.0
  0
SPLINE
  5
84
330
A
100
AcDbEntity
  8
1
  6
solid
 62
     0
100
AcDbSpline
210
0.0
220
0.0
230
1.0
 70
     8
 71
     2
 72
     7
 73
     4
 74
     0
 42
0.0000000001
 43
0.0000000001
 40
0.0
 40
0.0
 40
0.0
 40
1.0
 40
2.0
 40
2.0
 40
2.0
 10
0.4216675392940416
 20
0.0909224408581195
 30
0.0
 10
0.4226398648754369
 20
0.0923536036488172
 30
0.0
 10
0.4284091672010183
 20
0.0941096501604451
 30
0.0
 10
0.4312417253405532
 20
0.0941096501604451
 30
0.0
  0
SPLINE
  5
85
330
A
100
AcDbEntity
  8
1
  6
solid
 62
     0
100
AcDbSpline
210
0.0
220
0.0
230
1.0
 70
     8
 71
     2
 72
     7
 73
     4
 74
     0
 42
0.0000000001
 43
0.0000000001
 40
0.0
 40
0.0
 40
0.0
 40
1.0
 40
2.0
 40
2.0
 40
2.0
 10
0.4312417253405532
 20
0.0941096501604451
 30
0.0
 10
0.441267306735902
 20
0.0941096501604451
 30
0.0
 10
0.4534582369684602
 20
0.0821419757418405
 30
0.0
 10
0.4534582369684602
 20
0.0738203478348637
 30
0.0
  0
SPLINE
  5
86
330
A
100
AcDbEntity
  8
1
  6
solid
 62
     0
100
AcDbSpline
210
0.0
220
0.0
230
1.0
 70
     8
 71
     2
 72
     8
 73
     5
 74
     0
 42
0.0000000001
 43
0.0000000001
 40
0.0
 40
0.0
 40
0.0
 40
1.0
 40
2.0
 40
3.0
 40
3.0
 40
3.0
 10
0.4534582369684602
 20
0.0738203478348637
 30
0.0
 10
0.4534582369684602
 20
0.0676740687650963
 30
0.0
 10
0.4472375392940416
 20
0.05654220829998
 30
0.0
 10
0.4356542834800881
 20
0.0505049989976544
 30
0.0
 10
0.4267770741777625
 20
0.0505049989976544
 30
0.0
  0
SPLINE
  5
87
330
A
100
AcDbEntity
  8
1
  6
solid
 62
     0
100
AcDbSpline
210
0.0
220
0.0
230
1.0
 70
     8
 71
     2
 72
     9
 73
     6
 74
     0
 42
0.0000000001
 43
0.0000000001
 40
0.0
 40
0.0
 40
0.0
 40
1.0
 40
2.0
 40
3.0
 40
4.0
 40
4.0
 40
4.0
 10
0.4267770741777625
 20
0.0505049989976544
 30
0.0
 10
0.4204819578986927
 20
0.0505049989976544
 30
0.0
 10
0.4116717253405532
 20
0.0528340687650963
 30
0.0
 10
0.4055526555731113
 20
0.0574996501604451
 30
0.0
 10
0.4015047485963672
 20
0.0637352315557939
 30
0.0
 10
0.4004059113870648
 20
0.068978719927887
 30
0.0
  0
LINE
  5
88
330
A
100
AcDbEntity
  8
1
  6
solid
 62
     0
100
AcDbLine
 10
0.400406
 20
0.068979
 30
0.0
 11
0.418932
 21
0.070854
 31
0.0
  0
SPLINE
  5
89
330
A
100
AcDbEntity
  8
1
  6
solid
 62
     0
100
AcDbSpline
210
0.0
220
0.0
230
1.0
 70
     8
 71
     2
 72
     7
 73
     4
 74
     0
 42
0.0000000001
 43
0.0000000001
 40
0.0
 40
0.0
 40
0.0
 40
1.0
 40
2.0
 40
2.0
 40
2.0
 10
0.4189317253405532
 20
0.0708538362069567
 30
0.0
 10
0.4197031206893904
 20
0.0666347664395149
 30
0.0
 10
0.4238775392940416
 20
0.0635863943464916
 30
0.0
 10
0.4266431206893905
 20
0.0635863943464916
 30
0.0
  0
SPLINE
  5
8A
330
A
100
AcDbEntity
  8
1
  6
solid
 62
     0
100
AcDbSpline
210
0.0
220
0.0
230
1.0
 70
     8
 71
     2
 72
     7
 73
     4
 74
     0
 42
0.0000000001
 43
0.0000000001
 40
0.0
 40
0.0
 40
0.0
 40
1.0
 40
2.0
 40
2.0
 40
2.0
 10
0.4266431206893905
 20
0.0635863943464916
 30
0.0
 10
0.429899864875437
 20
0.0635863943464916
 30
0.0
 10
0.4345628881312509
 20
0.0676889524860265
 30
0.0
 10
0.4345628881312509
 20
0.0723594176023056
 30
0.0
  0
SPLINE
  5
8B
330
A
100
AcDbEntity
  8
1
  6
solid
 62
     0
100
AcDbSpline
210
0.0
220
0.0
230
1.0
 70
     8
 71
     2
 72
     7
 73
     4
 74
     0
 42
0.0000000001
 43
0.0000000001
 40
0.0
 40
0.0
 40
0.0
 40
1.0
 40
2.0
 40
2.0
 40
2.0
 10
0.4345628881312509
 20
0.0723594176023056
 30
0.0
 10
0.4345628881312509
 20
0.0768315106255614
 30
0.0
 10
0.4302098648754369
 20
0.0810282548116079
 30
0.0
 10
0.4263033532475299
 20
0.0810282548116079
 30
0.0
  0
SPLINE
  5
8C
330
A
100
AcDbEntity
  8
1
  6
solid
 62
     0
100
AcDbSpline
210
0.0
220
0.0
230
1.0
 70
     8
 71
     2
 72
     6
 73
     3
 74
     0
 42
0.0000000001
 43
0.0000000001
 40
0.0
 40
0.0
 40
0.0
 40
1.0
 40
1.0
 40
1.0
 10
0.4263033532475299
 20
0.0810282548116079
 30
0.0
 10
0.4244554462707857
 20
0.0810282548116079
 30
0.0
 10
0.4222380044103206
 20
0.0798575571371893
 30
0.0
  0
SPLINE
  5
8D
330
A
100
AcDbEntity
  8
1
  6
solid
 62
     0
100
AcDbSpline
210
0.0
220
0.0
230
1.0
 70
     8
 71
     2
 72
     6
 73
     3
 74
     0
 42
0.0000000001
 43
0.0000000001
 40
0.0
 40
0.0
 40
0.0
 40
1.0
 40
1.0
 40
1.0
 10
0.4222380044103206
 20
0.0798575571371893
 30
0.0
 10
0.4209184695265998
 20
0.0792498827185846
 30
0.0
 10
0.4182942834800882
 20
0.0769729059743986
 30
0.0
  0
LINE
  5
8E
330
A
100
AcDbEntity
  8
1
  6
solid
 62
     0
100
AcDbLine
 10
0.4182940000000001
 20
0.076973
 30
0.0
 11
0.402586
 21
0.079004
 31
0.0
  0
LINE
  5
8F
330
A
100
AcDbEntity
  8
1
  6
solid
 62
     0
100
AcDbLine
 10
0.407733
 20
0.113732
 30
0.0
 11
0.402586
 21
0.079004
 31
0.0
  0
LINE
  5
90
330
A
100
AcDbEntity
  8
1
  6
solid
 62
     0
100
AcDbLine
 10
0.4793760000000001
 20
0.114458
 30
0.0
 11
0.4901210000000001
 21
0.114458
 31
0.0
  0
LINE
  5
91
330
A
100
AcDbEntity
  8
1
  6
solid
 62
     0
100
AcDbLine
 10
0.4901210000000001
 20
0.114458
 30
0.0
 11
0.47443
 21
0.050505
 31
0.0
  0
LINE
  5
92
330
A
100
AcDbEntity
  8
1
  6
solid
 62
     0
100
AcDbLine
 10
0.47443
 20
0.050505
 30
0.0
 11
0.463958
 21
0.050505
 31
0.0
  0
LINE
  5
93
330
A
100
AcDbEntity
  8
1
  6
solid
 62
     0
100
AcDbLine
 10
0.4793760000000001
 20
0.114458
 30
0.0
 11
0.463958
 21
0.050505
 31
0.0
  0
SPLINE
  5
94
330
A
100
AcDbEntity
  8
1
  6
solid
 62
     0
100
AcDbSpline
210
0.0
220
0.0
230
1.0
 70
     8
 71
     2
 72
     6
 73
     3
 74
     0
 42
0.0000000001
 43
0.0000000001
 40
0.0
 40
0.0
 40
0.0
 40
1.0
 40
1.0
 40
1.0
 10
0.5104854462707858
 20
0.0847661617883521
 30
0.0
 10
0.5068889346428788
 20
0.0862047664395149
 30
0.0
 10
0.5051824230149718
 20
0.0887570920209102
 30
0.0
  0
SPLINE
  5
95
330
A
100
AcDbEntity
  8
1
  6
solid
 62
     0
100
AcDbSpline
210
0.0
220
0.0
230
1.0
 70
     8
 71
     2
 72
     6
 73
     3
 74
     0
 42
0.0000000001
 43
0.0000000001
 40
0.0
 40
0.0
 40
0.0
 40
1.0
 40
1.0
 40
1.0
 10
0.5051824230149718
 20
0.0887570920209102
 30
0.0
 10
0.5028012602242741
 20
0.0927008129511428
 30
0.0
 10
0.5028012602242741
 20
0.097388719927887
 30
0.0
  0
SPLINE
  5
96
330
A
100
AcDbEntity
  8
1
  6
solid
 62
     0
100
AcDbSpline
210
0.0
220
0.0
230
1.0
 70
     8
 71
     2
 72
     6
 73
     3
 74
     0
 42
0.0000000001
 43
0.0000000001
 40
0.0
 40
0.0
 40
0.0
 40
1.0
 40
1.0
 40
1.0
 10
0.5028012602242741
 20
0.097388719927887
 30
0.0
 10
0.5028012602242741
 20
0.1053754641139335
 30
0.0
 10
0.5102100974335765
 20
0.1104403478348637
 30
0.0
  0
SPLINE
  5
97
330
A
100
AcDbEntity
  8
1
  6
solid
 62
     0
100
AcDbSpline
210
0.0
220
0.0
230
1.0
 70
     8
 71
     2
 72
     6
 73
     3
 74
     0
 42
0.0000000001
 43
0.0000000001
 40
0.0
 40
0.0
 40
0.0
 40
1.0
 40
1.0
 40
1.0
 10
0.5102100974335765
 20
0.1104403478348637
 30
0.0
 10
0.5160017253405532
 20
0.1144584873697474
 30
0.0
 10
0.5254345160382277
 20
0.1144584873697474
 30
0.0
  0
SPLINE
  5
98
330
A
100
AcDbEntity
  8
1
  6
solid
 62
     0
100
AcDbSpline
210
0.0
220
0.0
230
1.0
 70
     8
 71
     2
 72
     7
 73
     4
 74
     0
 42
0.0000000001
 43
0.0000000001
 40
0.0
 40
0.0
 40
0.0
 40
1.0
 40
2.0
 40
2.0
 40
2.0
 10
0.5254345160382277
 20
0.1144584873697474
 30
0.0
 10
0.5381240509219485
 20
0.1144584873697474
 30
0.0
 10
0.550766376503344
 20
0.1044924408581195
 30
0.0
 10
0.550766376503344
 20
0.0973068594627707
 30
0.0
  0
SPLINE
  5
99
330
A
100
AcDbEntity
  8
1
  6
solid
 62
     0
100
AcDbSpline
210
0.0
220
0.0
230
1.0
 70
     8
 71
     2
 72
     6
 73
     3
 74
     0
 42
0.0000000001
 43
0.0000000001
 40
0.0
 40
0.0
 40
0.0
 40
1.0
 40
1.0
 40
1.0
 10
0.550766376503344
 20
0.0973068594627707
 30
0.0
 10
0.550766376503344
 20
0.0931175571371893
 30
0.0
 10
0.5481570741777625
 20
0.0892977896953288
 30
0.0
  0
SPLINE
  5
9A
330
A
100
AcDbEntity
  8
1
  6
solid
 62
     0
100
AcDbSpline
210
0.0
220
0.0
230
1.0
 70
     8
 71
     2
 72
     6
 73
     3
 74
     0
 42
0.0000000001
 43
0.0000000001
 40
0.0
 40
0.0
 40
0.0
 40
1.0
 40
1.0
 40
1.0
 10
0.5481570741777625
 20
0.0892977896953288
 30
0.0
 10
0.5466142834800881
 20
0.0868868594627707
 30
0.0
 10
0.5431219578986927
 20
0.0847438362069567
 30
0.0
  0
SPLINE
  5
9B
330
A
100
AcDbEntity
  8
1
  6
solid
 62
     0
100
AcDbSpline
210
0.0
220
0.0
230
1.0
 70
     8
 71
     2
 72
     7
 73
     4
 74
     0
 42
0.0000000001
 43
0.0000000001
 40
0.0
 40
0.0
 40
0.0
 40
1.0
 40
2.0
 40
2.0
 40
2.0
 10
0.5431219578986927
 20
0.0847438362069567
 30
0.0
 10
0.5479263765033439
 20
0.0826231385325381
 30
0.0
 10
0.5529466090614834
 20
0.0745768594627707
 30
0.0
 10
0.5529466090614834
 20
0.0697426734162591
 30
0.0
  0
SPLINE
  5
9C
330
A
100
AcDbEntity
  8
1
  6
solid
 62
     0
100
AcDbSpline
210
0.0
220
0.0
230
1.0
 70
     8
 71
     2
 72
     9
 73
     6
 74
     0
 42
0.0000000001
 43
0.0000000001
 40
0.0
 40
0.0
 40
0.0
 40
1.0
 40
2.0
 40
3.0
 40
4.0
 40
4.0
 40
4.0
 10
0.5529466090614834
 20
0.0697426734162591
 30
0.0
 10
0.5529466090614834
 20
0.0652631385325381
 30
0.0
 10
0.5485935858056696
 20
0.0572019757418405
 30
0.0
 10
0.5417205625498556
 20
0.0524124408581195
 30
0.0
 10
0.5320942834800882
 20
0.0505049989976544
 30
0.0
 10
0.5265110276661347
 20
0.0505049989976544
 30
0.0
  0
SPLINE
  5
9D
330
A
100
AcDbEntity
  8
1
  6
solid
 62
     0
100
AcDbSpline
210
0.0
220
0.0
230
1.0
 70
     8
 71
     2
 72
     8
 73
     5
 74
     0
 42
0.0000000001
 43
0.0000000001
 40
0.0
 40
0.0
 40
0.0
 40
1.0
 40
2.0
 40
3.0
 40
3.0
 40
3.0
 10
0.5265110276661347
 20
0.0505049989976544
 30
0.0
 10
0.5167582369684602
 20
0.0505049989976544
 30
0.0
 10
0.5060282369684601
 20
0.0550812780674218
 30
0.0
 10
0.5006210276661346
 20
0.0643354641139335
 30
0.0
 10
0.5006210276661346
 20
0.0697947664395149
 30
0.0
  0
SPLINE
  5
9E
330
A
100
AcDbEntity
  8
1
  6
solid
 62
     0
100
AcDbSpline
210
0.0
220
0.0
230
1.0
 70
     8
 71
     2
 72
     7
 73
     4
 74
     0
 42
0.0000000001
 43
0.0000000001
 40
0.0
 40
0.0
 40
0.0
 40
1.0
 40
2.0
 40
2.0
 40
2.0
 10
0.5006210276661346
 20
0.0697947664395149
 30
0.0
 10
0.5006210276661346
 20
0.0754301152767242
 30
0.0
 10
0.5057677718521811
 20
0.0832531385325381
 30
0.0
 10
0.5104854462707858
 20
0.0847661617883521
 30
0.0
  0
SPLINE
  5
9F
330
A
100
AcDbEntity
  8
1
  6
solid
 62
     0
100
AcDbSpline
210
0.0
220
0.0
230
1.0
 70
     8
 71
     2
 72
     7
 73
     4
 74
     0
 42
0.0000000001
 43
0.0000000001
 40
0.0
 40
0.0
 40
0.0
 40
1.0
 40
2.0
 40
2.0
 40
2.0
 10
0.5216966090614834
 20
0.0958236036488172
 30
0.0
 10
0.5216966090614834
 20
0.093035696672073
 30
0.0
 10
0.5243084695265998
 20
0.0904759292302125
 30
0.0
 10
0.526466376503344
 20
0.0904759292302125
 30
0.0
  0
SPLINE
  5
A0
330
A
100
AcDbEntity
  8
1
  6
solid
 62
     0
100
AcDbSpline
210
0.0
220
0.0
230
1.0
 70
     8
 71
     2
 72
     7
 73
     4
 74
     0
 42
0.0000000001
 43
0.0000000001
 40
0.0
 40
0.0
 40
0.0
 40
1.0
 40
2.0
 40
2.0
 40
2.0
 10
0.526466376503344
 20
0.0904759292302125
 30
0.0
 10
0.5289714927824138
 20
0.0904759292302125
 30
0.0
 10
0.5318710276661346
 20
0.093405231555794
 30
0.0
 10
0.5318710276661346
 20
0.0957268594627707
 30
0.0
  0
SPLINE
  5
A1
330
A
100
AcDbEntity
  8
1
  6
solid
 62
     0
100
AcDbSpline
210
0.0
220
0.0
230
1.0
 70
     8
 71
     2
 72
     7
 73
     4
 74
     0
 42
0.0000000001
 43
0.0000000001
 40
0.0
 40
0.0
 40
0.0
 40
1.0
 40
2.0
 40
2.0
 40
2.0
 10
0.5318710276661346
 20
0.0957268594627707
 30
0.0
 10
0.5318710276661346
 20
0.0981005803930032
 30
0.0
 10
0.5286093997591578
 20
0.1013770920209102
 30
0.0
 10
0.5262952137126462
 20
0.1013770920209102
 30
0.0
  0
SPLINE
  5
A2
330
A
100
AcDbEntity
  8
1
  6
solid
 62
     0
100
AcDbSpline
210
0.0
220
0.0
230
1.0
 70
     8
 71
     2
 72
     7
 73
     4
 74
     0
 42
0.0000000001
 43
0.0000000001
 40
0.0
 40
0.0
 40
0.0
 40
1.0
 40
2.0
 40
2.0
 40
2.0
 10
0.5262952137126462
 20
0.1013770920209102
 30
0.0
 10
0.5242861439452044
 20
0.1013770920209102
 30
0.0
 10
0.5216966090614834
 20
0.0985519757418405
 30
0.0
 10
0.5216966090614834
 20
0.0958236036488172
 30
0.0
  0
SPLINE
  5
A3
330
A
100
AcDbEntity
  8
1
  6
solid
 62
     0
100
AcDbSpline
210
0.0
220
0.0
230
1.0
 70
     8
 71
     2
 72
     7
 73
     4
 74
     0
 42
0.0000000001
 43
0.0000000001
 40
0.0
 40
0.0
 40
0.0
 40
1.0
 40
2.0
 40
2.0
 40
2.0
 10
0.519516376503344
 20
0.0710696501604451
 30
0.0
 10
0.519516376503344
 20
0.067465696672073
 30
0.0
 10
0.5239289346428789
 20
0.0635863943464916
 30
0.0
 10
0.5263696323172974
 20
0.0635863943464916
 30
0.0
  0
SPLINE
  5
A4
330
A
100
AcDbEntity
  8
1
  6
solid
 62
     0
100
AcDbSpline
210
0.0
220
0.0
230
1.0
 70
     8
 71
     2
 72
     7
 73
     4
 74
     0
 42
0.0000000001
 43
0.0000000001
 40
0.0
 40
0.0
 40
0.0
 40
1.0
 40
2.0
 40
2.0
 40
2.0
 10
0.5263696323172974
 20
0.0635863943464916
 30
0.0
 10
0.5292691672010184
 20
0.0635863943464916
 30
0.0
 10
0.5340512602242741
 20
0.067659185044166
 30
0.0
 10
0.5340512602242741
 20
0.0710919757418405
 30
0.0
  0
SPLINE
  5
A5
330
A
100
AcDbEntity
  8
1
  6
solid
 62
     0
100
AcDbSpline
210
0.0
220
0.0
230
1.0
 70
     8
 71
     2
 72
     7
 73
     4
 74
     0
 42
0.0000000001
 43
0.0000000001
 40
0.0
 40
0.0
 40
0.0
 40
1.0
 40
2.0
 40
2.0
 40
2.0
 10
0.5340512602242741
 20
0.0710919757418405
 30
0.0
 10
0.5340512602242741
 20
0.0745247664395149
 30
0.0
 10
0.5292319578986927
 20
0.0788480222534684
 30
0.0
 10
0.526220795107995
 20
0.0788480222534684
 30
0.0
  0
SPLINE
  5
A6
330
A
100
AcDbEntity
  8
1
  6
solid
 62
     0
100
AcDbSpline
210
0.0
220
0.0
230
1.0
 70
     8
 71
     2
 72
     7
 73
     4
 74
     0
 42
0.0000000001
 43
0.0000000001
 40
0.0
 40
0.0
 40
0.0
 40
1.0
 40
2.0
 40
2.0
 40
2.0
 10
0.526220795107995
 20
0.0788480222534684
 30
0.0
 10
0.5235593997591578
 20
0.0788480222534684
 30
0.0
 10
0.519516376503344
 20
0.0747777896953288
 30
0.0
 10
0.519516376503344
 20
0.0710696501604451
 30
0.0
  0
ARC
  5
A7
330
A
100
AcDbEntity
  8
1
  6
solid
 62
     0
100
AcDbCircle
 10
-0.6085097402042033
 20
0.0017209868616523
 30
0.0
 40
0.3125
100
AcDbArc
 50
0.0
 51
180.0
  0
LINE
  5
A8
330
A
100
AcDbEntity
  8
1
  6
solid
 62
     0
100
AcDbLine
 10
-0.9210097402042032
 20
0.0017209868616523
 30
0.0
 11
-0.2960097402042032
 21
0.0017209868616523
 31
0.0
  0
DIMENSION
  5
BF
330
A
100
AcDbEntity
  8
0
  6
solid
 62
     0
100
AcDbDimension
  2
*D1
 10
-0.6085097342729569
 20
-0.0636765138811367
 30
0.0
 11
-0.6085097342729569
 21
-0.0636765138811367
 31
0.0
 70
    33
 71
     5
 42
0.6249999701976777
  3
Standard
100
AcDbAlignedDimension
 13
-0.9210097193717956
 23
0.0017209869110957
 33
0.0
 14
-0.296009749174118
 24
0.0017209869110957
 34
0.0
1001
ACAD
1000
DSTYLE
1002
{
1070
    41
1040
0.0625
1070
    44
1040
0.03125
1070
    47
1040
0.0005
1070
    48
1040
0.0005
1070
    75
1070
     1
1070
    76
1070
     1
1070
   140
1040
0.0625
1070
   146
1040
0.5
1070
   174
1070
     1
1070
   270
1070
     5
1070
   271
1070
     3
1070
   272
1070
     3
1070
   277
1070
     5
1002
}
  0
LINE
  5
11D
330
A
100
AcDbEntity
  8
0
  6
solid
 62
     0
370
     0
100
AcDbLine
 10
-0.233509749174118
 20
0.0017209869110956
 30
0.0
 11
-0.1115919095171445
 21
0.0017209869110955
 31
0.0
  0
LINE
  5
11E
330
A
100
AcDbEntity
  8
0
  6
solid
 62
     0
370
     0
100
AcDbLine
 10
-0.4517342247819372
 20
0.3142209947109221
 30
0.0
 11
-0.1115919095171443
 21
0.3142209947109219
 31
0.0
  0
LINE
  5
11F
330
A
100
AcDbEntity
  8
0
  6
solid
 62
     0
370
     0
100
AcDbLine
 10
-0.1428419095171445
 20
0.0017209869110956
 30
0.0
 11
-0.1428419095171445
 21
0.0930178658110089
 31
0.0
  0
LINE
  5
120
330
A
100
AcDbEntity
  8
0
  6
solid
 62
     0
370
     0
100
AcDbLine
 10
-0.1428419095171443
 20
0.3142209947109219
 30
0.0
 11
-0.1428419095171444
 21
0.2229241158110089
 31
0.0
  0
MTEXT
  5
121
330
A
100
AcDbEntity
  8
0
  6
solid
 62
     0
370
     0
100
AcDbMText
 10
-0.1428419095171444
 20
0.1579709908110088
 30
0.0
 40
0.0625
 41
0.0
 71
     5
 72
     1
  1
{\H0.062500;5/16}
 73
     1
 44
1.0
  0
SOLID
  5
122
330
A
100
AcDbEntity
  8
0
  6
solid
 62
     0
370
     0
100
AcDbTrace
 10
-0.1532469095171444
 20
0.0642209869110956
 30
0.0
 11
-0.1324369095171444
 21
0.0642209869110956
 31
0.0
 12
-0.1428419095171445
 22
0.0017209869110956
 32
0.0
 13
-0.1428419095171445
 23
0.0017209869110956
 33
0.0
  0
SOLID
  5
123
330
A
100
AcDbEntity
  8
0
  6
solid
 62
     0
370
     0
100
AcDbTrace
 10
-0.1324369095171443
 20
0.2517209947109219
 30
0.0
 11
-0.1532469095171443
 21
0.2517209947109219
 31
0.0
 12
-0.1428419095171443
 22
0.3142209947109219
 32
0.0
 13
-0.1428419095171443
 23
0.3142209947109219
 33
0.0
  0
VIEWPORT
  5
DD
330
B
100
AcDbEntity
 67
     1
  8
0
  6
Continuous
370
     0
100
AcDbViewport
 10
5.169388207690268
 20
3.94216147168583
 30
0.0
 40
15.37685388186956
 41
8.135986097579632
 68
     1
 69
     1
 12
5.169388207690268
 22
3.94216147168583
 13
0.0
 23
0.0
 14
0.5
 24
0.5
 15
0.5
 25
0.5
 16
0.0
 26
0.0
 36
1.0
 17
0.0
 27
0.0
 37
0.0
 42
50.0
 43
0.0
 44
0.0
 45
8.135986097579632
 50
0.0
 51
0.0
 72
   100
 90
   819232
  1

281
     0
 71
     1
 74
     0
110
0.0
120
0.0
130
0.0
111
1.0
121
0.0
131
0.0
112
0.0
122
1.0
132
0.0
 79
     0
146
0.0
170
     0
  0
VIEWPORT
  5
E0
330
B
100
AcDbEntity
 67
     1
  8
0
  6
Continuous
370
     0
100
AcDbViewport
 10
5.169387952843273
 20
3.942299958916443
 30
0.0
 40
10.4485804378148
 41
8.04079979264155
 68
     2
 69
     2
 12
-0.1154184213013708
 22
0.121278069276195
 13
0.0
 23
0.0
 14
0.5
 24
0.5
 15
0.5
 25
0.5
 16
0.0
 26
0.0
 36
1.0
 17
0.0
 27
0.0
 37
0.0
 42
50.0
 43
0.0
 44
0.0
 45
1.584338794228632
 50
0.0
 51
0.0
 72
   100
 90
   819232
  1

281
     0
 71
     1
 74
     0
110
0.0
120
0.0
130
0.0
111
1.0
121
0.0
131
0.0
112
0.0
122
1.0
132
0.0
 79
     0
146
0.0
170
     0
  0
ENDSEC
  0
SECTION
  2
OBJECTS
  0
DICTIONARY
  5
19
330
0
100
AcDbDictionary
281
     1
  3
ACAD_COLOR
350
D6
  3
ACAD_GROUP
350
1A
  3
ACAD_LAYOUT
350
1E
  3
ACAD_MATERIAL
350
C1
  3
ACAD_MLEADERSTYLE
350
106
  3
ACAD_MLINESTYLE
350
1B
  3
ACAD_PLOTSETTINGS
350
22
  3
ACAD_PLOTSTYLENAME
350
1F
  3
ACAD_SCALELIST
350
E4
  3
ACAD_TABLESTYLE
350
D7
  3
ACAD_VISUALSTYLE
350
C5
  3
ACAD_WIPEOUT_VARS
350
23
  3
ACDB_RECOMPOSE_DATA
350
147
  3
AcDbVariableDictionary
350
E1
  3
ASE_INDEX_DICTIONARY
350
12E
  0
DICTIONARY
  5
10F
330
14
100
AcDbDictionary
280
     1
281
     1
  3
ADSK_XREC_LAYER_RECONCILED
360
110
  0
DICTIONARY
  5
111
330
27
100
AcDbDictionary
280
     1
281
     1
  3
ADSK_XREC_LAYER_RECONCILED
360
112
  0
DICTIONARY
  5
113
330
A9
100
AcDbDictionary
280
     1
281
     1
  3
ADSK_XREC_LAYER_RECONCILED
360
114
  0
DICTIONARY
  5
124
330
A
100
AcDbDictionary
280
     1
281
     1
  3
ACAD_SORTENTS
360
125
  0
DICTIONARY
  5
D6
102
{ACAD_REACTORS
330
19
102
}
330
19
100
AcDbDictionary
281
     1
  0
DICTIONARY
  5
1A
102
{ACAD_REACTORS
330
19
102
}
330
19
100
AcDbDictionary
281
     1
  0
DICTIONARY
  5
1E
102
{ACAD_REACTORS
330
19
102
}
330
19
100
AcDbDictionary
281
     1
  3
Layout1
350
21
  3
Model
350
20
  0
DICTIONARY
  5
C1
102
{ACAD_REACTORS
330
19
102
}
330
19
100
AcDbDictionary
281
     1
  3
ByBlock
350
C3
  3
ByLayer
350
C2
  3
Global
350
C4
  0
DICTIONARY
  5
106
102
{ACAD_REACTORS
330
19
102
}
330
19
100
AcDbDictionary
281
     1
  3
Standard
350
107
  0
DICTIONARY
  5
1B
102
{ACAD_REACTORS
330
19
102
}
330
19
100
AcDbDictionary
281
     1
  3
Standard
350
1C
  0
DICTIONARY
  5
22
102
{ACAD_REACTORS
330
19
102
}
330
19
100
AcDbDictionary
281
     1
  0
ACDBDICTIONARYWDFLT
  5
1F
102
{ACAD_REACTORS
330
19
102
}
330
19
100
AcDbDictionary
281
     1
  3
Normal
350
1D
100
AcDbDictionaryWithDefault
340
1D
  0
DICTIONARY
  5
E4
102
{ACAD_REACTORS
330
19
102
}
330
19
100
AcDbDictionary
281
     1
  3
A0
350
E5
  3
A1
350
E6
  3
A2
350
E7
  3
A3
350
E8
  3
A4
350
E9
  3
A5
350
EA
  3
A6
350
EB
  3
A7
350
EC
  3
A8
350
ED
  3
A9
350
EE
  3
B0
350
EF
  3
B1
350
F0
  3
B2
350
F1
  3
B3
350
F2
  3
B4
350
F3
  3
B5
350
F4
  3
B6
350
F5
  3
B7
350
F6
  3
B8
350
F7
  3
B9
350
F8
  3
C0
350
F9
  3
C1
350
FA
  3
C2
350
FB
  3
C3
350
FC
  3
C4
350
FD
  3
C5
350
FE
  3
C6
350
FF
  3
C7
350
100
  3
C8
350
101
  3
C9
350
102
  3
D0
350
103
  3
D1
350
104
  3
D2
350
105
  0
DICTIONARY
  5
D7
102
{ACAD_REACTORS
330
19
102
}
330
19
100
AcDbDictionary
281
     1
  3
Standard
350
D8
  0
DICTIONARY
  5
C5
102
{ACAD_REACTORS
330
19
102
}
330
19
100
AcDbDictionary
281
     1
  3
2dWireframe
350
CB
  3
3D Hidden
350
CD
  3
3dWireframe
350
CC
  3
Basic
350
CA
  3
Brighten
350
D1
  3
ColorChange
350
D5
  3
Conceptual
350
CE
  3
Dim
350
D0
  3
Facepattern
350
D4
  3
Flat
350
C6
  3
FlatWithEdges
350
C7
  3
Gouraud
350
C8
  3
GouraudWithEdges
350
C9
  3
Linepattern
350
D3
  3
Realistic
350
CF
  3
Thicken
350
D2
  0
WIPEOUTVARIABLES
  5
23
330
19
100
AcDbWipeoutVariables
 70
     1
  0
XRECORD
  5
147
102
{ACAD_REACTORS
330
19
102
}
330
19
100
AcDbXrecord
280
     1
 90
        1
330
D8
  0
DICTIONARY
  5
E1
102
{ACAD_REACTORS
330
19
102
}
330
19
100
AcDbDictionary
281
     1
  3
CANNOSCALE
350
144
  3
CMLEADERSTYLE
350
143
  3
CTABLESTYLE
350
E2
  0
DICTIONARY
  5
12E
102
{ACAD_REACTORS
330
19
102
}
330
19
100
AcDbDictionary
281
     1
  3
ASEBlockHierarchyIndexRecord
350
130
1001
DCO15
1040
1667666006.75
  0
XRECORD
  5
110
102
{ACAD_REACTORS
330
10F
102
}
330
10F
100
AcDbXrecord
280
     1
290
     1
  0
XRECORD
  5
112
102
{ACAD_REACTORS
330
111
102
}
330
111
100
AcDbXrecord
280
     1
290
     1
  0
XRECORD
  5
114
102
{ACAD_REACTORS
330
113
102
}
330
113
100
AcDbXrecord
280
     1
290
     1
  0
SORTENTSTABLE
  5
125
102
{ACAD_REACTORS
330
124
102
}
330
124
100
AcDbSortentsTable
330
A
331
A8
  5
A8
331
86
  5
86
331
6C
  5
6C
331
4A
  5
4A
331
97
  5
97
331
5B
  5
5B
331
39
  5
39
331
28
  5
28
331
A6
  5
A6
331
84
  5
84
331
6A
  5
6A
331
48
  5
48
331
95
  5
95
331
59
  5
59
331
37
  5
37
331
A4
  5
A4
331
82
  5
82
331
68
  5
68
331
46
  5
46
331
93
  5
93
331
57
  5
57
331
35
  5
35
331
122
  5
121
331
A2
  5
A2
331
80
  5
80
331
66
  5
66
331
44
  5
44
331
91
  5
91
331
77
  5
77
331
55
  5
55
331
33
  5
33
331
120
  5
11F
331
A0
  5
A0
331
7E
  5
7E
331
64
  5
64
331
42
  5
42
331
8F
  5
8F
331
75
  5
75
331
53
  5
53
331
31
  5
31
331
11E
  5
11D
331
9E
  5
9E
331
7C
  5
7C
331
62
  5
62
331
40
  5
40
331
8D
  5
8D
331
73
  5
73
331
51
  5
51
331
2F
  5
2F
331
9C
  5
9C
331
7A
  5
7A
331
60
  5
60
331
8B
  5
8B
331
71
  5
71
331
4F
  5
4F
331
3E
  5
3E
331
2D
  5
2D
331
9A
  5
9A
331
78
  5
78
331
89
  5
89
331
6F
  5
6F
331
4D
  5
4D
331
5E
  5
5E
331
3C
  5
3C
331
2B
  5
2B
331
98
  5
98
331
87
  5
87
331
6D
  5
6D
331
4B
  5
4B
331
5C
  5
5C
331
3A
  5
3A
331
29
  5
29
331
A7
  5
A7
331
85
  5
85
331
6B
  5
6B
331
49
  5
49
331
96
  5
96
331
5A
  5
5A
331
38
  5
38
331
A5
  5
A5
331
83
  5
83
331
69
  5
69
331
47
  5
47
331
94
  5
94
331
58
  5
58
331
36
  5
36
331
123
  5
122
331
A3
  5
A3
331
81
  5
81
331
67
  5
67
331
45
  5
45
331
92
  5
92
331
56
  5
56
331
34
  5
34
331
121
  5
120
331
A1
  5
A1
331
7F
  5
7F
331
65
  5
65
331
43
  5
43
331
90
  5
90
331
76
  5
76
331
54
  5
54
331
32
  5
32
331
11F
  5
11E
331
9F
  5
9F
331
7D
  5
7D
331
63
  5
63
331
41
  5
41
331
8E
  5
8E
331
74
  5
74
331
52
  5
52
331
30
  5
30
331
BF
  5
123
331
11D
  5
BF
331
9D
  5
9D
331
7B
  5
7B
331
61
  5
61
331
8C
  5
8C
331
72
  5
72
331
50
  5
50
331
3F
  5
3F
331
2E
  5
2E
331
9B
  5
9B
331
79
  5
79
331
8A
  5
8A
331
70
  5
70
331
4E
  5
4E
331
5F
  5
5F
331
3D
  5
3D
331
2C
  5
2C
331
99
  5
99
331
88
  5
88
331
6E
  5
6E
331
4C
  5
4C
331
5D
  5
5D
331
3B
  5
3B
331
2A
  5
2A
  0
LAYOUT
  5
21
102
{ACAD_REACTORS
330
1E
102
}
330
1E
100
AcDbPlotSettings
  1

  2
Foxit PDF Printer
  4
Letter
  6

 40
3.174999952316284
 41
3.174999952316284
 42
3.17498779296875
 43
3.175003051757812
 44
279.3999938964844
 45
215.8999938964844
 46
31.47715384821894
 47
24.12875752349356
 48
0.0
 49
0.0
140
0.0
141
0.0
142
1.0
143
1.0
 70
     4
 72
     0
 73
     0
 74
     1
  7

 75
    16
147
1.0
 76
     1
 77
     2
 78
   300
148
-26.25461124795212
149
-20.16000981431432
100
AcDbLayout
  1
Layout1
 70
     0
 71
     1
 10
-0.3306119115190196
 20
-0.2812499079328949
 11
10.66938784818509
 21
8.218749851771214
 12
0.0
 22
0.0
 32
0.0
 14
-0.0556788165195279
 24
-0.078529332350616
 34
-0.0015258207003583
 15
10.39445523190006
 25
7.962852275722276
 35
0.0000000349246037
146
0.0
 13
0.0
 23
0.0
 33
0.0
 16
1.0
 26
0.0
 36
0.0
 17
0.0
 27
1.0
 37
0.0
 76
     0
330
B
331
DD
1001
ACAD_PSEXT
1000
Foxit PDF Printer
1000
Foxit PDF Printer Driver
1000
FOXIT_PDF
1000

1070
     0
  0
LAYOUT
  5
20
102
{ACAD_REACTORS
330
1E
102
}
330
1E
100
AcDbPlotSettings
  1

  2

  4

  6

 40
0.0
 41
0.0
 42
0.0
 43
0.0
 44
0.0
 45
0.0
 46
0.0
 47
0.0
 48
0.0
 49
0.0
140
0.0
141
0.0
142
1.0
143
1.0
 70
  1024
 72
     0
 73
     0
 74
     0
  7

 75
     0
147
1.0
 76
     0
 77
     2
 78
   300
148
0.0
149
0.0
100
AcDbLayout
  1
Model
 70
     0
 71
     0
 10
0.0
 20
0.0
 11
0.0
 21
0.0
 12
0.0
 22
0.0
 32
0.0
 14
0.0
 24
0.0
 34
0.0
 15
0.0
 25
0.0
 35
0.0
146
0.0
 13
0.0
 23
0.0
 33
0.0
 16
0.0
 26
0.0
 36
0.0
 17
0.0
 27
0.0
 37
0.0
 76
     0
330
A
  0
MATERIAL
  5
C3
102
{ACAD_XDICTIONARY
360
14A
102
}
102
{ACAD_REACTORS
330
C1
102
}
330
C1
100
AcDbMaterial
  1
ByBlock
 73
     1
 78
     1
172
     1
176
     1
270
     1
274
     1
  0
MATERIAL
  5
C2
102
{ACAD_XDICTIONARY
360
148
102
}
102
{ACAD_REACTORS
330
C1
102
}
330
C1
100
AcDbMaterial
  1
ByLayer
 73
     1
 78
     1
172
     1
176
     1
270
     1
274
     1
  0
MATERIAL
  5
C4
102
{ACAD_XDICTIONARY
360
14C
102
}
102
{ACAD_REACTORS
330
C1
102
}
330
C1
100
AcDbMaterial
  1
Global
 73
     1
 78
     1
172
     1
176
     1
270
     1
274
     1
  0
MLEADERSTYLE
  5
107
102
{ACAD_REACTORS
330
106
102
}
330
106
100
AcDbMLeaderStyle
170
     2
171
     1
172
     0
 90
        2
 40
0.0
 41
0.0
173
     1
 91
-1056964608
340
11
 92
       -2
290
     1
 42
0.09
291
     1
 43
0.36
  3
Standard
 44
0.18
300

342
17
174
     1
178
     6
175
     1
176
     0
 93
-1056964608
 45
0.18
292
     0
297
     0
 46
0.18
 94
-1056964608
 47
1.0
 49
1.0
140
1.0
293
     1
141
0.0
294
     1
177
     0
142
1.0
295
     0
296
     0
143
0.125
1001
ACAD_MLEADERVER
1070
     2
  0
MLINESTYLE
  5
1C
102
{ACAD_REACTORS
330
1B
102
}
330
1B
100
AcDbMlineStyle
  2
STANDARD
 70
     0
  3

 62
     0
 51
90.0
 52
90.0
 71
     2
 49
0.5
 62
   256
  6
BYLAYER
 49
-0.5
 62
   256
  6
BYLAYER
  0
ACDBPLACEHOLDER
  5
1D
102
{ACAD_REACTORS
330
1F
102
}
330
1F
  0
SCALE
  5
E5
102
{ACAD_REACTORS
330
E4
102
}
330
E4
100
AcDbScale
 70
     0
300
1:1
140
1.0
141
1.0
290
     1
  0
SCALE
  5
E6
102
{ACAD_REACTORS
330
E4
102
}
330
E4
100
AcDbScale
 70
     0
300
1:2
140
1.0
141
2.0
290
     0
  0
SCALE
  5
E7
102
{ACAD_REACTORS
330
E4
102
}
330
E4
100
AcDbScale
 70
     0
300
1:4
140
1.0
141
4.0
290
     0
  0
SCALE
  5
E8
102
{ACAD_REACTORS
330
E4
102
}
330
E4
100
AcDbScale
 70
     0
300
1:5
140
1.0
141
5.0
290
     0
  0
SCALE
  5
E9
102
{ACAD_REACTORS
330
E4
102
}
330
E4
100
AcDbScale
 70
     0
300
1:8
140
1.0
141
8.0
290
     0
  0
SCALE
  5
EA
102
{ACAD_REACTORS
330
E4
102
}
330
E4
100
AcDbScale
 70
     0
300
1:10
140
1.0
141
10.0
290
     0
  0
SCALE
  5
EB
102
{ACAD_REACTORS
330
E4
102
}
330
E4
100
AcDbScale
 70
     0
300
1:16
140
1.0
141
16.0
290
     0
  0
SCALE
  5
EC
102
{ACAD_REACTORS
330
E4
102
}
330
E4
100
AcDbScale
 70
     0
300
1:20
140
1.0
141
20.0
290
     0
  0
SCALE
  5
ED
102
{ACAD_REACTORS
330
E4
102
}
330
E4
100
AcDbScale
 70
     0
300
1:30
140
1.0
141
30.0
290
     0
  0
SCALE
  5
EE
102
{ACAD_REACTORS
330
E4
102
}
330
E4
100
AcDbScale
 70
     0
300
1:40
140
1.0
141
40.0
290
     0
  0
SCALE
  5
EF
102
{ACAD_REACTORS
330
E4
102
}
330
E4
100
AcDbScale
 70
     0
300
1:50
140
1.0
141
50.0
290
     0
  0
SCALE
  5
F0
102
{ACAD_REACTORS
330
E4
102
}
330
E4
100
AcDbScale
 70
     0
300
1:100
140
1.0
141
100.0
290
     0
  0
SCALE
  5
F1
102
{ACAD_REACTORS
330
E4
102
}
330
E4
100
AcDbScale
 70
     0
300
2:1
140
2.0
141
1.0
290
     0
  0
SCALE
  5
F2
102
{ACAD_REACTORS
330
E4
102
}
330
E4
100
AcDbScale
 70
     0
300
4:1
140
4.0
141
1.0
290
     0
  0
SCALE
  5
F3
102
{ACAD_REACTORS
330
E4
102
}
330
E4
100
AcDbScale
 70
     0
300
8:1
140
8.0
141
1.0
290
     0
  0
SCALE
  5
F4
102
{ACAD_REACTORS
330
E4
102
}
330
E4
100
AcDbScale
 70
     0
300
10:1
140
10.0
141
1.0
290
     0
  0
SCALE
  5
F5
102
{ACAD_REACTORS
330
E4
102
}
330
E4
100
AcDbScale
 70
     0
300
100:1
140
100.0
141
1.0
290
     0
  0
SCALE
  5
F6
102
{ACAD_REACTORS
330
E4
102
}
330
E4
100
AcDbScale
 70
     0
300
1/128" = 1'-0"
140
0.0078125
141
12.0
290
     0
  0
SCALE
  5
F7
102
{ACAD_REACTORS
330
E4
102
}
330
E4
100
AcDbScale
 70
     0
300
1/64" = 1'-0"
140
0.015625
141
12.0
290
     0
  0
SCALE
  5
F8
102
{ACAD_REACTORS
330
E4
102
}
330
E4
100
AcDbScale
 70
     0
300
1/32" = 1'-0"
140
0.03125
141
12.0
290
     0
  0
SCALE
  5
F9
102
{ACAD_REACTORS
330
E4
102
}
330
E4
100
AcDbScale
 70
     0
300
1/16" = 1'-0"
140
0.0625
141
12.0
290
     0
  0
SCALE
  5
FA
102
{ACAD_REACTORS
330
E4
102
}
330
E4
100
AcDbScale
 70
     0
300
3/32" = 1'-0"
140
0.09375
141
12.0
290
     0
  0
SCALE
  5
FB
102
{ACAD_REACTORS
330
E4
102
}
330
E4
100
AcDbScale
 70
     0
300
1/8" = 1'-0"
140
0.125
141
12.0
290
     0
  0
SCALE
  5
FC
102
{ACAD_REACTORS
330
E4
102
}
330
E4
100
AcDbScale
 70
     0
300
3/16" = 1'-0"
140
0.1875
141
12.0
290
     0
  0
SCALE
  5
FD
102
{ACAD_REACTORS
330
E4
102
}
330
E4
100
AcDbScale
 70
     0
300
1/4" = 1'-0"
140
0.25
141
12.0
290
     0
  0
SCALE
  5
FE
102
{ACAD_REACTORS
330
E4
102
}
330
E4
100
AcDbScale
 70
     0
300
3/8" = 1'-0"
140
0.375
141
12.0
290
     0
  0
SCALE
  5
FF
102
{ACAD_REACTORS
330
E4
102
}
330
E4
100
AcDbScale
 70
     0
300
1/2" = 1'-0"
140
0.5
141
12.0
290
     0
  0
SCALE
  5
100
102
{ACAD_REACTORS
330
E4
102
}
330
E4
100
AcDbScale
 70
     0
300
3/4" = 1'-0"
140
0.75
141
12.0
290
     0
  0
SCALE
  5
101
102
{ACAD_REACTORS
330
E4
102
}
330
E4
100
AcDbScale
 70
     0
300
1" = 1'-0"
140
1.0
141
12.0
290
     0
  0
SCALE
  5
102
102
{ACAD_REACTORS
330
E4
102
}
330
E4
100
AcDbScale
 70
     0
300
1-1/2" = 1'-0"
140
1.5
141
12.0
290
     0
  0
SCALE
  5
103
102
{ACAD_REACTORS
330
E4
102
}
330
E4
100
AcDbScale
 70
     0
300
3" = 1'-0"
140
3.0
141
12.0
290
     0
  0
SCALE
  5
104
102
{ACAD_REACTORS
330
E4
102
}
330
E4
100
AcDbScale
 70
     0
300
6" = 1'-0"
140
6.0
141
12.0
290
     0
  0
SCALE
  5
105
102
{ACAD_REACTORS
330
E4
102
}
330
E4
100
AcDbScale
 70
     0
300
1'-0" = 1'-0"
140
12.0
141
12.0
290
     0
  0
TABLESTYLE
  5
D8
102
{ACAD_XDICTIONARY
360
145
102
}
102
{ACAD_REACTORS
330
D7
102
}
330
D7
100
AcDbTableStyle
  3
Standard
 70
     0
 71
     0
 40
0.06
 41
0.06
280
     0
281
     0
  7
Standard
140
0.18
170
     2
 62
     0
 63
     7
283
     0
274
    -2
284
     1
 64
     0
275
    -2
285
     1
 65
     0
276
    -2
286
     1
 66
     0
277
    -2
287
     1
 67
     0
278
    -2
288
     1
 68
     0
279
    -2
289
     1
 69
     0
  7
Standard
140
0.25
170
     5
 62
     0
 63
     7
283
     0
274
    -2
284
     1
 64
     0
275
    -2
285
     1
 65
     0
276
    -2
286
     1
 66
     0
277
    -2
287
     1
 67
     0
278
    -2
288
     1
 68
     0
279
    -2
289
     1
 69
     0
  7
Standard
140
0.18
170
     5
 62
     0
 63
     7
283
     0
274
    -2
284
     1
 64
     0
275
    -2
285
     1
 65
     0
276
    -2
286
     1
 66
     0
277
    -2
287
     1
 67
     0
278
    -2
288
     1
 68
     0
279
    -2
289
     1
 69
     0
  0
VISUALSTYLE
  5
CB
102
{ACAD_REACTORS
330
C5
102
}
330
C5
100
AcDbVisualStyle
  2
2dWireframe
 70
     4
 71
     0
 72
     2
 73
     0
 90
        0
 40
-0.6
 41
-30.0
 62
     5
 63
     7
421
 16777215
 74
     1
 91
        4
 64
     7
 65
   257
 75
     1
175
     1
 42
1.0
 92
        0
 66
   257
 43
1.0
 76
     1
 77
     6
 78
     2
 67
     7
 79
     5
170
     0
171
     0
290
     0
174
     0
 93
        1
 44
0.0
173
     0
291
     0
 45
0.0
1001
ACAD
1000
AcDbSavedByObjectVersion
1070
     0
  0
VISUALSTYLE
  5
CD
102
{ACAD_REACTORS
330
C5
102
}
330
C5
100
AcDbVisualStyle
  2
3D Hidden
 70
     6
 71
     1
 72
     2
 73
     2
 90
        0
 40
-0.6
 41
-30.0
 62
     5
 63
     7
421
 16777215
 74
     2
 91
        2
 64
     7
 65
   257
 75
     2
175
     1
 42
40.0
 92
        0
 66
   257
 43
1.0
 76
     1
 77
     6
 78
     2
 67
     7
 79
     3
170
     0
171
     0
290
     0
174
     0
 93
        1
 44
0.0
173
     0
291
     0
 45
0.0
1001
ACAD
1000
AcDbSavedByObjectVersion
1070
     0
  0
VISUALSTYLE
  5
CC
102
{ACAD_REACTORS
330
C5
102
}
330
C5
100
AcDbVisualStyle
  2
3dWireframe
 70
     5
 71
     0
 72
     2
 73
     0
 90
        0
 40
-0.6
 41
-30.0
 62
     5
 63
     7
421
 16777215
 74
     1
 91
        4
 64
     7
 65
   257
 75
     1
175
     1
 42
1.0
 92
        0
 66
   257
 43
1.0
 76
     1
 77
     6
 78
     2
 67
     7
 79
     5
170
     0
171
     0
290
     0
174
     0
 93
        1
 44
0.0
173
     0
291
     0
 45
0.0
1001
ACAD
1000
AcDbSavedByObjectVersion
1070
     0
  0
VISUALSTYLE
  5
CA
102
{ACAD_REACTORS
330
C5
102
}
330
C5
100
AcDbVisualStyle
  2
Basic
 70
     7
 71
     1
 72
     0
 73
     1
 90
        0
 40
-0.6
 41
-30.0
 62
     5
 63
     7
421
 16777215
 74
     0
 91
        4
 64
     7
 65
   257
 75
     1
175
     1
 42
1.0
 92
        8
 66
     7
 43
1.0
 76
     1
 77
     6
 78
     2
 67
     7
 79
     5
170
     0
171
     0
290
     0
174
     0
 93
        1
 44
0.0
173
     0
291
     1
 45
0.0
1001
ACAD
1000
AcDbSavedByObjectVersion
1070
     0
  0
VISUALSTYLE
  5
D1
102
{ACAD_REACTORS
330
C5
102
}
330
C5
100
AcDbVisualStyle
  2
Brighten
 70
    12
 71
     2
 72
     2
 73
     0
 90
        0
 40
-0.6
 41
-30.0
 62
     5
 63
     7
421
 16777215
 74
     1
 91
        4
 64
     7
 65
   257
 75
     1
175
     1
 42
1.0
 92
        8
 66
     7
 43
1.0
 76
     1
 77
     6
 78
     2
 67
     7
 79
     5
170
     0
171
     0
290
     0
174
     0
 93
        1
 44
50.0
173
     0
291
     1
 45
0.0
1001
ACAD
1000
AcDbSavedByObjectVersion
1070
     0
  0
VISUALSTYLE
  5
D5
102
{ACAD_REACTORS
330
C5
102
}
330
C5
100
AcDbVisualStyle
  2
ColorChange
 70
    16
 71
     2
 72
     2
 73
     3
 90
        0
 40
-0.6
 41
-30.0
 62
     5
 63
     8
421
  8421504
 74
     1
 91
        4
 64
     7
 65
   257
 75
     1
175
     1
 42
1.0
 92
        8
 66
     8
424
  8421504
 43
1.0
 76
     1
 77
     6
 78
     2
 67
     7
 79
     5
170
     0
171
     0
290
     0
174
     0
 93
        1
 44
0.0
173
     0
291
     1
 45
0.0
1001
ACAD
1000
AcDbSavedByObjectVersion
1070
     0
  0
VISUALSTYLE
  5
CE
102
{ACAD_REACTORS
330
C5
102
}
330
C5
100
AcDbVisualStyle
  2
Conceptual
 70
     9
 71
     3
 72
     2
 73
     0
 90
        0
 40
-0.6
 41
-30.0
 62
     5
 63
     7
421
 16777215
 74
     2
 91
        2
 64
     7
 65
   257
 75
     1
175
     1
 42
40.0
 92
        8
 66
     7
 43
1.0
 76
     1
 77
     6
 78
     2
 67
     7
 79
     3
170
     0
171
     0
290
     0
174
     0
 93
        1
 44
0.0
173
     0
291
     0
 45
0.0
1001
ACAD
1000
AcDbSavedByObjectVersion
1070
     0
  0
VISUALSTYLE
  5
D0
102
{ACAD_REACTORS
330
C5
102
}
330
C5
100
AcDbVisualStyle
  2
Dim
 70
    11
 71
     2
 72
     2
 73
     0
 90
        0
 40
-0.6
 41
-30.0
 62
     5
 63
     7
421
 16777215
 74
     1
 91
        4
 64
     7
 65
   257
 75
     1
175
     1
 42
1.0
 92
        8
 66
     7
 43
1.0
 76
     1
 77
     6
 78
     2
 67
     7
 79
     5
170
     0
171
     0
290
     0
174
     0
 93
        1
 44
-50.0
173
     0
291
     1
 45
0.0
1001
ACAD
1000
AcDbSavedByObjectVersion
1070
     0
  0
VISUALSTYLE
  5
D4
102
{ACAD_REACTORS
330
C5
102
}
330
C5
100
AcDbVisualStyle
  2
Facepattern
 70
    15
 71
     2
 72
     2
 73
     0
 90
        0
 40
-0.6
 41
-30.0
 62
     5
 63
     7
421
 16777215
 74
     1
 91
        4
 64
     7
 65
   257
 75
     1
175
     1
 42
1.0
 92
        8
 66
     7
 43
1.0
 76
     1
 77
     6
 78
     2
 67
     7
 79
     5
170
     0
171
     0
290
     0
174
     0
 93
        1
 44
0.0
173
     0
291
     1
 45
0.0
1001
ACAD
1000
AcDbSavedByObjectVersion
1070
     0
  0
VISUALSTYLE
  5
C6
102
{ACAD_REACTORS
330
C5
102
}
330
C5
100
AcDbVisualStyle
  2
Flat
 70
     0
 71
     2
 72
     1
 73
     1
 90
        2
 40
-0.6
 41
30.0
 62
     5
 63
     7
421
 16777215
 74
     0
 91
        4
 64
     7
 65
   257
 75
     1
175
     1
 42
1.0
 92
        8
 66
     7
 43
1.0
 76
     1
 77
     6
 78
     2
 67
     7
 79
     5
170
     0
171
     0
290
     0
174
     0
 93
       13
 44
0.0
173
     0
291
     1
 45
0.0
1001
ACAD
1000
AcDbSavedByObjectVersion
1070
     0
  0
VISUALSTYLE
  5
C7
102
{ACAD_REACTORS
330
C5
102
}
330
C5
100
AcDbVisualStyle
  2
FlatWithEdges
 70
     1
 71
     2
 72
     1
 73
     1
 90
        2
 40
-0.6
 41
30.0
 62
     5
 63
     7
421
 16777215
 74
     1
 91
        4
 64
     7
 65
   257
 75
     1
175
     1
 42
1.0
 92
        0
 66
   257
 43
1.0
 76
     1
 77
     6
 78
     2
 67
     7
 79
     5
170
     0
171
     0
290
     0
174
     0
 93
       13
 44
0.0
173
     0
291
     1
 45
0.0
1001
ACAD
1000
AcDbSavedByObjectVersion
1070
     0
  0
VISUALSTYLE
  5
C8
102
{ACAD_REACTORS
330
C5
102
}
330
C5
100
AcDbVisualStyle
  2
Gouraud
 70
     2
 71
     2
 72
     2
 73
     1
 90
        2
 40
-0.6
 41
30.0
 62
     5
 63
     7
421
 16777215
 74
     0
 91
        4
 64
     7
 65
   257
 75
     1
175
     1
 42
1.0
 92
        0
 66
     7
 43
1.0
 76
     1
 77
     6
 78
     2
 67
     7
 79
     5
170
     0
171
     0
290
     0
174
     0
 93
       13
 44
0.0
173
     0
291
     1
 45
0.0
1001
ACAD
1000
AcDbSavedByObjectVersion
1070
     0
  0
VISUALSTYLE
  5
C9
102
{ACAD_REACTORS
330
C5
102
}
330
C5
100
AcDbVisualStyle
  2
GouraudWithEdges
 70
     3
 71
     2
 72
     2
 73
     1
 90
        2
 40
-0.6
 41
30.0
 62
     5
 63
     7
421
 16777215
 74
     1
 91
        4
 64
     7
 65
   257
 75
     1
175
     1
 42
1.0
 92
        0
 66
   257
 43
1.0
 76
     1
 77
     6
 78
     2
 67
     7
 79
     5
170
     0
171
     0
290
     0
174
     0
 93
       13
 44
0.0
173
     0
291
     1
 45
0.0
1001
ACAD
1000
AcDbSavedByObjectVersion
1070
     0
  0
VISUALSTYLE
  5
D3
102
{ACAD_REACTORS
330
C5
102
}
330
C5
100
AcDbVisualStyle
  2
Linepattern
 70
    14
 71
     2
 72
     2
 73
     0
 90
        0
 40
-0.6
 41
-30.0
 62
     5
 63
     7
421
 16777215
 74
     1
 91
        4
 64
     7
 65
   257
 75
     7
175
     7
 42
1.0
 92
        8
 66
     7
 43
1.0
 76
     1
 77
     6
 78
     2
 67
     7
 79
     5
170
     0
171
     0
290
     0
174
     0
 93
        1
 44
0.0
173
     0
291
     1
 45
0.0
1001
ACAD
1000
AcDbSavedByObjectVersion
1070
     0
  0
VISUALSTYLE
  5
CF
102
{ACAD_REACTORS
330
C5
102
}
330
C5
100
AcDbVisualStyle
  2
Realistic
 70
     8
 71
     2
 72
     2
 73
     0
 90
        0
 40
-0.6
 41
-30.0
 62
     5
 63
     7
421
 16777215
 74
     1
 91
        0
 64
     7
 65
   257
 75
     1
175
     1
 42
1.0
 92
        8
 66
     8
424
  7895160
 43
1.0
 76
     1
 77
     6
 78
     2
 67
     7
 79
     5
170
     0
171
     0
290
     0
174
     0
 93
       13
 44
0.0
173
     0
291
     0
 45
0.0
1001
ACAD
1000
AcDbSavedByObjectVersion
1070
     0
  0
VISUALSTYLE
  5
D2
102
{ACAD_REACTORS
330
C5
102
}
330
C5
100
AcDbVisualStyle
  2
Thicken
 70
    13
 71
     2
 72
     2
 73
     0
 90
        0
 40
-0.6
 41
-30.0
 62
     5
 63
     7
421
 16777215
 74
     1
 91
        4
 64
     7
 65
   257
 75
     1
175
     1
 42
1.0
 92
       12
 66
     7
 43
1.0
 76
     1
 77
     6
 78
     2
 67
     7
 79
     5
170
     0
171
     0
290
     0
174
     0
 93
        1
 44
0.0
173
     0
291
     1
 45
0.0
1001
ACAD
1000
AcDbSavedByObjectVersion
1070
     0
  0
DICTIONARYVAR
  5
144
102
{ACAD_REACTORS
330
E1
102
}
330
E1
100
DictionaryVariables
280
     0
  1
1:1
  0
DICTIONARYVAR
  5
143
102
{ACAD_REACTORS
330
E1
102
}
330
E1
100
DictionaryVariables
280
     0
  1
STANDARD
  0
DICTIONARYVAR
  5
E2
102
{ACAD_REACTORS
330
E1
102
}
330
E1
100
DictionaryVariables
280
     0
  1
STANDARD
  0
XRECORD
  5
130
102
{ACAD_REACTORS
330
12E
102
}
330
12E
100
AcDbXrecord
280
     1
  0
DICTIONARY
  5
14A
330
C3
100
AcDbDictionary
280
     1
281
     1
  3
ACAD_XREC_ROUNDTRIP
360
14B
  0
DICTIONARY
  5
148
330
C2
100
AcDbDictionary
280
     1
281
     1
  3
ACAD_XREC_ROUNDTRIP
360
149
  0
DICTIONARY
  5
14C
330
C4
100
AcDbDictionary
280
     1
281
     1
  3
ACAD_XREC_ROUNDTRIP
360
14D
  0
DICTIONARY
  5
145
330
D8
100
AcDbDictionary
280
     1
281
     1
  3
ACAD_ROUNDTRIP_2008_TABLESTYLE_CELLSTYLEMAP
360
146
  3
ACAD_XREC_ROUNDTRIP
360
14E
  0
XRECORD
  5
14B
102
{ACAD_REACTORS
330
14A
102
}
330
14A
100
AcDbXrecord
280
     1
102
MATERIAL
148
0.0
149
0.0
149
0.0
 93
        0
 94
       63
282
     0
 72
     1
 77
     1
171
     1
175
     1
179
     1
273
     0
  0
XRECORD
  5
149
102
{ACAD_REACTORS
330
148
102
}
330
148
100
AcDbXrecord
280
     1
102
MATERIAL
148
0.0
149
0.0
149
0.0
 93
        0
 94
       63
282
     0
 72
     1
 77
     1
171
     1
175
     1
179
     1
273
     0
  0
XRECORD
  5
14D
102
{ACAD_REACTORS
330
14C
102
}
330
14C
100
AcDbXrecord
280
     1
102
MATERIAL
148
0.0
149
0.0
149
0.0
 93
        0
 94
       63
282
     0
 72
     1
 77
     1
171
     1
175
     1
179
     1
273
     0
  0
CELLSTYLEMAP
  5
146
102
{ACAD_REACTORS
330
145
102
}
330
145
100
AcDbCellStyleMap
 90
        3
300
CELLSTYLE
  1
TABLEFORMAT_BEGIN
 90
        5
170
     1
 91
        0
 92
    32768
 62
   257
 93
        1
300
CONTENTFORMAT
  1
CONTENTFORMAT_BEGIN
 90
        0
 91
        0
 92
      512
 93
        0
300

 40
0.0
140
1.0
 94
        5
 62
     0
340
17
144
0.25
309
CONTENTFORMAT_END
171
     0
 94
        6
 95
        1
302
GRIDFORMAT
  1
GRIDFORMAT_BEGIN
 90
        0
 91
        1
 62
     0
 92
       -2
340
0
 93
        0
 40
0.045
309
GRIDFORMAT_END
 95
        2
302
GRIDFORMAT
  1
GRIDFORMAT_BEGIN
 90
        0
 91
        1
 62
     0
 92
       -2
340
0
 93
        0
 40
0.045
309
GRIDFORMAT_END
 95
        4
302
GRIDFORMAT
  1
GRIDFORMAT_BEGIN
 90
        0
 91
        1
 62
     0
 92
       -2
340
0
 93
        0
 40
0.045
309
GRIDFORMAT_END
 95
        8
302
GRIDFORMAT
  1
GRIDFORMAT_BEGIN
 90
        0
 91
        1
 62
     0
 92
       -2
340
0
 93
        0
 40
0.045
309
GRIDFORMAT_END
 95
       16
302
GRIDFORMAT
  1
GRIDFORMAT_BEGIN
 90
        0
 91
        1
 62
     0
 92
       -2
340
0
 93
        0
 40
0.045
309
GRIDFORMAT_END
 95
       32
302
GRIDFORMAT
  1
GRIDFORMAT_BEGIN
 90
        0
 91
        1
 62
     0
 92
       -2
340
0
 93
        0
 40
0.045
309
GRIDFORMAT_END
309
TABLEFORMAT_END
  1
CELLSTYLE_BEGIN
 90
        1
 91
        1
300
_TITLE
309
CELLSTYLE_END
300
CELLSTYLE
  1
TABLEFORMAT_BEGIN
 90
        5
170
     1
 91
        0
 92
        0
 62
   257
 93
        1
300
CONTENTFORMAT
  1
CONTENTFORMAT_BEGIN
 90
        0
 91
        0
 92
      512
 93
        0
300

 40
0.0
140
1.0
 94
        5
 62
     0
340
17
144
0.18
309
CONTENTFORMAT_END
171
     0
 94
        6
 95
        1
302
GRIDFORMAT
  1
GRIDFORMAT_BEGIN
 90
        0
 91
        1
 62
     0
 92
       -2
340
0
 93
        0
 40
0.045
309
GRIDFORMAT_END
 95
        2
302
GRIDFORMAT
  1
GRIDFORMAT_BEGIN
 90
        0
 91
        1
 62
     0
 92
       -2
340
0
 93
        0
 40
0.045
309
GRIDFORMAT_END
 95
        4
302
GRIDFORMAT
  1
GRIDFORMAT_BEGIN
 90
        0
 91
        1
 62
     0
 92
       -2
340
0
 93
        0
 40
0.045
309
GRIDFORMAT_END
 95
        8
302
GRIDFORMAT
  1
GRIDFORMAT_BEGIN
 90
        0
 91
        1
 62
     0
 92
       -2
340
0
 93
        0
 40
0.045
309
GRIDFORMAT_END
 95
       16
302
GRIDFORMAT
  1
GRIDFORMAT_BEGIN
 90
        0
 91
        1
 62
     0
 92
       -2
340
0
 93
        0
 40
0.045
309
GRIDFORMAT_END
 95
       32
302
GRIDFORMAT
  1
GRIDFORMAT_BEGIN
 90
        0
 91
        1
 62
     0
 92
       -2
340
0
 93
        0
 40
0.045
309
GRIDFORMAT_END
309
TABLEFORMAT_END
  1
CELLSTYLE_BEGIN
 90
        2
 91
        1
300
_HEADER
309
CELLSTYLE_END
300
CELLSTYLE
  1
TABLEFORMAT_BEGIN
 90
        5
170
     1
 91
        0
 92
        0
 62
   257
 93
        1
300
CONTENTFORMAT
  1
CONTENTFORMAT_BEGIN
 90
        0
 91
        0
 92
      512
 93
        0
300

 40
0.0
140
1.0
 94
        2
 62
     0
340
17
144
0.18
309
CONTENTFORMAT_END
171
     0
 94
        6
 95
        1
302
GRIDFORMAT
  1
GRIDFORMAT_BEGIN
 90
        0
 91
        1
 62
     0
 92
       -2
340
0
 93
        0
 40
0.045
309
GRIDFORMAT_END
 95
        2
302
GRIDFORMAT
  1
GRIDFORMAT_BEGIN
 90
        0
 91
        1
 62
     0
 92
       -2
340
0
 93
        0
 40
0.045
309
GRIDFORMAT_END
 95
        4
302
GRIDFORMAT
  1
GRIDFORMAT_BEGIN
 90
        0
 91
        1
 62
     0
 92
       -2
340
0
 93
        0
 40
0.045
309
GRIDFORMAT_END
 95
        8
302
GRIDFORMAT
  1
GRIDFORMAT_BEGIN
 90
        0
 91
        1
 62
     0
 92
       -2
340
0
 93
        0
 40
0.045
309
GRIDFORMAT_END
 95
       16
302
GRIDFORMAT
  1
GRIDFORMAT_BEGIN
 90
        0
 91
        1
 62
     0
 92
       -2
340
0
 93
        0
 40
0.045
309
GRIDFORMAT_END
 95
       32
302
GRIDFORMAT
  1
GRIDFORMAT_BEGIN
 90
        0
 91
        1
 62
     0
 92
       -2
340
0
 93
        0
 40
0.045
309
GRIDFORMAT_END
309
TABLEFORMAT_END
  1
CELLSTYLE_BEGIN
 90
        3
 91
        2
300
_DATA
309
CELLSTYLE_END
  0
XRECORD
  5
14E
102
{ACAD_REACTORS
330
145
102
}
330
145
100
AcDbXrecord
280
     1
102
ACAD_ROUNDTRIP_PRE2007_TABLESTYLE
 90
      512
 91
        0
  1

 92
      512
 93
        0
  2

 94
      512
 95
        0
  3

  0
ENDSEC
  0
EOF
