  0
SECTION
  2
HEADER
  9
$ACADVER
  1
AC1018
  9
$ACADMAINTVER
 70
   104
  9
$DWGCODEPAGE
  3
ANSI_1252
  9
$LASTSAVEDBY
  1
EARL
  9
$INSBASE
 10
0.0
 20
0.0
 30
0.0
  9
$EXTMIN
 10
-2.028280443007036
 20
0.1037795320153236
 30
0.0
  9
$EXTMAX
 10
3.025551557540893
 20
1.059919213288569
 30
0.0
  9
$LIMMIN
 10
0.0
 20
0.0
  9
$LIMMAX
 10
0.0
 20
0.0
  9
$ORTHOMODE
 70
     0
  9
$REGENMODE
 70
     1
  9
$FILLMODE
 70
     1
  9
$QTEXTMODE
 70
     0
  9
$MIRRTEXT
 70
     1
  9
$LTSCALE
 40
1.0
  9
$ATTMODE
 70
     1
  9
$TEXTSIZE
 40
0.0
  9
$TRACEWID
 40
0.05
  9
$TEXTSTYLE
  7
Standard
  9
$CLAYER
  8
0
  9
$CELTYPE
  6
Continuous
  9
$CECOLOR
 62
   256
  9
$CELTSCALE
 40
1.0
  9
$DISPSILH
 70
     0
  9
$DIMSCALE
 40
1.0
  9
$DIMASZ
 40
0.18
  9
$DIMEXO
 40
0.0625
  9
$DIMDLI
 40
0.38
  9
$DIMRND
 40
0.0
  9
$DIMDLE
 40
0.0
  9
$DIMEXE
 40
0.18
  9
$DIMTP
 40
0.0
  9
$DIMTM
 40
0.0
  9
$DIMTXT
 40
0.18
  9
$DIMCEN
 40
0.09
  9
$DIMTSZ
 40
0.0
  9
$DIMTOL
 70
     0
  9
$DIMLIM
 70
     0
  9
$DIMTIH
 70
     1
  9
$DIMTOH
 70
     1
  9
$DIMSE1
 70
     0
  9
$DIMSE2
 70
     0
  9
$DIMTAD
 70
     0
  9
$DIMZIN
 70
     0
  9
$DIMBLK
  1

  9
$DIMASO
 70
     1
  9
$DIMSHO
 70
     1
  9
$DIMPOST
  1

  9
$DIMAPOST
  1

  9
$DIMALT
 70
     0
  9
$DIMALTD
 70
     2
  9
$DIMALTF
 40
25.4
  9
$DIMLFAC
 40
1.0
  9
$DIMTOFL
 70
     0
  9
$DIMTVP
 40
0.0
  9
$DIMTIX
 70
     0
  9
$DIMSOXD
 70
     0
  9
$DIMSAH
 70
     0
  9
$DIMBLK1
  1

  9
$DIMBLK2
  1

  9
$DIMSTYLE
  2
Standard
  9
$DIMCLRD
 70
     0
  9
$DIMCLRE
 70
     0
  9
$DIMCLRT
 70
     0
  9
$DIMTFAC
 40
1.0
  9
$DIMGAP
 40
0.09
  9
$DIMJUST
 70
     0
  9
$DIMSD1
 70
     0
  9
$DIMSD2
 70
     0
  9
$DIMTOLJ
 70
     1
  9
$DIMTZIN
 70
     0
  9
$DIMALTZ
 70
     0
  9
$DIMALTTZ
 70
     0
  9
$DIMUPT
 70
     0
  9
$DIMDEC
 70
     4
  9
$DIMTDEC
 70
     4
  9
$DIMALTU
 70
     2
  9
$DIMALTTD
 70
     2
  9
$DIMTXSTY
  7
Standard
  9
$DIMAUNIT
 70
     0
  9
$DIMADEC
 70
     0
  9
$DIMALTRND
 40
0.0
  9
$DIMAZIN
 70
     0
  9
$DIMDSEP
 70
    46
  9
$DIMATFIT
 70
     0
  9
$DIMFRAC
 70
     0
  9
$DIMLDRBLK
  1

  9
$DIMLUNIT
 70
     2
  9
$DIMLWD
 70
    -2
  9
$DIMLWE
 70
    -2
  9
$DIMTMOVE
 70
     0
  9
$LUNITS
 70
     2
  9
$LUPREC
 70
     4
  9
$SKETCHINC
 40
0.1
  9
$FILLETRAD
 40
0.0
  9
$AUNITS
 70
     0
  9
$AUPREC
 70
     0
  9
$MENU
  1
acad
  9
$ELEVATION
 40
0.0
  9
$PELEVATION
 40
0.0
  9
$THICKNESS
 40
0.0
  9
$LIMCHECK
 70
     0
  9
$CHAMFERA
 40
0.0
  9
$CHAMFERB
 40
0.0
  9
$CHAMFERC
 40
0.0
  9
$CHAMFERD
 40
0.0
  9
$SKPOLY
 70
     0
  9
$TDCREATE
 40
2454831.485821760
  9
$TDUCREATE
 40
2454831.652488426
  9
$TDUPDATE
 40
2455105.048973333
  9
$TDUUPDATE
 40
2455105.215640000
  9
$TDINDWG
 40
0.0015835648
  9
$TDUSRTIMER
 40
0.0015835648
  9
$USRTIMER
 70
     1
  9
$ANGBASE
 50
0.0
  9
$ANGDIR
 70
     0
  9
$PDMODE
 70
     0
  9
$PDSIZE
 40
0.0
  9
$PLINEWID
 40
0.0
  9
$SPLFRAME
 70
     0
  9
$SPLINETYPE
 70
     6
  9
$SPLINESEGS
 70
     8
  9
$HANDSEED
  5
47C
  9
$SURFTAB1
 70
     6
  9
$SURFTAB2
 70
     6
  9
$SURFTYPE
 70
     6
  9
$SURFU
 70
     6
  9
$SURFV
 70
     6
  9
$UCSBASE
  2

  9
$UCSNAME
  2

  9
$UCSORG
 10
0.0
 20
0.0
 30
0.0
  9
$UCSXDIR
 10
1.0
 20
0.0
 30
0.0
  9
$UCSYDIR
 10
0.0
 20
1.0
 30
0.0
  9
$UCSORTHOREF
  2

  9
$UCSORTHOVIEW
 70
     0
  9
$UCSORGTOP
 10
0.0
 20
0.0
 30
0.0
  9
$UCSORGBOTTOM
 10
0.0
 20
0.0
 30
0.0
  9
$UCSORGLEFT
 10
0.0
 20
0.0
 30
0.0
  9
$UCSORGRIGHT
 10
0.0
 20
0.0
 30
0.0
  9
$UCSORGFRONT
 10
0.0
 20
0.0
 30
0.0
  9
$UCSORGBACK
 10
0.0
 20
0.0
 30
0.0
  9
$PUCSBASE
  2

  9
$PUCSNAME
  2

  9
$PUCSORG
 10
0.0
 20
0.0
 30
0.0
  9
$PUCSXDIR
 10
1.0
 20
0.0
 30
0.0
  9
$PUCSYDIR
 10
0.0
 20
1.0
 30
0.0
  9
$PUCSORTHOREF
  2

  9
$PUCSORTHOVIEW
 70
     0
  9
$PUCSORGTOP
 10
0.0
 20
0.0
 30
0.0
  9
$PUCSORGBOTTOM
 10
0.0
 20
0.0
 30
0.0
  9
$PUCSORGLEFT
 10
0.0
 20
0.0
 30
0.0
  9
$PUCSORGRIGHT
 10
0.0
 20
0.0
 30
0.0
  9
$PUCSORGFRONT
 10
0.0
 20
0.0
 30
0.0
  9
$PUCSORGBACK
 10
0.0
 20
0.0
 30
0.0
  9
$USERI1
 70
     0
  9
$USERI2
 70
     0
  9
$USERI3
 70
     0
  9
$USERI4
 70
     0
  9
$USERI5
 70
     0
  9
$USERR1
 40
0.0
  9
$USERR2
 40
0.0
  9
$USERR3
 40
0.0
  9
$USERR4
 40
0.0
  9
$USERR5
 40
0.0
  9
$WORLDVIEW
 70
     1
  9
$SHADEDGE
 70
     3
  9
$SHADEDIF
 70
    70
  9
$TILEMODE
 70
     0
  9
$MAXACTVP
 70
    16
  9
$PINSBASE
 10
0.0
 20
0.0
 30
0.0
  9
$PLIMCHECK
 70
     0
  9
$PEXTMIN
 10
-0.1078511874756103
 20
-0.0251999268623742
 30
-0.0015258207003583
  9
$PEXTMAX
 10
10.48192634409994
 20
7.997966536869295
 30
0.0000000349246037
  9
$PLIMMIN
 10
-0.3306119115190196
 20
-0.2812499079328949
  9
$PLIMMAX
 10
10.66938784818509
 20
8.218749851771214
  9
$UNITMODE
 70
     0
  9
$VISRETAIN
 70
     0
  9
$PLINEGEN
 70
     1
  9
$PSLTSCALE
 70
     0
  9
$TREEDEPTH
 70
  3020
  9
$CMLSTYLE
  2
Standard
  9
$CMLJUST
 70
     0
  9
$CMLSCALE
 40
1.0
  9
$PROXYGRAPHICS
 70
     0
  9
$MEASUREMENT
 70
     0
  9
$CELWEIGHT
370
     0
  9
$ENDCAPS
280
     0
  9
$JOINSTYLE
280
     0
  9
$LWDISPLAY
290
     0
  9
$INSUNITS
 70
     0
  9
$HYPERLINKBASE
  1

  9
$STYLESHEET
  1

  9
$XEDIT
290
     1
  9
$CEPSNTYPE
380
     0
  9
$PSTYLEMODE
290
     1
  9
$FINGERPRINTGUID
  2

  9
$VERSIONGUID
  2
{2578D7A3-ED4A-4C4B-864C-8135806EF13D}
  9
$EXTNAMES
290
     1
  9
$PSVPSCALE
 40
0.0
  9
$OLESTARTUP
290
     0
  9
$SORTENTS
280
   127
  9
$INDEXCTL
280
     0
  9
$HIDETEXT
280
     0
  9
$XCLIPFRAME
290
     0
  9
$HALOGAP
280
     0
  9
$OBSCOLOR
 70
   257
  9
$OBSLTYPE
280
     0
  9
$INTERSECTIONDISPLAY
280
     0
  9
$INTERSECTIONCOLOR
 70
   257
  9
$DIMASSOC
280
     1
  9
$PROJECTNAME
  1

  0
ENDSEC
  0
SECTION
  2
CLASSES
  0
CLASS
  1
IMAGE
  2
AcDbRasterImage
  3
ISM
 90
     2175
 91
        0
280
     0
281
     1
  0
CLASS
  1
DICTIONARYVAR
  2
AcDbDictionaryVar
  3
ObjectDBX Classes
 90
        0
 91
        5
280
     0
281
     0
  0
CLASS
  1
RASTERVARIABLES
  2
AcDbRasterVariables
  3
ISM
 90
        0
 91
        0
280
     0
281
     0
  0
CLASS
  1
IMAGEDEF
  2
AcDbRasterImageDef
  3
ISM
 90
        0
 91
        0
280
     0
281
     0
  0
CLASS
  1
IMAGEDEF_REACTOR
  2
AcDbRasterImageDefReactor
  3
ISM
 90
        1
 91
        0
280
     0
281
     0
  0
CLASS
  1
IDBUFFER
  2
AcDbIdBuffer
  3
ObjectDBX Classes
 90
        0
 91
        0
280
     0
281
     0
  0
CLASS
  1
SPATIAL_FILTER
  2
AcDbSpatialFilter
  3
ObjectDBX Classes
 90
        0
 91
        0
280
     0
281
     0
  0
CLASS
  1
SORTENTSTABLE
  2
AcDbSortentsTable
  3
ObjectDBX Classes
 90
        0
 91
        0
280
     0
281
     0
  0
CLASS
  1
LAYER_INDEX
  2
AcDbLayerIndex
  3
ObjectDBX Classes
 90
        0
 91
        0
280
     0
281
     0
  0
CLASS
  1
SPATIAL_INDEX
  2
AcDbSpatialIndex
  3
ObjectDBX Classes
 90
        0
 91
        0
280
     0
281
     0
  0
CLASS
  1
OBJECT_PTR
  2
CAseDLPNTableRecord
  3
"ASE-LPNTableRecord"
 90
        1
 91
        0
280
     0
281
     0
  0
CLASS
  1
PLOTSETTINGS
  2
AcDbPlotSettings
  3
ObjectDBX Classes
 90
        0
 91
        0
280
     0
281
     0
  0
CLASS
  1
ACDBDICTIONARYWDFLT
  2
AcDbDictionaryWithDefault
  3
ObjectDBX Classes
 90
        0
 91
        1
280
     0
281
     0
  0
CLASS
  1
WIPEOUT
  2
AcDbWipeout
  3
"WipeOut|Product Desc: Object Enabler for WipeOut entity                        |Company: Autodesk, Inc.                        |WEB Address: www.autodesk.com"
 90
     2175
 91
        0
280
     0
281
     1
  0
CLASS
  1
WIPEOUTVARIABLES
  2
AcDbWipeoutVariables
  3
"WipeOut|Product Desc:     WipeOut Dbx Application|Company:          Autodesk, Inc.|WEB Address:      www.autodesk.com"
 90
        0
 91
        1
280
     0
281
     0
  0
CLASS
  1
RTEXT
  2
RText
  3
RText|AutoCAD Express Tool|expresstools@autodesk.com
 90
        0
 91
        0
280
     0
281
     1
  0
CLASS
  1
ARCALIGNEDTEXT
  2
AcDbArcAlignedText
  3
ATEXT|AutoCAD Express Tool|expresstools@autodesk.com
 90
        0
 91
        0
280
     0
281
     1
  0
CLASS
  1
MATERIAL
  2
AcDbMaterial
  3
ObjectDBX Classes
 90
     1153
 91
        3
280
     0
281
     0
  0
CLASS
  1
VISUALSTYLE
  2
AcDbVisualStyle
  3
ObjectDBX Classes
 90
     4095
 91
       16
280
     0
281
     0
  0
CLASS
  1
TABLESTYLE
  2
AcDbTableStyle
  3
ObjectDBX Classes
 90
     4095
 91
        1
280
     0
281
     0
  0
CLASS
  1
SCALE
  2
AcDbScale
  3
ObjectDBX Classes
 90
     1153
 91
       33
280
     0
281
     0
  0
CLASS
  1
MLEADERSTYLE
  2
AcDbMLeaderStyle
  3
ACDB_MLEADERSTYLE_CLASS
 90
     4095
 91
        1
280
     0
281
     0
  0
CLASS
  1
CELLSTYLEMAP
  2
AcDbCellStyleMap
  3
ObjectDBX Classes
 90
     1152
 91
        2
280
     0
281
     0
  0
ENDSEC
  0
SECTION
  2
TABLES
  0
TABLE
  2
VPORT
  5
7
330
0
100
AcDbSymbolTable
 70
     1
  0
VPORT
  5
15
330
7
100
AcDbSymbolTableRecord
100
AcDbViewportTableRecord
  2
*ACTIVE
 70
     0
 10
0.0
 20
0.0
 11
1.0
 21
1.0
 12
13.28065635736906
 22
4.579183999999999
 13
0.0
 23
0.0
 14
1.0
 24
1.0
 15
0.0
 25
0.0
 16
0.0
 26
0.0
 36
1.0
 17
0.0
 27
0.0
 37
0.0
 40
9.158369
 41
2.149384885764499
 42
50.0
 43
0.0
 44
0.0
 50
0.0
 51
0.0
 71
     0
 72
   100
 73
     1
 74
     1
 75
     0
 76
     0
 77
     0
 78
     0
281
     0
 65
     0
110
0.0
120
0.0
130
0.0
111
1.0
121
0.0
131
0.0
112
0.0
122
1.0
132
0.0
 79
     0
146
0.0
  0
ENDTAB
  0
TABLE
  2
LTYPE
  5
4
330
0
100
AcDbSymbolTable
 70
     4
  0
LTYPE
  5
11
330
4
100
AcDbSymbolTableRecord
100
AcDbLinetypeTableRecord
  2
ByBlock
 70
     0
  3

 72
    65
 73
     0
 40
0.0
  0
LTYPE
  5
12
330
4
100
AcDbSymbolTableRecord
100
AcDbLinetypeTableRecord
  2
ByLayer
 70
     0
  3

 72
    65
 73
     0
 40
0.0
  0
LTYPE
  5
13
330
4
100
AcDbSymbolTableRecord
100
AcDbLinetypeTableRecord
  2
Continuous
 70
     0
  3
Solid line
 72
    65
 73
     0
 40
0.0
  0
LTYPE
  5
24
330
4
100
AcDbSymbolTableRecord
100
AcDbLinetypeTableRecord
  2
solid
 70
     0
  3

 72
    65
 73
     0
 40
0.0
  0
LTYPE
  5
25
330
4
100
AcDbSymbolTableRecord
100
AcDbLinetypeTableRecord
  2
dashed
 70
     0
  3

 72
    65
 73
     0
 40
0.0
  0
LTYPE
  5
26
330
4
100
AcDbSymbolTableRecord
100
AcDbLinetypeTableRecord
  2
center
 70
     0
  3

 72
    65
 73
     0
 40
0.0
  0
ENDTAB
  0
TABLE
  2
LAYER
  5
2
330
0
100
AcDbSymbolTable
 70
     3
  0
LAYER
  5
14
102
{ACAD_XDICTIONARY
360
450
102
}
330
2
100
AcDbSymbolTableRecord
100
AcDbLayerTableRecord
  2
0
 70
     0
 62
     7
  6
Continuous
370
    -3
390
1D
  0
LAYER
  5
27
102
{ACAD_XDICTIONARY
360
452
102
}
330
2
100
AcDbSymbolTableRecord
100
AcDbLayerTableRecord
  2
1
 70
     0
 62
     1
  6
solid
370
    -3
390
1D
  0
LAYER
  5
3E3
102
{ACAD_XDICTIONARY
360
454
102
}
330
2
100
AcDbSymbolTableRecord
100
AcDbLayerTableRecord
  2
0
 70
     0
 62
     1
  6
solid
370
    -3
390
1D
  0
ENDTAB
  0
TABLE
  2
STYLE
  5
3
330
0
100
AcDbSymbolTable
 70
     2
  0
STYLE
  5
17
330
3
100
AcDbSymbolTableRecord
100
AcDbTextStyleTableRecord
  2
Standard
 70
     0
 40
0.0
 41
1.0
 50
0.0
 71
     0
 42
0.0
  3
txt
  4

  0
ENDTAB
  0
TABLE
  2
VIEW
  5
5
330
0
100
AcDbSymbolTable
 70
     0
  0
ENDTAB
  0
TABLE
  2
UCS
  5
6
330
0
100
AcDbSymbolTable
 70
     0
  0
ENDTAB
  0
TABLE
  2
APPID
  5
8
330
0
100
AcDbSymbolTable
 70
     3
  0
APPID
  5
16
330
8
100
AcDbSymbolTableRecord
100
AcDbRegAppTableRecord
  2
ACAD
 70
     0
  0
APPID
  5
41F
330
8
100
AcDbSymbolTableRecord
100
AcDbRegAppTableRecord
  2
ACAD_PSEXT
 70
     0
  0
APPID
  5
449
330
8
100
AcDbSymbolTableRecord
100
AcDbRegAppTableRecord
  2
ACAD_MLEADERVER
 70
     0
  0
ENDTAB
  0
TABLE
  2
DIMSTYLE
  5
9
330
0
100
AcDbSymbolTable
 70
     2
100
AcDbDimStyleTable
 71
     1
340
18
  0
DIMSTYLE
105
18
102
{ACAD_REACTORS
330
3F5
330
400
102
}
330
9
100
AcDbSymbolTableRecord
100
AcDbDimStyleTableRecord
  2
Standard
 70
     0
289
     0
340
17
  0
ENDTAB
  0
TABLE
  2
BLOCK_RECORD
  5
1
330
0
100
AcDbSymbolTable
 70
     3
  0
BLOCK_RECORD
  5
A
330
1
100
AcDbSymbolTableRecord
100
AcDbBlockTableRecord
  2
*MODEL_SPACE
340
20
  0
BLOCK_RECORD
  5
B
330
1
100
AcDbSymbolTableRecord
100
AcDbBlockTableRecord
  2
*PAPER_SPACE
340
21
  0
BLOCK_RECORD
  5
3EB
330
1
100
AcDbSymbolTableRecord
100
AcDbBlockTableRecord
  2
*D0
340
0
  0
BLOCK_RECORD
  5
3F6
330
1
100
AcDbSymbolTableRecord
100
AcDbBlockTableRecord
  2
*D1
340
0
  0
ENDTAB
  0
ENDSEC
  0
SECTION
  2
BLOCKS
  0
BLOCK
  5
D
330
A
100
AcDbEntity
  8
0
100
AcDbBlockBegin
  2
*MODEL_SPACE
 70
     0
 10
0.0
 20
0.0
 30
0.0
  3
*MODEL_SPACE
  1

  0
ENDBLK
  5
E
330
A
100
AcDbEntity
  8
0
100
AcDbBlockEnd
  0
BLOCK
  5
F
330
B
100
AcDbEntity
 67
     1
  8
0
100
AcDbBlockBegin
  2
*PAPER_SPACE
 70
     0
 10
0.0
 20
0.0
 30
0.0
  3
*PAPER_SPACE
  1

  0
ENDBLK
  5
10
330
B
100
AcDbEntity
 67
     1
  8
0
100
AcDbBlockEnd
  0
BLOCK
  5
3EC
330
3EB
100
AcDbEntity
  8
0
  6
solid
 62
     7
100
AcDbBlockBegin
  2
*D0
 70
     0
 10
0.0
 20
0.0
 30
0.0
  3
*D0
  1

  0
LINE
  5
3ED
330
3EB
100
AcDbEntity
  8
0
  6
solid
 62
     7
100
AcDbLine
 10
-1.629303097724914
 20
0.4593237936496736
 30
0.0
 11
-1.92411377634037
 21
0.4593237936496738
 31
0.0
  0
LINE
  5
3EE
330
3EB
100
AcDbEntity
  8
0
  6
solid
 62
     7
100
AcDbLine
 10
-1.527716040611267
 20
1.053881645202636
 30
0.0
 11
-1.924113776340369
 21
1.053881645202636
 31
0.0
  0
LINE
  5
3EF
330
3EB
100
AcDbEntity
  8
0
  6
solid
 62
     7
100
AcDbLine
 10
-1.86161377634037
 20
0.4593237936496737
 30
0.0
 11
-1.861613776340369
 21
0.6266964694261552
 31
0.0
  0
LINE
  5
3F0
330
3EB
100
AcDbEntity
  8
0
  6
solid
 62
     7
100
AcDbLine
 10
-1.861613776340369
 20
1.053881645202636
 30
0.0
 11
-1.861613776340369
 21
0.8865089694261554
 31
0.0
  0
MTEXT
  5
3F1
330
3EB
100
AcDbEntity
  8
0
  6
solid
 62
     7
100
AcDbMText
 10
-1.861613776340369
 20
0.7566027194261553
 30
0.0
 40
0.125
 41
0.0
 71
     5
 72
     1
  1
{\H0.125000;5/8}
 73
     1
 44
1.0
  0
SOLID
  5
3F2
330
3EB
100
AcDbEntity
  8
0
  6
solid
 62
     7
100
AcDbTrace
 10
-1.882428776340369
 20
0.5843237936496737
 30
0.0
 11
-1.840798776340369
 21
0.5843237936496736
 31
0.0
 12
-1.86161377634037
 22
0.4593237936496737
 32
0.0
 13
-1.86161377634037
 23
0.4593237936496737
 33
0.0
  0
SOLID
  5
3F3
330
3EB
100
AcDbEntity
  8
0
  6
solid
 62
     7
100
AcDbTrace
 10
-1.840798776340369
 20
0.9288816452026368
 30
0.0
 11
-1.882428776340369
 21
0.9288816452026368
 31
0.0
 12
-1.861613776340369
 22
1.053881645202636
 32
0.0
 13
-1.861613776340369
 23
1.053881645202636
 33
0.0
  0
ENDBLK
  5
3F4
330
3EB
100
AcDbEntity
  8
0
  6
solid
 62
     7
100
AcDbBlockEnd
  0
BLOCK
  5
3F7
330
3F6
100
AcDbEntity
  8
0
  6
solid
 62
     7
100
AcDbBlockBegin
  2
*D1
 70
     0
 10
0.0
 20
0.0
 30
0.0
  3
*D1
  1

  0
LINE
  5
3F8
330
3F6
100
AcDbEntity
  8
0
  6
solid
 62
     7
100
AcDbLine
 10
-1.504303097724914
 20
0.3343237936496735
 30
0.0
 11
-1.504303097724914
 21
0.1823279650445877
 31
0.0
  0
LINE
  5
3F9
330
3F6
100
AcDbEntity
  8
0
  6
solid
 62
     7
100
AcDbLine
 10
-0.6334369778633118
 20
0.6564103960990906
 30
0.0
 11
-0.6334369778633118
 21
0.1823279650445877
 31
0.0
  0
LINE
  5
3FA
330
3F6
100
AcDbEntity
  8
0
  6
solid
 62
     7
100
AcDbLine
 10
-1.504303097724914
 20
0.2448279650445877
 30
0.0
 11
-1.302602730101805
 21
0.2448279650445877
 31
0.0
  0
LINE
  5
3FB
330
3F6
100
AcDbEntity
  8
0
  6
solid
 62
     7
100
AcDbLine
 10
-0.6334369778633118
 20
0.2448279650445877
 30
0.0
 11
-0.8351373454864209
 21
0.2448279650445877
 31
0.0
  0
MTEXT
  5
3FC
330
3F6
100
AcDbEntity
  8
0
  6
solid
 62
     7
100
AcDbMText
 10
-1.068870037794113
 20
0.2448279650445877
 30
0.0
 40
0.125
 41
0.0
 71
     5
 72
     1
  1
{\H0.125000;7/8}
 73
     1
 44
1.0
  0
SOLID
  5
3FD
330
3F6
100
AcDbEntity
  8
0
  6
solid
 62
     7
100
AcDbTrace
 10
-1.379303097724914
 20
0.2656429650445877
 30
0.0
 11
-1.379303097724914
 21
0.2240129650445877
 31
0.0
 12
-1.504303097724914
 22
0.2448279650445877
 32
0.0
 13
-1.504303097724914
 23
0.2448279650445877
 33
0.0
  0
SOLID
  5
3FE
330
3F6
100
AcDbEntity
  8
0
  6
solid
 62
     7
100
AcDbTrace
 10
-0.7584369778633118
 20
0.2240129650445877
 30
0.0
 11
-0.7584369778633118
 21
0.2656429650445877
 31
0.0
 12
-0.6334369778633118
 22
0.2448279650445877
 32
0.0
 13
-0.6334369778633118
 23
0.2448279650445877
 33
0.0
  0
ENDBLK
  5
3FF
330
3F6
100
AcDbEntity
  8
0
  6
solid
 62
     7
100
AcDbBlockEnd
  0
ENDSEC
  0
SECTION
  2
ENTITIES
  0
LINE
  5
28
330
A
100
AcDbEntity
  8
1
  6
solid
 62
     7
100
AcDbLine
 10
0.5932677388191224
 20
1.059881925582885
 30
0.0
 11
0.5922834873199463
 21
1.047992229461669
 31
0.0
  0
LINE
  5
29
330
A
100
AcDbEntity
  8
1
  6
solid
 62
     7
100
AcDbLine
 10
0.5922834873199463
 20
1.047992229461669
 30
0.0
 11
0.5885039567947388
 21
1.049133896827697
 31
0.0
  0
LINE
  5
2A
330
A
100
AcDbEntity
  8
1
  6
solid
 62
     7
100
AcDbLine
 10
0.5885039567947388
 20
1.049133896827697
 30
0.0
 11
0.5849606394767762
 21
1.055000066757202
 31
0.0
  0
ARC
  5
2B
330
A
100
AcDbEntity
  8
1
  6
solid
 62
     7
100
AcDbCircle
 10
0.5924864066454322
 20
1.051702831284248
 30
0.0
 40
0.0082163820043206
100
AcDbArc
 50
84.5434736595817
 51
156.3405165919773
  0
ARC
  5
2C
330
A
100
AcDbEntity
  8
1
  6
solid
 62
     7
100
AcDbCircle
 10
2.014553250367407
 20
1.021010432780811
 30
0.0
 40
0.0069562797434628
100
AcDbArc
 50
350.6673217256483
 51
412.5851927029158
  0
ARC
  5
2D
330
A
100
AcDbEntity
  8
1
  6
solid
 62
     7
100
AcDbCircle
 10
2.023129488079127
 20
1.024410339877559
 30
0.0
 40
0.004841229878366
100
AcDbArc
 50
153.9605440058755
 51
249.2891732328525
  0
LINE
  5
2E
330
A
100
AcDbEntity
  8
1
  6
solid
 62
     7
100
AcDbLine
 10
0.1050000041723251
 20
1.013188958168029
 30
0.0
 11
0.60185045003891
 21
1.013188958168029
 31
0.0
  0
LINE
  5
2F
330
A
100
AcDbEntity
  8
1
  6
solid
 62
     7
100
AcDbLine
 10
0.60185045003891
 20
1.013188958168029
 30
0.0
 11
0.6256693601608277
 21
1.010196924209594
 31
0.0
  0
LINE
  5
30
330
A
100
AcDbEntity
  8
1
  6
solid
 62
     7
100
AcDbLine
 10
0.6256693601608277
 20
1.010196924209594
 30
0.0
 11
0.6303937435150147
 21
1.011614203453063
 31
0.0
  0
LINE
  5
31
330
A
100
AcDbEntity
  8
1
  6
solid
 62
     7
100
AcDbLine
 10
0.6303937435150147
 20
1.011614203453063
 30
0.0
 11
0.6819291710853577
 21
1.013188958168029
 31
0.0
  0
LINE
  5
32
330
A
100
AcDbEntity
  8
1
  6
solid
 62
     7
100
AcDbLine
 10
0.6819291710853577
 20
1.013188958168029
 30
0.0
 11
0.7014173269271851
 21
1.011338710784912
 31
0.0
  0
ARC
  5
33
330
A
100
AcDbEntity
  8
1
  6
solid
 62
     7
100
AcDbCircle
 10
0.7220005482407728
 20
0.8781499072517503
 30
0.0
 40
0.1347699016332626
100
AcDbArc
 50
79.15309178170222
 51
98.78508743759695
  0
LINE
  5
34
330
A
100
AcDbEntity
  8
1
  6
solid
 62
     7
100
AcDbLine
 10
0.7473622560501099
 20
1.010511875152587
 30
0.0
 11
0.7615748643875122
 21
1.011889815330505
 31
0.0
  0
LINE
  5
35
330
A
100
AcDbEntity
  8
1
  6
solid
 62
     7
100
AcDbLine
 10
0.7615748643875122
 20
1.011889815330505
 30
0.0
 11
0.7645669579505921
 21
1.010866165161132
 31
0.0
  0
LINE
  5
36
330
A
100
AcDbEntity
  8
1
  6
solid
 62
     7
100
AcDbLine
 10
0.7645669579505921
 20
1.010866165161132
 30
0.0
 11
1.140039443969726
 21
1.008818984031677
 31
0.0
  0
ARC
  5
37
330
A
100
AcDbEntity
  8
1
  6
solid
 62
     7
100
AcDbCircle
 10
1.161350024421583
 20
1.096261378125797
 30
0.0
 40
0.0900017395615578
100
AcDbArc
 50
256.3034496613755
 51
282.9348046126458
  0
LINE
  5
38
330
A
100
AcDbEntity
  8
1
  6
solid
 62
     7
100
AcDbLine
 10
1.181496143341064
 20
1.008543372154235
 30
0.0
 11
1.18452763557434
 21
1.007559061050415
 31
0.0
  0
LINE
  5
39
330
A
100
AcDbEntity
  8
1
  6
solid
 62
     7
100
AcDbLine
 10
1.18452763557434
 20
1.007559061050415
 30
0.0
 11
1.225748062133789
 21
1.006614208221435
 31
0.0
  0
LINE
  5
3A
330
A
100
AcDbEntity
  8
1
  6
solid
 62
     7
100
AcDbLine
 10
1.225748062133789
 20
1.006614208221435
 30
0.0
 11
1.513976454734802
 21
1.005944967269897
 31
0.0
  0
LINE
  5
3B
330
A
100
AcDbEntity
  8
1
  6
solid
 62
     7
100
AcDbLine
 10
1.513976454734802
 20
1.005944967269897
 30
0.0
 11
1.521063089370727
 21
1.004567027091979
 31
0.0
  0
LINE
  5
3C
330
A
100
AcDbEntity
  8
1
  6
solid
 62
     7
100
AcDbLine
 10
1.521063089370727
 20
1.004567027091979
 30
0.0
 11
1.583976507186889
 21
1.003188967704772
 31
0.0
  0
LINE
  5
3D
330
A
100
AcDbEntity
  8
1
  6
solid
 62
     7
100
AcDbLine
 10
1.583976507186889
 20
1.003188967704772
 30
0.0
 11
1.596811175346374
 21
1.005196928977966
 31
0.0
  0
LINE
  5
3E
330
A
100
AcDbEntity
  8
1
  6
solid
 62
     7
100
AcDbLine
 10
1.596811175346374
 20
1.005196928977966
 30
0.0
 11
1.598818898200988
 21
1.003188967704772
 31
0.0
  0
LINE
  5
3F
330
A
100
AcDbEntity
  8
1
  6
solid
 62
     7
100
AcDbLine
 10
1.598818898200988
 20
1.003188967704772
 30
0.0
 11
2.051732301712036
 21
1.003188967704772
 31
0.0
  0
LINE
  5
40
330
A
100
AcDbEntity
  8
1
  6
solid
 62
     7
100
AcDbLine
 10
2.051732301712036
 20
1.003188967704772
 30
0.0
 11
2.066299200057983
 21
1.001338720321655
 31
0.0
  0
LINE
  5
41
330
A
100
AcDbEntity
  8
1
  6
solid
 62
     7
100
AcDbLine
 10
2.066299200057983
 20
1.001338720321655
 30
0.0
 11
2.137874126434326
 21
1.000511884689331
 31
0.0
  0
LINE
  5
42
330
A
100
AcDbEntity
  8
1
  6
solid
 62
     7
100
AcDbLine
 10
2.137874126434326
 20
1.000511884689331
 30
0.0
 11
2.140236377716064
 21
1.001574873924255
 31
0.0
  0
ARC
  5
43
330
A
100
AcDbEntity
  8
1
  6
solid
 62
     7
100
AcDbCircle
 10
2.363842460979521
 20
11.09912547592031
 30
0.0
 40
10.10002613067627
100
AcDbArc
 50
268.7314159883205
 51
270.5959857013043
  0
LINE
  5
44
330
A
100
AcDbEntity
  8
1
  6
solid
 62
     7
100
AcDbLine
 10
2.468897819519042
 20
0.999645709991455
 30
0.0
 11
2.473701000213623
 21
0.9985827207565307
 31
0.0
  0
ARC
  5
45
330
A
100
AcDbEntity
  8
1
  6
solid
 62
     7
100
AcDbCircle
 10
2.483644600769048
 20
0.8985708129600491
 30
0.0
 40
0.1005050092935562
100
AcDbArc
 50
80.56614863795115
 51
95.67792510113141
  0
ARC
  5
46
330
A
100
AcDbEntity
  8
1
  6
solid
 62
     7
100
AcDbCircle
 10
2.515741545244595
 20
0.890864613157124
 30
0.0
 40
0.1079881265759468
100
AcDbArc
 50
78.10912468782245
 51
98.31851721539337
  0
LINE
  5
47
330
A
100
AcDbEntity
  8
1
  6
solid
 62
     7
100
AcDbLine
 10
2.537992238998413
 20
0.9965354800224304
 30
0.0
 11
2.550000190734863
 21
0.998543381690979
 31
0.0
  0
LINE
  5
48
330
A
100
AcDbEntity
  8
1
  6
solid
 62
     7
100
AcDbLine
 10
2.550000190734863
 20
0.998543381690979
 30
0.0
 11
2.552047491073608
 21
0.9965354800224304
 31
0.0
  0
LINE
  5
49
330
A
100
AcDbEntity
  8
1
  6
solid
 62
     7
100
AcDbLine
 10
2.552047491073608
 20
0.9965354800224304
 30
0.0
 11
2.868622303009033
 21
0.994803249835968
 31
0.0
  0
LINE
  5
4A
330
A
100
AcDbEntity
  8
1
  6
solid
 62
     7
100
AcDbLine
 10
2.868622303009033
 20
0.994803249835968
 30
0.0
 11
2.906417608261108
 21
0.9961418509483337
 31
0.0
  0
LINE
  5
4B
330
A
100
AcDbEntity
  8
1
  6
solid
 62
     7
100
AcDbLine
 10
2.906417608261108
 20
0.9961418509483337
 30
0.0
 11
2.975394010543823
 21
0.9942126274108886
 31
0.0
  0
LINE
  5
4C
330
A
100
AcDbEntity
  8
1
  6
solid
 62
     7
100
AcDbLine
 10
2.975394010543823
 20
0.9942126274108886
 30
0.0
 11
2.977047443389892
 21
0.9930315613746643
 31
0.0
  0
LINE
  5
4D
330
A
100
AcDbEntity
  8
1
  6
solid
 62
     7
100
AcDbLine
 10
2.977047443389892
 20
0.9930315613746643
 30
0.0
 11
2.985079050064086
 21
0.97385835647583
 31
0.0
  0
LINE
  5
4E
330
A
100
AcDbEntity
  8
1
  6
solid
 62
     7
100
AcDbLine
 10
2.985079050064086
 20
0.97385835647583
 30
0.0
 11
2.994921684265136
 21
0.9628740549087524
 31
0.0
  0
LINE
  5
4F
330
A
100
AcDbEntity
  8
1
  6
solid
 62
     7
100
AcDbLine
 10
2.994921684265136
 20
0.9628740549087524
 30
0.0
 11
3.012126207351684
 21
0.9387402534484863
 31
0.0
  0
LINE
  5
50
330
A
100
AcDbEntity
  8
1
  6
solid
 62
     7
100
AcDbLine
 10
3.012126207351684
 20
0.9387402534484863
 30
0.0
 11
3.012322902679443
 21
0.9357481002807617
 31
0.0
  0
ARC
  5
51
330
A
100
AcDbEntity
  8
1
  6
solid
 62
     7
100
AcDbCircle
 10
2.989619145970237
 20
0.9221523837200461
 30
0.0
 40
0.026463259011507
100
AcDbArc
 50
357.8117815597517
 51
390.9144880326098
  0
LINE
  5
52
330
A
100
AcDbEntity
  8
1
  6
solid
 62
     7
100
AcDbLine
 10
3.016063213348388
 20
0.9211418032646179
 30
0.0
 11
3.005393981933593
 21
0.8013780117034912
 31
0.0
  0
LINE
  5
53
330
A
100
AcDbEntity
  8
1
  6
solid
 62
     7
100
AcDbLine
 10
3.005393981933593
 20
0.8013780117034912
 30
0.0
 11
3.016811370849609
 21
0.6742520332336426
 31
0.0
  0
LINE
  5
54
330
A
100
AcDbEntity
  8
1
  6
solid
 62
     7
100
AcDbLine
 10
3.016811370849609
 20
0.6742520332336426
 30
0.0
 11
3.017795324325561
 21
0.6720079183578492
 31
0.0
  0
LINE
  5
55
330
A
100
AcDbEntity
  8
1
  6
solid
 62
     7
100
AcDbLine
 10
3.017795324325561
 20
0.6720079183578492
 30
0.0
 11
3.022795677185058
 21
0.6124410033226014
 31
0.0
  0
LINE
  5
56
330
A
100
AcDbEntity
  8
1
  6
solid
 62
     7
100
AcDbLine
 10
3.022795677185058
 20
0.6124410033226014
 30
0.0
 11
3.025551557540893
 21
0.5485039949417115
 31
0.0
  0
LINE
  5
57
330
A
100
AcDbEntity
  8
1
  6
solid
 62
     7
100
AcDbLine
 10
3.025551557540893
 20
0.5485039949417115
 30
0.0
 11
3.017165422439575
 21
0.4831890165805817
 31
0.0
  0
LINE
  5
58
330
A
100
AcDbEntity
  8
1
  6
solid
 62
     7
100
AcDbLine
 10
3.017165422439575
 20
0.4831890165805817
 30
0.0
 11
2.998779773712158
 21
0.4044488668441773
 31
0.0
  0
LINE
  5
59
330
A
100
AcDbEntity
  8
1
  6
solid
 62
     7
100
AcDbLine
 10
2.998779773712158
 20
0.4044488668441773
 30
0.0
 11
2.983346462249755
 21
0.3750787675380707
 31
0.0
  0
LINE
  5
5A
330
A
100
AcDbEntity
  8
1
  6
solid
 62
     7
100
AcDbLine
 10
2.983346462249755
 20
0.3750787675380707
 30
0.0
 11
2.985984325408935
 21
0.3603937029838562
 31
0.0
  0
LINE
  5
5B
330
A
100
AcDbEntity
  8
1
  6
solid
 62
     7
100
AcDbLine
 10
2.985984325408935
 20
0.3603937029838562
 30
0.0
 11
2.984409570693969
 21
0.3457480669021606
 31
0.0
  0
LINE
  5
5C
330
A
100
AcDbEntity
  8
1
  6
solid
 62
     7
100
AcDbLine
 10
2.984409570693969
 20
0.3457480669021606
 30
0.0
 11
2.966023921966552
 21
0.2993307113647461
 31
0.0
  0
LINE
  5
5D
330
A
100
AcDbEntity
  8
1
  6
solid
 62
     7
100
AcDbLine
 10
2.966023921966552
 20
0.2993307113647461
 30
0.0
 11
2.963582754135131
 21
0.2848031520843506
 31
0.0
  0
LINE
  5
5E
330
A
100
AcDbEntity
  8
1
  6
solid
 62
     7
100
AcDbLine
 10
2.963582754135131
 20
0.2848031520843506
 30
0.0
 11
2.966141939163208
 21
0.2653937041759491
 31
0.0
  0
LINE
  5
5F
330
A
100
AcDbEntity
  8
1
  6
solid
 62
     7
100
AcDbLine
 10
2.966141939163208
 20
0.2653937041759491
 30
0.0
 11
2.979842662811279
 21
0.2368110418319702
 31
0.0
  0
LINE
  5
60
330
A
100
AcDbEntity
  8
1
  6
solid
 62
     7
100
AcDbLine
 10
2.979842662811279
 20
0.2368110418319702
 30
0.0
 11
2.983661651611328
 21
0.2056299299001694
 31
0.0
  0
LINE
  5
61
330
A
100
AcDbEntity
  8
1
  6
solid
 62
     7
100
AcDbLine
 10
2.983661651611328
 20
0.2056299299001694
 30
0.0
 11
2.988110303878784
 21
0.2010630071163177
 31
0.0
  0
LINE
  5
62
330
A
100
AcDbEntity
  8
1
  6
solid
 62
     7
100
AcDbLine
 10
2.988110303878784
 20
0.2010630071163177
 30
0.0
 11
3.005039453506469
 21
0.1953937113285065
 31
0.0
  0
LINE
  5
63
330
A
100
AcDbEntity
  8
1
  6
solid
 62
     7
100
AcDbLine
 10
3.005039453506469
 20
0.1953937113285065
 30
0.0
 11
3.005827188491821
 21
0.1898425221443176
 31
0.0
  0
LINE
  5
64
330
A
100
AcDbEntity
  8
1
  6
solid
 62
     7
100
AcDbLine
 10
3.005827188491821
 20
0.1898425221443176
 30
0.0
 11
3.001378059387207
 21
0.1810630112886429
 31
0.0
  0
LINE
  5
65
330
A
100
AcDbEntity
  8
1
  6
solid
 62
     7
100
AcDbLine
 10
3.001378059387207
 20
0.1810630112886429
 30
0.0
 11
2.987126111984252
 21
0.1436220556497574
 31
0.0
  0
LINE
  5
66
330
A
100
AcDbEntity
  8
1
  6
solid
 62
     7
100
AcDbLine
 10
2.987126111984252
 20
0.1436220556497574
 30
0.0
 11
2.981889963150024
 21
0.1131889894604683
 31
0.0
  0
LINE
  5
67
330
A
100
AcDbEntity
  8
1
  6
solid
 62
     7
100
AcDbLine
 10
2.981889963150024
 20
0.1131889894604683
 30
0.0
 11
2.979055404663085
 21
0.1114960685372353
 31
0.0
  0
LINE
  5
68
330
A
100
AcDbEntity
  8
1
  6
solid
 62
     7
100
AcDbLine
 10
2.979055404663085
 20
0.1114960685372353
 30
0.0
 11
2.954645872116088
 21
0.1077165380120277
 31
0.0
  0
LINE
  5
69
330
A
100
AcDbEntity
  8
1
  6
solid
 62
     7
100
AcDbLine
 10
2.954645872116088
 20
0.1077165380120277
 30
0.0
 11
2.946614265441894
 21
0.1037795320153236
 31
0.0
  0
ARC
  5
6A
330
A
100
AcDbEntity
  8
1
  6
solid
 62
     7
100
AcDbCircle
 10
2.923925830226726
 20
0.0307707093376819
 30
0.0
 40
0.076452948153019
100
AcDbArc
 50
72.73669254708178
 51
97.0015235547261
  0
LINE
  5
6B
330
A
100
AcDbEntity
  8
1
  6
solid
 62
     7
100
AcDbLine
 10
2.914606571197509
 20
0.1066535487771034
 30
0.0
 11
2.907953023910522
 21
0.1079921275377274
 31
0.0
  0
LINE
  5
6C
330
A
100
AcDbEntity
  8
1
  6
solid
 62
     7
100
AcDbLine
 10
2.907953023910522
 20
0.1079921275377274
 30
0.0
 11
2.500118255615234
 21
0.1066535487771034
 31
0.0
  0
LINE
  5
6D
330
A
100
AcDbEntity
  8
1
  6
solid
 62
     7
100
AcDbLine
 10
2.500118255615234
 20
0.1066535487771034
 30
0.0
 11
2.393307209014892
 21
0.1083070933818817
 31
0.0
  0
LINE
  5
6E
330
A
100
AcDbEntity
  8
1
  6
solid
 62
     7
100
AcDbLine
 10
2.393307209014892
 20
0.1083070933818817
 30
0.0
 11
2.379409551620483
 21
0.1075590625405312
 31
0.0
  0
LINE
  5
6F
330
A
100
AcDbEntity
  8
1
  6
solid
 62
     7
100
AcDbLine
 10
2.379409551620483
 20
0.1075590625405312
 30
0.0
 11
2.374606370925903
 21
0.1085039377212524
 31
0.0
  0
LINE
  5
70
330
A
100
AcDbEntity
  8
1
  6
solid
 62
     7
100
AcDbLine
 10
2.374606370925903
 20
0.1085039377212524
 30
0.0
 11
2.365708827972412
 21
0.1077952831983566
 31
0.0
  0
LINE
  5
71
330
A
100
AcDbEntity
  8
1
  6
solid
 62
     7
100
AcDbLine
 10
2.365708827972412
 20
0.1077952831983566
 30
0.0
 11
2.190078973770141
 21
0.1100000068545341
 31
0.0
  0
LINE
  5
72
330
A
100
AcDbEntity
  8
1
  6
solid
 62
     7
100
AcDbLine
 10
2.190078973770141
 20
0.1100000068545341
 30
0.0
 11
2.176023721694946
 21
0.1079921275377274
 31
0.0
  0
LINE
  5
73
330
A
100
AcDbEntity
  8
1
  6
solid
 62
     7
100
AcDbLine
 10
2.176023721694946
 20
0.1079921275377274
 30
0.0
 11
2.174015760421752
 21
0.1100000068545341
 31
0.0
  0
LINE
  5
74
330
A
100
AcDbEntity
  8
1
  6
solid
 62
     7
100
AcDbLine
 10
2.174015760421752
 20
0.1100000068545341
 30
0.0
 11
0.4199606776237488
 21
0.1100000068545341
 31
0.0
  0
LINE
  5
75
330
A
100
AcDbEntity
  8
1
  6
solid
 62
     7
100
AcDbLine
 10
0.4199606776237488
 20
0.1100000068545341
 30
0.0
 11
0.4202755987644196
 21
0.1594094634056091
 31
0.0
  0
LINE
  5
76
330
A
100
AcDbEntity
  8
1
  6
solid
 62
     7
100
AcDbLine
 10
0.4202755987644196
 20
0.1594094634056091
 30
0.0
 11
0.4226771593093872
 21
0.1707086861133575
 31
0.0
  0
LINE
  5
77
330
A
100
AcDbEntity
  8
1
  6
solid
 62
     7
100
AcDbLine
 10
0.4226771593093872
 20
0.1707086861133575
 30
0.0
 11
0.4207480549812317
 21
0.1741338670253754
 31
0.0
  0
LINE
  5
78
330
A
100
AcDbEntity
  8
1
  6
solid
 62
     7
100
AcDbLine
 10
0.4207480549812317
 20
0.1741338670253754
 30
0.0
 11
0.4205905795097351
 21
0.2287008166313171
 31
0.0
  0
LINE
  5
79
330
A
100
AcDbEntity
  8
1
  6
solid
 62
     7
100
AcDbLine
 10
0.4205905795097351
 20
0.2287008166313171
 30
0.0
 11
0.4215748310089112
 21
0.2334252148866653
 31
0.0
  0
LINE
  5
7A
330
A
100
AcDbEntity
  8
1
  6
solid
 62
     7
100
AcDbLine
 10
0.4215748310089112
 20
0.2334252148866653
 30
0.0
 11
0.4232677519321442
 21
0.3329527974128723
 31
0.0
  0
LINE
  5
7B
330
A
100
AcDbEntity
  8
1
  6
solid
 62
     7
100
AcDbLine
 10
0.4232677519321442
 20
0.3329527974128723
 30
0.0
 11
0.4222441017627716
 21
0.3546850681304932
 31
0.0
  0
LINE
  5
7C
330
A
100
AcDbEntity
  8
1
  6
solid
 62
     7
100
AcDbLine
 10
0.4222441017627716
 20
0.3546850681304932
 30
0.0
 11
0.4204331040382386
 21
0.3654330968856811
 31
0.0
  0
LINE
  5
7D
330
A
100
AcDbEntity
  8
1
  6
solid
 62
     7
100
AcDbLine
 10
0.4204331040382386
 20
0.3654330968856811
 30
0.0
 11
0.1362204849720001
 21
0.3950393795967102
 31
0.0
  0
LINE
  5
7E
330
A
100
AcDbEntity
  8
1
  6
solid
 62
     7
100
AcDbLine
 10
0.1362204849720001
 20
0.3950393795967102
 30
0.0
 11
0.1080708727240562
 21
0.3969685137271881
 31
0.0
  0
LINE
  5
7F
330
A
100
AcDbEntity
  8
1
  6
solid
 62
     7
100
AcDbLine
 10
0.1080708727240562
 20
0.3969685137271881
 30
0.0
 11
0.1021259874105453
 21
0.398779571056366
 31
0.0
  0
LINE
  5
80
330
A
100
AcDbEntity
  8
1
  6
solid
 62
     7
100
AcDbLine
 10
0.1021259874105453
 20
0.398779571056366
 30
0.0
 11
0.1000000089406967
 21
0.4009055495262146
 31
0.0
  0
LINE
  5
81
330
A
100
AcDbEntity
  8
1
  6
solid
 62
     7
100
AcDbLine
 10
0.1000000089406967
 20
0.4009055495262146
 30
0.0
 11
0.1000000089406967
 21
0.9473623037338256
 31
0.0
  0
LINE
  5
82
330
A
100
AcDbEntity
  8
1
  6
solid
 62
     7
100
AcDbLine
 10
0.1000000089406967
 20
0.9473623037338256
 30
0.0
 11
0.1020472422242165
 21
0.9578741192817687
 31
0.0
  0
LINE
  5
83
330
A
100
AcDbEntity
  8
1
  6
solid
 62
     7
100
AcDbLine
 10
0.1020472422242165
 20
0.9578741192817687
 30
0.0
 11
0.100078746676445
 21
1.006693005561828
 31
0.0
  0
LINE
  5
84
330
A
100
AcDbEntity
  8
1
  6
solid
 62
     7
100
AcDbLine
 10
0.100078746676445
 20
1.006693005561828
 30
0.0
 11
0.1024803221225738
 21
1.013188958168029
 31
0.0
  0
LINE
  5
85
330
A
100
AcDbEntity
  8
1
  6
solid
 62
     7
100
AcDbLine
 10
0.1024803221225738
 20
1.013188958168029
 30
0.0
 11
0.1050000041723251
 21
1.013188958168029
 31
0.0
  0
LINE
  5
86
330
A
100
AcDbEntity
  8
1
  6
solid
 62
     7
100
AcDbLine
 10
0.1166535466909409
 20
0.9948819279670715
 30
0.0
 11
0.1166535466909409
 21
0.9115355014801025
 31
0.0
  0
LINE
  5
87
330
A
100
AcDbEntity
  8
1
  6
solid
 62
     7
100
AcDbLine
 10
0.1166535466909409
 20
0.9115355014801025
 30
0.0
 11
0.1153149679303169
 21
0.9068110585212707
 31
0.0
  0
LINE
  5
88
330
A
100
AcDbEntity
  8
1
  6
solid
 62
     7
100
AcDbLine
 10
0.1153149679303169
 20
0.9068110585212707
 30
0.0
 11
0.1162204816937447
 21
0.8392520546913146
 31
0.0
  0
LINE
  5
89
330
A
100
AcDbEntity
  8
1
  6
solid
 62
     7
100
AcDbLine
 10
0.1162204816937447
 20
0.8392520546913146
 30
0.0
 11
0.1146456748247147
 21
0.8226772546768188
 31
0.0
  0
LINE
  5
8A
330
A
100
AcDbEntity
  8
1
  6
solid
 62
     7
100
AcDbLine
 10
0.1146456748247147
 20
0.8226772546768188
 30
0.0
 11
0.1162992268800735
 21
0.8129922151565551
 31
0.0
  0
ARC
  5
8B
330
A
100
AcDbEntity
  8
1
  6
solid
 62
     7
100
AcDbCircle
 10
0.1891298204477302
 20
0.7959654454957485
 30
0.0
 40
0.0747944265604019
100
AcDbArc
 50
166.8413860257383
 51
191.3082267082749
  0
ARC
  5
8C
330
A
100
AcDbEntity
  8
1
  6
solid
 62
     7
100
AcDbCircle
 10
-0.0355376843324974
 20
0.7671600711182545
 30
0.0
 40
0.1519842147827148
100
AcDbArc
 50
351.4660713679463
 51
365.3379943269454
  0
LINE
  5
8D
330
A
100
AcDbEntity
  8
1
  6
solid
 62
     7
100
AcDbLine
 10
0.1147637888789177
 20
0.7446063160896302
 30
0.0
 11
0.1157874092459679
 21
0.7086220979690552
 31
0.0
  0
LINE
  5
8E
330
A
100
AcDbEntity
  8
1
  6
solid
 62
     7
100
AcDbLine
 10
0.1157874092459679
 20
0.7086220979690552
 30
0.0
 11
0.1147244125604629
 21
0.7045276165008545
 31
0.0
  0
ARC
  5
8F
330
A
100
AcDbEntity
  8
1
  6
solid
 62
     7
100
AcDbCircle
 10
-0.0183335796521532
 20
0.6860108346952688
 30
0.0
 40
0.1343402415513992
100
AcDbArc
 50
350.3213589838088
 51
367.9225840126552
  0
ARC
  5
90
330
A
100
AcDbEntity
  8
1
  6
solid
 62
     7
100
AcDbCircle
 10
0.0686218522256092
 20
0.6510034635356133
 30
0.0
 40
0.0471387580037117
100
AcDbArc
 50
345.4653130499832
 51
375.278774588387
  0
LINE
  5
91
330
A
100
AcDbEntity
  8
1
  6
solid
 62
     7
100
AcDbLine
 10
0.1142519786953926
 20
0.6391732692718506
 30
0.0
 11
0.1133070886135101
 21
0.5602756142616272
 31
0.0
  0
LINE
  5
92
330
A
100
AcDbEntity
  8
1
  6
solid
 62
     7
100
AcDbLine
 10
0.1133070886135101
 20
0.5602756142616272
 30
0.0
 11
0.1153149679303169
 21
0.5482677221298218
 31
0.0
  0
LINE
  5
93
330
A
100
AcDbEntity
  8
1
  6
solid
 62
     7
100
AcDbLine
 10
0.1153149679303169
 20
0.5482677221298218
 30
0.0
 11
0.11543308198452
 21
0.4135039448738099
 31
0.0
  0
LINE
  5
94
330
A
100
AcDbEntity
  8
1
  6
solid
 62
     7
100
AcDbLine
 10
0.11543308198452
 20
0.4135039448738099
 30
0.0
 11
0.1179921329021454
 21
0.4119291603565216
 31
0.0
  0
LINE
  5
95
330
A
100
AcDbEntity
  8
1
  6
solid
 62
     7
100
AcDbLine
 10
0.1179921329021454
 20
0.4119291603565216
 30
0.0
 11
0.4219685196876526
 21
0.3799606263637543
 31
0.0
  0
LINE
  5
96
330
A
100
AcDbEntity
  8
1
  6
solid
 62
     7
100
AcDbLine
 10
0.4219685196876526
 20
0.3799606263637543
 30
0.0
 11
0.4366141855716706
 21
0.3766141831874847
 31
0.0
  0
LINE
  5
97
330
A
100
AcDbEntity
  8
1
  6
solid
 62
     7
100
AcDbLine
 10
0.4366141855716706
 20
0.3766141831874847
 30
0.0
 11
0.4360236525535584
 21
0.1701574772596359
 31
0.0
  0
LINE
  5
98
330
A
100
AcDbEntity
  8
1
  6
solid
 62
     7
100
AcDbLine
 10
0.4360236525535584
 20
0.1701574772596359
 30
0.0
 11
0.4351968765258789
 21
0.1653149724006653
 31
0.0
  0
LINE
  5
99
330
A
100
AcDbEntity
  8
1
  6
solid
 62
     7
100
AcDbLine
 10
0.4351968765258789
 20
0.1653149724006653
 30
0.0
 11
0.4351575076580048
 21
0.128425195813179
 31
0.0
  0
LINE
  5
9A
330
A
100
AcDbEntity
  8
1
  6
solid
 62
     7
100
AcDbLine
 10
0.4351575076580048
 20
0.128425195813179
 30
0.0
 11
0.4387401640415192
 21
0.1240157559514046
 31
0.0
  0
LINE
  5
9B
330
A
100
AcDbEntity
  8
1
  6
solid
 62
     7
100
AcDbLine
 10
0.4387401640415192
 20
0.1240157559514046
 30
0.0
 11
0.443582683801651
 21
0.1249212622642517
 31
0.0
  0
LINE
  5
9C
330
A
100
AcDbEntity
  8
1
  6
solid
 62
     7
100
AcDbLine
 10
0.443582683801651
 20
0.1249212622642517
 30
0.0
 11
0.4584252536296845
 21
0.1240157559514046
 31
0.0
  0
LINE
  5
9D
330
A
100
AcDbEntity
  8
1
  6
solid
 62
     7
100
AcDbLine
 10
0.4584252536296845
 20
0.1240157559514046
 30
0.0
 11
0.5416142344474793
 21
0.1253149658441544
 31
0.0
  0
LINE
  5
9E
330
A
100
AcDbEntity
  8
1
  6
solid
 62
     7
100
AcDbLine
 10
0.5416142344474793
 20
0.1253149658441544
 30
0.0
 11
0.5476771593093872
 21
0.1238976418972015
 31
0.0
  0
LINE
  5
9F
330
A
100
AcDbEntity
  8
1
  6
solid
 62
     7
100
AcDbLine
 10
0.5476771593093872
 20
0.1238976418972015
 30
0.0
 11
0.5503543615341187
 21
0.1349212676286697
 31
0.0
  0
LINE
  5
A0
330
A
100
AcDbEntity
  8
1
  6
solid
 62
     7
100
AcDbLine
 10
0.5503543615341187
 20
0.1349212676286697
 30
0.0
 11
0.5537796020507813
 21
0.1736220568418503
 31
0.0
  0
LINE
  5
A1
330
A
100
AcDbEntity
  8
1
  6
solid
 62
     7
100
AcDbLine
 10
0.5537796020507813
 20
0.1736220568418503
 30
0.0
 11
0.5559842586517334
 21
0.1800787597894668
 31
0.0
  0
LINE
  5
A2
330
A
100
AcDbEntity
  8
1
  6
solid
 62
     7
100
AcDbLine
 10
0.5559842586517334
 20
0.1800787597894668
 30
0.0
 11
0.5552756190299988
 21
0.1825196892023086
 31
0.0
  0
ARC
  5
A3
330
A
100
AcDbEntity
  8
1
  6
solid
 62
     7
100
AcDbCircle
 10
0.7189666528232499
 20
0.1910547827127589
 30
0.0
 40
0.1639133989810944
100
AcDbArc
 50
167.1885406355879
 51
182.9847840158736
  0
LINE
  5
A4
330
A
100
AcDbEntity
  8
1
  6
solid
 62
     7
100
AcDbLine
 10
0.5591338872909546
 20
0.2274015992879867
 30
0.0
 11
0.5585039854049683
 21
0.2295275777578354
 31
0.0
  0
LINE
  5
A5
330
A
100
AcDbEntity
  8
1
  6
solid
 62
     7
100
AcDbLine
 10
0.5585039854049683
 20
0.2295275777578354
 30
0.0
 11
0.5674409866333008
 21
0.3414961099624634
 31
0.0
  0
LINE
  5
A6
330
A
100
AcDbEntity
  8
1
  6
solid
 62
     7
100
AcDbLine
 10
0.5674409866333008
 20
0.3414961099624634
 30
0.0
 11
0.5690945386886597
 21
0.3448031842708588
 31
0.0
  0
LINE
  5
A7
330
A
100
AcDbEntity
  8
1
  6
solid
 62
     7
100
AcDbLine
 10
0.5690945386886597
 20
0.3448031842708588
 30
0.0
 11
0.5693307518959046
 21
0.3575984239578247
 31
0.0
  0
LINE
  5
A8
330
A
100
AcDbEntity
  8
1
  6
solid
 62
     7
100
AcDbLine
 10
0.5693307518959046
 20
0.3575984239578247
 30
0.0
 11
0.582244098186493
 21
0.5189370512962342
 31
0.0
  0
LINE
  5
A9
330
A
100
AcDbEntity
  8
1
  6
solid
 62
     7
100
AcDbLine
 10
0.582244098186493
 20
0.5189370512962342
 30
0.0
 11
0.5825591087341309
 21
0.5499606728553772
 31
0.0
  0
LINE
  5
AA
330
A
100
AcDbEntity
  8
1
  6
solid
 62
     7
100
AcDbLine
 10
0.5825591087341309
 20
0.5499606728553772
 30
0.0
 11
0.5783858895301819
 21
0.5573622584342957
 31
0.0
  0
LINE
  5
AB
330
A
100
AcDbEntity
  8
1
  6
solid
 62
     7
100
AcDbLine
 10
0.5783858895301819
 20
0.5573622584342957
 30
0.0
 11
0.5790551900863648
 21
0.5593701601028443
 31
0.0
  0
LINE
  5
AC
330
A
100
AcDbEntity
  8
1
  6
solid
 62
     7
100
AcDbLine
 10
0.5790551900863648
 20
0.5593701601028443
 30
0.0
 11
0.5850000381469727
 21
0.5652756094932557
 31
0.0
  0
ARC
  5
AD
330
A
100
AcDbEntity
  8
1
  6
solid
 62
     7
100
AcDbCircle
 10
8.016704819952067
 20
0.0486822237789791
 30
0.0
 40
7.44963788986206
100
AcDbArc
 50
174.3492565333593
 51
176.0236464590933
  0
LINE
  5
AE
330
A
100
AcDbEntity
  8
1
  6
solid
 62
     7
100
AcDbLine
 10
0.603267788887024
 20
0.7822047472000122
 30
0.0
 11
0.603267788887024
 21
0.8032283782958984
 31
0.0
  0
LINE
  5
AF
330
A
100
AcDbEntity
  8
1
  6
solid
 62
     7
100
AcDbLine
 10
0.603267788887024
 20
0.8032283782958984
 30
0.0
 11
0.6387795805931092
 21
0.8056299686431884
 31
0.0
  0
LINE
  5
B0
330
A
100
AcDbEntity
  8
1
  6
solid
 62
     7
100
AcDbLine
 10
0.6387795805931092
 20
0.8056299686431884
 30
0.0
 11
0.6432677507400513
 21
0.807637870311737
 31
0.0
  0
LINE
  5
B1
330
A
100
AcDbEntity
  8
1
  6
solid
 62
     7
100
AcDbLine
 10
0.6432677507400513
 20
0.807637870311737
 30
0.0
 11
0.650118112564087
 21
0.8133859038352966
 31
0.0
  0
ARC
  5
B2
330
A
100
AcDbEntity
  8
1
  6
solid
 62
     7
100
AcDbCircle
 10
0.6427525083100838
 20
0.87802128817923
 30
0.0
 40
0.0650537088513374
100
AcDbArc
 50
276.5011659805602
 51
319.4263470082462
  0
LINE
  5
B3
330
A
100
AcDbEntity
  8
1
  6
solid
 62
     7
100
AcDbLine
 10
0.6921654343605042
 20
0.835708737373352
 30
0.0
 11
0.7034645676612854
 21
0.8553937673568725
 31
0.0
  0
LINE
  5
B4
330
A
100
AcDbEntity
  8
1
  6
solid
 62
     7
100
AcDbLine
 10
0.7034645676612854
 20
0.8553937673568725
 30
0.0
 11
0.709212601184845
 21
0.8832284212112426
 31
0.0
  0
LINE
  5
B5
330
A
100
AcDbEntity
  8
1
  6
solid
 62
     7
100
AcDbLine
 10
0.709212601184845
 20
0.8832284212112426
 30
0.0
 11
0.7088583111763001
 21
0.9216536283493041
 31
0.0
  0
LINE
  5
B6
330
A
100
AcDbEntity
  8
1
  6
solid
 62
     7
100
AcDbLine
 10
0.7088583111763001
 20
0.9216536283493041
 30
0.0
 11
0.6954331398010254
 21
0.9515354633331298
 31
0.0
  0
LINE
  5
B7
330
A
100
AcDbEntity
  8
1
  6
solid
 62
     7
100
AcDbLine
 10
0.6954331398010254
 20
0.9515354633331298
 30
0.0
 11
0.6712992191314698
 21
0.9740551710128784
 31
0.0
  0
LINE
  5
B8
330
A
100
AcDbEntity
  8
1
  6
solid
 62
     7
100
AcDbLine
 10
0.6712992191314698
 20
0.9740551710128784
 30
0.0
 11
0.6452362537384034
 21
0.9877559542655944
 31
0.0
  0
LINE
  5
B9
330
A
100
AcDbEntity
  8
1
  6
solid
 62
     7
100
AcDbLine
 10
0.6452362537384034
 20
0.9877559542655944
 30
0.0
 11
0.6157480478286744
 21
0.9964960813522338
 31
0.0
  0
LINE
  5
BA
330
A
100
AcDbEntity
  8
1
  6
solid
 62
     7
100
AcDbLine
 10
0.6157480478286744
 20
0.9964960813522338
 30
0.0
 11
0.5738189220428467
 21
0.9989764094352722
 31
0.0
  0
LINE
  5
BB
330
A
100
AcDbEntity
  8
1
  6
solid
 62
     7
100
AcDbLine
 10
0.5738189220428467
 20
0.9989764094352722
 30
0.0
 11
0.5690945386886597
 21
0.9976378679275512
 31
0.0
  0
ARC
  5
BC
330
A
100
AcDbEntity
  8
1
  6
solid
 62
     7
100
AcDbCircle
 10
0.5519134985655356
 20
0.9022935684151704
 30
0.0
 40
0.0968799442052841
100
AcDbArc
 50
79.784928676158
 51
101.0964951697155
  0
LINE
  5
BD
330
A
100
AcDbEntity
  8
1
  6
solid
 62
     7
100
AcDbLine
 10
0.5332677364349366
 20
0.9973623156547546
 30
0.0
 11
0.5284252166748047
 21
0.9982677698135375
 31
0.0
  0
LINE
  5
BE
330
A
100
AcDbEntity
  8
1
  6
solid
 62
     7
100
AcDbLine
 10
0.5284252166748047
 20
0.9982677698135375
 30
0.0
 11
0.1190157607197761
 21
0.9998819828033447
 31
0.0
  0
LINE
  5
BF
330
A
100
AcDbEntity
  8
1
  6
solid
 62
     7
100
AcDbLine
 10
0.1190157607197761
 20
0.9998819828033447
 30
0.0
 11
0.1166535466909409
 21
0.9948819279670715
 31
0.0
  0
LINE
  5
C0
330
A
100
AcDbEntity
  8
1
  6
solid
 62
     7
100
AcDbLine
 10
0.6628740429878235
 20
0.9957087039947509
 30
0.0
 11
0.6915748119354248
 21
0.9769291877746582
 31
0.0
  0
LINE
  5
C1
330
A
100
AcDbEntity
  8
1
  6
solid
 62
     7
100
AcDbLine
 10
0.6915748119354248
 20
0.9769291877746582
 30
0.0
 11
0.710511863231659
 21
0.9535827040672302
 31
0.0
  0
LINE
  5
C2
330
A
100
AcDbEntity
  8
1
  6
solid
 62
     7
100
AcDbLine
 10
0.710511863231659
 20
0.9535827040672302
 30
0.0
 11
0.7224016189575196
 21
0.9247244596481323
 31
0.0
  0
LINE
  5
C3
330
A
100
AcDbEntity
  8
1
  6
solid
 62
     7
100
AcDbLine
 10
0.7224016189575196
 20
0.9247244596481323
 30
0.0
 11
0.7238188982009888
 21
0.9000000357627868
 31
0.0
  0
LINE
  5
C4
330
A
100
AcDbEntity
  8
1
  6
solid
 62
     7
100
AcDbLine
 10
0.7238188982009888
 20
0.9000000357627868
 30
0.0
 11
0.7253937721252442
 21
0.8982284069061279
 31
0.0
  0
ARC
  5
C5
330
A
100
AcDbEntity
  8
1
  6
solid
 62
     7
100
AcDbCircle
 10
0.7277497181194636
 20
0.8093720918367605
 30
0.0
 40
0.0888875424861908
100
AcDbArc
 50
72.3071795162201
 51
91.51879068907888
  0
LINE
  5
C6
330
A
100
AcDbEntity
  8
1
  6
solid
 62
     7
100
AcDbLine
 10
0.7547638416290284
 20
0.8940551877021789
 30
0.0
 11
1.028110265731811
 21
0.8921654224395751
 31
0.0
  0
ARC
  5
C7
330
A
100
AcDbEntity
  8
1
  6
solid
 62
     7
100
AcDbCircle
 10
1.035293607646978
 20
0.9150088526276253
 30
0.0
 40
0.0239462461322546
100
AcDbArc
 50
252.5437310516069
 51
289.2515274816137
  0
ARC
  5
C8
330
A
100
AcDbEntity
  8
1
  6
solid
 62
     7
100
AcDbCircle
 10
1.054112899771038
 20
0.9290135689832727
 30
0.0
 40
0.0382068604230881
100
AcDbArc
 50
253.3865490744298
 51
287.4202718028632
  0
LINE
  5
C9
330
A
100
AcDbEntity
  8
1
  6
solid
 62
     7
100
AcDbLine
 10
1.065551161766052
 20
0.8925591111183166
 30
0.0
 11
1.106377959251403
 21
0.8898819088935852
 31
0.0
  0
LINE
  5
CA
330
A
100
AcDbEntity
  8
1
  6
solid
 62
     7
100
AcDbLine
 10
1.106377959251403
 20
0.8898819088935852
 30
0.0
 11
1.121535539627075
 21
0.8918898105621337
 31
0.0
  0
LINE
  5
CB
330
A
100
AcDbEntity
  8
1
  6
solid
 62
     7
100
AcDbLine
 10
1.121535539627075
 20
0.8918898105621337
 30
0.0
 11
1.124527692794799
 21
0.8909056186676025
 31
0.0
  0
LINE
  5
CC
330
A
100
AcDbEntity
  8
1
  6
solid
 62
     7
100
AcDbLine
 10
1.124527692794799
 20
0.8909056186676025
 30
0.0
 11
1.420905709266662
 21
0.8893307447433471
 31
0.0
  0
LINE
  5
CD
330
A
100
AcDbEntity
  8
1
  6
solid
 62
     7
100
AcDbLine
 10
1.420905709266662
 20
0.8893307447433471
 30
0.0
 11
1.427992105484008
 21
0.8874016404151916
 31
0.0
  0
LINE
  5
CE
330
A
100
AcDbEntity
  8
1
  6
solid
 62
     7
100
AcDbLine
 10
1.427992105484008
 20
0.8874016404151916
 30
0.0
 11
1.810866236686706
 21
0.885708749294281
 31
0.0
  0
LINE
  5
CF
330
A
100
AcDbEntity
  8
1
  6
solid
 62
     7
100
AcDbLine
 10
1.810866236686706
 20
0.885708749294281
 30
0.0
 11
1.820590734481811
 21
0.8864960670471191
 31
0.0
  0
LINE
  5
D0
330
A
100
AcDbEntity
  8
1
  6
solid
 62
     7
100
AcDbLine
 10
1.820590734481811
 20
0.8864960670471191
 30
0.0
 11
1.827952742576599
 21
0.8840551972389221
 31
0.0
  0
LINE
  5
D1
330
A
100
AcDbEntity
  8
1
  6
solid
 62
     7
100
AcDbLine
 10
1.827952742576599
 20
0.8840551972389221
 30
0.0
 11
2.150748014450073
 21
0.8827559351921081
 31
0.0
  0
LINE
  5
D2
330
A
100
AcDbEntity
  8
1
  6
solid
 62
     7
100
AcDbLine
 10
2.150748014450073
 20
0.8827559351921081
 30
0.0
 11
2.167441129684448
 21
0.8807480335235595
 31
0.0
  0
LINE
  5
D3
330
A
100
AcDbEntity
  8
1
  6
solid
 62
     7
100
AcDbLine
 10
2.167441129684448
 20
0.8807480335235595
 30
0.0
 11
2.174724578857421
 21
0.8818898200988769
 31
0.0
  0
LINE
  5
D4
330
A
100
AcDbEntity
  8
1
  6
solid
 62
     7
100
AcDbLine
 10
2.174724578857421
 20
0.8818898200988769
 30
0.0
 11
2.177756071090698
 21
0.8809056282043457
 31
0.0
  0
LINE
  5
D5
330
A
100
AcDbEntity
  8
1
  6
solid
 62
     7
100
AcDbLine
 10
2.177756071090698
 20
0.8809056282043457
 30
0.0
 11
2.421496152877807
 21
0.878818929195404
 31
0.0
  0
LINE
  5
D6
330
A
100
AcDbEntity
  8
1
  6
solid
 62
     7
100
AcDbLine
 10
2.421496152877807
 20
0.878818929195404
 30
0.0
 11
2.437952995300292
 21
0.8766930103302001
 31
0.0
  0
LINE
  5
D7
330
A
100
AcDbEntity
  8
1
  6
solid
 62
     7
100
AcDbLine
 10
2.437952995300292
 20
0.8766930103302001
 30
0.0
 11
2.820905685424804
 21
0.8754724860191345
 31
0.0
  0
LINE
  5
D8
330
A
100
AcDbEntity
  8
1
  6
solid
 62
     7
100
AcDbLine
 10
2.820905685424804
 20
0.8754724860191345
 30
0.0
 11
2.825748205184936
 21
0.8746063113212585
 31
0.0
  0
LINE
  5
D9
330
A
100
AcDbEntity
  8
1
  6
solid
 62
     7
100
AcDbLine
 10
2.825748205184936
 20
0.8746063113212585
 30
0.0
 11
2.98299241065979
 21
0.8729134202003479
 31
0.0
  0
LINE
  5
DA
330
A
100
AcDbEntity
  8
1
  6
solid
 62
     7
100
AcDbLine
 10
2.98299241065979
 20
0.8729134202003479
 30
0.0
 11
2.994724512100219
 21
0.8703937530517578
 31
0.0
  0
LINE
  5
DB
330
A
100
AcDbEntity
  8
1
  6
solid
 62
     7
100
AcDbLine
 10
2.994724512100219
 20
0.8703937530517578
 30
0.0
 11
2.997205018997192
 21
0.8681890368461608
 31
0.0
  0
LINE
  5
DC
330
A
100
AcDbEntity
  8
1
  6
solid
 62
     7
100
AcDbLine
 10
2.997205018997192
 20
0.8681890368461608
 30
0.0
 11
2.997441053390502
 21
0.8653937578201293
 31
0.0
  0
LINE
  5
DD
330
A
100
AcDbEntity
  8
1
  6
solid
 62
     7
100
AcDbLine
 10
2.997441053390502
 20
0.8653937578201293
 30
0.0
 11
2.995315074920654
 21
0.8632283806800842
 31
0.0
  0
LINE
  5
DE
330
A
100
AcDbEntity
  8
1
  6
solid
 62
     7
100
AcDbLine
 10
2.995315074920654
 20
0.8632283806800842
 30
0.0
 11
2.778543472290039
 21
0.8638190031051635
 31
0.0
  0
ARC
  5
DF
330
A
100
AcDbEntity
  8
1
  6
solid
 62
     7
100
AcDbCircle
 10
2.758293731267279
 20
0.7493640405218894
 30
0.0
 40
0.1162324845790863
100
AcDbArc
 50
79.96687125526881
 51
99.92111523620472
  0
LINE
  5
E0
330
A
100
AcDbEntity
  8
1
  6
solid
 62
     7
100
AcDbLine
 10
2.73826789855957
 20
0.8638583421707153
 30
0.0
 11
2.702401876449584
 21
0.8655512332916259
 31
0.0
  0
LINE
  5
E1
330
A
100
AcDbEntity
  8
1
  6
solid
 62
     7
100
AcDbLine
 10
2.702401876449584
 20
0.8655512332916259
 30
0.0
 11
2.365236282348632
 21
0.8671260476112365
 31
0.0
  0
LINE
  5
E2
330
A
100
AcDbEntity
  8
1
  6
solid
 62
     7
100
AcDbLine
 10
2.365236282348632
 20
0.8671260476112365
 30
0.0
 11
2.361496210098266
 21
0.8690552115440368
 31
0.0
  0
LINE
  5
E3
330
A
100
AcDbEntity
  8
1
  6
solid
 62
     7
100
AcDbLine
 10
2.361496210098266
 20
0.8690552115440368
 30
0.0
 11
2.094724416732788
 21
0.8712205290794372
 31
0.0
  0
LINE
  5
E4
330
A
100
AcDbEntity
  8
1
  6
solid
 62
     7
100
AcDbLine
 10
2.094724416732788
 20
0.8712205290794372
 30
0.0
 11
2.091692924499511
 21
0.8722047805786132
 31
0.0
  0
LINE
  5
E5
330
A
100
AcDbEntity
  8
1
  6
solid
 62
     7
100
AcDbLine
 10
2.091692924499511
 20
0.8722047805786132
 30
0.0
 11
1.761968612670898
 21
0.8738189935684204
 31
0.0
  0
LINE
  5
E6
330
A
100
AcDbEntity
  8
1
  6
solid
 62
     7
100
AcDbLine
 10
1.761968612670898
 20
0.8738189935684204
 30
0.0
 11
1.758267879486083
 21
0.8750394582748413
 31
0.0
  0
ARC
  5
E7
330
A
100
AcDbEntity
  8
1
  6
solid
 62
     7
100
AcDbCircle
 10
1.746285523683262
 20
0.9654003275569078
 30
0.0
 40
0.0911518707871437
100
AcDbArc
 50
259.4565279445364
 51
277.5536708109025
  0
LINE
  5
E8
330
A
100
AcDbEntity
  8
1
  6
solid
 62
     7
100
AcDbLine
 10
1.729606389999389
 20
0.8757874369621276
 30
0.0
 11
1.711968541145324
 21
0.8738189935684204
 31
0.0
  0
LINE
  5
E9
330
A
100
AcDbEntity
  8
1
  6
solid
 62
     7
100
AcDbLine
 10
1.711968541145324
 20
0.8738189935684204
 30
0.0
 11
1.708267927169799
 21
0.8757087588310241
 31
0.0
  0
LINE
  5
EA
330
A
100
AcDbEntity
  8
1
  6
solid
 62
     7
100
AcDbLine
 10
1.708267927169799
 20
0.8757087588310241
 30
0.0
 11
1.362007975578308
 21
0.8771260380744934
 31
0.0
  0
LINE
  5
EB
330
A
100
AcDbEntity
  8
1
  6
solid
 62
     7
100
AcDbLine
 10
1.362007975578308
 20
0.8771260380744934
 30
0.0
 11
1.358661532402038
 21
0.8783071637153625
 31
0.0
  0
ARC
  5
EC
330
A
100
AcDbEntity
  8
1
  6
solid
 62
     7
100
AcDbCircle
 10
1.340483749006224
 20
0.7006199851936223
 30
0.0
 40
0.1786145716905594
100
AcDbArc
 50
84.15883838666159
 51
98.21537794383161
  0
LINE
  5
ED
330
A
100
AcDbEntity
  8
1
  6
solid
 62
     7
100
AcDbLine
 10
1.314960718154907
 20
0.8774016499519348
 30
0.0
 11
1.308307170867919
 21
0.8790551424026489
 31
0.0
  0
LINE
  5
EE
330
A
100
AcDbEntity
  8
1
  6
solid
 62
     7
100
AcDbLine
 10
1.308307170867919
 20
0.8790551424026489
 30
0.0
 11
1.02881896495819
 21
0.8803544044494628
 31
0.0
  0
LINE
  5
EF
330
A
100
AcDbEntity
  8
1
  6
solid
 62
     7
100
AcDbLine
 10
1.02881896495819
 20
0.8803544044494628
 30
0.0
 11
1.002992153167724
 21
0.8825197219848632
 31
0.0
  0
LINE
  5
F0
330
A
100
AcDbEntity
  8
1
  6
solid
 62
     7
100
AcDbLine
 10
1.002992153167724
 20
0.8825197219848632
 30
0.0
 11
0.9893701076507568
 21
0.8809843063354492
 31
0.0
  0
LINE
  5
F1
330
A
100
AcDbEntity
  8
1
  6
solid
 62
     7
100
AcDbLine
 10
0.9893701076507568
 20
0.8809843063354492
 30
0.0
 11
0.815196931362152
 21
0.8833858966827392
 31
0.0
  0
LINE
  5
F2
330
A
100
AcDbEntity
  8
1
  6
solid
 62
     7
100
AcDbLine
 10
0.815196931362152
 20
0.8833858966827392
 30
0.0
 11
0.7244095206260682
 21
0.8805512189865112
 31
0.0
  0
LINE
  5
F3
330
A
100
AcDbEntity
  8
1
  6
solid
 62
     7
100
AcDbLine
 10
0.7244095206260682
 20
0.8805512189865112
 30
0.0
 11
0.7235827445983887
 21
0.8751575946807861
 31
0.0
  0
LINE
  5
F4
330
A
100
AcDbEntity
  8
1
  6
solid
 62
     7
100
AcDbLine
 10
0.7235827445983887
 20
0.8751575946807861
 30
0.0
 11
0.7150787711143494
 21
0.8492520451545715
 31
0.0
  0
LINE
  5
F5
330
A
100
AcDbEntity
  8
1
  6
solid
 62
     7
100
AcDbLine
 10
0.7150787711143494
 20
0.8492520451545715
 30
0.0
 11
0.6988189220428467
 21
0.8209843039512634
 31
0.0
  0
LINE
  5
F6
330
A
100
AcDbEntity
  8
1
  6
solid
 62
     7
100
AcDbLine
 10
0.6988189220428467
 20
0.8209843039512634
 30
0.0
 11
0.6932284235954285
 21
0.8165748715400695
 31
0.0
  0
LINE
  5
F7
330
A
100
AcDbEntity
  8
1
  6
solid
 62
     7
100
AcDbLine
 10
0.6932284235954285
 20
0.8165748715400695
 30
0.0
 11
0.6950787901878357
 21
0.8132283687591552
 31
0.0
  0
LINE
  5
F8
330
A
100
AcDbEntity
  8
1
  6
solid
 62
     7
100
AcDbLine
 10
0.6950787901878357
 20
0.8132283687591552
 30
0.0
 11
0.8747638463973999
 21
0.8126378655433654
 31
0.0
  0
LINE
  5
F9
330
A
100
AcDbEntity
  8
1
  6
solid
 62
     7
100
AcDbLine
 10
0.8747638463973999
 20
0.8126378655433654
 30
0.0
 11
0.8972441554069519
 21
0.8107087016105651
 31
0.0
  0
LINE
  5
FA
330
A
100
AcDbEntity
  8
1
  6
solid
 62
     7
100
AcDbLine
 10
0.8972441554069519
 20
0.8107087016105651
 30
0.0
 11
0.9492914080619812
 21
0.8114173412322998
 31
0.0
  0
LINE
  5
FB
330
A
100
AcDbEntity
  8
1
  6
solid
 62
     7
100
AcDbLine
 10
0.9492914080619812
 20
0.8114173412322998
 30
0.0
 11
1.289566993713378
 21
0.8087402582168579
 31
0.0
  0
LINE
  5
FC
330
A
100
AcDbEntity
  8
1
  6
solid
 62
     7
100
AcDbLine
 10
1.289566993713378
 20
0.8087402582168579
 30
0.0
 11
1.358346581459045
 21
0.8066930174827575
 31
0.0
  0
LINE
  5
FD
330
A
100
AcDbEntity
  8
1
  6
solid
 62
     7
100
AcDbLine
 10
1.358346581459045
 20
0.8066930174827575
 30
0.0
 11
1.654645800590515
 21
0.8048819303512573
 31
0.0
  0
LINE
  5
FE
330
A
100
AcDbEntity
  8
1
  6
solid
 62
     7
100
AcDbLine
 10
1.654645800590515
 20
0.8048819303512573
 30
0.0
 11
1.672480463981628
 21
0.8061023950576782
 31
0.0
  0
ARC
  5
FF
330
A
100
AcDbEntity
  8
1
  6
solid
 62
     7
100
AcDbCircle
 10
1.691025877803718
 20
0.910265039114906
 30
0.0
 40
0.1058007031679153
100
AcDbArc
 50
259.904680561643
 51
278.7961471077249
  0
LINE
  5
100
330
A
100
AcDbEntity
  8
1
  6
solid
 62
     7
100
AcDbLine
 10
1.707204818725585
 20
0.8057087063789367
 30
0.0
 11
1.711299300193786
 21
0.8040551543235778
 31
0.0
  0
LINE
  5
101
330
A
100
AcDbEntity
  8
1
  6
solid
 62
     7
100
AcDbLine
 10
1.711299300193786
 20
0.8040551543235778
 30
0.0
 11
2.012440919876098
 21
0.8025197386741638
 31
0.0
  0
LINE
  5
102
330
A
100
AcDbEntity
  8
1
  6
solid
 62
     7
100
AcDbLine
 10
2.012440919876098
 20
0.8025197386741638
 30
0.0
 11
2.030196905136108
 21
0.8005512356758117
 31
0.0
  0
LINE
  5
103
330
A
100
AcDbEntity
  8
1
  6
solid
 62
     7
100
AcDbLine
 10
2.030196905136108
 20
0.8005512356758117
 30
0.0
 11
2.037716627120971
 21
0.8024016022682189
 31
0.0
  0
LINE
  5
104
330
A
100
AcDbEntity
  8
1
  6
solid
 62
     7
100
AcDbLine
 10
2.037716627120971
 20
0.8024016022682189
 30
0.0
 11
2.287480354309082
 21
0.7990551590919495
 31
0.0
  0
LINE
  5
105
330
A
100
AcDbEntity
  8
1
  6
solid
 62
     7
100
AcDbLine
 10
2.287480354309082
 20
0.7990551590919495
 30
0.0
 11
2.323228359222412
 21
0.7998031973838807
 31
0.0
  0
LINE
  5
106
330
A
100
AcDbEntity
  8
1
  6
solid
 62
     7
100
AcDbLine
 10
2.323228359222412
 20
0.7998031973838807
 30
0.0
 11
2.328740358352661
 21
0.7965748906135559
 31
0.0
  0
LINE
  5
107
330
A
100
AcDbEntity
  8
1
  6
solid
 62
     7
100
AcDbLine
 10
2.328740358352661
 20
0.7965748906135559
 30
0.0
 11
2.677519798278808
 21
0.7960630655288697
 31
0.0
  0
LINE
  5
108
330
A
100
AcDbEntity
  8
1
  6
solid
 62
     7
100
AcDbLine
 10
2.677519798278808
 20
0.7960630655288697
 30
0.0
 11
2.68716549873352
 21
0.7945669889450074
 31
0.0
  0
LINE
  5
109
330
A
100
AcDbEntity
  8
1
  6
solid
 62
     7
100
AcDbLine
 10
2.68716549873352
 20
0.7945669889450074
 30
0.0
 11
2.692716836929321
 21
0.7959449291229248
 31
0.0
  0
LINE
  5
10A
330
A
100
AcDbEntity
  8
1
  6
solid
 62
     7
100
AcDbLine
 10
2.692716836929321
 20
0.7959449291229248
 30
0.0
 11
2.940669298171997
 21
0.7929134368896485
 31
0.0
  0
LINE
  5
10B
330
A
100
AcDbEntity
  8
1
  6
solid
 62
     7
100
AcDbLine
 10
2.940669298171997
 20
0.7929134368896485
 30
0.0
 11
2.969882249832153
 21
0.7905118465423584
 31
0.0
  0
LINE
  5
10C
330
A
100
AcDbEntity
  8
1
  6
solid
 62
     7
100
AcDbLine
 10
2.969882249832153
 20
0.7905118465423584
 30
0.0
 11
2.977165460586547
 21
0.7884252667427063
 31
0.0
  0
LINE
  5
10D
330
A
100
AcDbEntity
  8
1
  6
solid
 62
     7
100
AcDbLine
 10
2.977165460586547
 20
0.7884252667427063
 30
0.0
 11
2.979606628417968
 21
0.7857480645179749
 31
0.0
  0
LINE
  5
10E
330
A
100
AcDbEntity
  8
1
  6
solid
 62
     7
100
AcDbLine
 10
2.979606628417968
 20
0.7857480645179749
 30
0.0
 11
2.979606628417968
 21
0.7832283973693848
 31
0.0
  0
LINE
  5
10F
330
A
100
AcDbEntity
  8
1
  6
solid
 62
     7
100
AcDbLine
 10
2.979606628417968
 20
0.7832283973693848
 30
0.0
 11
2.688307285308837
 21
0.7838189005851746
 31
0.0
  0
LINE
  5
110
330
A
100
AcDbEntity
  8
1
  6
solid
 62
     7
100
AcDbLine
 10
2.688307285308837
 20
0.7838189005851746
 30
0.0
 11
2.655708789825439
 21
0.7857874631881714
 31
0.0
  0
LINE
  5
111
330
A
100
AcDbEntity
  8
1
  6
solid
 62
     7
100
AcDbLine
 10
2.655708789825439
 20
0.7857874631881714
 30
0.0
 11
2.639645814895629
 21
0.7840551733970642
 31
0.0
  0
LINE
  5
112
330
A
100
AcDbEntity
  8
1
  6
solid
 62
     7
100
AcDbLine
 10
2.639645814895629
 20
0.7840551733970642
 30
0.0
 11
2.634842634201049
 21
0.7850788235664368
 31
0.0
  0
LINE
  5
113
330
A
100
AcDbEntity
  8
1
  6
solid
 62
     7
100
AcDbLine
 10
2.634842634201049
 20
0.7850788235664368
 30
0.0
 11
2.615984439849853
 21
0.7845669984817505
 31
0.0
  0
LINE
  5
114
330
A
100
AcDbEntity
  8
1
  6
solid
 62
     7
100
AcDbLine
 10
2.615984439849853
 20
0.7845669984817505
 30
0.0
 11
2.61397647857666
 21
0.7865748405456543
 31
0.0
  0
LINE
  5
115
330
A
100
AcDbEntity
  8
1
  6
solid
 62
     7
100
AcDbLine
 10
2.61397647857666
 20
0.7865748405456543
 30
0.0
 11
2.340078830718994
 21
0.7871654033660889
 31
0.0
  0
LINE
  5
116
330
A
100
AcDbEntity
  8
1
  6
solid
 62
     7
100
AcDbLine
 10
2.340078830718994
 20
0.7871654033660889
 30
0.0
 11
2.309448957443237
 21
0.789133906364441
 31
0.0
  0
LINE
  5
117
330
A
100
AcDbEntity
  8
1
  6
solid
 62
     7
100
AcDbLine
 10
2.309448957443237
 20
0.789133906364441
 30
0.0
 11
2.304645776748657
 21
0.7879921793937683
 31
0.0
  0
LINE
  5
118
330
A
100
AcDbEntity
  8
1
  6
solid
 62
     7
100
AcDbLine
 10
2.304645776748657
 20
0.7879921793937683
 30
0.0
 11
2.27858281135559
 21
0.7871654033660889
 31
0.0
  0
LINE
  5
119
330
A
100
AcDbEntity
  8
1
  6
solid
 62
     7
100
AcDbLine
 10
2.27858281135559
 20
0.7871654033660889
 30
0.0
 11
2.274842739105224
 21
0.7890551686286927
 31
0.0
  0
ARC
  5
11A
330
A
100
AcDbEntity
  8
1
  6
solid
 62
     7
100
AcDbCircle
 10
2.263300423214976
 20
35.66674643500901
 30
0.0
 40
34.87769317626953
100
AcDbArc
 50
268.9489611419234
 51
270.0189612883812
  0
ARC
  5
11B
330
A
100
AcDbEntity
  8
1
  6
solid
 62
     7
100
AcDbCircle
 10
1.611890520252853
 20
0.8796438129155268
 30
0.0
 40
0.0855200961232186
100
AcDbArc
 50
261.6081741368738
 51
277.8314136233119
  0
ARC
  5
11C
330
A
100
AcDbEntity
  8
1
  6
solid
 62
     7
100
AcDbCircle
 10
1.593467817396857
 20
0.8124173163128011
 30
0.0
 40
0.0183656197041273
100
AcDbArc
 50
253.5524031429506
 51
288.8763212848428
  0
LINE
  5
11D
330
A
100
AcDbEntity
  8
1
  6
solid
 62
     7
100
AcDbLine
 10
1.588267803192138
 20
0.7948032021522522
 30
0.0
 11
1.578149795532226
 21
0.7932283878326416
 31
0.0
  0
LINE
  5
11E
330
A
100
AcDbEntity
  8
1
  6
solid
 62
     7
100
AcDbLine
 10
1.578149795532226
 20
0.7932283878326416
 30
0.0
 11
1.571614265441894
 21
0.7957481145858765
 31
0.0
  0
LINE
  5
11F
330
A
100
AcDbEntity
  8
1
  6
solid
 62
     7
100
AcDbLine
 10
1.571614265441894
 20
0.7957481145858765
 30
0.0
 11
1.220826864242553
 21
0.7977953553199768
 31
0.0
  0
LINE
  5
120
330
A
100
AcDbEntity
  8
1
  6
solid
 62
     7
100
AcDbLine
 10
1.220826864242553
 20
0.7977953553199768
 30
0.0
 11
1.171968579292297
 21
0.7967323660850525
 31
0.0
  0
LINE
  5
121
330
A
100
AcDbEntity
  8
1
  6
solid
 62
     7
100
AcDbLine
 10
1.171968579292297
 20
0.7967323660850525
 30
0.0
 11
1.162244200706481
 21
0.7982284426689148
 31
0.0
  0
LINE
  5
122
330
A
100
AcDbEntity
  8
1
  6
solid
 62
     7
100
AcDbLine
 10
1.162244200706481
 20
0.7982284426689148
 30
0.0
 11
1.134173274040222
 21
0.7993701100349427
 31
0.0
  0
LINE
  5
123
330
A
100
AcDbEntity
  8
1
  6
solid
 62
     7
100
AcDbLine
 10
1.134173274040222
 20
0.7993701100349427
 30
0.0
 11
1.125393748283386
 21
0.7971653938293457
 31
0.0
  0
LINE
  5
124
330
A
100
AcDbEntity
  8
1
  6
solid
 62
     7
100
AcDbLine
 10
1.125393748283386
 20
0.7971653938293457
 30
0.0
 11
1.12165367603302
 21
0.7990551590919495
 31
0.0
  0
LINE
  5
125
330
A
100
AcDbEntity
  8
1
  6
solid
 62
     7
100
AcDbLine
 10
1.12165367603302
 20
0.7990551590919495
 30
0.0
 11
0.8254331350326538
 21
0.8004724979400634
 31
0.0
  0
LINE
  5
126
330
A
100
AcDbEntity
  8
1
  6
solid
 62
     7
100
AcDbLine
 10
0.8254331350326538
 20
0.8004724979400634
 30
0.0
 11
0.821692943572998
 21
0.8024016022682189
 31
0.0
  0
LINE
  5
127
330
A
100
AcDbEntity
  8
1
  6
solid
 62
     7
100
AcDbLine
 10
0.821692943572998
 20
0.8024016022682189
 30
0.0
 11
0.7085827589035035
 21
0.8032283782958984
 31
0.0
  0
LINE
  5
128
330
A
100
AcDbEntity
  8
1
  6
solid
 62
     7
100
AcDbLine
 10
0.7085827589035035
 20
0.8032283782958984
 30
0.0
 11
0.6698819398880005
 21
0.8008661866188049
 31
0.0
  0
LINE
  5
129
330
A
100
AcDbEntity
  8
1
  6
solid
 62
     7
100
AcDbLine
 10
0.6698819398880005
 20
0.8008661866188049
 30
0.0
 11
0.6414567232131958
 21
0.7907480597496033
 31
0.0
  0
LINE
  5
12A
330
A
100
AcDbEntity
  8
1
  6
solid
 62
     7
100
AcDbLine
 10
0.6414567232131958
 20
0.7907480597496033
 30
0.0
 11
0.6195669770240784
 21
0.7890157699584961
 31
0.0
  0
LINE
  5
12B
330
A
100
AcDbEntity
  8
1
  6
solid
 62
     7
100
AcDbLine
 10
0.6195669770240784
 20
0.7890157699584961
 30
0.0
 11
0.6165748834609986
 21
0.7865748405456543
 31
0.0
  0
LINE
  5
12C
330
A
100
AcDbEntity
  8
1
  6
solid
 62
     7
100
AcDbLine
 10
0.6165748834609986
 20
0.7865748405456543
 30
0.0
 11
0.6184252500534058
 21
0.7832283973693848
 31
0.0
  0
LINE
  5
12D
330
A
100
AcDbEntity
  8
1
  6
solid
 62
     7
100
AcDbLine
 10
0.6184252500534058
 20
0.7832283973693848
 30
0.0
 11
0.7800787687301636
 21
0.7821654081344605
 31
0.0
  0
LINE
  5
12E
330
A
100
AcDbEntity
  8
1
  6
solid
 62
     7
100
AcDbLine
 10
0.7800787687301636
 20
0.7821654081344605
 30
0.0
 11
0.8055118918418884
 21
0.7801575660705567
 31
0.0
  0
LINE
  5
12F
330
A
100
AcDbEntity
  8
1
  6
solid
 62
     7
100
AcDbLine
 10
0.8055118918418884
 20
0.7801575660705567
 30
0.0
 11
0.8315748572349548
 21
0.7822441458702088
 31
0.0
  0
LINE
  5
130
330
A
100
AcDbEntity
  8
1
  6
solid
 62
     7
100
AcDbLine
 10
0.8315748572349548
 20
0.7822441458702088
 30
0.0
 11
1.119724512100219
 21
0.7792126536369324
 31
0.0
  0
LINE
  5
131
330
A
100
AcDbEntity
  8
1
  6
solid
 62
     7
100
AcDbLine
 10
1.119724512100219
 20
0.7792126536369324
 30
0.0
 11
1.131456851959228
 21
0.7780315279960633
 31
0.0
  0
LINE
  5
132
330
A
100
AcDbEntity
  8
1
  6
solid
 62
     7
100
AcDbLine
 10
1.131456851959228
 20
0.7780315279960633
 30
0.0
 11
1.138189077377319
 21
0.7785827517509461
 31
0.0
  0
LINE
  5
133
330
A
100
AcDbEntity
  8
1
  6
solid
 62
     7
100
AcDbLine
 10
1.138189077377319
 20
0.7785827517509461
 30
0.0
 11
1.141220569610595
 21
0.7775590419769287
 31
0.0
  0
LINE
  5
134
330
A
100
AcDbEntity
  8
1
  6
solid
 62
     7
100
AcDbLine
 10
1.141220569610595
 20
0.7775590419769287
 30
0.0
 11
1.497637867927551
 21
0.776063084602356
 31
0.0
  0
LINE
  5
135
330
A
100
AcDbEntity
  8
1
  6
solid
 62
     7
100
AcDbLine
 10
1.497637867927551
 20
0.776063084602356
 30
0.0
 11
1.507283687591552
 21
0.7742519974708558
 31
0.0
  0
ARC
  5
136
330
A
100
AcDbEntity
  8
1
  6
solid
 62
     7
100
AcDbCircle
 10
1.523565089066535
 20
0.7130295624929437
 30
0.0
 40
0.0633503794670105
100
AcDbArc
 50
76.87268969332089
 51
104.8924581783147
  0
LINE
  5
137
330
A
100
AcDbEntity
  8
1
  6
solid
 62
     7
100
AcDbLine
 10
1.537952899932861
 20
0.7747244834899903
 30
0.0
 11
1.558307170867919
 21
0.7754331231117249
 31
0.0
  0
LINE
  5
138
330
A
100
AcDbEntity
  8
1
  6
solid
 62
     7
100
AcDbLine
 10
1.558307170867919
 20
0.7754331231117249
 30
0.0
 11
1.561141848564147
 21
0.7742519974708558
 31
0.0
  0
LINE
  5
139
330
A
100
AcDbEntity
  8
1
  6
solid
 62
     7
100
AcDbLine
 10
1.561141848564147
 20
0.7742519974708558
 30
0.0
 11
1.888346552848815
 21
0.7725984454154969
 31
0.0
  0
LINE
  5
13A
330
A
100
AcDbEntity
  8
1
  6
solid
 62
     7
100
AcDbLine
 10
1.888346552848815
 20
0.7725984454154969
 30
0.0
 11
1.946968674659729
 21
0.7704330682754517
 31
0.0
  0
LINE
  5
13B
330
A
100
AcDbEntity
  8
1
  6
solid
 62
     7
100
AcDbLine
 10
1.946968674659729
 20
0.7704330682754517
 30
0.0
 11
2.26440954208374
 21
0.7690551280975342
 31
0.0
  0
LINE
  5
13C
330
A
100
AcDbEntity
  8
1
  6
solid
 62
     7
100
AcDbLine
 10
2.26440954208374
 20
0.7690551280975342
 30
0.0
 11
2.267913579940795
 21
0.7674016356468201
 31
0.0
  0
LINE
  5
13D
330
A
100
AcDbEntity
  8
1
  6
solid
 62
     7
100
AcDbLine
 10
2.267913579940795
 20
0.7674016356468201
 30
0.0
 11
2.547795534133911
 21
0.7655118107795716
 31
0.0
  0
LINE
  5
13E
330
A
100
AcDbEntity
  8
1
  6
solid
 62
     7
100
AcDbLine
 10
2.547795534133911
 20
0.7655118107795716
 30
0.0
 11
2.567441225051879
 21
0.7639370560646058
 31
0.0
  0
LINE
  5
13F
330
A
100
AcDbEntity
  8
1
  6
solid
 62
     7
100
AcDbLine
 10
2.567441225051879
 20
0.7639370560646058
 30
0.0
 11
2.57610273361206
 21
0.7651575207710267
 31
0.0
  0
LINE
  5
140
330
A
100
AcDbEntity
  8
1
  6
solid
 62
     7
100
AcDbLine
 10
2.57610273361206
 20
0.7651575207710267
 30
0.0
 11
2.598582983016967
 21
0.7649213075637818
 31
0.0
  0
LINE
  5
141
330
A
100
AcDbEntity
  8
1
  6
solid
 62
     7
100
AcDbLine
 10
2.598582983016967
 20
0.7649213075637818
 30
0.0
 11
2.604055404663085
 21
0.7633070945739746
 31
0.0
  0
ARC
  5
142
330
A
100
AcDbEntity
  8
1
  6
solid
 62
     7
100
AcDbCircle
 10
2.609919525560598
 20
0.7558808999877325
 30
0.0
 40
0.0094623612239957
100
AcDbArc
 50
62.21087243228271
 51
128.2965111807136
  0
ARC
  5
143
330
A
100
AcDbEntity
  8
1
  6
solid
 62
     7
100
AcDbCircle
 10
2.769683758406197
 20
8.288788672381652
 30
0.0
 40
7.526140213012695
100
AcDbArc
 50
268.8172304850525
 51
270.7112792944942
  0
LINE
  5
144
330
A
100
AcDbEntity
  8
1
  6
solid
 62
     7
100
AcDbLine
 10
2.863110542297363
 20
0.7632284164428711
 30
0.0
 11
2.939685344696044
 21
0.7608268260955811
 31
0.0
  0
LINE
  5
145
330
A
100
AcDbEntity
  8
1
  6
solid
 62
     7
100
AcDbLine
 10
2.939685344696044
 20
0.7608268260955811
 30
0.0
 11
2.94629955291748
 21
0.7594882249832154
 31
0.0
  0
LINE
  5
146
330
A
100
AcDbEntity
  8
1
  6
solid
 62
     7
100
AcDbLine
 10
2.94629955291748
 20
0.7594882249832154
 30
0.0
 11
2.945039510726928
 21
0.754488229751587
 31
0.0
  0
LINE
  5
147
330
A
100
AcDbEntity
  8
1
  6
solid
 62
     7
100
AcDbLine
 10
2.945039510726928
 20
0.754488229751587
 30
0.0
 11
2.931181192398071
 21
0.7501575350761414
 31
0.0
  0
LINE
  5
148
330
A
100
AcDbEntity
  8
1
  6
solid
 62
     7
100
AcDbLine
 10
2.931181192398071
 20
0.7501575350761414
 30
0.0
 11
2.926456689834594
 21
0.7515354752540589
 31
0.0
  0
ARC
  5
149
330
A
100
AcDbEntity
  8
1
  6
solid
 62
     7
100
AcDbCircle
 10
2.921622834150886
 20
0.7670919295428105
 30
0.0
 40
0.0162901636213064
100
AcDbArc
 50
245.7080401642177
 51
287.2615826027817
  0
LINE
  5
14A
330
A
100
AcDbEntity
  8
1
  6
solid
 62
     7
100
AcDbLine
 10
2.914921283721923
 20
0.7522441148757935
 30
0.0
 11
2.538582801818847
 21
0.7540945410728455
 31
0.0
  0
ARC
  5
14B
330
A
100
AcDbEntity
  8
1
  6
solid
 62
     7
100
AcDbCircle
 10
2.521110280557643
 20
0.6334485757025825
 30
0.0
 40
0.1219046264886856
100
AcDbArc
 50
81.75944757274947
 51
96.82934131593924
  0
LINE
  5
14C
330
A
100
AcDbEntity
  8
1
  6
solid
 62
     7
100
AcDbLine
 10
2.506614446640014
 20
0.754488229751587
 30
0.0
 11
2.494488477706909
 21
0.7554331421852112
 31
0.0
  0
LINE
  5
14D
330
A
100
AcDbEntity
  8
1
  6
solid
 62
     7
100
AcDbLine
 10
2.494488477706909
 20
0.7554331421852112
 30
0.0
 11
2.173779726028442
 21
0.7579134702682496
 31
0.0
  0
ARC
  5
14E
330
A
100
AcDbEntity
  8
1
  6
solid
 62
     7
100
AcDbCircle
 10
2.166365697306688
 20
0.7366704863665214
 30
0.0
 40
0.0224996041506529
100
AcDbArc
 50
70.76046610319778
 51
116.018074770173
  0
LINE
  5
14F
330
A
100
AcDbEntity
  8
1
  6
solid
 62
     7
100
AcDbLine
 10
2.156496047973632
 20
0.7568897604942322
 30
0.0
 11
2.144881963729858
 21
0.7590551376342774
 31
0.0
  0
LINE
  5
150
330
A
100
AcDbEntity
  8
1
  6
solid
 62
     7
100
AcDbLine
 10
2.144881963729858
 20
0.7590551376342774
 30
0.0
 11
1.828622221946716
 21
0.7604724764823914
 31
0.0
  0
LINE
  5
151
330
A
100
AcDbEntity
  8
1
  6
solid
 62
     7
100
AcDbLine
 10
1.828622221946716
 20
0.7604724764823914
 30
0.0
 11
1.82440960407257
 21
0.7616536021232605
 31
0.0
  0
LINE
  5
152
330
A
100
AcDbEntity
  8
1
  6
solid
 62
     7
100
AcDbLine
 10
1.82440960407257
 20
0.7616536021232605
 30
0.0
 11
1.79200804233551
 21
0.7600393891334534
 31
0.0
  0
LINE
  5
153
330
A
100
AcDbEntity
  8
1
  6
solid
 62
     7
100
AcDbLine
 10
1.79200804233551
 20
0.7600393891334534
 30
0.0
 11
1.768937230110168
 21
0.7632284164428711
 31
0.0
  0
LINE
  5
154
330
A
100
AcDbEntity
  8
1
  6
solid
 62
     7
100
AcDbLine
 10
1.768937230110168
 20
0.7632284164428711
 30
0.0
 11
1.761456727981567
 21
0.7612205147743225
 31
0.0
  0
LINE
  5
155
330
A
100
AcDbEntity
  8
1
  6
solid
 62
     7
100
AcDbLine
 10
1.761456727981567
 20
0.7612205147743225
 30
0.0
 11
1.758425235748291
 21
0.7622441053390503
 31
0.0
  0
LINE
  5
156
330
A
100
AcDbEntity
  8
1
  6
solid
 62
     7
100
AcDbLine
 10
1.758425235748291
 20
0.7622441053390503
 30
0.0
 11
1.494763970375061
 21
0.7642913460731507
 31
0.0
  0
LINE
  5
157
330
A
100
AcDbEntity
  8
1
  6
solid
 62
     7
100
AcDbLine
 10
1.494763970375061
 20
0.7642913460731507
 30
0.0
 11
1.490275621414184
 21
0.7650787830352784
 31
0.0
  0
LINE
  5
158
330
A
100
AcDbEntity
  8
1
  6
solid
 62
     7
100
AcDbLine
 10
1.490275621414184
 20
0.7650787830352784
 30
0.0
 11
1.479567050933837
 21
0.7640945315361023
 31
0.0
  0
LINE
  5
159
330
A
100
AcDbEntity
  8
1
  6
solid
 62
     7
100
AcDbLine
 10
1.479567050933837
 20
0.7640945315361023
 30
0.0
 11
1.408189058303833
 21
0.76488196849823
 31
0.0
  0
LINE
  5
15A
330
A
100
AcDbEntity
  8
1
  6
solid
 62
     7
100
AcDbLine
 10
1.408189058303833
 20
0.76488196849823
 30
0.0
 11
1.388976454734802
 21
0.7665748596191407
 31
0.0
  0
LINE
  5
15B
330
A
100
AcDbEntity
  8
1
  6
solid
 62
     7
100
AcDbLine
 10
1.388976454734802
 20
0.7665748596191407
 30
0.0
 11
1.374488353729248
 21
0.7640551924705506
 31
0.0
  0
LINE
  5
15C
330
A
100
AcDbEntity
  8
1
  6
solid
 62
     7
100
AcDbLine
 10
1.374488353729248
 20
0.7640551924705506
 30
0.0
 11
1.371614217758178
 21
0.7657480835914612
 31
0.0
  0
LINE
  5
15D
330
A
100
AcDbEntity
  8
1
  6
solid
 62
     7
100
AcDbLine
 10
1.371614217758178
 20
0.7657480835914612
 30
0.0
 11
1.090787410736083
 21
0.7671653628349305
 31
0.0
  0
LINE
  5
15E
330
A
100
AcDbEntity
  8
1
  6
solid
 62
     7
100
AcDbLine
 10
1.090787410736083
 20
0.7671653628349305
 30
0.0
 11
1.06094491481781
 21
0.7692126035690308
 31
0.0
  0
LINE
  5
15F
330
A
100
AcDbEntity
  8
1
  6
solid
 62
     7
100
AcDbLine
 10
1.06094491481781
 20
0.7692126035690308
 30
0.0
 11
1.051259875297546
 21
0.7675985097885132
 31
0.0
  0
ARC
  5
160
330
A
100
AcDbEntity
  8
1
  6
solid
 62
     7
100
AcDbCircle
 10
1.036626229662786
 20
0.705647230023358
 30
0.0
 40
0.0636561438441277
100
AcDbArc
 50
76.7096496627381
 51
106.8362856198707
  0
LINE
  5
161
330
A
100
AcDbEntity
  8
1
  6
solid
 62
     7
100
AcDbLine
 10
1.018189072608947
 20
0.7665748596191407
 30
0.0
 11
1.011693000793457
 21
0.7690551280975342
 31
0.0
  0
LINE
  5
162
330
A
100
AcDbEntity
  8
1
  6
solid
 62
     7
100
AcDbLine
 10
1.011693000793457
 20
0.7690551280975342
 30
0.0
 11
0.7583464980125428
 21
0.7703937292098999
 31
0.0
  0
LINE
  5
163
330
A
100
AcDbEntity
  8
1
  6
solid
 62
     7
100
AcDbLine
 10
0.7583464980125428
 20
0.7703937292098999
 30
0.0
 11
0.6757481098175049
 21
0.773228406906128
 31
0.0
  0
LINE
  5
164
330
A
100
AcDbEntity
  8
1
  6
solid
 62
     7
100
AcDbLine
 10
0.6757481098175049
 20
0.773228406906128
 30
0.0
 11
0.6649212837219239
 21
0.7712205052375794
 31
0.0
  0
LINE
  5
165
330
A
100
AcDbEntity
  8
1
  6
solid
 62
     7
100
AcDbLine
 10
0.6649212837219239
 20
0.7712205052375794
 30
0.0
 11
0.6618897914886475
 21
0.7722441554069519
 31
0.0
  0
LINE
  5
166
330
A
100
AcDbEntity
  8
1
  6
solid
 62
     7
100
AcDbLine
 10
0.6618897914886475
 20
0.7722441554069519
 30
0.0
 11
0.6230315566062928
 21
0.7725984454154969
 31
0.0
  0
LINE
  5
167
330
A
100
AcDbEntity
  8
1
  6
solid
 62
     7
100
AcDbLine
 10
0.6230315566062928
 20
0.7725984454154969
 30
0.0
 11
0.6177559494972229
 21
0.7705512046813965
 31
0.0
  0
LINE
  5
168
330
A
100
AcDbEntity
  8
1
  6
solid
 62
     7
100
AcDbLine
 10
0.6177559494972229
 20
0.7705512046813965
 30
0.0
 11
0.6132677793502808
 21
0.7469291687011719
 31
0.0
  0
LINE
  5
169
330
A
100
AcDbEntity
  8
1
  6
solid
 62
     7
100
AcDbLine
 10
0.6132677793502808
 20
0.7469291687011719
 30
0.0
 11
0.6150000095367432
 21
0.7432283759117127
 31
0.0
  0
LINE
  5
16A
330
A
100
AcDbEntity
  8
1
  6
solid
 62
     7
100
AcDbLine
 10
0.6150000095367432
 20
0.7432283759117127
 30
0.0
 11
0.8435827493667602
 21
0.7421654462814331
 31
0.0
  0
LINE
  5
16B
330
A
100
AcDbEntity
  8
1
  6
solid
 62
     7
100
AcDbLine
 10
0.8435827493667602
 20
0.7421654462814331
 30
0.0
 11
0.8509055376052856
 21
0.7410629987716675
 31
0.0
  0
LINE
  5
16C
330
A
100
AcDbEntity
  8
1
  6
solid
 62
     7
100
AcDbLine
 10
0.8509055376052856
 20
0.7410629987716675
 30
0.0
 11
0.8787795901298522
 21
0.7407087087631226
 31
0.0
  0
LINE
  5
16D
330
A
100
AcDbEntity
  8
1
  6
solid
 62
     7
100
AcDbLine
 10
0.8787795901298522
 20
0.7407087087631226
 30
0.0
 11
0.8848819732666015
 21
0.7419291734695435
 31
0.0
  0
LINE
  5
16E
330
A
100
AcDbEntity
  8
1
  6
solid
 62
     7
100
AcDbLine
 10
0.8848819732666015
 20
0.7419291734695435
 30
0.0
 11
0.8879134654998779
 21
0.7409055233001709
 31
0.0
  0
LINE
  5
16F
330
A
100
AcDbEntity
  8
1
  6
solid
 62
     7
100
AcDbLine
 10
0.8879134654998779
 20
0.7409055233001709
 30
0.0
 11
1.217244148254394
 21
0.7379133701324463
 31
0.0
  0
ARC
  5
170
330
A
100
AcDbEntity
  8
1
  6
solid
 62
     7
100
AcDbCircle
 10
1.225236014779385
 20
0.7594756459171195
 30
0.0
 40
0.022995688021183
100
AcDbArc
 50
249.6632217125591
 51
294.6929752688228
  0
LINE
  5
171
330
A
100
AcDbEntity
  8
1
  6
solid
 62
     7
100
AcDbLine
 10
1.234842658042907
 20
0.7385826706886292
 30
0.0
 11
1.237874031066894
 21
0.7375591397285462
 31
0.0
  0
LINE
  5
172
330
A
100
AcDbEntity
  8
1
  6
solid
 62
     7
100
AcDbLine
 10
1.237874031066894
 20
0.7375591397285462
 30
0.0
 11
1.577165484428405
 21
0.7359842658042908
 31
0.0
  0
LINE
  5
173
330
A
100
AcDbEntity
  8
1
  6
solid
 62
     7
100
AcDbLine
 10
1.577165484428405
 20
0.7359842658042908
 30
0.0
 11
1.633307218551635
 21
0.7339370250701905
 31
0.0
  0
LINE
  5
174
330
A
100
AcDbEntity
  8
1
  6
solid
 62
     7
100
AcDbLine
 10
1.633307218551635
 20
0.7339370250701905
 30
0.0
 11
1.638149619102478
 21
0.7346851229667664
 31
0.0
  0
ARC
  5
175
330
A
100
AcDbEntity
  8
1
  6
solid
 62
     7
100
AcDbCircle
 10
1.645427883073368
 20
0.7666435763627212
 30
0.0
 40
0.0327767580747604
100
AcDbArc
 50
257.17020066705
 51
286.6207298586216
  0
LINE
  5
176
330
A
100
AcDbEntity
  8
1
  6
solid
 62
     7
100
AcDbLine
 10
1.654803276062011
 20
0.7352362871170044
 30
0.0
 11
1.657795310020446
 21
0.7342520356178284
 31
0.0
  0
LINE
  5
177
330
A
100
AcDbEntity
  8
1
  6
solid
 62
     7
100
AcDbLine
 10
1.657795310020446
 20
0.7342520356178284
 30
0.0
 11
1.923228502273559
 21
0.7326378226280213
 31
0.0
  0
LINE
  5
178
330
A
100
AcDbEntity
  8
1
  6
solid
 62
     7
100
AcDbLine
 10
1.923228502273559
 20
0.7326378226280213
 30
0.0
 11
1.95370078086853
 21
0.7307087182998658
 31
0.0
  0
LINE
  5
179
330
A
100
AcDbEntity
  8
1
  6
solid
 62
     7
100
AcDbLine
 10
1.95370078086853
 20
0.7307087182998658
 30
0.0
 11
1.990826845169067
 21
0.7308661937713623
 31
0.0
  0
LINE
  5
17A
330
A
100
AcDbEntity
  8
1
  6
solid
 62
     7
100
AcDbLine
 10
1.990826845169067
 20
0.7308661937713623
 30
0.0
 11
1.994212746620178
 21
0.7318504452705384
 31
0.0
  0
LINE
  5
17B
330
A
100
AcDbEntity
  8
1
  6
solid
 62
     7
100
AcDbLine
 10
1.994212746620178
 20
0.7318504452705384
 30
0.0
 11
2.480787515640258
 21
0.7257087230682373
 31
0.0
  0
LINE
  5
17C
330
A
100
AcDbEntity
  8
1
  6
solid
 62
     7
100
AcDbLine
 10
2.480787515640258
 20
0.7257087230682373
 30
0.0
 11
2.53362226486206
 21
0.7240945100784302
 31
0.0
  0
LINE
  5
17D
330
A
100
AcDbEntity
  8
1
  6
solid
 62
     7
100
AcDbLine
 10
2.53362226486206
 20
0.7240945100784302
 30
0.0
 11
2.542795419692993
 21
0.7262992262840271
 31
0.0
  0
ARC
  5
17E
330
A
100
AcDbEntity
  8
1
  6
solid
 62
     7
100
AcDbCircle
 10
2.547178416518037
 20
0.7030460176574267
 30
0.0
 40
0.0236626788973808
100
AcDbArc
 50
63.66062447984752
 51
100.6744407054275
  0
ARC
  5
17F
330
A
100
AcDbEntity
  8
1
  6
solid
 62
     7
100
AcDbCircle
 10
2.737326028045958
 20
10.48834563022433
 30
0.0
 40
9.765746116638183
100
AcDbArc
 50
268.9459385697723
 51
270.6502447240709
  0
LINE
  5
180
330
A
100
AcDbEntity
  8
1
  6
solid
 62
     7
100
AcDbLine
 10
2.84814977645874
 20
0.723228394985199
 30
0.0
 11
2.946220874786376
 21
0.7183071374893189
 31
0.0
  0
ARC
  5
181
330
A
100
AcDbEntity
  8
1
  6
solid
 62
     7
100
AcDbCircle
 10
2.93578782742635
 20
0.7183261993677137
 30
0.0
 40
0.0104330647736788
100
AcDbArc
 50
306.3306682182298
 51
359.8953168783147
  0
LINE
  5
182
330
A
100
AcDbEntity
  8
1
  6
solid
 62
     7
100
AcDbLine
 10
2.9419686794281
 20
0.7099213004112244
 30
0.0
 11
2.907874107360839
 21
0.7111023664474488
 31
0.0
  0
LINE
  5
183
330
A
100
AcDbEntity
  8
1
  6
solid
 62
     7
100
AcDbLine
 10
2.907874107360839
 20
0.7111023664474488
 30
0.0
 11
2.903622388839721
 21
0.7103543877601624
 31
0.0
  0
LINE
  5
184
330
A
100
AcDbEntity
  8
1
  6
solid
 62
     7
100
AcDbLine
 10
2.903622388839721
 20
0.7103543877601624
 30
0.0
 11
2.883976697921752
 21
0.7111418247222901
 31
0.0
  0
LINE
  5
185
330
A
100
AcDbEntity
  8
1
  6
solid
 62
     7
100
AcDbLine
 10
2.883976697921752
 20
0.7111418247222901
 30
0.0
 11
2.780275821685791
 21
0.7101969122886658
 31
0.0
  0
LINE
  5
186
330
A
100
AcDbEntity
  8
1
  6
solid
 62
     7
100
AcDbLine
 10
2.780275821685791
 20
0.7101969122886658
 30
0.0
 11
2.768110513687133
 21
0.7124016284942627
 31
0.0
  0
LINE
  5
187
330
A
100
AcDbEntity
  8
1
  6
solid
 62
     7
100
AcDbLine
 10
2.768110513687133
 20
0.7124016284942627
 30
0.0
 11
2.491929292678833
 21
0.7140945196151734
 31
0.0
  0
LINE
  5
188
330
A
100
AcDbEntity
  8
1
  6
solid
 62
     7
100
AcDbLine
 10
2.491929292678833
 20
0.7140945196151734
 30
0.0
 11
2.401693105697631
 21
0.7165748476982117
 31
0.0
  0
LINE
  5
189
330
A
100
AcDbEntity
  8
1
  6
solid
 62
     7
100
AcDbLine
 10
2.401693105697631
 20
0.7165748476982117
 30
0.0
 11
2.391377925872802
 21
0.7145670056343079
 31
0.0
  0
ARC
  5
18A
330
A
100
AcDbEntity
  8
1
  6
solid
 62
     7
100
AcDbCircle
 10
2.401364140134859
 20
9.656848874696136
 30
0.0
 40
8.942287445068359
100
AcDbArc
 50
268.0454910392708
 51
269.9360154711006
  0
LINE
  5
18B
330
A
100
AcDbEntity
  8
1
  6
solid
 62
     7
100
AcDbLine
 10
2.096378087997436
 20
0.7197638750076294
 30
0.0
 11
1.848700881004333
 21
0.7209843397140503
 31
0.0
  0
ARC
  5
18C
330
A
100
AcDbEntity
  8
1
  6
solid
 62
     7
100
AcDbCircle
 10
1.839196430210539
 20
0.6780478212694278
 30
0.0
 40
0.0439758934080601
100
AcDbArc
 50
77.51824843781924
 51
103.1747168284753
  0
LINE
  5
18D
330
A
100
AcDbEntity
  8
1
  6
solid
 62
     7
100
AcDbLine
 10
1.829173326492309
 20
0.7208662033081055
 30
0.0
 11
1.805000185966491
 21
0.7220079302787781
 31
0.0
  0
LINE
  5
18E
330
A
100
AcDbEntity
  8
1
  6
solid
 62
     7
100
AcDbLine
 10
1.805000185966491
 20
0.7220079302787781
 30
0.0
 11
1.800197005271911
 21
0.7210236787796021
 31
0.0
  0
ARC
  5
18F
330
A
100
AcDbEntity
  8
1
  6
solid
 62
     7
100
AcDbCircle
 10
1.774509066983111
 20
0.5327969454373978
 30
0.0
 40
0.1899715065956116
100
AcDbArc
 50
82.22866107816185
 51
98.8399919132401
  0
LINE
  5
190
330
A
100
AcDbEntity
  8
1
  6
solid
 62
     7
100
AcDbLine
 10
1.745315074920654
 20
0.7205118536949158
 30
0.0
 11
1.741575002670288
 21
0.7224016189575196
 31
0.0
  0
LINE
  5
191
330
A
100
AcDbEntity
  8
1
  6
solid
 62
     7
100
AcDbLine
 10
1.741575002670288
 20
0.7224016189575196
 30
0.0
 11
1.379252076148986
 21
0.7240945100784302
 31
0.0
  0
ARC
  5
192
330
A
100
AcDbEntity
  8
1
  6
solid
 62
     7
100
AcDbCircle
 10
1.357502147403218
 20
0.4826802336297473
 30
0.0
 40
0.2423920631408691
100
AcDbArc
 50
84.85190451193195
 51
95.15839700719816
  0
LINE
  5
193
330
A
100
AcDbEntity
  8
1
  6
solid
 62
     7
100
AcDbLine
 10
1.335708737373352
 20
0.7240945100784302
 30
0.0
 11
1.331653594970703
 21
0.7257480621337891
 31
0.0
  0
LINE
  5
194
330
A
100
AcDbEntity
  8
1
  6
solid
 62
     7
100
AcDbLine
 10
1.331653594970703
 20
0.7257480621337891
 30
0.0
 11
1.106850504875183
 21
0.7265748381614685
 31
0.0
  0
LINE
  5
195
330
A
100
AcDbEntity
  8
1
  6
solid
 62
     7
100
AcDbLine
 10
1.106850504875183
 20
0.7265748381614685
 30
0.0
 11
1.048582673072814
 21
0.728818953037262
 31
0.0
  0
LINE
  5
196
330
A
100
AcDbEntity
  8
1
  6
solid
 62
     7
100
AcDbLine
 10
1.048582673072814
 20
0.728818953037262
 30
0.0
 11
1.041889786720275
 21
0.7275591492652893
 31
0.0
  0
LINE
  5
197
330
A
100
AcDbEntity
  8
1
  6
solid
 62
     7
100
AcDbLine
 10
1.041889786720275
 20
0.7275591492652893
 30
0.0
 11
1.015905618667602
 21
0.7287796139717102
 31
0.0
  0
LINE
  5
198
330
A
100
AcDbEntity
  8
1
  6
solid
 62
     7
100
AcDbLine
 10
1.015905618667602
 20
0.7287796139717102
 30
0.0
 11
1.011102437973022
 21
0.7277559638023377
 31
0.0
  0
LINE
  5
199
330
A
100
AcDbEntity
  8
1
  6
solid
 62
     7
100
AcDbLine
 10
1.011102437973022
 20
0.7277559638023377
 30
0.0
 11
0.7687795758247376
 21
0.7304725050926209
 31
0.0
  0
LINE
  5
19A
330
A
100
AcDbEntity
  8
1
  6
solid
 62
     7
100
AcDbLine
 10
0.7687795758247376
 20
0.7304725050926209
 30
0.0
 11
0.7645276188850403
 21
0.73165363073349
 31
0.0
  0
LINE
  5
19B
330
A
100
AcDbEntity
  8
1
  6
solid
 62
     7
100
AcDbLine
 10
0.7645276188850403
 20
0.73165363073349
 30
0.0
 11
0.7513386607170105
 21
0.7303937077522278
 31
0.0
  0
LINE
  5
19C
330
A
100
AcDbEntity
  8
1
  6
solid
 62
     7
100
AcDbLine
 10
0.7513386607170105
 20
0.7303937077522278
 30
0.0
 11
0.7257480621337891
 21
0.7332283854484558
 31
0.0
  0
LINE
  5
19D
330
A
100
AcDbEntity
  8
1
  6
solid
 62
     7
100
AcDbLine
 10
0.7257480621337891
 20
0.7332283854484558
 30
0.0
 11
0.7149212956428528
 21
0.7312204837799073
 31
0.0
  0
LINE
  5
19E
330
A
100
AcDbEntity
  8
1
  6
solid
 62
     7
100
AcDbLine
 10
0.7149212956428528
 20
0.7312204837799073
 30
0.0
 11
0.7118898034095765
 21
0.7322441339492798
 31
0.0
  0
LINE
  5
19F
330
A
100
AcDbEntity
  8
1
  6
solid
 62
     7
100
AcDbLine
 10
0.7118898034095765
 20
0.7322441339492798
 30
0.0
 11
0.6385827064514161
 21
0.7332283854484558
 31
0.0
  0
LINE
  5
1A0
330
A
100
AcDbEntity
  8
1
  6
solid
 62
     7
100
AcDbLine
 10
0.6385827064514161
 20
0.7332283854484558
 30
0.0
 11
0.6225590705871582
 21
0.7322834730148316
 31
0.0
  0
LINE
  5
1A1
330
A
100
AcDbEntity
  8
1
  6
solid
 62
     7
100
AcDbLine
 10
0.6225590705871582
 20
0.7322834730148316
 30
0.0
 11
0.6144488453865052
 21
0.7305512428283692
 31
0.0
  0
ARC
  5
1A2
330
A
100
AcDbEntity
  8
1
  6
solid
 62
     7
100
AcDbCircle
 10
0.7181888589940683
 20
0.6996397770508472
 30
0.0
 40
0.1082474440336227
100
AcDbArc
 50
163.407494760136
 51
181.0808380488812
  0
LINE
  5
1A3
330
A
100
AcDbEntity
  8
1
  6
solid
 62
     7
100
AcDbLine
 10
0.609960675239563
 20
0.6975985169410706
 30
0.0
 11
0.6113386154174805
 21
0.689921259880066
 31
0.0
  0
LINE
  5
1A4
330
A
100
AcDbEntity
  8
1
  6
solid
 62
     7
100
AcDbLine
 10
0.6113386154174805
 20
0.689921259880066
 30
0.0
 11
0.6885827779769898
 21
0.6890944838523865
 31
0.0
  0
LINE
  5
1A5
330
A
100
AcDbEntity
  8
1
  6
solid
 62
     7
100
AcDbLine
 10
0.6885827779769898
 20
0.6890944838523865
 30
0.0
 11
0.6909449100494385
 21
0.6881102919578553
 31
0.0
  0
LINE
  5
1A6
330
A
100
AcDbEntity
  8
1
  6
solid
 62
     7
100
AcDbLine
 10
0.6909449100494385
 20
0.6881102919578553
 30
0.0
 11
0.7111023664474488
 21
0.6891339421272278
 31
0.0
  0
LINE
  5
1A7
330
A
100
AcDbEntity
  8
1
  6
solid
 62
     7
100
AcDbLine
 10
0.7111023664474488
 20
0.6891339421272278
 30
0.0
 11
0.7147638201713562
 21
0.6874016523361206
 31
0.0
  0
LINE
  5
1A8
330
A
100
AcDbEntity
  8
1
  6
solid
 62
     7
100
AcDbLine
 10
0.7147638201713562
 20
0.6874016523361206
 30
0.0
 11
0.9919685721397399
 21
0.6855118274688721
 31
0.0
  0
LINE
  5
1A9
330
A
100
AcDbEntity
  8
1
  6
solid
 62
     7
100
AcDbLine
 10
0.9919685721397399
 20
0.6855118274688721
 30
0.0
 11
1.004685044288635
 21
0.6833859086036683
 31
0.0
  0
LINE
  5
1AA
330
A
100
AcDbEntity
  8
1
  6
solid
 62
     7
100
AcDbLine
 10
1.004685044288635
 20
0.6833859086036683
 30
0.0
 11
1.006850481033325
 21
0.6846063137054444
 31
0.0
  0
LINE
  5
1AB
330
A
100
AcDbEntity
  8
1
  6
solid
 62
     7
100
AcDbLine
 10
1.006850481033325
 20
0.6846063137054444
 30
0.0
 11
1.371299266815185
 21
0.6820866465568543
 31
0.0
  0
LINE
  5
1AC
330
A
100
AcDbEntity
  8
1
  6
solid
 62
     7
100
AcDbLine
 10
1.371299266815185
 20
0.6820866465568543
 30
0.0
 11
1.482480406761169
 21
0.6800394058227539
 31
0.0
  0
LINE
  5
1AD
330
A
100
AcDbEntity
  8
1
  6
solid
 62
     7
100
AcDbLine
 10
1.482480406761169
 20
0.6800394058227539
 30
0.0
 11
1.820945024490356
 21
0.6794094443321228
 31
0.0
  0
LINE
  5
1AE
330
A
100
AcDbEntity
  8
1
  6
solid
 62
     7
100
AcDbLine
 10
1.820945024490356
 20
0.6794094443321228
 30
0.0
 11
1.825393795967102
 21
0.6783071160316468
 31
0.0
  0
LINE
  5
1AF
330
A
100
AcDbEntity
  8
1
  6
solid
 62
     7
100
AcDbLine
 10
1.825393795967102
 20
0.6783071160316468
 30
0.0
 11
1.845118165016174
 21
0.6790944933891297
 31
0.0
  0
LINE
  5
1B0
330
A
100
AcDbEntity
  8
1
  6
solid
 62
     7
100
AcDbLine
 10
1.845118165016174
 20
0.6790944933891297
 30
0.0
 11
1.847952961921691
 21
0.6774016618728638
 31
0.0
  0
LINE
  5
1B1
330
A
100
AcDbEntity
  8
1
  6
solid
 62
     7
100
AcDbLine
 10
1.847952961921691
 20
0.6774016618728638
 30
0.0
 11
2.124488353729248
 21
0.6755118370056153
 31
0.0
  0
LINE
  5
1B2
330
A
100
AcDbEntity
  8
1
  6
solid
 62
     7
100
AcDbLine
 10
2.124488353729248
 20
0.6755118370056153
 30
0.0
 11
2.174291372299194
 21
0.6738583445549012
 31
0.0
  0
LINE
  5
1B3
330
A
100
AcDbEntity
  8
1
  6
solid
 62
     7
100
AcDbLine
 10
2.174291372299194
 20
0.6738583445549012
 30
0.0
 11
2.188071012496948
 21
0.6752756237983704
 31
0.0
  0
LINE
  5
1B4
330
A
100
AcDbEntity
  8
1
  6
solid
 62
     7
100
AcDbLine
 10
2.188071012496948
 20
0.6752756237983704
 30
0.0
 11
2.191063165664672
 21
0.6742520332336426
 31
0.0
  0
LINE
  5
1B5
330
A
100
AcDbEntity
  8
1
  6
solid
 62
     7
100
AcDbLine
 10
2.191063165664672
 20
0.6742520332336426
 30
0.0
 11
2.47842526435852
 21
0.672165334224701
 31
0.0
  0
ARC
  5
1B6
330
A
100
AcDbEntity
  8
1
  6
solid
 62
     7
100
AcDbCircle
 10
2.502195473391429
 20
0.7960667864080114
 30
0.0
 40
0.1261609792709351
100
AcDbArc
 50
259.1398906198983
 51
278.4020725133719
  0
ARC
  5
1B7
330
A
100
AcDbEntity
  8
1
  6
solid
 62
     7
100
AcDbCircle
 10
2.528512732764474
 20
0.692306720332755
 30
0.0
 40
0.02247454226017
100
AcDbArc
 50
249.4677143777566
 51
294.9480418531877
  0
LINE
  5
1B8
330
A
100
AcDbEntity
  8
1
  6
solid
 62
     7
100
AcDbLine
 10
2.537992238998413
 20
0.6719291806221009
 30
0.0
 11
2.541023731231689
 21
0.6709055304527283
 31
0.0
  0
LINE
  5
1B9
330
A
100
AcDbEntity
  8
1
  6
solid
 62
     7
100
AcDbLine
 10
2.541023731231689
 20
0.6709055304527283
 30
0.0
 11
2.8817720413208
 21
0.6694882512092591
 31
0.0
  0
LINE
  5
1BA
330
A
100
AcDbEntity
  8
1
  6
solid
 62
     7
100
AcDbLine
 10
2.8817720413208
 20
0.6694882512092591
 30
0.0
 11
2.92948842048645
 21
0.666102409362793
 31
0.0
  0
LINE
  5
1BB
330
A
100
AcDbEntity
  8
1
  6
solid
 62
     7
100
AcDbLine
 10
2.92948842048645
 20
0.666102409362793
 30
0.0
 11
2.942244291305541
 21
0.6629921197891236
 31
0.0
  0
LINE
  5
1BC
330
A
100
AcDbEntity
  8
1
  6
solid
 62
     7
100
AcDbLine
 10
2.942244291305541
 20
0.6629921197891236
 30
0.0
 11
2.94629955291748
 21
0.6590945720672608
 31
0.0
  0
LINE
  5
1BD
330
A
100
AcDbEntity
  8
1
  6
solid
 62
     7
100
AcDbLine
 10
2.94629955291748
 20
0.6590945720672608
 30
0.0
 11
2.94629955291748
 21
0.6565747857093811
 31
0.0
  0
LINE
  5
1BE
330
A
100
AcDbEntity
  8
1
  6
solid
 62
     7
100
AcDbLine
 10
2.94629955291748
 20
0.6565747857093811
 30
0.0
 11
2.795315265655517
 21
0.6574410200119019
 31
0.0
  0
LINE
  5
1BF
330
A
100
AcDbEntity
  8
1
  6
solid
 62
     7
100
AcDbLine
 10
2.795315265655517
 20
0.6574410200119019
 30
0.0
 11
2.763307332992553
 21
0.6588189601898194
 31
0.0
  0
LINE
  5
1C0
330
A
100
AcDbEntity
  8
1
  6
solid
 62
     7
100
AcDbLine
 10
2.763307332992553
 20
0.6588189601898194
 30
0.0
 11
2.746260166168212
 21
0.6573622226715088
 31
0.0
  0
LINE
  5
1C1
330
A
100
AcDbEntity
  8
1
  6
solid
 62
     7
100
AcDbLine
 10
2.746260166168212
 20
0.6573622226715088
 30
0.0
 11
2.699488401412963
 21
0.6574410200119019
 31
0.0
  0
LINE
  5
1C2
330
A
100
AcDbEntity
  8
1
  6
solid
 62
     7
100
AcDbLine
 10
2.699488401412963
 20
0.6574410200119019
 30
0.0
 11
2.694684982299804
 21
0.6585826873779297
 31
0.0
  0
LINE
  5
1C3
330
A
100
AcDbEntity
  8
1
  6
solid
 62
     7
100
AcDbLine
 10
2.694684982299804
 20
0.6585826873779297
 30
0.0
 11
2.660827159881591
 21
0.6592519879341126
 31
0.0
  0
LINE
  5
1C4
330
A
100
AcDbEntity
  8
1
  6
solid
 62
     7
100
AcDbLine
 10
2.660827159881591
 20
0.6592519879341126
 30
0.0
 11
2.658700942993164
 21
0.65822833776474
 31
0.0
  0
LINE
  5
1C5
330
A
100
AcDbEntity
  8
1
  6
solid
 62
     7
100
AcDbLine
 10
2.658700942993164
 20
0.65822833776474
 30
0.0
 11
2.616811275482177
 21
0.6598425507545472
 31
0.0
  0
LINE
  5
1C6
330
A
100
AcDbEntity
  8
1
  6
solid
 62
     7
100
AcDbLine
 10
2.616811275482177
 20
0.6598425507545472
 30
0.0
 11
2.4213387966156
 21
0.6599212884902954
 31
0.0
  0
LINE
  5
1C7
330
A
100
AcDbEntity
  8
1
  6
solid
 62
     7
100
AcDbLine
 10
2.4213387966156
 20
0.6599212884902954
 30
0.0
 11
2.408346652984619
 21
0.6622441411018372
 31
0.0
  0
LINE
  5
1C8
330
A
100
AcDbEntity
  8
1
  6
solid
 62
     7
100
AcDbLine
 10
2.408346652984619
 20
0.6622441411018372
 30
0.0
 11
2.16555118560791
 21
0.6632283926010132
 31
0.0
  0
LINE
  5
1C9
330
A
100
AcDbEntity
  8
1
  6
solid
 62
     7
100
AcDbLine
 10
2.16555118560791
 20
0.6632283926010132
 30
0.0
 11
2.108071088790893
 21
0.6665748953819275
 31
0.0
  0
LINE
  5
1CA
330
A
100
AcDbEntity
  8
1
  6
solid
 62
     7
100
AcDbLine
 10
2.108071088790893
 20
0.6665748953819275
 30
0.0
 11
2.094724416732788
 21
0.6645669937133789
 31
0.0
  0
LINE
  5
1CB
330
A
100
AcDbEntity
  8
1
  6
solid
 62
     7
100
AcDbLine
 10
2.094724416732788
 20
0.6645669937133789
 30
0.0
 11
2.091692924499511
 21
0.6655905842781067
 31
0.0
  0
LINE
  5
1CC
330
A
100
AcDbEntity
  8
1
  6
solid
 62
     7
100
AcDbLine
 10
2.091692924499511
 20
0.6655905842781067
 30
0.0
 11
1.781574964523315
 21
0.6676378250122071
 31
0.0
  0
LINE
  5
1CD
330
A
100
AcDbEntity
  8
1
  6
solid
 62
     7
100
AcDbLine
 10
1.781574964523315
 20
0.6676378250122071
 30
0.0
 11
1.769763946533203
 21
0.6693307757377625
 31
0.0
  0
LINE
  5
1CE
330
A
100
AcDbEntity
  8
1
  6
solid
 62
     7
100
AcDbLine
 10
1.769763946533203
 20
0.6693307757377625
 30
0.0
 11
1.744527578353881
 21
0.6673622131347657
 31
0.0
  0
LINE
  5
1CF
330
A
100
AcDbEntity
  8
1
  6
solid
 62
     7
100
AcDbLine
 10
1.744527578353881
 20
0.6673622131347657
 30
0.0
 11
1.741575002670288
 21
0.6690945029258728
 31
0.0
  0
LINE
  5
1D0
330
A
100
AcDbEntity
  8
1
  6
solid
 62
     7
100
AcDbLine
 10
1.741575002670288
 20
0.6690945029258728
 30
0.0
 11
1.402323007583618
 21
0.6699212789535523
 31
0.0
  0
LINE
  5
1D1
330
A
100
AcDbEntity
  8
1
  6
solid
 62
     7
100
AcDbLine
 10
1.402323007583618
 20
0.6699212789535523
 30
0.0
 11
1.300196886062622
 21
0.6732283830642701
 31
0.0
  0
LINE
  5
1D2
330
A
100
AcDbEntity
  8
1
  6
solid
 62
     7
100
AcDbLine
 10
1.300196886062622
 20
0.6732283830642701
 30
0.0
 11
1.288149714469909
 21
0.6712205410003662
 31
0.0
  0
LINE
  5
1D3
330
A
100
AcDbEntity
  8
1
  6
solid
 62
     7
100
AcDbLine
 10
1.288149714469909
 20
0.6712205410003662
 30
0.0
 11
1.285157561302185
 21
0.672244131565094
 31
0.0
  0
LINE
  5
1D4
330
A
100
AcDbEntity
  8
1
  6
solid
 62
     7
100
AcDbLine
 10
1.285157561302185
 20
0.672244131565094
 30
0.0
 11
0.9788976907730102
 21
0.674094557762146
 31
0.0
  0
ARC
  5
1D5
330
A
100
AcDbEntity
  8
1
  6
solid
 62
     7
100
AcDbCircle
 10
0.9589720236975288
 20
0.9299425481966935
 30
0.0
 40
0.2566227316856384
100
AcDbArc
 50
260.8645851023128
 51
274.453256701337
  0
ARC
  5
1D6
330
A
100
AcDbEntity
  8
1
  6
solid
 62
     7
100
AcDbCircle
 10
0.9126981884102312
 20
0.682850214352667
 30
0.0
 40
0.0083644194528461
100
AcDbArc
 50
240.2166261281354
 51
311.3887613929882
  0
LINE
  5
1D7
330
A
100
AcDbEntity
  8
1
  6
solid
 62
     7
100
AcDbLine
 10
0.9085434079170227
 20
0.6755906343460083
 30
0.0
 11
0.6526772379875183
 21
0.6774410009384156
 31
0.0
  0
ARC
  5
1D8
330
A
100
AcDbEntity
  8
1
  6
solid
 62
     7
100
AcDbCircle
 10
0.636076019690889
 20
0.5812644476784302
 30
0.0
 40
0.0975988209247589
100
AcDbArc
 50
80.20656991400123
 51
103.5621934600901
  0
LINE
  5
1D9
330
A
100
AcDbEntity
  8
1
  6
solid
 62
     7
100
AcDbLine
 10
0.6131890416145325
 20
0.6761417984962464
 30
0.0
 11
0.6072835326194764
 21
0.6716141700744629
 31
0.0
  0
LINE
  5
1DA
330
A
100
AcDbEntity
  8
1
  6
solid
 62
     7
100
AcDbLine
 10
0.6072835326194764
 20
0.6716141700744629
 30
0.0
 11
0.606574833393097
 21
0.638936996459961
 31
0.0
  0
LINE
  5
1DB
330
A
100
AcDbEntity
  8
1
  6
solid
 62
     7
100
AcDbLine
 10
0.606574833393097
 20
0.638936996459961
 30
0.0
 11
0.6080709099769593
 21
0.6332677602767945
 31
0.0
  0
LINE
  5
1DC
330
A
100
AcDbEntity
  8
1
  6
solid
 62
     7
100
AcDbLine
 10
0.6080709099769593
 20
0.6332677602767945
 30
0.0
 11
0.7834646105766297
 21
0.6322047710418702
 31
0.0
  0
LINE
  5
1DD
330
A
100
AcDbEntity
  8
1
  6
solid
 62
     7
100
AcDbLine
 10
0.7834646105766297
 20
0.6322047710418702
 30
0.0
 11
0.7870473265647889
 21
0.6313779950141907
 31
0.0
  0
ARC
  5
1DE
330
A
100
AcDbEntity
  8
1
  6
solid
 62
     7
100
AcDbCircle
 10
0.7986604503799876
 20
0.5787365966451522
 30
0.0
 40
0.0539071559906006
100
AcDbArc
 50
78.15628714404138
 51
102.4406524927119
  0
ARC
  5
1DF
330
A
100
AcDbEntity
  8
1
  6
solid
 62
     7
100
AcDbCircle
 10
0.8240716880218498
 20
0.5676060349699313
 30
0.0
 40
0.0654812008142471
100
AcDbArc
 50
74.63925198567257
 51
102.6564523195385
  0
LINE
  5
1E0
330
A
100
AcDbEntity
  8
1
  6
solid
 62
     7
100
AcDbLine
 10
0.841417372226715
 20
0.6307480335235596
 30
0.0
 11
1.114763855934143
 21
0.6288582682609558
 31
0.0
  0
LINE
  5
1E1
330
A
100
AcDbEntity
  8
1
  6
solid
 62
     7
100
AcDbLine
 10
1.114763855934143
 20
0.6288582682609558
 30
0.0
 11
1.119606375694274
 21
0.6279921531677246
 31
0.0
  0
LINE
  5
1E2
330
A
100
AcDbEntity
  8
1
  6
solid
 62
     7
100
AcDbLine
 10
1.119606375694274
 20
0.6279921531677246
 30
0.0
 11
1.185039520263671
 21
0.6287795901298523
 31
0.0
  0
LINE
  5
1E3
330
A
100
AcDbEntity
  8
1
  6
solid
 62
     7
100
AcDbLine
 10
1.185039520263671
 20
0.6287795901298523
 30
0.0
 11
1.18787407875061
 21
0.6275984644889832
 31
0.0
  0
LINE
  5
1E4
330
A
100
AcDbEntity
  8
1
  6
solid
 62
     7
100
AcDbLine
 10
1.18787407875061
 20
0.6275984644889832
 30
0.0
 11
1.458700895309448
 21
0.6255118250846863
 31
0.0
  0
ARC
  5
1E5
330
A
100
AcDbEntity
  8
1
  6
solid
 62
     7
100
AcDbCircle
 10
1.468694804270056
 20
0.6671810119385532
 30
0.0
 40
0.0428508967161179
100
AcDbArc
 50
256.5129725443547
 51
287.4371287097348
  0
ARC
  5
1E6
330
A
100
AcDbEntity
  8
1
  6
solid
 62
     7
100
AcDbCircle
 10
1.490967499451388
 20
0.6551446817504677
 30
0.0
 40
0.0303483456373215
100
AcDbArc
 50
251.8929506274881
 51
283.4600461598198
  0
LINE
  5
1E7
330
A
100
AcDbEntity
  8
1
  6
solid
 62
     7
100
AcDbLine
 10
1.498031616210937
 20
0.6256299614906311
 30
0.0
 11
1.515196919441223
 21
0.6235039830207825
 31
0.0
  0
LINE
  5
1E8
330
A
100
AcDbEntity
  8
1
  6
solid
 62
     7
100
AcDbLine
 10
1.515196919441223
 20
0.6235039830207825
 30
0.0
 11
1.524803280830383
 21
0.6252756118774414
 31
0.0
  0
LINE
  5
1E9
330
A
100
AcDbEntity
  8
1
  6
solid
 62
     7
100
AcDbLine
 10
1.524803280830383
 20
0.6252756118774414
 30
0.0
 11
1.527834773063659
 21
0.6242520213127137
 31
0.0
  0
LINE
  5
1EA
330
A
100
AcDbEntity
  8
1
  6
solid
 62
     7
100
AcDbLine
 10
1.527834773063659
 20
0.6242520213127137
 30
0.0
 11
1.877559185028076
 21
0.6222047805786133
 31
0.0
  0
LINE
  5
1EB
330
A
100
AcDbEntity
  8
1
  6
solid
 62
     7
100
AcDbLine
 10
1.877559185028076
 20
0.6222047805786133
 30
0.0
 11
1.886141777038574
 21
0.6210630536079407
 31
0.0
  0
ARC
  5
1EC
330
A
100
AcDbEntity
  8
1
  6
solid
 62
     7
100
AcDbCircle
 10
1.903132657636559
 20
0.454052972167945
 30
0.0
 40
0.1678721457719803
100
AcDbArc
 50
84.46285352171345
 51
95.80903741243899
  0
LINE
  5
1ED
330
A
100
AcDbEntity
  8
1
  6
solid
 62
     7
100
AcDbLine
 10
1.919330835342407
 20
0.6211417317390442
 30
0.0
 11
1.924409508705139
 21
0.6224015951156617
 31
0.0
  0
LINE
  5
1EE
330
A
100
AcDbEntity
  8
1
  6
solid
 62
     7
100
AcDbLine
 10
1.924409508705139
 20
0.6224015951156617
 30
0.0
 11
1.937756061553955
 21
0.6209449172019959
 31
0.0
  0
LINE
  5
1EF
330
A
100
AcDbEntity
  8
1
  6
solid
 62
     7
100
AcDbLine
 10
1.937756061553955
 20
0.6209449172019959
 30
0.0
 11
2.280866146087646
 21
0.6193307638168335
 31
0.0
  0
LINE
  5
1F0
330
A
100
AcDbEntity
  8
1
  6
solid
 62
     7
100
AcDbLine
 10
2.280866146087646
 20
0.6193307638168335
 30
0.0
 11
2.28456711769104
 21
0.6174015998840332
 31
0.0
  0
LINE
  5
1F1
330
A
100
AcDbEntity
  8
1
  6
solid
 62
     7
100
AcDbLine
 10
2.28456711769104
 20
0.6174015998840332
 30
0.0
 11
2.546693086624145
 21
0.6165748834609986
 31
0.0
  0
ARC
  5
1F2
330
A
100
AcDbEntity
  8
1
  6
solid
 62
     7
100
AcDbCircle
 10
2.570607650720813
 20
0.7262615453272572
 30
0.0
 40
0.1122633963823318
100
AcDbArc
 50
257.7004965542098
 51
281.4194861641435
  0
LINE
  5
1F3
330
A
100
AcDbEntity
  8
1
  6
solid
 62
     7
100
AcDbLine
 10
2.592834711074829
 20
0.6162204742431641
 30
0.0
 11
2.597874164581298
 21
0.6140944957733155
 31
0.0
  0
LINE
  5
1F4
330
A
100
AcDbEntity
  8
1
  6
solid
 62
     7
100
AcDbLine
 10
2.597874164581298
 20
0.6140944957733155
 30
0.0
 11
2.920590877532958
 21
0.6124016046524048
 31
0.0
  0
ARC
  5
1F5
330
A
100
AcDbEntity
  8
1
  6
solid
 62
     7
100
AcDbCircle
 10
2.928180321363761
 20
0.5772896067178942
 30
0.0
 40
0.0359228625893593
100
AcDbArc
 50
73.49496307326366
 51
102.1968215695316
  0
ARC
  5
1F6
330
A
100
AcDbEntity
  8
1
  6
solid
 62
     7
100
AcDbCircle
 10
2.937477344336439
 20
0.6070513622665386
 30
0.0
 40
0.00476837111637
100
AcDbArc
 50
358.5622246891447
 51
439.0150434132924
  0
LINE
  5
1F7
330
A
100
AcDbEntity
  8
1
  6
solid
 62
     7
100
AcDbLine
 10
2.942244291305541
 20
0.6069291830062867
 30
0.0
 11
2.939724683761596
 21
0.600984275341034
 31
0.0
  0
LINE
  5
1F8
330
A
100
AcDbEntity
  8
1
  6
solid
 62
     7
100
AcDbLine
 10
2.939724683761596
 20
0.600984275341034
 30
0.0
 11
2.810590505599975
 21
0.6025984883308411
 31
0.0
  0
LINE
  5
1F9
330
A
100
AcDbEntity
  8
1
  6
solid
 62
     7
100
AcDbLine
 10
2.810590505599975
 20
0.6025984883308411
 30
0.0
 11
2.784291505813598
 21
0.6007480621337891
 31
0.0
  0
LINE
  5
1FA
330
A
100
AcDbEntity
  8
1
  6
solid
 62
     7
100
AcDbLine
 10
2.784291505813598
 20
0.6007480621337891
 30
0.0
 11
2.781456708908081
 21
0.6024410128593445
 31
0.0
  0
LINE
  5
1FB
330
A
100
AcDbEntity
  8
1
  6
solid
 62
     7
100
AcDbLine
 10
2.781456708908081
 20
0.6024410128593445
 30
0.0
 11
2.438031673431396
 21
0.6045669913291932
 31
0.0
  0
LINE
  5
1FC
330
A
100
AcDbEntity
  8
1
  6
solid
 62
     7
100
AcDbLine
 10
2.438031673431396
 20
0.6045669913291932
 30
0.0
 11
2.43500018119812
 21
0.6055905818939209
 31
0.0
  0
LINE
  5
1FD
330
A
100
AcDbEntity
  8
1
  6
solid
 62
     7
100
AcDbLine
 10
2.43500018119812
 20
0.6055905818939209
 30
0.0
 11
2.21641731262207
 21
0.6076378226280213
 31
0.0
  0
LINE
  5
1FE
330
A
100
AcDbEntity
  8
1
  6
solid
 62
     7
100
AcDbLine
 10
2.21641731262207
 20
0.6076378226280213
 30
0.0
 11
2.211575031280517
 21
0.608543336391449
 31
0.0
  0
ARC
  5
1FF
330
A
100
AcDbEntity
  8
1
  6
solid
 62
     7
100
AcDbCircle
 10
2.189929379281743
 20
0.8797673489191685
 30
0.0
 40
0.2720863819122314
100
AcDbArc
 50
265.3339057253323
 51
274.5629495394074
  0
LINE
  5
200
330
A
100
AcDbEntity
  8
1
  6
solid
 62
     7
100
AcDbLine
 10
2.167795419692993
 20
0.6085827350616455
 30
0.0
 11
2.158071041107177
 21
0.606574833393097
 31
0.0
  0
LINE
  5
201
330
A
100
AcDbEntity
  8
1
  6
solid
 62
     7
100
AcDbLine
 10
2.158071041107177
 20
0.606574833393097
 30
0.0
 11
2.151535511016845
 21
0.6090945005416871
 31
0.0
  0
LINE
  5
202
330
A
100
AcDbEntity
  8
1
  6
solid
 62
     7
100
AcDbLine
 10
2.151535511016845
 20
0.6090945005416871
 30
0.0
 11
1.834763884544372
 21
0.6099212765693665
 31
0.0
  0
LINE
  5
203
330
A
100
AcDbEntity
  8
1
  6
solid
 62
     7
100
AcDbLine
 10
1.834763884544372
 20
0.6099212765693665
 30
0.0
 11
1.798110246658325
 21
0.6112598776817322
 31
0.0
  0
LINE
  5
204
330
A
100
AcDbEntity
  8
1
  6
solid
 62
     7
100
AcDbLine
 10
1.798110246658325
 20
0.6112598776817322
 30
0.0
 11
1.795078873634338
 21
0.6122441291809082
 31
0.0
  0
LINE
  5
205
330
A
100
AcDbEntity
  8
1
  6
solid
 62
     7
100
AcDbLine
 10
1.795078873634338
 20
0.6122441291809082
 30
0.0
 11
1.539252042770385
 21
0.6140944957733155
 31
0.0
  0
LINE
  5
206
330
A
100
AcDbEntity
  8
1
  6
solid
 62
     7
100
AcDbLine
 10
1.539252042770385
 20
0.6140944957733155
 30
0.0
 11
1.526299238204956
 21
0.6150394082069397
 31
0.0
  0
ARC
  5
207
330
A
100
AcDbEntity
  8
1
  6
solid
 62
     7
100
AcDbCircle
 10
1.502213778630843
 20
0.8014966651948334
 30
0.0
 40
0.1880064308643341
100
AcDbArc
 50
261.0340284352425
 51
277.3603764573912
  0
ARC
  5
208
330
A
100
AcDbEntity
  8
1
  6
solid
 62
     7
100
AcDbCircle
 10
1.463821310118554
 20
0.6357678267211299
 30
0.0
 40
0.0219518467783928
100
AcDbArc
 50
248.4219475290306
 51
294.4681971583322
  0
LINE
  5
209
330
A
100
AcDbEntity
  8
1
  6
solid
 62
     7
100
AcDbLine
 10
1.455748081207275
 20
0.6153543591499329
 30
0.0
 11
1.405630111694335
 21
0.6158661842346192
 31
0.0
  0
ARC
  5
20A
330
A
100
AcDbEntity
  8
1
  6
solid
 62
     7
100
AcDbCircle
 10
1.401858367074517
 20
0.6206410137673961
 30
0.0
 40
0.006084821652621
100
AcDbArc
 50
236.1005628889889
 51
308.305996492238
  0
LINE
  5
20B
330
A
100
AcDbEntity
  8
1
  6
solid
 62
     7
100
AcDbLine
 10
1.398464560508728
 20
0.6155905723571778
 30
0.0
 11
1.111220598220825
 21
0.6176378130912781
 31
0.0
  0
ARC
  5
20C
330
A
100
AcDbEntity
  8
1
  6
solid
 62
     7
100
AcDbCircle
 10
1.099789196895687
 20
0.5768454429212797
 30
0.0
 40
0.0423638336360455
100
AcDbArc
 50
74.345331870214
 51
106.6128496415521
  0
ARC
  5
20D
330
A
100
AcDbEntity
  8
1
  6
solid
 62
     7
100
AcDbCircle
 10
1.07221336200802
 20
0.7866171937387481
 30
0.0
 40
0.1698814779520035
100
AcDbArc
 50
260.8493127993287
 51
275.2227184924739
  0
LINE
  5
20E
330
A
100
AcDbEntity
  8
1
  6
solid
 62
     7
100
AcDbLine
 10
1.045196890830993
 20
0.6188976764678955
 30
0.0
 11
0.7684646248817444
 21
0.6209843158721924
 31
0.0
  0
ARC
  5
20F
330
A
100
AcDbEntity
  8
1
  6
solid
 62
     7
100
AcDbCircle
 10
0.7596461395632331
 20
0.5820361412148435
 30
0.0
 40
0.0399340204894543
100
AcDbArc
 50
77.2424249085666
 51
104.2109999595388
  0
ARC
  5
210
330
A
100
AcDbEntity
  8
1
  6
solid
 62
     7
100
AcDbCircle
 10
0.65046144927856
 20
-1.257052931760331
 30
0.0
 40
1.880429029464721
100
AcDbArc
 50
86.97049258868652
 51
90.61506402744559
  0
LINE
  5
211
330
A
100
AcDbEntity
  8
1
  6
solid
 62
     7
100
AcDbLine
 10
0.6302756071090699
 20
0.6232677102088929
 30
0.0
 11
0.6068110466003418
 21
0.6211023926734925
 31
0.0
  0
LINE
  5
212
330
A
100
AcDbEntity
  8
1
  6
solid
 62
     7
100
AcDbLine
 10
0.6068110466003418
 20
0.6211023926734925
 30
0.0
 11
0.6051968932151795
 21
0.6184645891189576
 31
0.0
  0
LINE
  5
213
330
A
100
AcDbEntity
  8
1
  6
solid
 62
     7
100
AcDbLine
 10
0.6051968932151795
 20
0.6184645891189576
 30
0.0
 11
0.5999212861061097
 21
0.5702756047248841
 31
0.0
  0
LINE
  5
214
330
A
100
AcDbEntity
  8
1
  6
solid
 62
     7
100
AcDbLine
 10
0.5999212861061097
 20
0.5702756047248841
 30
0.0
 11
0.6013386249542237
 21
0.5632677674293518
 31
0.0
  0
LINE
  5
215
330
A
100
AcDbEntity
  8
1
  6
solid
 62
     7
100
AcDbLine
 10
0.6013386249542237
 20
0.5632677674293518
 30
0.0
 11
0.764330804347992
 21
0.5624015927314759
 31
0.0
  0
LINE
  5
216
330
A
100
AcDbEntity
  8
1
  6
solid
 62
     7
100
AcDbLine
 10
0.764330804347992
 20
0.5624015927314759
 30
0.0
 11
0.7977166175842286
 21
0.561181128025055
 31
0.0
  0
LINE
  5
217
330
A
100
AcDbEntity
  8
1
  6
solid
 62
     7
100
AcDbLine
 10
0.7977166175842286
 20
0.561181128025055
 30
0.0
 11
0.8066535592079162
 21
0.5628740787506104
 31
0.0
  0
LINE
  5
218
330
A
100
AcDbEntity
  8
1
  6
solid
 62
     7
100
AcDbLine
 10
0.8066535592079162
 20
0.5628740787506104
 30
0.0
 11
0.8139370679855346
 21
0.5615748763084412
 31
0.0
  0
LINE
  5
219
330
A
100
AcDbEntity
  8
1
  6
solid
 62
     7
100
AcDbLine
 10
0.8139370679855346
 20
0.5615748763084412
 30
0.0
 11
0.8155906200408935
 21
0.5599213242530823
 31
0.0
  0
LINE
  5
21A
330
A
100
AcDbEntity
  8
1
  6
solid
 62
     7
100
AcDbLine
 10
0.8155906200408935
 20
0.5599213242530823
 30
0.0
 11
1.163031578063964
 21
0.5595275759696961
 31
0.0
  0
LINE
  5
21B
330
A
100
AcDbEntity
  8
1
  6
solid
 62
     7
100
AcDbLine
 10
1.163031578063964
 20
0.5595275759696961
 30
0.0
 11
1.168858289718627
 21
0.5566142201423645
 31
0.0
  0
LINE
  5
21C
330
A
100
AcDbEntity
  8
1
  6
solid
 62
     7
100
AcDbLine
 10
1.168858289718627
 20
0.5566142201423645
 30
0.0
 11
1.576574921607971
 21
0.5560629963874817
 31
0.0
  0
LINE
  5
21D
330
A
100
AcDbEntity
  8
1
  6
solid
 62
     7
100
AcDbLine
 10
1.576574921607971
 20
0.5560629963874817
 30
0.0
 11
1.581338644027709
 21
0.5540944933891297
 31
0.0
  0
LINE
  5
21E
330
A
100
AcDbEntity
  8
1
  6
solid
 62
     7
100
AcDbLine
 10
1.581338644027709
 20
0.5540944933891297
 30
0.0
 11
1.851338744163513
 21
0.5522047877311707
 31
0.0
  0
LINE
  5
21F
330
A
100
AcDbEntity
  8
1
  6
solid
 62
     7
100
AcDbLine
 10
1.851338744163513
 20
0.5522047877311707
 30
0.0
 11
1.856181263923645
 21
0.5513386130332947
 31
0.0
  0
ARC
  5
220
330
A
100
AcDbEntity
  8
1
  6
solid
 62
     7
100
AcDbCircle
 10
1.89435558034478
 20
0.153684654488239
 30
0.0
 40
0.3994821012020111
100
AcDbArc
 50
86.54571970910884
 51
95.48352425697451
  0
LINE
  5
221
330
A
100
AcDbEntity
  8
1
  6
solid
 62
     7
100
AcDbLine
 10
1.918425202369689
 20
0.5524410009384156
 30
0.0
 11
1.921259999275207
 21
0.5507480502128601
 31
0.0
  0
LINE
  5
222
330
A
100
AcDbEntity
  8
1
  6
solid
 62
     7
100
AcDbLine
 10
1.921259999275207
 20
0.5507480502128601
 30
0.0
 11
2.211535692214965
 21
0.5487796068191529
 31
0.0
  0
LINE
  5
223
330
A
100
AcDbEntity
  8
1
  6
solid
 62
     7
100
AcDbLine
 10
2.211535692214965
 20
0.5487796068191529
 30
0.0
 11
2.214409589767456
 21
0.547598421573639
 31
0.0
  0
LINE
  5
224
330
A
100
AcDbEntity
  8
1
  6
solid
 62
     7
100
AcDbLine
 10
2.214409589767456
 20
0.547598421573639
 30
0.0
 11
2.523818969726562
 21
0.5460236668586731
 31
0.0
  0
LINE
  5
225
330
A
100
AcDbEntity
  8
1
  6
solid
 62
     7
100
AcDbLine
 10
2.523818969726562
 20
0.5460236668586731
 30
0.0
 11
2.544685125350952
 21
0.5432677268981934
 31
0.0
  0
LINE
  5
226
330
A
100
AcDbEntity
  8
1
  6
solid
 62
     7
100
AcDbLine
 10
2.544685125350952
 20
0.5432677268981934
 30
0.0
 11
2.554685115814208
 21
0.545275628566742
 31
0.0
  0
LINE
  5
227
330
A
100
AcDbEntity
  8
1
  6
solid
 62
     7
100
AcDbLine
 10
2.554685115814208
 20
0.545275628566742
 30
0.0
 11
2.557677268981933
 21
0.5442519783973694
 31
0.0
  0
ARC
  5
228
330
A
100
AcDbEntity
  8
1
  6
solid
 62
     7
100
AcDbCircle
 10
2.738139753931146
 20
10.73513244771446
 30
0.0
 40
10.19247817993164
100
AcDbArc
 50
268.985499025445
 51
270.628634005537
  0
LINE
  5
229
330
A
100
AcDbEntity
  8
1
  6
solid
 62
     7
100
AcDbLine
 10
2.849960565567016
 20
0.5432677268981934
 30
0.0
 11
2.904606342315673
 21
0.5419291257858277
 31
0.0
  0
LINE
  5
22A
330
A
100
AcDbEntity
  8
1
  6
solid
 62
     7
100
AcDbLine
 10
2.904606342315673
 20
0.5419291257858277
 30
0.0
 11
2.914881944656372
 21
0.5432677268981934
 31
0.0
  0
LINE
  5
22B
330
A
100
AcDbEntity
  8
1
  6
solid
 62
     7
100
AcDbLine
 10
2.914881944656372
 20
0.5432677268981934
 30
0.0
 11
2.921614408493041
 21
0.5401574969291687
 31
0.0
  0
LINE
  5
22C
330
A
100
AcDbEntity
  8
1
  6
solid
 62
     7
100
AcDbLine
 10
2.921614408493041
 20
0.5401574969291687
 30
0.0
 11
2.922952890396118
 21
0.529921293258667
 31
0.0
  0
LINE
  5
22D
330
A
100
AcDbEntity
  8
1
  6
solid
 62
     7
100
AcDbLine
 10
2.922952890396118
 20
0.529921293258667
 30
0.0
 11
2.798425197601318
 21
0.5320866107940674
 31
0.0
  0
ARC
  5
22E
330
A
100
AcDbEntity
  8
1
  6
solid
 62
     7
100
AcDbCircle
 10
2.779480245111765
 20
0.6488313317180921
 30
0.0
 40
0.1182718947529793
100
AcDbArc
 50
262.4868096717043
 51
279.2174229304476
  0
ARC
  5
22F
330
A
100
AcDbEntity
  8
1
  6
solid
 62
     7
100
AcDbCircle
 10
2.756781207261089
 20
0.5451963206722726
 30
0.0
 40
0.0154235390946269
100
AcDbArc
 50
235.7934229423918
 51
297.9738873724896
  0
LINE
  5
230
330
A
100
AcDbEntity
  8
1
  6
solid
 62
     7
100
AcDbLine
 10
2.748110294342041
 20
0.5324409604072571
 30
0.0
 11
2.445236206054687
 21
0.5341339111328125
 31
0.0
  0
ARC
  5
231
330
A
100
AcDbEntity
  8
1
  6
solid
 62
     7
100
AcDbCircle
 10
2.437085217923298
 20
0.5046206187390614
 30
0.0
 40
0.0306181814521551
100
AcDbArc
 50
74.56089947060878
 51
104.2902369841001
  0
LINE
  5
232
330
A
100
AcDbEntity
  8
1
  6
solid
 62
     7
100
AcDbLine
 10
2.429527759552001
 20
0.5342913866043091
 30
0.0
 11
2.357362270355224
 21
0.5366142392158509
 31
0.0
  0
LINE
  5
233
330
A
100
AcDbEntity
  8
1
  6
solid
 62
     7
100
AcDbLine
 10
2.357362270355224
 20
0.5366142392158509
 30
0.0
 11
2.344685316085815
 21
0.5345669984817505
 31
0.0
  0
LINE
  5
234
330
A
100
AcDbEntity
  8
1
  6
solid
 62
     7
100
AcDbLine
 10
2.344685316085815
 20
0.5345669984817505
 30
0.0
 11
2.34169316291809
 21
0.5355905890464783
 31
0.0
  0
LINE
  5
235
330
A
100
AcDbEntity
  8
1
  6
solid
 62
     7
100
AcDbLine
 10
2.34169316291809
 20
0.5355905890464783
 30
0.0
 11
2.306850433349609
 21
0.5365354418754578
 31
0.0
  0
LINE
  5
236
330
A
100
AcDbEntity
  8
1
  6
solid
 62
     7
100
AcDbLine
 10
2.306850433349609
 20
0.5365354418754578
 30
0.0
 11
2.119370222091674
 21
0.5368897914886475
 31
0.0
  0
LINE
  5
237
330
A
100
AcDbEntity
  8
1
  6
solid
 62
     7
100
AcDbLine
 10
2.119370222091674
 20
0.5368897914886475
 30
0.0
 11
2.112008094787597
 21
0.539685070514679
 31
0.0
  0
LINE
  5
238
330
A
100
AcDbEntity
  8
1
  6
solid
 62
     7
100
AcDbLine
 10
2.112008094787597
 20
0.539685070514679
 30
0.0
 11
2.108858346939086
 21
0.5386220812797547
 31
0.0
  0
LINE
  5
239
330
A
100
AcDbEntity
  8
1
  6
solid
 62
     7
100
AcDbLine
 10
2.108858346939086
 20
0.5386220812797547
 30
0.0
 11
1.832519769668579
 21
0.5407874584197998
 31
0.0
  0
LINE
  5
23A
330
A
100
AcDbEntity
  8
1
  6
solid
 62
     7
100
AcDbLine
 10
1.832519769668579
 20
0.5407874584197998
 30
0.0
 11
1.796968579292297
 21
0.5400787591934204
 31
0.0
  0
LINE
  5
23B
330
A
100
AcDbEntity
  8
1
  6
solid
 62
     7
100
AcDbLine
 10
1.796968579292297
 20
0.5400787591934204
 30
0.0
 11
1.778346538543701
 21
0.5423228740692139
 31
0.0
  0
LINE
  5
23C
330
A
100
AcDbEntity
  8
1
  6
solid
 62
     7
100
AcDbLine
 10
1.778346538543701
 20
0.5423228740692139
 30
0.0
 11
1.767559170722961
 21
0.5408661961555481
 31
0.0
  0
LINE
  5
23D
330
A
100
AcDbEntity
  8
1
  6
solid
 62
     7
100
AcDbLine
 10
1.767559170722961
 20
0.5408661961555481
 30
0.0
 11
1.75960636138916
 21
0.542007863521576
 31
0.0
  0
LINE
  5
23E
330
A
100
AcDbEntity
  8
1
  6
solid
 62
     7
100
AcDbLine
 10
1.75960636138916
 20
0.542007863521576
 30
0.0
 11
1.754724621772766
 21
0.5413386225700379
 31
0.0
  0
LINE
  5
23F
330
A
100
AcDbEntity
  8
1
  6
solid
 62
     7
100
AcDbLine
 10
1.754724621772766
 20
0.5413386225700379
 30
0.0
 11
1.734921336174011
 21
0.5424410104751587
 31
0.0
  0
LINE
  5
240
330
A
100
AcDbEntity
  8
1
  6
solid
 62
     7
100
AcDbLine
 10
1.734921336174011
 20
0.5424410104751587
 30
0.0
 11
1.489448904991149
 21
0.5432677268981934
 31
0.0
  0
ARC
  5
241
330
A
100
AcDbEntity
  8
1
  6
solid
 62
     7
100
AcDbCircle
 10
1.47957289495019
 20
0.5164391407586146
 30
0.0
 40
0.0285886097699404
100
AcDbArc
 50
69.79057241086682
 51
106.1637442130563
  0
LINE
  5
242
330
A
100
AcDbEntity
  8
1
  6
solid
 62
     7
100
AcDbLine
 10
1.471614241600036
 20
0.5438976883888245
 30
0.0
 11
1.43523633480072
 21
0.5456693172454834
 31
0.0
  0
LINE
  5
243
330
A
100
AcDbEntity
  8
1
  6
solid
 62
     7
100
AcDbLine
 10
1.43523633480072
 20
0.5456693172454834
 30
0.0
 11
1.425511837005615
 21
0.544291377067566
 31
0.0
  0
LINE
  5
244
330
A
100
AcDbEntity
  8
1
  6
solid
 62
     7
100
AcDbLine
 10
1.425511837005615
 20
0.544291377067566
 30
0.0
 11
1.388149738311767
 21
0.5445669889450074
 31
0.0
  0
LINE
  5
245
330
A
100
AcDbEntity
  8
1
  6
solid
 62
     7
100
AcDbLine
 10
1.388149738311767
 20
0.5445669889450074
 30
0.0
 11
1.385118246078491
 21
0.5455905795097351
 31
0.0
  0
LINE
  5
246
330
A
100
AcDbEntity
  8
1
  6
solid
 62
     7
100
AcDbLine
 10
1.385118246078491
 20
0.5455905795097351
 30
0.0
 11
1.040669322013854
 21
0.5485433340072632
 31
0.0
  0
LINE
  5
247
330
A
100
AcDbEntity
  8
1
  6
solid
 62
     7
100
AcDbLine
 10
1.040669322013854
 20
0.5485433340072632
 30
0.0
 11
1.032086730003356
 21
0.5472047924995423
 31
0.0
  0
LINE
  5
248
330
A
100
AcDbEntity
  8
1
  6
solid
 62
     7
100
AcDbLine
 10
1.032086730003356
 20
0.5472047924995423
 30
0.0
 11
1.028346538543701
 21
0.5490944981575013
 31
0.0
  0
LINE
  5
249
330
A
100
AcDbEntity
  8
1
  6
solid
 62
     7
100
AcDbLine
 10
1.028346538543701
 20
0.5490944981575013
 30
0.0
 11
0.7019684910774231
 21
0.5501575469970704
 31
0.0
  0
LINE
  5
24A
330
A
100
AcDbEntity
  8
1
  6
solid
 62
     7
100
AcDbLine
 10
0.7019684910774231
 20
0.5501575469970704
 30
0.0
 11
0.6836220622062683
 21
0.5519291758537293
 31
0.0
  0
LINE
  5
24B
330
A
100
AcDbEntity
  8
1
  6
solid
 62
     7
100
AcDbLine
 10
0.6836220622062683
 20
0.5519291758537293
 30
0.0
 11
0.6219291687011719
 21
0.5532677173614502
 31
0.0
  0
LINE
  5
24C
330
A
100
AcDbEntity
  8
1
  6
solid
 62
     7
100
AcDbLine
 10
0.6219291687011719
 20
0.5532677173614502
 30
0.0
 11
0.6011024117469788
 21
0.5512598752975464
 31
0.0
  0
LINE
  5
24D
330
A
100
AcDbEntity
  8
1
  6
solid
 62
     7
100
AcDbLine
 10
0.6011024117469788
 20
0.5512598752975464
 30
0.0
 11
0.5987402200698853
 21
0.5455118417739869
 31
0.0
  0
ARC
  5
24E
330
A
100
AcDbEntity
  8
1
  6
solid
 62
     7
100
AcDbCircle
 10
0.757555199916811
 20
0.5144219712255995
 30
0.0
 40
0.1618294715881348
100
AcDbArc
 50
168.9237604395134
 51
180.9524441528633
  0
LINE
  5
24F
330
A
100
AcDbEntity
  8
1
  6
solid
 62
     7
100
AcDbLine
 10
0.5957480669021607
 20
0.5117322802543641
 30
0.0
 11
0.5940945148468018
 21
0.5084252357482911
 31
0.0
  0
LINE
  5
250
330
A
100
AcDbEntity
  8
1
  6
solid
 62
     7
100
AcDbLine
 10
0.5940945148468018
 20
0.5084252357482911
 30
0.0
 11
0.5729528069496155
 21
0.2245669513940811
 31
0.0
  0
LINE
  5
251
330
A
100
AcDbEntity
  8
1
  6
solid
 62
     7
100
AcDbLine
 10
0.5729528069496155
 20
0.2245669513940811
 30
0.0
 11
0.5718504190444947
 21
0.2214960753917694
 31
0.0
  0
LINE
  5
252
330
A
100
AcDbEntity
  8
1
  6
solid
 62
     7
100
AcDbLine
 10
0.5718504190444947
 20
0.2214960753917694
 30
0.0
 11
0.5655118227005005
 21
0.1278740167617798
 31
0.0
  0
LINE
  5
253
330
A
100
AcDbEntity
  8
1
  6
solid
 62
     7
100
AcDbLine
 10
0.5655118227005005
 20
0.1278740167617798
 30
0.0
 11
0.5714567303657532
 21
0.124133862555027
 31
0.0
  0
LINE
  5
254
330
A
100
AcDbEntity
  8
1
  6
solid
 62
     7
100
AcDbLine
 10
0.5714567303657532
 20
0.124133862555027
 30
0.0
 11
0.5902756452560425
 21
0.1233070939779282
 31
0.0
  0
LINE
  5
255
330
A
100
AcDbEntity
  8
1
  6
solid
 62
     7
100
AcDbLine
 10
0.5902756452560425
 20
0.1233070939779282
 30
0.0
 11
2.483858346939086
 21
0.1233070939779282
 31
0.0
  0
LINE
  5
256
330
A
100
AcDbEntity
  8
1
  6
solid
 62
     7
100
AcDbLine
 10
2.483858346939086
 20
0.1233070939779282
 30
0.0
 11
2.487756013870239
 21
0.1220472529530525
 31
0.0
  0
ARC
  5
257
330
A
100
AcDbEntity
  8
1
  6
solid
 62
     7
100
AcDbCircle
 10
2.503201927082488
 20
-0.0437458006424786
 30
0.0
 40
0.1665109992027283
100
AcDbArc
 50
81.52012798951599
 51
95.32252986804815
  0
ARC
  5
258
330
A
100
AcDbEntity
  8
1
  6
solid
 62
     7
100
AcDbCircle
 10
2.537315547684257
 20
0.0848335207905046
 30
0.0
 40
0.0373552702367306
100
AcDbArc
 50
75.89761188740988
 51
104.8274894189296
  0
LINE
  5
259
330
A
100
AcDbEntity
  8
1
  6
solid
 62
     7
100
AcDbLine
 10
2.546417474746704
 20
0.1210629940032959
 30
0.0
 11
2.68787407875061
 21
0.1207086741924286
 31
0.0
  0
ARC
  5
25A
330
A
100
AcDbEntity
  8
1
  6
solid
 62
     7
100
AcDbCircle
 10
2.702371728713498
 20
0.0446154039962478
 30
0.0
 40
0.0774620398879051
100
AcDbArc
 50
79.19764510565821
 51
100.7869817323818
  0
ARC
  5
25B
330
A
100
AcDbEntity
  8
1
  6
solid
 62
     7
100
AcDbCircle
 10
2.737245628156041
 20
0.0361568381785383
 30
0.0
 40
0.0869676396250725
100
AcDbArc
 50
78.11422000894328
 51
103.5363036280412
  0
ARC
  5
25C
330
A
100
AcDbEntity
  8
1
  6
solid
 62
     7
100
AcDbCircle
 10
2.766628539774406
 20
0.183631007052036
 30
0.0
 40
0.0634171962738037
100
AcDbArc
 50
259.5790444627735
 51
286.6539792195011
  0
LINE
  5
25D
330
A
100
AcDbEntity
  8
1
  6
solid
 62
     7
100
AcDbLine
 10
2.78480315208435
 20
0.1228740215301514
 30
0.0
 11
2.794606447219848
 21
0.1221259981393814
 31
0.0
  0
LINE
  5
25E
330
A
100
AcDbEntity
  8
1
  6
solid
 62
     7
100
AcDbLine
 10
2.794606447219848
 20
0.1221259981393814
 30
0.0
 11
2.922008037567138
 21
0.1239370182156563
 31
0.0
  0
LINE
  5
25F
330
A
100
AcDbEntity
  8
1
  6
solid
 62
     7
100
AcDbLine
 10
2.922008037567138
 20
0.1239370182156563
 30
0.0
 11
2.934094667434692
 21
0.1259055286645889
 31
0.0
  0
LINE
  5
260
330
A
100
AcDbEntity
  8
1
  6
solid
 62
     7
100
AcDbLine
 10
2.934094667434692
 20
0.1259055286645889
 30
0.0
 11
2.941378355026245
 21
0.1210629940032959
 31
0.0
  0
LINE
  5
261
330
A
100
AcDbEntity
  8
1
  6
solid
 62
     7
100
AcDbLine
 10
2.941378355026245
 20
0.1210629940032959
 30
0.0
 11
2.951968669891357
 21
0.1187401637434959
 31
0.0
  0
LINE
  5
262
330
A
100
AcDbEntity
  8
1
  6
solid
 62
     7
100
AcDbLine
 10
2.951968669891357
 20
0.1187401637434959
 30
0.0
 11
2.969685077667236
 21
0.1205905601382255
 31
0.0
  0
LINE
  5
263
330
A
100
AcDbEntity
  8
1
  6
solid
 62
     7
100
AcDbLine
 10
2.969685077667236
 20
0.1205905601382255
 30
0.0
 11
2.972401618957519
 21
0.1244881972670555
 31
0.0
  0
ARC
  5
264
330
A
100
AcDbEntity
  8
1
  6
solid
 62
     7
100
AcDbCircle
 10
3.199947721292059
 20
0.0871928045685822
 30
0.0
 40
0.2305822521448135
100
AcDbArc
 50
154.9447435294231
 51
170.6918368684413
  0
ARC
  5
265
330
A
100
AcDbEntity
  8
1
  6
solid
 62
     7
100
AcDbCircle
 10
2.974249551793998
 20
0.1741264751959429
 30
0.0
 40
0.0199383497238159
100
AcDbArc
 50
32.51085009070903
 51
67.58991961123455
  0
LINE
  5
266
330
A
100
AcDbEntity
  8
1
  6
solid
 62
     7
100
AcDbLine
 10
2.981850624084472
 20
0.1925590634346008
 30
0.0
 11
2.972756147384643
 21
0.2037795335054398
 31
0.0
  0
ARC
  5
267
330
A
100
AcDbEntity
  8
1
  6
solid
 62
     7
100
AcDbCircle
 10
2.795852714032593
 20
0.1839476488006615
 30
0.0
 40
0.1780115962028503
100
AcDbArc
 50
6.396476853471996
 51
25.78356924648674
  0
LINE
  5
268
330
A
100
AcDbEntity
  8
1
  6
solid
 62
     7
100
AcDbLine
 10
2.956141948699951
 20
0.2613779604434967
 30
0.0
 11
2.952992439270019
 21
0.2757480442523956
 31
0.0
  0
LINE
  5
269
330
A
100
AcDbEntity
  8
1
  6
solid
 62
     7
100
AcDbLine
 10
2.952992439270019
 20
0.2757480442523956
 30
0.0
 11
2.955315113067626
 21
0.3012205064296722
 31
0.0
  0
LINE
  5
26A
330
A
100
AcDbEntity
  8
1
  6
solid
 62
     7
100
AcDbLine
 10
2.955315113067626
 20
0.3012205064296722
 30
0.0
 11
2.959606409072875
 21
0.3100787699222565
 31
0.0
  0
LINE
  5
26B
330
A
100
AcDbEntity
  8
1
  6
solid
 62
     7
100
AcDbLine
 10
2.959606409072875
 20
0.3100787699222565
 30
0.0
 11
2.97629952430725
 21
0.3549606502056122
 31
0.0
  0
LINE
  5
26C
330
A
100
AcDbEntity
  8
1
  6
solid
 62
     7
100
AcDbLine
 10
2.97629952430725
 20
0.3549606502056122
 30
0.0
 11
2.970433235168457
 21
0.3746063113212585
 31
0.0
  0
LINE
  5
26D
330
A
100
AcDbEntity
  8
1
  6
solid
 62
     7
100
AcDbLine
 10
2.970433235168457
 20
0.3746063113212585
 30
0.0
 11
2.970630168914794
 21
0.3767716884613037
 31
0.0
  0
LINE
  5
26E
330
A
100
AcDbEntity
  8
1
  6
solid
 62
     7
100
AcDbLine
 10
2.970630168914794
 20
0.3767716884613037
 30
0.0
 11
2.981496334075927
 21
0.3945275843143463
 31
0.0
  0
LINE
  5
26F
330
A
100
AcDbEntity
  8
1
  6
solid
 62
     7
100
AcDbLine
 10
2.981496334075927
 20
0.3945275843143463
 30
0.0
 11
2.994015932083129
 21
0.4265747964382172
 31
0.0
  0
LINE
  5
270
330
A
100
AcDbEntity
  8
1
  6
solid
 62
     7
100
AcDbLine
 10
2.994015932083129
 20
0.4265747964382172
 30
0.0
 11
3.004212856292724
 21
0.4698425531387329
 31
0.0
  0
LINE
  5
271
330
A
100
AcDbEntity
  8
1
  6
solid
 62
     7
100
AcDbLine
 10
3.004212856292724
 20
0.4698425531387329
 30
0.0
 11
3.013779640197753
 21
0.5361024141311646
 31
0.0
  0
LINE
  5
272
330
A
100
AcDbEntity
  8
1
  6
solid
 62
     7
100
AcDbLine
 10
3.013779640197753
 20
0.5361024141311646
 30
0.0
 11
3.012362241744995
 21
0.6101575493812561
 31
0.0
  0
LINE
  5
273
330
A
100
AcDbEntity
  8
1
  6
solid
 62
     7
100
AcDbLine
 10
3.012362241744995
 20
0.6101575493812561
 30
0.0
 11
2.995748281478881
 21
0.7746063470840454
 31
0.0
  0
LINE
  5
274
330
A
100
AcDbEntity
  8
1
  6
solid
 62
     7
100
AcDbLine
 10
2.995748281478881
 20
0.7746063470840454
 30
0.0
 11
2.993425369262695
 21
0.7842519879341126
 31
0.0
  0
LINE
  5
275
330
A
100
AcDbEntity
  8
1
  6
solid
 62
     7
100
AcDbLine
 10
2.993425369262695
 20
0.7842519879341126
 30
0.0
 11
2.996299266815185
 21
0.8162205219268798
 31
0.0
  0
LINE
  5
276
330
A
100
AcDbEntity
  8
1
  6
solid
 62
     7
100
AcDbLine
 10
2.996299266815185
 20
0.8162205219268798
 30
0.0
 11
2.99452781677246
 21
0.8198819160461425
 31
0.0
  0
LINE
  5
277
330
A
100
AcDbEntity
  8
1
  6
solid
 62
     7
100
AcDbLine
 10
2.99452781677246
 20
0.8198819160461425
 30
0.0
 11
2.867795467376708
 21
0.82114177942276
 31
0.0
  0
LINE
  5
278
330
A
100
AcDbEntity
  8
1
  6
solid
 62
     7
100
AcDbLine
 10
2.867795467376708
 20
0.82114177942276
 30
0.0
 11
2.848819017410278
 21
0.8203937411308288
 31
0.0
  0
LINE
  5
279
330
A
100
AcDbEntity
  8
1
  6
solid
 62
     7
100
AcDbLine
 10
2.848819017410278
 20
0.8203937411308288
 30
0.0
 11
2.826811075210571
 21
0.8221260905265808
 31
0.0
  0
LINE
  5
27A
330
A
100
AcDbEntity
  8
1
  6
solid
 62
     7
100
AcDbLine
 10
2.826811075210571
 20
0.8221260905265808
 30
0.0
 11
2.494803428649902
 21
0.8238189816474914
 31
0.0
  0
LINE
  5
27B
330
A
100
AcDbEntity
  8
1
  6
solid
 62
     7
100
AcDbLine
 10
2.494803428649902
 20
0.8238189816474914
 30
0.0
 11
2.490039587020874
 21
0.8250394463539123
 31
0.0
  0
LINE
  5
27C
330
A
100
AcDbEntity
  8
1
  6
solid
 62
     7
100
AcDbLine
 10
2.490039587020874
 20
0.8250394463539123
 30
0.0
 11
2.479606389999389
 21
0.8242913484573364
 31
0.0
  0
LINE
  5
27D
330
A
100
AcDbEntity
  8
1
  6
solid
 62
     7
100
AcDbLine
 10
2.479606389999389
 20
0.8242913484573364
 30
0.0
 11
2.41724419593811
 21
0.8261417746543884
 31
0.0
  0
LINE
  5
27E
330
A
100
AcDbEntity
  8
1
  6
solid
 62
     7
100
AcDbLine
 10
2.41724419593811
 20
0.8261417746543884
 30
0.0
 11
2.192008018493652
 21
0.8270473480224609
 31
0.0
  0
LINE
  5
27F
330
A
100
AcDbEntity
  8
1
  6
solid
 62
     7
100
AcDbLine
 10
2.192008018493652
 20
0.8270473480224609
 30
0.0
 11
2.178031682968139
 21
0.828582763671875
 31
0.0
  0
LINE
  5
280
330
A
100
AcDbEntity
  8
1
  6
solid
 62
     7
100
AcDbLine
 10
2.178031682968139
 20
0.828582763671875
 30
0.0
 11
2.171259880065917
 21
0.8269685506820678
 31
0.0
  0
LINE
  5
281
330
A
100
AcDbEntity
  8
1
  6
solid
 62
     7
100
AcDbLine
 10
2.171259880065917
 20
0.8269685506820678
 30
0.0
 11
2.150866270065307
 21
0.8278741240501403
 31
0.0
  0
LINE
  5
282
330
A
100
AcDbEntity
  8
1
  6
solid
 62
     7
100
AcDbLine
 10
2.150866270065307
 20
0.8278741240501403
 30
0.0
 11
2.148386001586914
 21
0.8288976550102233
 31
0.0
  0
LINE
  5
283
330
A
100
AcDbEntity
  8
1
  6
solid
 62
     7
100
AcDbLine
 10
2.148386001586914
 20
0.8288976550102233
 30
0.0
 11
1.897795438766479
 21
0.8309449553489685
 31
0.0
  0
LINE
  5
284
330
A
100
AcDbEntity
  8
1
  6
solid
 62
     7
100
AcDbLine
 10
1.897795438766479
 20
0.8309449553489685
 30
0.0
 11
1.892992138862609
 21
0.8319291472434997
 31
0.0
  0
LINE
  5
285
330
A
100
AcDbEntity
  8
1
  6
solid
 62
     7
100
AcDbLine
 10
1.892992138862609
 20
0.8319291472434997
 30
0.0
 11
1.883110284805297
 21
0.8307086825370788
 31
0.0
  0
LINE
  5
286
330
A
100
AcDbEntity
  8
1
  6
solid
 62
     7
100
AcDbLine
 10
1.883110284805297
 20
0.8307086825370788
 30
0.0
 11
1.845236420631408
 21
0.8319291472434997
 31
0.0
  0
LINE
  5
287
330
A
100
AcDbEntity
  8
1
  6
solid
 62
     7
100
AcDbLine
 10
1.845236420631408
 20
0.8319291472434997
 30
0.0
 11
1.840393781661987
 21
0.8310630321502685
 31
0.0
  0
LINE
  5
288
330
A
100
AcDbEntity
  8
1
  6
solid
 62
     7
100
AcDbLine
 10
1.840393781661987
 20
0.8310630321502685
 30
0.0
 11
1.820196986198425
 21
0.8319291472434997
 31
0.0
  0
LINE
  5
289
330
A
100
AcDbEntity
  8
1
  6
solid
 62
     7
100
AcDbLine
 10
1.820196986198425
 20
0.8319291472434997
 30
0.0
 11
1.8131103515625
 21
0.8307086825370788
 31
0.0
  0
LINE
  5
28A
330
A
100
AcDbEntity
  8
1
  6
solid
 62
     7
100
AcDbLine
 10
1.8131103515625
 20
0.8307086825370788
 30
0.0
 11
1.799055218696594
 21
0.8323228955268859
 31
0.0
  0
LINE
  5
28B
330
A
100
AcDbEntity
  8
1
  6
solid
 62
     7
100
AcDbLine
 10
1.799055218696594
 20
0.8323228955268859
 30
0.0
 11
1.765315055847167
 21
0.8304725289344787
 31
0.0
  0
LINE
  5
28C
330
A
100
AcDbEntity
  8
1
  6
solid
 62
     7
100
AcDbLine
 10
1.765315055847167
 20
0.8304725289344787
 30
0.0
 11
1.761574983596801
 21
0.8324016332626342
 31
0.0
  0
LINE
  5
28D
330
A
100
AcDbEntity
  8
1
  6
solid
 62
     7
100
AcDbLine
 10
1.761574983596801
 20
0.8324016332626342
 30
0.0
 11
1.534645795822143
 21
0.8343701362609863
 31
0.0
  0
LINE
  5
28E
330
A
100
AcDbEntity
  8
1
  6
solid
 62
     7
100
AcDbLine
 10
1.534645795822143
 20
0.8343701362609863
 30
0.0
 11
1.529842615127563
 21
0.8353543877601623
 31
0.0
  0
LINE
  5
28F
330
A
100
AcDbEntity
  8
1
  6
solid
 62
     7
100
AcDbLine
 10
1.529842615127563
 20
0.8353543877601623
 30
0.0
 11
1.518425226211547
 21
0.8339763879776
 31
0.0
  0
LINE
  5
290
330
A
100
AcDbEntity
  8
1
  6
solid
 62
     7
100
AcDbLine
 10
1.518425226211547
 20
0.8339763879776
 30
0.0
 11
1.213346600532531
 21
0.8366142511367797
 31
0.0
  0
ARC
  5
291
330
A
100
AcDbEntity
  8
1
  6
solid
 62
     7
100
AcDbCircle
 10
1.190928562388184
 20
0.6524848128956639
 30
0.0
 40
0.1854891330003738
100
AcDbArc
 50
83.05831732645414
 51
97.04171921799163
  0
LINE
  5
292
330
A
100
AcDbEntity
  8
1
  6
solid
 62
     7
100
AcDbLine
 10
1.168189048767089
 20
0.8365748524665832
 30
0.0
 11
1.161653637886047
 21
0.8390551209449768
 31
0.0
  0
LINE
  5
293
330
A
100
AcDbEntity
  8
1
  6
solid
 62
     7
100
AcDbLine
 10
1.161653637886047
 20
0.8390551209449768
 30
0.0
 11
0.8699606657028198
 21
0.8404330611228942
 31
0.0
  0
LINE
  5
294
330
A
100
AcDbEntity
  8
1
  6
solid
 62
     7
100
AcDbLine
 10
0.8699606657028198
 20
0.8404330611228942
 30
0.0
 11
0.8419291377067565
 21
0.8419685959815979
 31
0.0
  0
LINE
  5
295
330
A
100
AcDbEntity
  8
1
  6
solid
 62
     7
100
AcDbLine
 10
0.8419291377067565
 20
0.8419685959815979
 30
0.0
 11
0.8365748524665832
 21
0.8407086730003356
 31
0.0
  0
LINE
  5
296
330
A
100
AcDbEntity
  8
1
  6
solid
 62
     7
100
AcDbLine
 10
0.8365748524665832
 20
0.8407086730003356
 30
0.0
 11
0.7408268451690674
 21
0.8435433506965637
 31
0.0
  0
LINE
  5
297
330
A
100
AcDbEntity
  8
1
  6
solid
 62
     7
100
AcDbLine
 10
0.7408268451690674
 20
0.8435433506965637
 30
0.0
 11
0.7276378273963929
 21
0.845905601978302
 31
0.0
  0
LINE
  5
298
330
A
100
AcDbEntity
  8
1
  6
solid
 62
     7
100
AcDbLine
 10
0.7276378273963929
 20
0.845905601978302
 30
0.0
 11
0.7243307232856751
 21
0.8480315208435058
 31
0.0
  0
LINE
  5
299
330
A
100
AcDbEntity
  8
1
  6
solid
 62
     7
100
AcDbLine
 10
0.7243307232856751
 20
0.8480315208435058
 30
0.0
 11
0.723228394985199
 21
0.8532283902168273
 31
0.0
  0
LINE
  5
29A
330
A
100
AcDbEntity
  8
1
  6
solid
 62
     7
100
AcDbLine
 10
0.723228394985199
 20
0.8532283902168273
 30
0.0
 11
0.8547244668006896
 21
0.8528347015380859
 31
0.0
  0
LINE
  5
29B
330
A
100
AcDbEntity
  8
1
  6
solid
 62
     7
100
AcDbLine
 10
0.8547244668006896
 20
0.8528347015380859
 30
0.0
 11
0.9048819541931152
 21
0.8498819470405578
 31
0.0
  0
LINE
  5
29C
330
A
100
AcDbEntity
  8
1
  6
solid
 62
     7
100
AcDbLine
 10
0.9048819541931152
 20
0.8498819470405578
 30
0.0
 11
0.9182284474372863
 21
0.8518897891044616
 31
0.0
  0
LINE
  5
29D
330
A
100
AcDbEntity
  8
1
  6
solid
 62
     7
100
AcDbLine
 10
0.9182284474372863
 20
0.8518897891044616
 30
0.0
 11
0.9212204813957214
 21
0.8509055376052856
 31
0.0
  0
LINE
  5
29E
330
A
100
AcDbEntity
  8
1
  6
solid
 62
     7
100
AcDbLine
 10
0.9212204813957214
 20
0.8509055376052856
 30
0.0
 11
1.237874031066894
 21
0.8482283353805541
 31
0.0
  0
LINE
  5
29F
330
A
100
AcDbEntity
  8
1
  6
solid
 62
     7
100
AcDbLine
 10
1.237874031066894
 20
0.8482283353805541
 30
0.0
 11
1.23968505859375
 21
0.8474016189575195
 31
0.0
  0
LINE
  5
2A0
330
A
100
AcDbEntity
  8
1
  6
solid
 62
     7
100
AcDbLine
 10
1.23968505859375
 20
0.8474016189575195
 30
0.0
 11
1.284842610359191
 21
0.8498819470405578
 31
0.0
  0
LINE
  5
2A1
330
A
100
AcDbEntity
  8
1
  6
solid
 62
     7
100
AcDbLine
 10
1.284842610359191
 20
0.8498819470405578
 30
0.0
 11
1.291338682174682
 21
0.8474016189575195
 31
0.0
  0
LINE
  5
2A2
330
A
100
AcDbEntity
  8
1
  6
solid
 62
     7
100
AcDbLine
 10
1.291338682174682
 20
0.8474016189575195
 30
0.0
 11
1.632165431976318
 21
0.84657484292984
 31
0.0
  0
LINE
  5
2A3
330
A
100
AcDbEntity
  8
1
  6
solid
 62
     7
100
AcDbLine
 10
1.632165431976318
 20
0.84657484292984
 30
0.0
 11
1.633818984031677
 21
0.8448819518089294
 31
0.0
  0
LINE
  5
2A4
330
A
100
AcDbEntity
  8
1
  6
solid
 62
     7
100
AcDbLine
 10
1.633818984031677
 20
0.8448819518089294
 30
0.0
 11
1.648504018783569
 21
0.8433858752250671
 31
0.0
  0
LINE
  5
2A5
330
A
100
AcDbEntity
  8
1
  6
solid
 62
     7
100
AcDbLine
 10
1.648504018783569
 20
0.8433858752250671
 30
0.0
 11
1.830905556678771
 21
0.8439370393753051
 31
0.0
  0
LINE
  5
2A6
330
A
100
AcDbEntity
  8
1
  6
solid
 62
     7
100
AcDbLine
 10
1.830905556678771
 20
0.8439370393753051
 30
0.0
 11
2.242480516433715
 21
0.8388189673423767
 31
0.0
  0
LINE
  5
2A7
330
A
100
AcDbEntity
  8
1
  6
solid
 62
     7
100
AcDbLine
 10
2.242480516433715
 20
0.8388189673423767
 30
0.0
 11
2.246417522430419
 21
0.838031530380249
 31
0.0
  0
LINE
  5
2A8
330
A
100
AcDbEntity
  8
1
  6
solid
 62
     7
100
AcDbLine
 10
2.246417522430419
 20
0.838031530380249
 30
0.0
 11
2.261496067047119
 21
0.8397244215011596
 31
0.0
  0
LINE
  5
2A9
330
A
100
AcDbEntity
  8
1
  6
solid
 62
     7
100
AcDbLine
 10
2.261496067047119
 20
0.8397244215011596
 30
0.0
 11
2.321377992630004
 21
0.8365748524665832
 31
0.0
  0
LINE
  5
2AA
330
A
100
AcDbEntity
  8
1
  6
solid
 62
     7
100
AcDbLine
 10
2.321377992630004
 20
0.8365748524665832
 30
0.0
 11
2.331377983093261
 21
0.8385827541351318
 31
0.0
  0
LINE
  5
2AB
330
A
100
AcDbEntity
  8
1
  6
solid
 62
     7
100
AcDbLine
 10
2.331377983093261
 20
0.8385827541351318
 30
0.0
 11
2.334370136260986
 21
0.8375591039657592
 31
0.0
  0
LINE
  5
2AC
330
A
100
AcDbEntity
  8
1
  6
solid
 62
     7
100
AcDbLine
 10
2.334370136260986
 20
0.8375591039657592
 30
0.0
 11
2.596338748931884
 21
0.8355118036270141
 31
0.0
  0
LINE
  5
2AD
330
A
100
AcDbEntity
  8
1
  6
solid
 62
     7
100
AcDbLine
 10
2.596338748931884
 20
0.8355118036270141
 30
0.0
 11
2.619645833969116
 21
0.8344488739967346
 31
0.0
  0
LINE
  5
2AE
330
A
100
AcDbEntity
  8
1
  6
solid
 62
     7
100
AcDbLine
 10
2.619645833969116
 20
0.8344488739967346
 30
0.0
 11
2.624645709991455
 21
0.8352362513542175
 31
0.0
  0
LINE
  5
2AF
330
A
100
AcDbEntity
  8
1
  6
solid
 62
     7
100
AcDbLine
 10
2.624645709991455
 20
0.8352362513542175
 30
0.0
 11
2.62767744064331
 21
0.8342126607894897
 31
0.0
  0
LINE
  5
2B0
330
A
100
AcDbEntity
  8
1
  6
solid
 62
     7
100
AcDbLine
 10
2.62767744064331
 20
0.8342126607894897
 30
0.0
 11
2.995039701461791
 21
0.8320866227149963
 31
0.0
  0
LINE
  5
2B1
330
A
100
AcDbEntity
  8
1
  6
solid
 62
     7
100
AcDbLine
 10
2.995039701461791
 20
0.8320866227149963
 30
0.0
 11
2.998858451843261
 21
0.8463386893272399
 31
0.0
  0
LINE
  5
2B2
330
A
100
AcDbEntity
  8
1
  6
solid
 62
     7
100
AcDbLine
 10
2.998858451843261
 20
0.8463386893272399
 30
0.0
 11
3.005984544754028
 21
0.9033070802688598
 31
0.0
  0
LINE
  5
2B3
330
A
100
AcDbEntity
  8
1
  6
solid
 62
     7
100
AcDbLine
 10
3.005984544754028
 20
0.9033070802688598
 30
0.0
 11
3.003976583480834
 21
0.9264960885047912
 31
0.0
  0
LINE
  5
2B4
330
A
100
AcDbEntity
  8
1
  6
solid
 62
     7
100
AcDbLine
 10
3.003976583480834
 20
0.9264960885047912
 30
0.0
 11
2.995590686798095
 21
0.9434646368026733
 31
0.0
  0
LINE
  5
2B5
330
A
100
AcDbEntity
  8
1
  6
solid
 62
     7
100
AcDbLine
 10
2.995590686798095
 20
0.9434646368026733
 30
0.0
 11
2.97748064994812
 21
0.9638583064079284
 31
0.0
  0
LINE
  5
2B6
330
A
100
AcDbEntity
  8
1
  6
solid
 62
     7
100
AcDbLine
 10
2.97748064994812
 20
0.9638583064079284
 30
0.0
 11
2.969015836715698
 21
0.9805906414985656
 31
0.0
  0
LINE
  5
2B7
330
A
100
AcDbEntity
  8
1
  6
solid
 62
     7
100
AcDbLine
 10
2.969015836715698
 20
0.9805906414985656
 30
0.0
 11
2.964133977890014
 21
0.9828740954399108
 31
0.0
  0
ARC
  5
2B8
330
A
100
AcDbEntity
  8
1
  6
solid
 62
     7
100
AcDbCircle
 10
2.957823503797663
 20
0.9143603305575801
 30
0.0
 40
0.0688037648797035
100
AcDbArc
 50
84.73760812636097
 51
105.3532603057642
  0
LINE
  5
2B9
330
A
100
AcDbEntity
  8
1
  6
solid
 62
     7
100
AcDbLine
 10
2.939606428146362
 20
0.9807087182998657
 30
0.0
 11
2.931338787078857
 21
0.9823622703552246
 31
0.0
  0
LINE
  5
2BA
330
A
100
AcDbEntity
  8
1
  6
solid
 62
     7
100
AcDbLine
 10
2.931338787078857
 20
0.9823622703552246
 30
0.0
 11
2.462165355682373
 21
0.9842914342880249
 31
0.0
  0
ARC
  5
2BB
330
A
100
AcDbEntity
  8
1
  6
solid
 62
     7
100
AcDbCircle
 10
2.438667272473887
 20
0.8514625393239182
 30
0.0
 40
0.1348913460969925
100
AcDbArc
 50
79.96788895345514
 51
98.00517204193528
  0
ARC
  5
2BC
330
A
100
AcDbEntity
  8
1
  6
solid
 62
     7
100
AcDbCircle
 10
2.407530847274731
 20
0.8932534423406517
 30
0.0
 40
0.0926132649183274
100
AcDbArc
 50
82.33601116134694
 51
102.5282735744794
  0
LINE
  5
2BD
330
A
100
AcDbEntity
  8
1
  6
solid
 62
     7
100
AcDbLine
 10
2.387441158294677
 20
0.9836614727973937
 30
0.0
 11
2.371692895889282
 21
0.9855512380599975
 31
0.0
  0
LINE
  5
2BE
330
A
100
AcDbEntity
  8
1
  6
solid
 62
     7
100
AcDbLine
 10
2.371692895889282
 20
0.9855512380599975
 30
0.0
 11
2.154370307922363
 21
0.987362265586853
 31
0.0
  0
LINE
  5
2BF
330
A
100
AcDbEntity
  8
1
  6
solid
 62
     7
100
AcDbLine
 10
2.154370307922363
 20
0.987362265586853
 30
0.0
 11
2.149803400039672
 21
0.9886614680290222
 31
0.0
  0
LINE
  5
2C0
330
A
100
AcDbEntity
  8
1
  6
solid
 62
     7
100
AcDbLine
 10
2.149803400039672
 20
0.9886614680290222
 30
0.0
 11
2.10464596748352
 21
0.9868110418319702
 31
0.0
  0
LINE
  5
2C1
330
A
100
AcDbEntity
  8
1
  6
solid
 62
     7
100
AcDbLine
 10
2.10464596748352
 20
0.9868110418319702
 30
0.0
 11
2.076653718948364
 21
0.9890157580375671
 31
0.0
  0
LINE
  5
2C2
330
A
100
AcDbEntity
  8
1
  6
solid
 62
     7
100
AcDbLine
 10
2.076653718948364
 20
0.9890157580375671
 30
0.0
 11
2.05425214767456
 21
0.9878346920013427
 31
0.0
  0
LINE
  5
2C3
330
A
100
AcDbEntity
  8
1
  6
solid
 62
     7
100
AcDbLine
 10
2.05425214767456
 20
0.9878346920013427
 30
0.0
 11
2.033149719238281
 21
0.9897245168685913
 31
0.0
  0
LINE
  5
2C4
330
A
100
AcDbEntity
  8
1
  6
solid
 62
     7
100
AcDbLine
 10
2.033149719238281
 20
0.9897245168685913
 30
0.0
 11
2.008267879486083
 21
0.9872047901153564
 31
0.0
  0
LINE
  5
2C5
330
A
100
AcDbEntity
  8
1
  6
solid
 62
     7
100
AcDbLine
 10
2.008267879486083
 20
0.9872047901153564
 30
0.0
 11
2.001732349395751
 21
0.9888582825660705
 31
0.0
  0
LINE
  5
2C6
330
A
100
AcDbEntity
  8
1
  6
solid
 62
     7
100
AcDbLine
 10
2.001732349395751
 20
0.9888582825660705
 30
0.0
 11
1.93811023235321
 21
0.9898031949996948
 31
0.0
  0
LINE
  5
2C7
330
A
100
AcDbEntity
  8
1
  6
solid
 62
     7
100
AcDbLine
 10
1.93811023235321
 20
0.9898031949996948
 30
0.0
 11
1.543346524238586
 21
0.9901968836784362
 31
0.0
  0
LINE
  5
2C8
330
A
100
AcDbEntity
  8
1
  6
solid
 62
     7
100
AcDbLine
 10
1.543346524238586
 20
0.9901968836784362
 30
0.0
 11
1.523818969726562
 21
0.9927560091018676
 31
0.0
  0
LINE
  5
2C9
330
A
100
AcDbEntity
  8
1
  6
solid
 62
     7
100
AcDbLine
 10
1.523818969726562
 20
0.9927560091018676
 30
0.0
 11
1.465748190879821
 21
0.992598533630371
 31
0.0
  0
LINE
  5
2CA
330
A
100
AcDbEntity
  8
1
  6
solid
 62
     7
100
AcDbLine
 10
1.465748190879821
 20
0.992598533630371
 30
0.0
 11
1.459330797195434
 21
0.9906693696975708
 31
0.0
  0
ARC
  5
2CB
330
A
100
AcDbEntity
  8
1
  6
solid
 62
     7
100
AcDbCircle
 10
1.447051078169878
 20
0.9598773264360646
 30
0.0
 40
0.0331502854824066
100
AcDbArc
 50
68.25812384792607
 51
109.2132870736836
  0
LINE
  5
2CC
330
A
100
AcDbEntity
  8
1
  6
solid
 62
     7
100
AcDbLine
 10
1.436141729354858
 20
0.9911811351776123
 30
0.0
 11
1.434134006500244
 21
0.9931890368461608
 31
0.0
  0
LINE
  5
2CD
330
A
100
AcDbEntity
  8
1
  6
solid
 62
     7
100
AcDbLine
 10
1.434134006500244
 20
0.9931890368461608
 30
0.0
 11
1.050551295280456
 21
0.9942914247512817
 31
0.0
  0
ARC
  5
2CE
330
A
100
AcDbEntity
  8
1
  6
solid
 62
     7
100
AcDbCircle
 10
1.041287662649785
 20
0.9546276607835386
 30
0.0
 40
0.040731180459261
100
AcDbArc
 50
76.85398522027881
 51
103.6246487098607
  0
ARC
  5
2CF
330
A
100
AcDbEntity
  8
1
  6
solid
 62
     7
100
AcDbCircle
 10
1.000853721527359
 20
0.6402938044346386
 30
0.0
 40
0.355259895324707
100
AcDbArc
 50
85.02002278816267
 51
95.72845825570576
  0
LINE
  5
2D0
330
A
100
AcDbEntity
  8
1
  6
solid
 62
     7
100
AcDbLine
 10
0.9653937816619873
 20
0.9937795400619506
 30
0.0
 11
0.961692988872528
 21
0.9957087039947509
 31
0.0
  0
LINE
  5
2D1
330
A
100
AcDbEntity
  8
1
  6
solid
 62
     7
100
AcDbLine
 10
0.961692988872528
 20
0.9957087039947509
 30
0.0
 11
0.6935040354728699
 21
0.9968111515045166
 31
0.0
  0
LINE
  5
2D2
330
A
100
AcDbEntity
  8
1
  6
solid
 62
     7
100
AcDbLine
 10
0.6935040354728699
 20
0.9968111515045166
 30
0.0
 11
0.6640945076942444
 21
0.9983465671539306
 31
0.0
  0
LINE
  5
2D3
330
A
100
AcDbEntity
  8
1
  6
solid
 62
     7
100
AcDbLine
 10
0.6640945076942444
 20
0.9983465671539306
 30
0.0
 11
0.6628740429878235
 21
0.9957087039947509
 31
0.0
  0
LINE
  5
2D4
330
A
100
AcDbEntity
  8
1
  6
solid
 62
     7
100
AcDbLine
 10
0.8865355253219604
 20
0.8265748620033264
 30
0.0
 11
0.8765355348587036
 21
0.8265748620033264
 31
0.0
  0
LINE
  5
2D5
330
A
100
AcDbEntity
  8
1
  6
solid
 62
     7
100
AcDbLine
 10
0.8765355348587036
 20
0.8265748620033264
 30
0.0
 11
0.8814567923545837
 21
0.8312993049621582
 31
0.0
  0
LINE
  5
2D6
330
A
100
AcDbEntity
  8
1
  6
solid
 62
     7
100
AcDbLine
 10
0.8814567923545837
 20
0.8312993049621582
 30
0.0
 11
0.8856299519538879
 21
0.831417441368103
 31
0.0
  0
LINE
  5
2D7
330
A
100
AcDbEntity
  8
1
  6
solid
 62
     7
100
AcDbLine
 10
0.8856299519538879
 20
0.831417441368103
 30
0.0
 11
0.8865355253219604
 21
0.8265748620033264
 31
0.0
  0
LINE
  5
2D8
330
A
100
AcDbEntity
  8
1
  6
solid
 62
     7
100
AcDbLine
 10
0.1673228442668915
 20
0.7582283616065979
 30
0.0
 11
0.1651968508958816
 21
0.7524409890174866
 31
0.0
  0
LINE
  5
2D9
330
A
100
AcDbEntity
  8
1
  6
solid
 62
     7
100
AcDbLine
 10
0.1651968508958816
 20
0.7524409890174866
 30
0.0
 11
0.163543313741684
 21
0.6768897771835328
 31
0.0
  0
LINE
  5
2DA
330
A
100
AcDbEntity
  8
1
  6
solid
 62
     7
100
AcDbLine
 10
0.163543313741684
 20
0.6768897771835328
 30
0.0
 11
0.1653543412685394
 21
0.665118157863617
 31
0.0
  0
LINE
  5
2DB
330
A
100
AcDbEntity
  8
1
  6
solid
 62
     7
100
AcDbLine
 10
0.1653543412685394
 20
0.665118157863617
 30
0.0
 11
0.1690157651901245
 21
0.6599212884902954
 31
0.0
  0
LINE
  5
2DC
330
A
100
AcDbEntity
  8
1
  6
solid
 62
     7
100
AcDbLine
 10
0.1690157651901245
 20
0.6599212884902954
 30
0.0
 11
0.1908267736434936
 21
0.6599212884902954
 31
0.0
  0
LINE
  5
2DD
330
A
100
AcDbEntity
  8
1
  6
solid
 62
     7
100
AcDbLine
 10
0.1908267736434936
 20
0.6599212884902954
 30
0.0
 11
0.1992519795894623
 21
0.6559055447578431
 31
0.0
  0
LINE
  5
2DE
330
A
100
AcDbEntity
  8
1
  6
solid
 62
     7
100
AcDbLine
 10
0.1992519795894623
 20
0.6559055447578431
 30
0.0
 11
0.1999606490135193
 21
0.6536614298820496
 31
0.0
  0
LINE
  5
2DF
330
A
100
AcDbEntity
  8
1
  6
solid
 62
     7
100
AcDbLine
 10
0.1999606490135193
 20
0.6536614298820496
 30
0.0
 11
0.1987401694059372
 21
0.6453149914741517
 31
0.0
  0
ARC
  5
2E0
330
A
100
AcDbEntity
  8
1
  6
solid
 62
     7
100
AcDbCircle
 10
0.1936997945401029
 20
0.6512160584717371
 30
0.0
 40
0.0077606681734324
100
AcDbArc
 50
239.5242088708362
 51
310.5021755179639
  0
LINE
  5
2E1
330
A
100
AcDbEntity
  8
1
  6
solid
 62
     7
100
AcDbLine
 10
0.1897637844085693
 20
0.644527554512024
 30
0.0
 11
0.1449212729930878
 21
0.6467322707176209
 31
0.0
  0
LINE
  5
2E2
330
A
100
AcDbEntity
  8
1
  6
solid
 62
     7
100
AcDbLine
 10
0.1449212729930878
 20
0.6467322707176209
 30
0.0
 11
0.1366535574197769
 21
0.6507480740547181
 31
0.0
  0
LINE
  5
2E3
330
A
100
AcDbEntity
  8
1
  6
solid
 62
     7
100
AcDbLine
 10
0.1366535574197769
 20
0.6507480740547181
 30
0.0
 11
0.1378346532583237
 21
0.6682283878326416
 31
0.0
  0
LINE
  5
2E4
330
A
100
AcDbEntity
  8
1
  6
solid
 62
     7
100
AcDbLine
 10
0.1378346532583237
 20
0.6682283878326416
 30
0.0
 11
0.1372441053390503
 21
0.6731102466583252
 31
0.0
  0
LINE
  5
2E5
330
A
100
AcDbEntity
  8
1
  6
solid
 62
     7
100
AcDbLine
 10
0.1372441053390503
 20
0.6731102466583252
 30
0.0
 11
0.1393700838088989
 21
0.6873228549957276
 31
0.0
  0
LINE
  5
2E6
330
A
100
AcDbEntity
  8
1
  6
solid
 62
     7
100
AcDbLine
 10
0.1393700838088989
 20
0.6873228549957276
 30
0.0
 11
0.136732280254364
 21
0.6967323422431946
 31
0.0
  0
LINE
  5
2E7
330
A
100
AcDbEntity
  8
1
  6
solid
 62
     7
100
AcDbLine
 10
0.136732280254364
 20
0.6967323422431946
 30
0.0
 11
0.1390945017337799
 21
0.7300000786781311
 31
0.0
  0
LINE
  5
2E8
330
A
100
AcDbEntity
  8
1
  6
solid
 62
     7
100
AcDbLine
 10
0.1390945017337799
 20
0.7300000786781311
 30
0.0
 11
0.1366535574197769
 21
0.7518110871315003
 31
0.0
  0
LINE
  5
2E9
330
A
100
AcDbEntity
  8
1
  6
solid
 62
     7
100
AcDbLine
 10
0.1366535574197769
 20
0.7518110871315003
 30
0.0
 11
0.1372834742069244
 21
0.7556299567222596
 31
0.0
  0
LINE
  5
2EA
330
A
100
AcDbEntity
  8
1
  6
solid
 62
     7
100
AcDbLine
 10
0.1372834742069244
 20
0.7556299567222596
 30
0.0
 11
0.1421259939670563
 21
0.759763777256012
 31
0.0
  0
LINE
  5
2EB
330
A
100
AcDbEntity
  8
1
  6
solid
 62
     7
100
AcDbLine
 10
0.1421259939670563
 20
0.759763777256012
 30
0.0
 11
0.162362203001976
 21
0.7611811757087708
 31
0.0
  0
LINE
  5
2EC
330
A
100
AcDbEntity
  8
1
  6
solid
 62
     7
100
AcDbLine
 10
0.162362203001976
 20
0.7611811757087708
 30
0.0
 11
0.1673228442668915
 21
0.7582283616065979
 31
0.0
  0
LINE
  5
2ED
330
A
100
AcDbEntity
  8
1
  6
solid
 62
     7
100
AcDbLine
 10
0.2949606478214264
 20
0.7572441697120667
 30
0.0
 11
0.2972835004329681
 21
0.7579528093338013
 31
0.0
  0
LINE
  5
2EE
330
A
100
AcDbEntity
  8
1
  6
solid
 62
     7
100
AcDbLine
 10
0.2972835004329681
 20
0.7579528093338013
 30
0.0
 11
0.3174409866333008
 21
0.7557087540626526
 31
0.0
  0
LINE
  5
2EF
330
A
100
AcDbEntity
  8
1
  6
solid
 62
     7
100
AcDbLine
 10
0.3174409866333008
 20
0.7557087540626526
 30
0.0
 11
0.3288976550102234
 21
0.7488189339637757
 31
0.0
  0
LINE
  5
2F0
330
A
100
AcDbEntity
  8
1
  6
solid
 62
     7
100
AcDbLine
 10
0.3288976550102234
 20
0.7488189339637757
 30
0.0
 11
0.3311417400836945
 21
0.7444488406181336
 31
0.0
  0
LINE
  5
2F1
330
A
100
AcDbEntity
  8
1
  6
solid
 62
     7
100
AcDbLine
 10
0.3311417400836945
 20
0.7444488406181336
 30
0.0
 11
0.3358268141746521
 21
0.7262992262840271
 31
0.0
  0
LINE
  5
2F2
330
A
100
AcDbEntity
  8
1
  6
solid
 62
     7
100
AcDbLine
 10
0.3358268141746521
 20
0.7262992262840271
 30
0.0
 11
0.3321260213851929
 21
0.7107086777687073
 31
0.0
  0
LINE
  5
2F3
330
A
100
AcDbEntity
  8
1
  6
solid
 62
     7
100
AcDbLine
 10
0.3321260213851929
 20
0.7107086777687073
 30
0.0
 11
0.3240157663822174
 21
0.700748085975647
 31
0.0
  0
LINE
  5
2F4
330
A
100
AcDbEntity
  8
1
  6
solid
 62
     7
100
AcDbLine
 10
0.3240157663822174
 20
0.700748085975647
 30
0.0
 11
0.3233071267604828
 21
0.6983858346939087
 31
0.0
  0
LINE
  5
2F5
330
A
100
AcDbEntity
  8
1
  6
solid
 62
     7
100
AcDbLine
 10
0.3233071267604828
 20
0.6983858346939087
 30
0.0
 11
0.2939763963222504
 21
0.6682283878326416
 31
0.0
  0
LINE
  5
2F6
330
A
100
AcDbEntity
  8
1
  6
solid
 62
     7
100
AcDbLine
 10
0.2939763963222504
 20
0.6682283878326416
 30
0.0
 11
0.2956693172454834
 21
0.6665748953819275
 31
0.0
  0
LINE
  5
2F7
330
A
100
AcDbEntity
  8
1
  6
solid
 62
     7
100
AcDbLine
 10
0.2956693172454834
 20
0.6665748953819275
 30
0.0
 11
0.3257874250411987
 21
0.6665748953819275
 31
0.0
  0
LINE
  5
2F8
330
A
100
AcDbEntity
  8
1
  6
solid
 62
     7
100
AcDbLine
 10
0.3257874250411987
 20
0.6665748953819275
 30
0.0
 11
0.3353149592876434
 21
0.6643307209014893
 31
0.0
  0
LINE
  5
2F9
330
A
100
AcDbEntity
  8
1
  6
solid
 62
     7
100
AcDbLine
 10
0.3353149592876434
 20
0.6643307209014893
 30
0.0
 11
0.336614191532135
 21
0.6488583087921143
 31
0.0
  0
LINE
  5
2FA
330
A
100
AcDbEntity
  8
1
  6
solid
 62
     7
100
AcDbLine
 10
0.336614191532135
 20
0.6488583087921143
 30
0.0
 11
0.3355512022972107
 21
0.6451968550682068
 31
0.0
  0
LINE
  5
2FB
330
A
100
AcDbEntity
  8
1
  6
solid
 62
     7
100
AcDbLine
 10
0.3355512022972107
 20
0.6451968550682068
 30
0.0
 11
0.3283071219921112
 21
0.6435433626174927
 31
0.0
  0
ARC
  5
2FC
330
A
100
AcDbEntity
  8
1
  6
solid
 62
     7
100
AcDbCircle
 10
0.3013218365057797
 20
0.5003534760256472
 30
0.0
 40
0.1457104980945587
100
AcDbArc
 50
79.32732649233466
 51
101.4005410406186
  0
ARC
  5
2FD
330
A
100
AcDbEntity
  8
1
  6
solid
 62
     7
100
AcDbCircle
 10
0.2713208395919356
 20
0.6511968895843545
 30
0.0
 40
0.0080971801653504
100
AcDbArc
 50
155.0989657857874
 51
278.5145145025832
  0
LINE
  5
2FE
330
A
100
AcDbEntity
  8
1
  6
solid
 62
     7
100
AcDbLine
 10
0.2639763951301575
 20
0.6546063423156739
 30
0.0
 11
0.3035433292388916
 21
0.7009449005126954
 31
0.0
  0
LINE
  5
2FF
330
A
100
AcDbEntity
  8
1
  6
solid
 62
     7
100
AcDbLine
 10
0.3035433292388916
 20
0.7009449005126954
 30
0.0
 11
0.309251993894577
 21
0.7196850776672364
 31
0.0
  0
LINE
  5
300
330
A
100
AcDbEntity
  8
1
  6
solid
 62
     7
100
AcDbLine
 10
0.309251993894577
 20
0.7196850776672364
 30
0.0
 11
0.3085826933383942
 21
0.7336614131927491
 31
0.0
  0
LINE
  5
301
330
A
100
AcDbEntity
  8
1
  6
solid
 62
     7
100
AcDbLine
 10
0.3085826933383942
 20
0.7336614131927491
 30
0.0
 11
0.3031496107578278
 21
0.7442520260810852
 31
0.0
  0
LINE
  5
302
330
A
100
AcDbEntity
  8
1
  6
solid
 62
     7
100
AcDbLine
 10
0.3031496107578278
 20
0.7442520260810852
 30
0.0
 11
0.2916142046451568
 21
0.7499212622642517
 31
0.0
  0
LINE
  5
303
330
A
100
AcDbEntity
  8
1
  6
solid
 62
     7
100
AcDbLine
 10
0.2916142046451568
 20
0.7499212622642517
 30
0.0
 11
0.2838189005851745
 21
0.7440551519393921
 31
0.0
  0
LINE
  5
304
330
A
100
AcDbEntity
  8
1
  6
solid
 62
     7
100
AcDbLine
 10
0.2838189005851745
 20
0.7440551519393921
 30
0.0
 11
0.27531498670578
 21
0.7265748381614685
 31
0.0
  0
LINE
  5
305
330
A
100
AcDbEntity
  8
1
  6
solid
 62
     7
100
AcDbLine
 10
0.27531498670578
 20
0.7265748381614685
 30
0.0
 11
0.2643700838088989
 21
0.7341338992118836
 31
0.0
  0
LINE
  5
306
330
A
100
AcDbEntity
  8
1
  6
solid
 62
     7
100
AcDbLine
 10
0.2643700838088989
 20
0.7341338992118836
 30
0.0
 11
0.2633070945739746
 21
0.738228440284729
 31
0.0
  0
LINE
  5
307
330
A
100
AcDbEntity
  8
1
  6
solid
 62
     7
100
AcDbLine
 10
0.2633070945739746
 20
0.738228440284729
 30
0.0
 11
0.2664960920810699
 21
0.7444882988929749
 31
0.0
  0
LINE
  5
308
330
A
100
AcDbEntity
  8
1
  6
solid
 62
     7
100
AcDbLine
 10
0.2664960920810699
 20
0.7444882988929749
 30
0.0
 11
0.2782677412033081
 21
0.7553937435150147
 31
0.0
  0
LINE
  5
309
330
A
100
AcDbEntity
  8
1
  6
solid
 62
     7
100
AcDbLine
 10
0.2782677412033081
 20
0.7553937435150147
 30
0.0
 11
0.292204737663269
 21
0.758740246295929
 31
0.0
  0
LINE
  5
30A
330
A
100
AcDbEntity
  8
1
  6
solid
 62
     7
100
AcDbLine
 10
0.292204737663269
 20
0.758740246295929
 30
0.0
 11
0.2949606478214264
 21
0.7572441697120667
 31
0.0
  0
LINE
  5
30B
330
A
100
AcDbEntity
  8
1
  6
solid
 62
     7
100
AcDbLine
 10
0.3949606716632843
 20
0.7565748691558838
 30
0.0
 11
0.4140945076942444
 21
0.7565748691558838
 31
0.0
  0
LINE
  5
30C
330
A
100
AcDbEntity
  8
1
  6
solid
 62
     7
100
AcDbLine
 10
0.4140945076942444
 20
0.7565748691558838
 30
0.0
 11
0.4182677567005158
 21
0.7549213171005249
 31
0.0
  0
LINE
  5
30D
330
A
100
AcDbEntity
  8
1
  6
solid
 62
     7
100
AcDbLine
 10
0.4182677567005158
 20
0.7549213171005249
 30
0.0
 11
0.4187401831150055
 21
0.75228351354599
 31
0.0
  0
LINE
  5
30E
330
A
100
AcDbEntity
  8
1
  6
solid
 62
     7
100
AcDbLine
 10
0.4187401831150055
 20
0.75228351354599
 30
0.0
 11
0.4022047519683838
 21
0.7475197315216065
 31
0.0
  0
LINE
  5
30F
330
A
100
AcDbEntity
  8
1
  6
solid
 62
     7
100
AcDbLine
 10
0.4022047519683838
 20
0.7475197315216065
 30
0.0
 11
0.3943307399749756
 21
0.7416536211967469
 31
0.0
  0
LINE
  5
310
330
A
100
AcDbEntity
  8
1
  6
solid
 62
     7
100
AcDbLine
 10
0.3943307399749756
 20
0.7416536211967469
 30
0.0
 11
0.3887401819229126
 21
0.7335827350616455
 31
0.0
  0
LINE
  5
311
330
A
100
AcDbEntity
  8
1
  6
solid
 62
     7
100
AcDbLine
 10
0.3887401819229126
 20
0.7335827350616455
 30
0.0
 11
0.3831890225410461
 21
0.7124803066253662
 31
0.0
  0
LINE
  5
312
330
A
100
AcDbEntity
  8
1
  6
solid
 62
     7
100
AcDbLine
 10
0.3831890225410461
 20
0.7124803066253662
 30
0.0
 11
0.3855511844158172
 21
0.7071654200553894
 31
0.0
  0
LINE
  5
313
330
A
100
AcDbEntity
  8
1
  6
solid
 62
     7
100
AcDbLine
 10
0.3855511844158172
 20
0.7071654200553894
 30
0.0
 11
0.400118112564087
 21
0.7094882130622864
 31
0.0
  0
LINE
  5
314
330
A
100
AcDbEntity
  8
1
  6
solid
 62
     7
100
AcDbLine
 10
0.400118112564087
 20
0.7094882130622864
 30
0.0
 11
0.4204724729061127
 21
0.7075590491294861
 31
0.0
  0
LINE
  5
315
330
A
100
AcDbEntity
  8
1
  6
solid
 62
     7
100
AcDbLine
 10
0.4204724729061127
 20
0.7075590491294861
 30
0.0
 11
0.4275984466075898
 21
0.7007874846458435
 31
0.0
  0
LINE
  5
316
330
A
100
AcDbEntity
  8
1
  6
solid
 62
     7
100
AcDbLine
 10
0.4275984466075898
 20
0.7007874846458435
 30
0.0
 11
0.4357874095439911
 21
0.6879134774208069
 31
0.0
  0
LINE
  5
317
330
A
100
AcDbEntity
  8
1
  6
solid
 62
     7
100
AcDbLine
 10
0.4357874095439911
 20
0.6879134774208069
 30
0.0
 11
0.4366141855716706
 21
0.6824015974998475
 31
0.0
  0
LINE
  5
318
330
A
100
AcDbEntity
  8
1
  6
solid
 62
     7
100
AcDbLine
 10
0.4366141855716706
 20
0.6824015974998475
 30
0.0
 11
0.4289764165878296
 21
0.6580315232276917
 31
0.0
  0
LINE
  5
319
330
A
100
AcDbEntity
  8
1
  6
solid
 62
     7
100
AcDbLine
 10
0.4289764165878296
 20
0.6580315232276917
 30
0.0
 11
0.425433099269867
 21
0.652952790260315
 31
0.0
  0
ARC
  5
31A
330
A
100
AcDbEntity
  8
1
  6
solid
 62
     7
100
AcDbCircle
 10
0.4050748549320665
 20
0.6718875051527969
 30
0.0
 40
0.0278025455772877
100
AcDbArc
 50
282.687258066557
 51
317.0748392355104
  0
ARC
  5
31B
330
A
100
AcDbEntity
  8
1
  6
solid
 62
     7
100
AcDbCircle
 10
0.3982637559210507
 20
0.7065261814668848
 30
0.0
 40
0.063098706305027
100
AcDbArc
 50
251.7127873126561
 51
281.8129221358091
  0
LINE
  5
31C
330
A
100
AcDbEntity
  8
1
  6
solid
 62
     7
100
AcDbLine
 10
0.3784646093845367
 20
0.6466142535209656
 30
0.0
 11
0.3690551519393921
 21
0.6528740525245667
 31
0.0
  0
LINE
  5
31D
330
A
100
AcDbEntity
  8
1
  6
solid
 62
     7
100
AcDbLine
 10
0.3690551519393921
 20
0.6528740525245667
 30
0.0
 11
0.3606693148612976
 21
0.6685826778411866
 31
0.0
  0
LINE
  5
31E
330
A
100
AcDbEntity
  8
1
  6
solid
 62
     7
100
AcDbLine
 10
0.3606693148612976
 20
0.6685826778411866
 30
0.0
 11
0.357125997543335
 21
0.6878740191459656
 31
0.0
  0
LINE
  5
31F
330
A
100
AcDbEntity
  8
1
  6
solid
 62
     7
100
AcDbLine
 10
0.357125997543335
 20
0.6878740191459656
 30
0.0
 11
0.3625197112560272
 21
0.7226378917694092
 31
0.0
  0
LINE
  5
320
330
A
100
AcDbEntity
  8
1
  6
solid
 62
     7
100
AcDbLine
 10
0.3625197112560272
 20
0.7226378917694092
 30
0.0
 11
0.3717716932296753
 21
0.7395275831222535
 31
0.0
  0
LINE
  5
321
330
A
100
AcDbEntity
  8
1
  6
solid
 62
     7
100
AcDbLine
 10
0.3717716932296753
 20
0.7395275831222535
 30
0.0
 11
0.3875197172164917
 21
0.7536615133285523
 31
0.0
  0
LINE
  5
322
330
A
100
AcDbEntity
  8
1
  6
solid
 62
     7
100
AcDbLine
 10
0.3875197172164917
 20
0.7536615133285523
 30
0.0
 11
0.3949606716632843
 21
0.7565748691558838
 31
0.0
  0
LINE
  5
323
330
A
100
AcDbEntity
  8
1
  6
solid
 62
     7
100
AcDbLine
 10
0.4882677495479584
 20
0.7565748691558838
 30
0.0
 11
0.507440984249115
 21
0.7565748691558838
 31
0.0
  0
LINE
  5
324
330
A
100
AcDbEntity
  8
1
  6
solid
 62
     7
100
AcDbLine
 10
0.507440984249115
 20
0.7565748691558838
 30
0.0
 11
0.511614203453064
 21
0.7549213171005249
 31
0.0
  0
LINE
  5
325
330
A
100
AcDbEntity
  8
1
  6
solid
 62
     7
100
AcDbLine
 10
0.511614203453064
 20
0.7549213171005249
 30
0.0
 11
0.5120866298675537
 21
0.75228351354599
 31
0.0
  0
LINE
  5
326
330
A
100
AcDbEntity
  8
1
  6
solid
 62
     7
100
AcDbLine
 10
0.5120866298675537
 20
0.75228351354599
 30
0.0
 11
0.4941338896751404
 21
0.7476378679275513
 31
0.0
  0
LINE
  5
327
330
A
100
AcDbEntity
  8
1
  6
solid
 62
     7
100
AcDbLine
 10
0.4941338896751404
 20
0.7476378679275513
 30
0.0
 11
0.4872441291809082
 21
0.7406693696975708
 31
0.0
  0
LINE
  5
328
330
A
100
AcDbEntity
  8
1
  6
solid
 62
     7
100
AcDbLine
 10
0.4872441291809082
 20
0.7406693696975708
 30
0.0
 11
0.4774409830570221
 21
0.7227165699005127
 31
0.0
  0
LINE
  5
329
330
A
100
AcDbEntity
  8
1
  6
solid
 62
     7
100
AcDbLine
 10
0.4774409830570221
 20
0.7227165699005127
 30
0.0
 11
0.4770078957080841
 21
0.7100000381469727
 31
0.0
  0
LINE
  5
32A
330
A
100
AcDbEntity
  8
1
  6
solid
 62
     7
100
AcDbLine
 10
0.4770078957080841
 20
0.7100000381469727
 30
0.0
 11
0.4785039424896241
 21
0.7083464860916138
 31
0.0
  0
LINE
  5
32B
330
A
100
AcDbEntity
  8
1
  6
solid
 62
     7
100
AcDbLine
 10
0.4785039424896241
 20
0.7083464860916138
 30
0.0
 11
0.4970079064369202
 21
0.7108268141746521
 31
0.0
  0
LINE
  5
32C
330
A
100
AcDbEntity
  8
1
  6
solid
 62
     7
100
AcDbLine
 10
0.4970079064369202
 20
0.7108268141746521
 30
0.0
 11
0.5082283616065979
 21
0.709212601184845
 31
0.0
  0
LINE
  5
32D
330
A
100
AcDbEntity
  8
1
  6
solid
 62
     7
100
AcDbLine
 10
0.5082283616065979
 20
0.709212601184845
 30
0.0
 11
0.516771674156189
 21
0.7043701410293579
 31
0.0
  0
LINE
  5
32E
330
A
100
AcDbEntity
  8
1
  6
solid
 62
     7
100
AcDbLine
 10
0.516771674156189
 20
0.7043701410293579
 30
0.0
 11
0.5240551829338074
 21
0.6952362656593323
 31
0.0
  0
LINE
  5
32F
330
A
100
AcDbEntity
  8
1
  6
solid
 62
     7
100
AcDbLine
 10
0.5240551829338074
 20
0.6952362656593323
 30
0.0
 11
0.5258661508560181
 21
0.6733465194702149
 31
0.0
  0
LINE
  5
330
330
A
100
AcDbEntity
  8
1
  6
solid
 62
     7
100
AcDbLine
 10
0.5258661508560181
 20
0.6733465194702149
 30
0.0
 11
0.5240945219993592
 21
0.6642126441001892
 31
0.0
  0
LINE
  5
331
330
A
100
AcDbEntity
  8
1
  6
solid
 62
     7
100
AcDbLine
 10
0.5240945219993592
 20
0.6642126441001892
 30
0.0
 11
0.5155118703842163
 21
0.6509842276573182
 31
0.0
  0
LINE
  5
332
330
A
100
AcDbEntity
  8
1
  6
solid
 62
     7
100
AcDbLine
 10
0.5155118703842163
 20
0.6509842276573182
 30
0.0
 11
0.5085039734840393
 21
0.6475197076797486
 31
0.0
  0
LINE
  5
333
330
A
100
AcDbEntity
  8
1
  6
solid
 62
     7
100
AcDbLine
 10
0.5085039734840393
 20
0.6475197076797486
 30
0.0
 11
0.4868110716342926
 21
0.6438977122306824
 31
0.0
  0
LINE
  5
334
330
A
100
AcDbEntity
  8
1
  6
solid
 62
     7
100
AcDbLine
 10
0.4868110716342926
 20
0.6438977122306824
 30
0.0
 11
0.4676378071308136
 21
0.6475197076797486
 31
0.0
  0
LINE
  5
335
330
A
100
AcDbEntity
  8
1
  6
solid
 62
     7
100
AcDbLine
 10
0.4676378071308136
 20
0.6475197076797486
 30
0.0
 11
0.4575590789318085
 21
0.6574410200119019
 31
0.0
  0
LINE
  5
336
330
A
100
AcDbEntity
  8
1
  6
solid
 62
     7
100
AcDbLine
 10
0.4575590789318085
 20
0.6574410200119019
 30
0.0
 11
0.4503937363624573
 21
0.6765748858451844
 31
0.0
  0
LINE
  5
337
330
A
100
AcDbEntity
  8
1
  6
solid
 62
     7
100
AcDbLine
 10
0.4503937363624573
 20
0.6765748858451844
 30
0.0
 11
0.4502362608909607
 21
0.6915748119354248
 31
0.0
  0
LINE
  5
338
330
A
100
AcDbEntity
  8
1
  6
solid
 62
     7
100
AcDbLine
 10
0.4502362608909607
 20
0.6915748119354248
 30
0.0
 11
0.4553543627262116
 21
0.720944881439209
 31
0.0
  0
LINE
  5
339
330
A
100
AcDbEntity
  8
1
  6
solid
 62
     7
100
AcDbLine
 10
0.4553543627262116
 20
0.720944881439209
 30
0.0
 11
0.4611023962497712
 21
0.7359449267387391
 31
0.0
  0
LINE
  5
33A
330
A
100
AcDbEntity
  8
1
  6
solid
 62
     7
100
AcDbLine
 10
0.4611023962497712
 20
0.7359449267387391
 30
0.0
 11
0.4754724800586701
 21
0.7508268356323243
 31
0.0
  0
LINE
  5
33B
330
A
100
AcDbEntity
  8
1
  6
solid
 62
     7
100
AcDbLine
 10
0.4754724800586701
 20
0.7508268356323243
 30
0.0
 11
0.4882677495479584
 21
0.7565748691558838
 31
0.0
  0
LINE
  5
33C
330
A
100
AcDbEntity
  8
1
  6
solid
 62
     7
100
AcDbLine
 10
0.3861417472362518
 20
0.69374018907547
 30
0.0
 11
0.383976399898529
 21
0.6872835159301758
 31
0.0
  0
LINE
  5
33D
330
A
100
AcDbEntity
  8
1
  6
solid
 62
     7
100
AcDbLine
 10
0.383976399898529
 20
0.6872835159301758
 30
0.0
 11
0.3844882249832153
 21
0.6610236763954163
 31
0.0
  0
LINE
  5
33E
330
A
100
AcDbEntity
  8
1
  6
solid
 62
     7
100
AcDbLine
 10
0.3844882249832153
 20
0.6610236763954163
 30
0.0
 11
0.3886220753192901
 21
0.6543307304382325
 31
0.0
  0
LINE
  5
33F
330
A
100
AcDbEntity
  8
1
  6
solid
 62
     7
100
AcDbLine
 10
0.3886220753192901
 20
0.6543307304382325
 30
0.0
 11
0.3966141939163208
 21
0.6504330635070801
 31
0.0
  0
LINE
  5
340
330
A
100
AcDbEntity
  8
1
  6
solid
 62
     7
100
AcDbLine
 10
0.3966141939163208
 20
0.6504330635070801
 30
0.0
 11
0.4067322909832001
 21
0.6612598896026612
 31
0.0
  0
LINE
  5
341
330
A
100
AcDbEntity
  8
1
  6
solid
 62
     7
100
AcDbLine
 10
0.4067322909832001
 20
0.6612598896026612
 30
0.0
 11
0.4099606275558472
 21
0.6749213337898255
 31
0.0
  0
LINE
  5
342
330
A
100
AcDbEntity
  8
1
  6
solid
 62
     7
100
AcDbLine
 10
0.4099606275558472
 20
0.6749213337898255
 30
0.0
 11
0.4060236513614655
 21
0.6974803805351258
 31
0.0
  0
LINE
  5
343
330
A
100
AcDbEntity
  8
1
  6
solid
 62
     7
100
AcDbLine
 10
0.4060236513614655
 20
0.6974803805351258
 30
0.0
 11
0.4038976728916169
 21
0.6989369988441468
 31
0.0
  0
ARC
  5
344
330
A
100
AcDbEntity
  8
1
  6
solid
 62
     7
100
AcDbCircle
 10
0.398374246655903
 20
0.6848759335666287
 30
0.0
 40
0.0151070114225149
100
AcDbArc
 50
68.55425352958114
 51
144.0688318234313
  0
LINE
  5
345
330
A
100
AcDbEntity
  8
1
  6
solid
 62
     7
100
AcDbLine
 10
0.4799212813377381
 20
0.6942126750946045
 30
0.0
 11
0.47696852684021
 21
0.6848425269126892
 31
0.0
  0
LINE
  5
346
330
A
100
AcDbEntity
  8
1
  6
solid
 62
     7
100
AcDbLine
 10
0.47696852684021
 20
0.6848425269126892
 30
0.0
 11
0.4764961004257203
 21
0.6631890535354615
 31
0.0
  0
LINE
  5
347
330
A
100
AcDbEntity
  8
1
  6
solid
 62
     7
100
AcDbLine
 10
0.4764961004257203
 20
0.6631890535354615
 30
0.0
 11
0.4794488549232483
 21
0.6561024188995362
 31
0.0
  0
LINE
  5
348
330
A
100
AcDbEntity
  8
1
  6
solid
 62
     7
100
AcDbLine
 10
0.4794488549232483
 20
0.6561024188995362
 30
0.0
 11
0.4882677495479584
 21
0.6519291400909424
 31
0.0
  0
LINE
  5
349
330
A
100
AcDbEntity
  8
1
  6
solid
 62
     7
100
AcDbLine
 10
0.4882677495479584
 20
0.6519291400909424
 30
0.0
 11
0.4928346872329712
 21
0.6537795662879944
 31
0.0
  0
ARC
  5
34A
330
A
100
AcDbEntity
  8
1
  6
solid
 62
     7
100
AcDbCircle
 10
0.4896292170737021
 20
0.6633846442677083
 30
0.0
 40
0.0101258363574743
100
AcDbArc
 50
288.4552264621332
 51
355.5450396223394
  0
LINE
  5
34B
330
A
100
AcDbEntity
  8
1
  6
solid
 62
     7
100
AcDbLine
 10
0.4997244477272034
 20
0.6625984311103821
 30
0.0
 11
0.5018110275268555
 21
0.6814173460006714
 31
0.0
  0
LINE
  5
34C
330
A
100
AcDbEntity
  8
1
  6
solid
 62
     7
100
AcDbLine
 10
0.5018110275268555
 20
0.6814173460006714
 30
0.0
 11
0.4970866441726685
 21
0.697047233581543
 31
0.0
  0
LINE
  5
34D
330
A
100
AcDbEntity
  8
1
  6
solid
 62
     7
100
AcDbLine
 10
0.4970866441726685
 20
0.697047233581543
 30
0.0
 11
0.4934645891189576
 21
0.6992126107215882
 31
0.0
  0
LINE
  5
34E
330
A
100
AcDbEntity
  8
1
  6
solid
 62
     7
100
AcDbLine
 10
0.4934645891189576
 20
0.6992126107215882
 30
0.0
 11
0.4831890165805817
 21
0.699330747127533
 31
0.0
  0
LINE
  5
34F
330
A
100
AcDbEntity
  8
1
  6
solid
 62
     7
100
AcDbLine
 10
0.4831890165805817
 20
0.699330747127533
 30
0.0
 11
0.4803149998188019
 21
0.6967323422431946
 31
0.0
  0
LINE
  5
350
330
A
100
AcDbEntity
  8
1
  6
solid
 62
     7
100
AcDbLine
 10
0.4803149998188019
 20
0.6967323422431946
 30
0.0
 11
0.4799212813377381
 21
0.6942126750946045
 31
0.0
  0
LINE
  5
351
330
A
100
AcDbEntity
  8
1
  6
solid
 62
     7
100
AcDbLine
 10
1.058189034461975
 20
0.5432677268981934
 30
0.0
 11
1.06192922592163
 21
0.542007863521576
 31
0.0
  0
ARC
  5
352
330
A
100
AcDbEntity
  8
1
  6
solid
 62
     7
100
AcDbCircle
 10
1.057498094465632
 20
0.538452535000288
 30
0.0
 40
0.0056811342947185
100
AcDbArc
 50
324.5495252829766
 51
398.7418950667282
  0
LINE
  5
353
330
A
100
AcDbEntity
  8
1
  6
solid
 62
     7
100
AcDbLine
 10
1.062126040458679
 20
0.5351575016975403
 30
0.0
 11
1.058937072753906
 21
0.5340551733970642
 31
0.0
  0
ARC
  5
354
330
A
100
AcDbEntity
  8
1
  6
solid
 62
     7
100
AcDbCircle
 10
1.062472951636516
 20
0.5413696679578019
 30
0.0
 40
0.0081243012100458
100
AcDbArc
 50
172.9818285424173
 51
244.2005456974096
  0
LINE
  5
355
330
A
100
AcDbEntity
  8
1
  6
solid
 62
     7
100
AcDbLine
 10
1.054409503936767
 20
0.5423622727394104
 30
0.0
 11
1.058189034461975
 21
0.5432677268981934
 31
0.0
  0
LINE
  5
356
330
A
100
AcDbEntity
  8
1
  6
solid
 62
     7
100
AcDbLine
 10
0.4482677578926087
 20
0.4766142070293427
 30
0.0
 11
0.4525590837001801
 21
0.4753543436527253
 31
0.0
  0
LINE
  5
357
330
A
100
AcDbEntity
  8
1
  6
solid
 62
     7
100
AcDbLine
 10
0.4525590837001801
 20
0.4753543436527253
 30
0.0
 11
0.4516929388046265
 21
0.4676772058010102
 31
0.0
  0
LINE
  5
358
330
A
100
AcDbEntity
  8
1
  6
solid
 62
     7
100
AcDbLine
 10
0.4516929388046265
 20
0.4676772058010102
 30
0.0
 11
0.4494488537311554
 21
0.465511828660965
 31
0.0
  0
LINE
  5
359
330
A
100
AcDbEntity
  8
1
  6
solid
 62
     7
100
AcDbLine
 10
0.4494488537311554
 20
0.465511828660965
 30
0.0
 11
0.4451968669891358
 21
0.4665354490280152
 31
0.0
  0
LINE
  5
35A
330
A
100
AcDbEntity
  8
1
  6
solid
 62
     7
100
AcDbLine
 10
0.4451968669891358
 20
0.4665354490280152
 30
0.0
 11
0.4432677626609803
 21
0.4718504250049591
 31
0.0
  0
LINE
  5
35B
330
A
100
AcDbEntity
  8
1
  6
solid
 62
     7
100
AcDbLine
 10
0.4432677626609803
 20
0.4718504250049591
 30
0.0
 11
0.4450787603855133
 21
0.4757874608039856
 31
0.0
  0
LINE
  5
35C
330
A
100
AcDbEntity
  8
1
  6
solid
 62
     7
100
AcDbLine
 10
0.4450787603855133
 20
0.4757874608039856
 30
0.0
 11
0.4482677578926087
 21
0.4766142070293427
 31
0.0
  0
LINE
  5
35D
330
A
100
AcDbEntity
  8
1
  6
solid
 62
     7
100
AcDbLine
 10
1.444803237915039
 20
0.3799606263637543
 30
0.0
 11
1.467322826385498
 21
0.3799606263637543
 31
0.0
  0
LINE
  5
35E
330
A
100
AcDbEntity
  8
1
  6
solid
 62
     7
100
AcDbLine
 10
1.467322826385498
 20
0.3799606263637543
 30
0.0
 11
1.470669388771057
 21
0.3786220848560333
 31
0.0
  0
ARC
  5
35F
330
A
100
AcDbEntity
  8
1
  6
solid
 62
     7
100
AcDbCircle
 10
1.464781088045326
 20
0.3726710817223217
 30
0.0
 40
0.0083717694506049
100
AcDbArc
 50
330.7676714467483
 51
405.3034426514005
  0
ARC
  5
360
330
A
100
AcDbEntity
  8
1
  6
solid
 62
     7
100
AcDbCircle
 10
1.45646455404454
 20
0.4103775092731362
 30
0.0
 40
0.0446190610527992
100
AcDbArc
 50
263.3015692774167
 51
290.4949395143524
  0
ARC
  5
361
330
A
100
AcDbEntity
  8
1
  6
solid
 62
     7
100
AcDbCircle
 10
1.451224827186752
 20
0.3614864134052627
 30
0.0
 40
0.0045767202973366
100
AcDbArc
 50
89.56003586909179
 51
182.8198007964719
  0
LINE
  5
362
330
A
100
AcDbEntity
  8
1
  6
solid
 62
     7
100
AcDbLine
 10
1.446653723716735
 20
0.3612598776817322
 30
0.0
 11
1.447086691856384
 21
0.3557086884975433
 31
0.0
  0
LINE
  5
363
330
A
100
AcDbEntity
  8
1
  6
solid
 62
     7
100
AcDbLine
 10
1.447086691856384
 20
0.3557086884975433
 30
0.0
 11
1.467952847480773
 21
0.3502362668514252
 31
0.0
  0
LINE
  5
364
330
A
100
AcDbEntity
  8
1
  6
solid
 62
     7
100
AcDbLine
 10
1.467952847480773
 20
0.3502362668514252
 30
0.0
 11
1.472204804420471
 21
0.3457874059677124
 31
0.0
  0
LINE
  5
365
330
A
100
AcDbEntity
  8
1
  6
solid
 62
     7
100
AcDbLine
 10
1.472204804420471
 20
0.3457874059677124
 30
0.0
 11
1.476496219635009
 21
0.3349606394767761
 31
0.0
  0
LINE
  5
366
330
A
100
AcDbEntity
  8
1
  6
solid
 62
     7
100
AcDbLine
 10
1.476496219635009
 20
0.3349606394767761
 30
0.0
 11
1.472204804420471
 21
0.3245669603347778
 31
0.0
  0
LINE
  5
367
330
A
100
AcDbEntity
  8
1
  6
solid
 62
     7
100
AcDbLine
 10
1.472204804420471
 20
0.3245669603347778
 30
0.0
 11
1.468504071235656
 21
0.3195669651031494
 31
0.0
  0
LINE
  5
368
330
A
100
AcDbEntity
  8
1
  6
solid
 62
     7
100
AcDbLine
 10
1.468504071235656
 20
0.3195669651031494
 30
0.0
 11
1.461456775665283
 21
0.3142519891262054
 31
0.0
  0
LINE
  5
369
330
A
100
AcDbEntity
  8
1
  6
solid
 62
     7
100
AcDbLine
 10
1.461456775665283
 20
0.3142519891262054
 30
0.0
 11
1.443464636802673
 21
0.3133464753627777
 31
0.0
  0
LINE
  5
36A
330
A
100
AcDbEntity
  8
1
  6
solid
 62
     7
100
AcDbLine
 10
1.443464636802673
 20
0.3133464753627777
 30
0.0
 11
1.438307166099548
 21
0.314409464597702
 31
0.0
  0
LINE
  5
36B
330
A
100
AcDbEntity
  8
1
  6
solid
 62
     7
100
AcDbLine
 10
1.438307166099548
 20
0.314409464597702
 30
0.0
 11
1.433897733688354
 21
0.3186614513397217
 31
0.0
  0
LINE
  5
36C
330
A
100
AcDbEntity
  8
1
  6
solid
 62
     7
100
AcDbLine
 10
1.433897733688354
 20
0.3186614513397217
 30
0.0
 11
1.434015870094299
 21
0.3213779628276825
 31
0.0
  0
LINE
  5
36D
330
A
100
AcDbEntity
  8
1
  6
solid
 62
     7
100
AcDbLine
 10
1.434015870094299
 20
0.3213779628276825
 30
0.0
 11
1.438149809837341
 21
0.3279921412467956
 31
0.0
  0
ARC
  5
36E
330
A
100
AcDbEntity
  8
1
  6
solid
 62
     7
100
AcDbCircle
 10
1.450928295958704
 20
0.3342601437634286
 30
0.0
 40
0.014232974499464
100
AcDbArc
 50
206.1285111882466
 51
303.8597277576672
  0
LINE
  5
36F
330
A
100
AcDbEntity
  8
1
  6
solid
 62
     7
100
AcDbLine
 10
1.458858251571655
 20
0.3224409818649292
 30
0.0
 11
1.46114182472229
 21
0.3349606394767761
 31
0.0
  0
LINE
  5
370
330
A
100
AcDbEntity
  8
1
  6
solid
 62
     7
100
AcDbLine
 10
1.46114182472229
 20
0.3349606394767761
 30
0.0
 11
1.456968545913696
 21
0.3437795341014862
 31
0.0
  0
LINE
  5
371
330
A
100
AcDbEntity
  8
1
  6
solid
 62
     7
100
AcDbLine
 10
1.456968545913696
 20
0.3437795341014862
 30
0.0
 11
1.451929211616516
 21
0.3457874059677124
 31
0.0
  0
ARC
  5
372
330
A
100
AcDbEntity
  8
1
  6
solid
 62
     7
100
AcDbCircle
 10
1.449972902458032
 20
0.3330833000939125
 30
0.0
 40
0.0128538496792317
100
AcDbArc
 50
81.24576953584034
 51
142.2952912431674
  0
LINE
  5
373
330
A
100
AcDbEntity
  8
1
  6
solid
 62
     7
100
AcDbLine
 10
1.43980324268341
 20
0.3409449160099029
 30
0.0
 11
1.440000057220458
 21
0.3740945160388946
 31
0.0
  0
LINE
  5
374
330
A
100
AcDbEntity
  8
1
  6
solid
 62
     7
100
AcDbLine
 10
1.440000057220458
 20
0.3740945160388946
 30
0.0
 11
1.441614270210266
 21
0.3785039484500885
 31
0.0
  0
LINE
  5
375
330
A
100
AcDbEntity
  8
1
  6
solid
 62
     7
100
AcDbLine
 10
1.441614270210266
 20
0.3785039484500885
 30
0.0
 11
1.444803237915039
 21
0.3799606263637543
 31
0.0
  0
LINE
  5
376
330
A
100
AcDbEntity
  8
1
  6
solid
 62
     7
100
AcDbLine
 10
1.674803256988525
 20
0.3799606263637543
 30
0.0
 11
1.707283496856689
 21
0.3799606263637543
 31
0.0
  0
LINE
  5
377
330
A
100
AcDbEntity
  8
1
  6
solid
 62
     7
100
AcDbLine
 10
1.707283496856689
 20
0.3799606263637543
 30
0.0
 11
1.713149785995483
 21
0.3785826861858368
 31
0.0
  0
LINE
  5
378
330
A
100
AcDbEntity
  8
1
  6
solid
 62
     7
100
AcDbLine
 10
1.713149785995483
 20
0.3785826861858368
 30
0.0
 11
1.71547257900238
 21
0.376141756772995
 31
0.0
  0
ARC
  5
379
330
A
100
AcDbEntity
  8
1
  6
solid
 62
     7
100
AcDbCircle
 10
1.366294593774164
 20
0.5213197670927813
 30
0.0
 40
0.3781559467315674
100
AcDbArc
 50
326.8421361071284
 51
337.423885225946
  0
ARC
  5
37A
330
A
100
AcDbEntity
  8
1
  6
solid
 62
     7
100
AcDbCircle
 10
1.678789021713192
 20
0.3206114483882574
 30
0.0
 40
0.0073608998209238
100
AcDbArc
 50
233.1086668249566
 51
303.7096070298995
  0
LINE
  5
37B
330
A
100
AcDbEntity
  8
1
  6
solid
 62
     7
100
AcDbLine
 10
1.674370169639587
 20
0.3147244453430176
 30
0.0
 11
1.673819065093994
 21
0.3175590634346008
 31
0.0
  0
LINE
  5
37C
330
A
100
AcDbEntity
  8
1
  6
solid
 62
     7
100
AcDbLine
 10
1.673819065093994
 20
0.3175590634346008
 30
0.0
 11
1.702401638031005
 21
0.3620866537094116
 31
0.0
  0
LINE
  5
37D
330
A
100
AcDbEntity
  8
1
  6
solid
 62
     7
100
AcDbLine
 10
1.702401638031005
 20
0.3620866537094116
 30
0.0
 11
1.70251989364624
 21
0.3643700778484344
 31
0.0
  0
LINE
  5
37E
330
A
100
AcDbEntity
  8
1
  6
solid
 62
     7
100
AcDbLine
 10
1.70251989364624
 20
0.3643700778484344
 30
0.0
 11
1.699015855789184
 21
0.3660629987716675
 31
0.0
  0
ARC
  5
37F
330
A
100
AcDbEntity
  8
1
  6
solid
 62
     7
100
AcDbCircle
 10
1.692232168713433
 20
0.4381287199195874
 30
0.0
 40
0.0723842978477478
100
AcDbArc
 50
256.0671968330793
 51
275.3775178998231
  0
LINE
  5
380
330
A
100
AcDbEntity
  8
1
  6
solid
 62
     7
100
AcDbLine
 10
1.674803256988525
 20
0.3678740561008453
 30
0.0
 11
1.670984268188476
 21
0.3790551424026489
 31
0.0
  0
LINE
  5
381
330
A
100
AcDbEntity
  8
1
  6
solid
 62
     7
100
AcDbLine
 10
1.670984268188476
 20
0.3790551424026489
 30
0.0
 11
1.674803256988525
 21
0.3799606263637543
 31
0.0
  0
LINE
  5
382
330
A
100
AcDbEntity
  8
1
  6
solid
 62
     7
100
AcDbLine
 10
1.513149738311767
 20
0.3483071029186249
 30
0.0
 11
1.48874032497406
 21
0.2842126190662384
 31
0.0
  0
ARC
  5
383
330
A
100
AcDbEntity
  8
1
  6
solid
 62
     7
100
AcDbCircle
 10
1.483212317358175
 20
0.2868593270989497
 30
0.0
 40
0.0061289421282709
100
AcDbArc
 50
257.9163510225498
 51
334.4157606324457
  0
LINE
  5
384
330
A
100
AcDbEntity
  8
1
  6
solid
 62
     7
100
AcDbLine
 10
1.481929302215576
 20
0.2808661460876465
 30
0.0
 11
1.480236411094665
 21
0.286771684885025
 31
0.0
  0
LINE
  5
385
330
A
100
AcDbEntity
  8
1
  6
solid
 62
     7
100
AcDbLine
 10
1.480236411094665
 20
0.286771684885025
 30
0.0
 11
1.504015922546386
 21
0.3451968729496002
 31
0.0
  0
ARC
  5
386
330
A
100
AcDbEntity
  8
1
  6
solid
 62
     7
100
AcDbCircle
 10
1.513833661724738
 20
0.3417307559407259
 30
0.0
 40
0.0104116266593337
100
AcDbArc
 50
99.22023878961846
 51
160.5546067060917
  0
LINE
  5
387
330
A
100
AcDbEntity
  8
1
  6
solid
 62
     7
100
AcDbLine
 10
1.512165427207946
 20
0.3520078659057617
 30
0.0
 11
1.513149738311767
 21
0.3483071029186249
 31
0.0
  0
LINE
  5
388
330
A
100
AcDbEntity
  8
1
  6
solid
 62
     7
100
AcDbLine
 10
1.753779649734497
 20
0.3483071029186249
 30
0.0
 11
1.730629920959472
 21
0.297795295715332
 31
0.0
  0
LINE
  5
389
330
A
100
AcDbEntity
  8
1
  6
solid
 62
     7
100
AcDbLine
 10
1.730629920959472
 20
0.297795295715332
 30
0.0
 11
1.725196957588195
 21
0.2812204957008362
 31
0.0
  0
LINE
  5
38A
330
A
100
AcDbEntity
  8
1
  6
solid
 62
     7
100
AcDbLine
 10
1.725196957588195
 20
0.2812204957008362
 30
0.0
 11
1.720787405967712
 21
0.2800000309944153
 31
0.0
  0
LINE
  5
38B
330
A
100
AcDbEntity
  8
1
  6
solid
 62
     7
100
AcDbLine
 10
1.720787405967712
 20
0.2800000309944153
 30
0.0
 11
1.717677235603332
 21
0.2813779711723327
 31
0.0
  0
LINE
  5
38C
330
A
100
AcDbEntity
  8
1
  6
solid
 62
     7
100
AcDbLine
 10
1.717677235603332
 20
0.2813779711723327
 30
0.0
 11
1.717834830284118
 21
0.2845669388771057
 31
0.0
  0
LINE
  5
38D
330
A
100
AcDbEntity
  8
1
  6
solid
 62
     7
100
AcDbLine
 10
1.717834830284118
 20
0.2845669388771057
 30
0.0
 11
1.744370222091674
 21
0.3494094610214233
 31
0.0
  0
LINE
  5
38E
330
A
100
AcDbEntity
  8
1
  6
solid
 62
     7
100
AcDbLine
 10
1.744370222091674
 20
0.3494094610214233
 30
0.0
 11
1.749370217323303
 21
0.3511417508125305
 31
0.0
  0
LINE
  5
38F
330
A
100
AcDbEntity
  8
1
  6
solid
 62
     7
100
AcDbLine
 10
1.749370217323303
 20
0.3511417508125305
 30
0.0
 11
1.753779649734497
 21
0.3483071029186249
 31
0.0
  0
LINE
  5
390
330
A
100
AcDbEntity
  8
1
  6
solid
 62
     7
100
AcDbLine
 10
1.598110318183898
 20
0.3299606442451477
 30
0.0
 11
1.608543395996093
 21
0.3288976550102234
 31
0.0
  0
LINE
  5
391
330
A
100
AcDbEntity
  8
1
  6
solid
 62
     7
100
AcDbLine
 10
1.608543395996093
 20
0.3288976550102234
 30
0.0
 11
1.614488363265991
 21
0.3180314898490906
 31
0.0
  0
LINE
  5
392
330
A
100
AcDbEntity
  8
1
  6
solid
 62
     7
100
AcDbLine
 10
1.614488363265991
 20
0.3180314898490906
 30
0.0
 11
1.617519855499267
 21
0.3172047436237335
 31
0.0
  0
LINE
  5
393
330
A
100
AcDbEntity
  8
1
  6
solid
 62
     7
100
AcDbLine
 10
1.617519855499267
 20
0.3172047436237335
 30
0.0
 11
1.625511884689331
 21
0.3277559280395508
 31
0.0
  0
LINE
  5
394
330
A
100
AcDbEntity
  8
1
  6
solid
 62
     7
100
AcDbLine
 10
1.625511884689331
 20
0.3277559280395508
 30
0.0
 11
1.630984306335449
 21
0.3289763927459717
 31
0.0
  0
LINE
  5
395
330
A
100
AcDbEntity
  8
1
  6
solid
 62
     7
100
AcDbLine
 10
1.630984306335449
 20
0.3289763927459717
 30
0.0
 11
1.632401704788208
 21
0.3257086873054504
 31
0.0
  0
LINE
  5
396
330
A
100
AcDbEntity
  8
1
  6
solid
 62
     7
100
AcDbLine
 10
1.632401704788208
 20
0.3257086873054504
 30
0.0
 11
1.620512008666992
 21
0.307834655046463
 31
0.0
  0
LINE
  5
397
330
A
100
AcDbEntity
  8
1
  6
solid
 62
     7
100
AcDbLine
 10
1.620512008666992
 20
0.307834655046463
 30
0.0
 11
1.620512008666992
 21
0.3054330945014954
 31
0.0
  0
LINE
  5
398
330
A
100
AcDbEntity
  8
1
  6
solid
 62
     7
100
AcDbLine
 10
1.620512008666992
 20
0.3054330945014954
 30
0.0
 11
1.632165431976318
 21
0.2889370322227478
 31
0.0
  0
LINE
  5
399
330
A
100
AcDbEntity
  8
1
  6
solid
 62
     7
100
AcDbLine
 10
1.632165431976318
 20
0.2889370322227478
 30
0.0
 11
1.633110404014587
 21
0.2847244143486023
 31
0.0
  0
LINE
  5
39A
330
A
100
AcDbEntity
  8
1
  6
solid
 62
     7
100
AcDbLine
 10
1.633110404014587
 20
0.2847244143486023
 30
0.0
 11
1.631693124771118
 21
0.2812204957008362
 31
0.0
  0
LINE
  5
39B
330
A
100
AcDbEntity
  8
1
  6
solid
 62
     7
100
AcDbLine
 10
1.631693124771118
 20
0.2812204957008362
 30
0.0
 11
1.622362256050109
 21
0.2809055149555206
 31
0.0
  0
LINE
  5
39C
330
A
100
AcDbEntity
  8
1
  6
solid
 62
     7
100
AcDbLine
 10
1.622362256050109
 20
0.2809055149555206
 30
0.0
 11
1.617716550827026
 21
0.2838582992553711
 31
0.0
  0
LINE
  5
39D
330
A
100
AcDbEntity
  8
1
  6
solid
 62
     7
100
AcDbLine
 10
1.617716550827026
 20
0.2838582992553711
 30
0.0
 11
1.612716555595397
 21
0.2938582897186279
 31
0.0
  0
LINE
  5
39E
330
A
100
AcDbEntity
  8
1
  6
solid
 62
     7
100
AcDbLine
 10
1.612716555595397
 20
0.2938582897186279
 30
0.0
 11
1.611181259155273
 21
0.294409453868866
 31
0.0
  0
LINE
  5
39F
330
A
100
AcDbEntity
  8
1
  6
solid
 62
     7
100
AcDbLine
 10
1.611181259155273
 20
0.294409453868866
 30
0.0
 11
1.598464608192443
 21
0.2810236513614654
 31
0.0
  0
LINE
  5
3A0
330
A
100
AcDbEntity
  8
1
  6
solid
 62
     7
100
AcDbLine
 10
1.598464608192443
 20
0.2810236513614654
 30
0.0
 11
1.59527564048767
 21
0.2809448838233948
 31
0.0
  0
LINE
  5
3A1
330
A
100
AcDbEntity
  8
1
  6
solid
 62
     7
100
AcDbLine
 10
1.59527564048767
 20
0.2809448838233948
 30
0.0
 11
1.593858361244201
 21
0.2842126190662384
 31
0.0
  0
LINE
  5
3A2
330
A
100
AcDbEntity
  8
1
  6
solid
 62
     7
100
AcDbLine
 10
1.593858361244201
 20
0.2842126190662384
 30
0.0
 11
1.605748176574707
 21
0.3020866215229034
 31
0.0
  0
LINE
  5
3A3
330
A
100
AcDbEntity
  8
1
  6
solid
 62
     7
100
AcDbLine
 10
1.605748176574707
 20
0.3020866215229034
 30
0.0
 11
1.605630040168762
 21
0.3046063184738159
 31
0.0
  0
LINE
  5
3A4
330
A
100
AcDbEntity
  8
1
  6
solid
 62
     7
100
AcDbLine
 10
1.605630040168762
 20
0.3046063184738159
 30
0.0
 11
1.594488382339477
 21
0.322480320930481
 31
0.0
  0
LINE
  5
3A5
330
A
100
AcDbEntity
  8
1
  6
solid
 62
     7
100
AcDbLine
 10
1.594488382339477
 20
0.322480320930481
 30
0.0
 11
1.594921350479125
 21
0.3290551602840424
 31
0.0
  0
LINE
  5
3A6
330
A
100
AcDbEntity
  8
1
  6
solid
 62
     7
100
AcDbLine
 10
1.594921350479125
 20
0.3290551602840424
 30
0.0
 11
1.598110318183898
 21
0.3299606442451477
 31
0.0
  0
LINE
  5
3A7
330
A
100
AcDbEntity
  8
1
  6
solid
 62
     7
100
AcDbLine
 10
1.53814959526062
 20
0.3166142106056213
 30
0.0
 11
1.542913556098937
 21
0.3154724538326263
 31
0.0
  0
LINE
  5
3A8
330
A
100
AcDbEntity
  8
1
  6
solid
 62
     7
100
AcDbLine
 10
1.542913556098937
 20
0.3154724538326263
 30
0.0
 11
1.553504109382629
 21
0.3099606335163116
 31
0.0
  0
LINE
  5
3A9
330
A
100
AcDbEntity
  8
1
  6
solid
 62
     7
100
AcDbLine
 10
1.553504109382629
 20
0.3099606335163116
 30
0.0
 11
1.556378006935119
 21
0.3045669496059418
 31
0.0
  0
LINE
  5
3AA
330
A
100
AcDbEntity
  8
1
  6
solid
 62
     7
100
AcDbLine
 10
1.556378006935119
 20
0.3045669496059418
 30
0.0
 11
1.553858399391174
 21
0.2848425209522247
 31
0.0
  0
LINE
  5
3AB
330
A
100
AcDbEntity
  8
1
  6
solid
 62
     7
100
AcDbLine
 10
1.553858399391174
 20
0.2848425209522247
 30
0.0
 11
1.559448838233947
 21
0.2707480490207672
 31
0.0
  0
LINE
  5
3AC
330
A
100
AcDbEntity
  8
1
  6
solid
 62
     7
100
AcDbLine
 10
1.559448838233947
 20
0.2707480490207672
 30
0.0
 11
1.558976531028747
 21
0.2644488513469696
 31
0.0
  0
LINE
  5
3AD
330
A
100
AcDbEntity
  8
1
  6
solid
 62
     7
100
AcDbLine
 10
1.558976531028747
 20
0.2644488513469696
 30
0.0
 11
1.552637815475463
 21
0.2537795305252075
 31
0.0
  0
LINE
  5
3AE
330
A
100
AcDbEntity
  8
1
  6
solid
 62
     7
100
AcDbLine
 10
1.552637815475463
 20
0.2537795305252075
 30
0.0
 11
1.545551180839538
 21
0.2512204945087433
 31
0.0
  0
LINE
  5
3AF
330
A
100
AcDbEntity
  8
1
  6
solid
 62
     7
100
AcDbLine
 10
1.545551180839538
 20
0.2512204945087433
 30
0.0
 11
1.524842619895935
 21
0.2509055137634277
 31
0.0
  0
LINE
  5
3B0
330
A
100
AcDbEntity
  8
1
  6
solid
 62
     7
100
AcDbLine
 10
1.524842619895935
 20
0.2509055137634277
 30
0.0
 11
1.517598509788513
 21
0.2574409544467926
 31
0.0
  0
LINE
  5
3B1
330
A
100
AcDbEntity
  8
1
  6
solid
 62
     7
100
AcDbLine
 10
1.517598509788513
 20
0.2574409544467926
 30
0.0
 11
1.513897776603698
 21
0.2664173245429993
 31
0.0
  0
LINE
  5
3B2
330
A
100
AcDbEntity
  8
1
  6
solid
 62
     7
100
AcDbLine
 10
1.513897776603698
 20
0.2664173245429993
 30
0.0
 11
1.514094471931457
 21
0.275590568780899
 31
0.0
  0
LINE
  5
3B3
330
A
100
AcDbEntity
  8
1
  6
solid
 62
     7
100
AcDbLine
 10
1.514094471931457
 20
0.275590568780899
 30
0.0
 11
1.517007946968078
 21
0.2795275747776031
 31
0.0
  0
LINE
  5
3B4
330
A
100
AcDbEntity
  8
1
  6
solid
 62
     7
100
AcDbLine
 10
1.517007946968078
 20
0.2795275747776031
 30
0.0
 11
1.524763822555541
 21
0.2847244143486023
 31
0.0
  0
LINE
  5
3B5
330
A
100
AcDbEntity
  8
1
  6
solid
 62
     7
100
AcDbLine
 10
1.524763822555541
 20
0.2847244143486023
 30
0.0
 11
1.516732335090637
 21
0.2997637987136841
 31
0.0
  0
LINE
  5
3B6
330
A
100
AcDbEntity
  8
1
  6
solid
 62
     7
100
AcDbLine
 10
1.516732335090637
 20
0.2997637987136841
 30
0.0
 11
1.517441034317016
 21
0.3055905699729919
 31
0.0
  0
LINE
  5
3B7
330
A
100
AcDbEntity
  8
1
  6
solid
 62
     7
100
AcDbLine
 10
1.517441034317016
 20
0.3055905699729919
 30
0.0
 11
1.523936986923217
 21
0.3120472729206085
 31
0.0
  0
LINE
  5
3B8
330
A
100
AcDbEntity
  8
1
  6
solid
 62
     7
100
AcDbLine
 10
1.523936986923217
 20
0.3120472729206085
 30
0.0
 11
1.53814959526062
 21
0.3166142106056213
 31
0.0
  0
LINE
  5
3B9
330
A
100
AcDbEntity
  8
1
  6
solid
 62
     7
100
AcDbLine
 10
1.778110265731811
 20
0.3139764070510864
 30
0.0
 11
1.782086730003356
 21
0.314133882522583
 31
0.0
  0
ARC
  5
3BA
330
A
100
AcDbEntity
  8
1
  6
solid
 62
     7
100
AcDbCircle
 10
1.781076286152634
 20
0.2994573788861245
 30
0.0
 40
0.0147112458944321
100
AcDbArc
 50
0.1170352914281685
 51
86.06153101394122
  0
ARC
  5
3BB
330
A
100
AcDbEntity
  8
1
  6
solid
 62
     7
100
AcDbCircle
 10
1.758736949064659
 20
0.3100585548675267
 30
0.0
 40
0.038528960198164
100
AcDbArc
 50
319.583584793129
 51
344.0768446473753
  0
ARC
  5
3BC
330
A
100
AcDbEntity
  8
1
  6
solid
 62
     7
100
AcDbCircle
 10
1.782362808109458
 20
0.2724041127748334
 30
0.0
 40
0.0139007428660989
100
AcDbArc
 50
20.37597401123836
 51
65.75483219635971
  0
ARC
  5
3BD
330
A
100
AcDbEntity
  8
1
  6
solid
 62
     7
100
AcDbCircle
 10
1.768036318691773
 20
0.2693681614501765
 30
0.0
 40
0.0284685324877501
100
AcDbArc
 50
331.2366356502559
 51
376.0606604936242
  0
ARC
  5
3BE
330
A
100
AcDbEntity
  8
1
  6
solid
 62
     7
100
AcDbCircle
 10
1.775785368122384
 20
0.2796563582050437
 30
0.0
 40
0.0295204687863588
100
AcDbArc
 50
276.975116222162
 51
305.6535881507119
  0
LINE
  5
3BF
330
A
100
AcDbEntity
  8
1
  6
solid
 62
     7
100
AcDbLine
 10
1.779370188713073
 20
0.2503543496131897
 30
0.0
 11
1.761456727981567
 21
0.2509055137634277
 31
0.0
  0
LINE
  5
3C0
330
A
100
AcDbEntity
  8
1
  6
solid
 62
     7
100
AcDbLine
 10
1.761456727981567
 20
0.2509055137634277
 30
0.0
 11
1.756929278373718
 21
0.2537795305252075
 31
0.0
  0
ARC
  5
3C1
330
A
100
AcDbEntity
  8
1
  6
solid
 62
     7
100
AcDbCircle
 10
1.772852485316445
 20
0.2683037474941216
 30
0.0
 40
0.0215522944927216
100
AcDbArc
 50
150.0759422173224
 51
222.3692393740545
  0
LINE
  5
3C2
330
A
100
AcDbEntity
  8
1
  6
solid
 62
     7
100
AcDbLine
 10
1.754173398017883
 20
0.2790551483631134
 30
0.0
 11
1.761456727981567
 21
0.285078763961792
 31
0.0
  0
ARC
  5
3C3
330
A
100
AcDbEntity
  8
1
  6
solid
 62
     7
100
AcDbCircle
 10
1.785399812731845
 20
0.3065566929316507
 30
0.0
 40
0.0321647748351097
100
AcDbArc
 50
189.7632037670722
 51
221.8934074153364
  0
ARC
  5
3C4
330
A
100
AcDbEntity
  8
1
  6
solid
 62
     7
100
AcDbCircle
 10
1.769371567414017
 20
0.2976105865747383
 30
0.0
 40
0.0160549096763134
100
AcDbArc
 50
131.6542629125432
 51
167.4383445591974
  0
LINE
  5
3C5
330
A
100
AcDbEntity
  8
1
  6
solid
 62
     7
100
AcDbLine
 10
1.758700847625732
 20
0.3096063137054443
 30
0.0
 11
1.775315046310424
 21
0.3154724538326263
 31
0.0
  0
LINE
  5
3C6
330
A
100
AcDbEntity
  8
1
  6
solid
 62
     7
100
AcDbLine
 10
1.775315046310424
 20
0.3154724538326263
 30
0.0
 11
1.778110265731811
 21
0.3139764070510864
 31
0.0
  0
LINE
  5
3C7
330
A
100
AcDbEntity
  8
1
  6
solid
 62
     7
100
AcDbLine
 10
1.529803276062011
 20
0.3042519688606262
 30
0.0
 11
1.529724597930908
 21
0.2983070909976959
 31
0.0
  0
LINE
  5
3C8
330
A
100
AcDbEntity
  8
1
  6
solid
 62
     7
100
AcDbLine
 10
1.529724597930908
 20
0.2983070909976959
 30
0.0
 11
1.532598495483398
 21
0.2931496202945709
 31
0.0
  0
LINE
  5
3C9
330
A
100
AcDbEntity
  8
1
  6
solid
 62
     7
100
AcDbLine
 10
1.532598495483398
 20
0.2931496202945709
 30
0.0
 11
1.53814959526062
 21
0.289960652589798
 31
0.0
  0
LINE
  5
3CA
330
A
100
AcDbEntity
  8
1
  6
solid
 62
     7
100
AcDbLine
 10
1.53814959526062
 20
0.289960652589798
 30
0.0
 11
1.540590643882751
 21
0.2912598550319671
 31
0.0
  0
LINE
  5
3CB
330
A
100
AcDbEntity
  8
1
  6
solid
 62
     7
100
AcDbLine
 10
1.540590643882751
 20
0.2912598550319671
 30
0.0
 11
1.54200804233551
 21
0.2936220467090607
 31
0.0
  0
LINE
  5
3CC
330
A
100
AcDbEntity
  8
1
  6
solid
 62
     7
100
AcDbLine
 10
1.54200804233551
 20
0.2936220467090607
 30
0.0
 11
1.542559266090393
 21
0.3066929280757904
 31
0.0
  0
LINE
  5
3CD
330
A
100
AcDbEntity
  8
1
  6
solid
 62
     7
100
AcDbLine
 10
1.542559266090393
 20
0.3066929280757904
 30
0.0
 11
1.540708780288696
 21
0.3093701004981995
 31
0.0
  0
LINE
  5
3CE
330
A
100
AcDbEntity
  8
1
  6
solid
 62
     7
100
AcDbLine
 10
1.540708780288696
 20
0.3093701004981995
 30
0.0
 11
1.535433053970336
 21
0.309251993894577
 31
0.0
  0
LINE
  5
3CF
330
A
100
AcDbEntity
  8
1
  6
solid
 62
     7
100
AcDbLine
 10
1.535433053970336
 20
0.309251993894577
 30
0.0
 11
1.529803276062011
 21
0.3042519688606262
 31
0.0
  0
LINE
  5
3D0
330
A
100
AcDbEntity
  8
1
  6
solid
 62
     7
100
AcDbLine
 10
1.769291520118713
 20
0.3037795424461365
 30
0.0
 11
1.768228411674499
 21
0.3008267879486084
 31
0.0
  0
ARC
  5
3D1
330
A
100
AcDbEntity
  8
1
  6
solid
 62
     7
100
AcDbCircle
 10
1.782702484529349
 20
0.3005207499405091
 30
0.0
 40
0.014477307908237
100
AcDbArc
 50
178.7887256011679
 51
223.5220762682097
  0
ARC
  5
3D2
330
A
100
AcDbEntity
  8
1
  6
solid
 62
     7
100
AcDbCircle
 10
1.773818462184539
 20
0.2997090315946091
 30
0.0
 40
0.0092989141121507
100
AcDbArc
 50
260.0072153614632
 51
354.2695154552178
  0
ARC
  5
3D3
330
A
100
AcDbEntity
  8
1
  6
solid
 62
     7
100
AcDbCircle
 10
1.773723561516637
 20
0.3001760587706756
 30
0.0
 40
0.0094511052593589
100
AcDbArc
 50
351.5027629167966
 51
434.6806290442934
  0
LINE
  5
3D4
330
A
100
AcDbEntity
  8
1
  6
solid
 62
     7
100
AcDbLine
 10
1.776220560073852
 20
0.3092913627624512
 30
0.0
 11
1.769291520118713
 21
0.3037795424461365
 31
0.0
  0
ARC
  5
3D5
330
A
100
AcDbEntity
  8
1
  6
solid
 62
     7
100
AcDbCircle
 10
1.565416517838392
 20
0.2674718877595914
 30
0.0
 40
0.0356072820723057
100
AcDbArc
 50
161.0828671968789
 51
191.4012948659055
  0
LINE
  5
3D6
330
A
100
AcDbEntity
  8
1
  6
solid
 62
     7
100
AcDbLine
 10
1.530511856079101
 20
0.2604330778121948
 30
0.0
 11
1.535275697708129
 21
0.2540157437324524
 31
0.0
  0
ARC
  5
3D7
330
A
100
AcDbEntity
  8
1
  6
solid
 62
     7
100
AcDbCircle
 10
1.528124036821687
 20
0.2728277573280383
 30
0.0
 40
0.0201255585998297
100
AcDbArc
 50
290.8150294996159
 51
331.1285374339858
  0
LINE
  5
3D8
330
A
100
AcDbEntity
  8
1
  6
solid
 62
     7
100
AcDbLine
 10
1.545748114585876
 20
0.2631102502346039
 30
0.0
 11
1.545944929122924
 21
0.2703937292098999
 31
0.0
  0
LINE
  5
3D9
330
A
100
AcDbEntity
  8
1
  6
solid
 62
     7
100
AcDbLine
 10
1.545944929122924
 20
0.2703937292098999
 30
0.0
 11
1.539921402931213
 21
0.2807086706161499
 31
0.0
  0
LINE
  5
3DA
330
A
100
AcDbEntity
  8
1
  6
solid
 62
     7
100
AcDbLine
 10
1.539921402931213
 20
0.2807086706161499
 30
0.0
 11
1.536811232566833
 21
0.2812992334365845
 31
0.0
  0
LINE
  5
3DB
330
A
100
AcDbEntity
  8
1
  6
solid
 62
     7
100
AcDbLine
 10
1.536811232566833
 20
0.2812992334365845
 30
0.0
 11
1.531732439994812
 21
0.2790157794952393
 31
0.0
  0
LINE
  5
3DC
330
A
100
AcDbEntity
  8
1
  6
solid
 62
     7
100
AcDbLine
 10
1.766456842422485
 20
0.2742913663387299
 30
0.0
 11
1.766889810562133
 21
0.2629921436309814
 31
0.0
  0
LINE
  5
3DD
330
A
100
AcDbEntity
  8
1
  6
solid
 62
     7
100
AcDbLine
 10
1.766889810562133
 20
0.2629921436309814
 30
0.0
 11
1.775236368179321
 21
0.2540157437324524
 31
0.0
  0
LINE
  5
3DE
330
A
100
AcDbEntity
  8
1
  6
solid
 62
     7
100
AcDbLine
 10
1.775236368179321
 20
0.2540157437324524
 30
0.0
 11
1.779015779495239
 21
0.2554724514484405
 31
0.0
  0
ARC
  5
3DF
330
A
100
AcDbEntity
  8
1
  6
solid
 62
     7
100
AcDbCircle
 10
1.76934311716541
 20
0.2656389188615599
 30
0.0
 40
0.0140327280387283
100
AcDbArc
 50
313.5741760405821
 51
373.428011661996
  0
ARC
  5
3E0
330
A
100
AcDbEntity
  8
1
  6
solid
 62
     7
100
AcDbCircle
 10
1.768396070434999
 20
0.268141089581324
 30
0.0
 40
0.0146157676354051
100
AcDbArc
 50
2.967155197867895
 51
45.81564686155296
  0
LINE
  5
3E1
330
A
100
AcDbEntity
  8
1
  6
solid
 62
     7
100
AcDbLine
 10
1.77858281135559
 20
0.2786220610141754
 30
0.0
 11
1.772126078605651
 21
0.2799606621265411
 31
0.0
  0
LINE
  5
3E2
330
A
100
AcDbEntity
  8
1
  6
solid
 62
     7
100
AcDbLine
 10
1.772126078605651
 20
0.2799606621265411
 30
0.0
 11
1.766456842422485
 21
0.2742913663387299
 31
0.0
  0
LINE
  5
3E4
330
A
100
AcDbEntity
  8
0
  6
solid
 62
     7
100
AcDbLine
 10
-1.504303127527236
 20
0.4593237936496743
 30
0.0
 11
-1.505917340517043
 21
0.9584183096885688
 31
0.0
  0
ARC
  5
3E5
330
A
100
AcDbEntity
  8
0
  6
solid
 62
     7
100
AcDbCircle
 10
-1.408964275549974
 20
0.9571214789433154
 30
0.0
 40
0.0969617376932284
100
AcDbArc
 50
-6.62315364196885
 51
179.2336653031344
  0
LINE
  5
3E6
330
A
100
AcDbEntity
  8
0
  6
solid
 62
     7
100
AcDbLine
 10
-1.312649637460708
 20
0.9459380507469182
 30
0.0
 11
-0.6333188712596888
 21
0.8903474211692808
 31
0.0
  0
LINE
  5
3E7
330
A
100
AcDbEntity
  8
0
  6
solid
 62
     7
100
AcDbLine
 10
-0.6333188712596888
 20
0.8903474211692808
 30
0.0
 11
-0.6334369927644726
 21
0.7814104259014128
 31
0.0
  0
LINE
  5
3E8
330
A
100
AcDbEntity
  8
0
  6
solid
 62
     7
100
AcDbLine
 10
-0.6334369927644726
 20
0.7814104259014128
 30
0.0
 11
-0.8860354125499721
 21
0.7792844474315644
 31
0.0
  0
LINE
  5
3E9
330
A
100
AcDbEntity
  8
0
  6
solid
 62
     7
100
AcDbLine
 10
-0.8860354125499721
 20
0.7792844474315644
 30
0.0
 11
-0.9229251742362976
 21
0.4581033289432527
 31
0.0
  0
LINE
  5
3EA
330
A
100
AcDbEntity
  8
0
  6
solid
 62
     7
100
AcDbLine
 10
-1.504303127527236
 20
0.4593237936496743
 30
0.0
 11
-0.9229251742362976
 21
0.4581033289432527
 31
0.0
  0
DIMENSION
  5
3F5
330
A
100
AcDbEntity
  8
0
  6
solid
 62
     7
100
AcDbDimension
  2
*D0
 10
-1.861613776340369
 20
0.7566027194261553
 30
0.0
 11
-1.861613776340369
 21
0.7566027194261553
 31
0.0
 70
    32
 71
     5
 42
0.5945578515529633
  3
Standard
100
AcDbAlignedDimension
 13
-1.402716040611267
 23
1.053881645202636
 33
0.0
 14
-1.504303097724914
 24
0.4593237936496735
 34
0.0
 50
89.99999999999996
100
AcDbRotatedDimension
1001
ACAD
1000
DSTYLE
1002
{
1070
    41
1040
0.125
1070
    42
1040
0.125
1070
    44
1040
0.0625
1070
    47
1040
0.0005
1070
    48
1040
0.0005
1070
    78
1070
     1
1070
   140
1040
0.125
1070
   146
1040
0.5
1070
   174
1070
     1
1070
   270
1070
     5
1070
   271
1070
     3
1070
   272
1070
     3
1070
   277
1070
     5
1070
   284
1070
     1
1002
}
  0
DIMENSION
  5
400
330
A
100
AcDbEntity
  8
0
  6
solid
 62
     7
100
AcDbDimension
  2
*D1
 10
-1.068870037794113
 20
0.2448279650445877
 30
0.0
 11
-1.068870037794113
 21
0.2448279650445877
 31
0.0
 70
    32
 71
     5
 42
0.8708661198616027
  3
Standard
100
AcDbAlignedDimension
 13
-1.504303097724914
 23
0.4593237936496735
 33
0.0
 14
-0.6334369778633118
 24
0.7814103960990906
 34
0.0
100
AcDbRotatedDimension
1001
ACAD
1000
DSTYLE
1002
{
1070
    41
1040
0.125
1070
    42
1040
0.125
1070
    44
1040
0.0625
1070
    47
1040
0.0005
1070
    48
1040
0.0005
1070
    78
1070
     1
1070
   140
1040
0.125
1070
   146
1040
0.5
1070
   174
1070
     1
1070
   270
1070
     5
1070
   271
1070
     3
1070
   272
1070
     3
1070
   277
1070
     5
1070
   284
1070
     1
1002
}
  0
VIEWPORT
  5
41E
330
B
100
AcDbEntity
 67
     1
  8
0
  6
Continuous
370
     0
100
AcDbViewport
 10
5.169387968333035
 20
3.968749971919159
 30
0.0
 40
16.99659283974028
 41
8.992999745766949
 68
     1
 69
     1
 12
5.169387968333035
 22
3.968749971919159
 13
0.0
 23
0.0
 14
0.5
 24
0.5
 15
0.5
 25
0.5
 16
0.0
 26
0.0
 36
1.0
 17
0.0
 27
0.0
 37
0.0
 42
50.0
 43
0.0
 44
0.0
 45
8.992999745766949
 50
0.0
 51
0.0
 72
   100
 90
   819232
  1

281
     0
 71
     1
 74
     0
110
0.0
120
0.0
130
0.0
111
1.0
121
0.0
131
0.0
112
0.0
122
1.0
132
0.0
 79
     0
146
0.0
170
     0
  0
VIEWPORT
  5
421
330
B
100
AcDbEntity
 67
     1
  8
0
  6
Continuous
370
     0
100
AcDbViewport
 10
5.187037578312164
 20
3.98638330500346
 30
0.0
 40
10.58977753157555
 41
8.023166463731669
 68
     2
 69
     2
 12
0.5095516534390966
 22
0.5927476229322018
 13
0.0
 23
0.0
 14
0.5
 24
0.5
 15
0.5
 25
0.5
 16
0.0
 26
0.0
 36
1.0
 17
0.0
 27
0.0
 37
0.0
 42
50.0
 43
0.0
 44
0.0
 45
4.9587470899729
 50
0.0
 51
0.0
 72
   100
 90
   819232
  1

281
     0
 71
     1
 74
     0
110
0.0
120
0.0
130
0.0
111
1.0
121
0.0
131
0.0
112
0.0
122
1.0
132
0.0
 79
     0
146
0.0
170
     0
  0
ENDSEC
  0
SECTION
  2
OBJECTS
  0
DICTIONARY
  5
19
330
0
100
AcDbDictionary
281
     1
  3
ACAD_COLOR
350
417
  3
ACAD_GROUP
350
1A
  3
ACAD_LAYOUT
350
1E
  3
ACAD_MATERIAL
350
402
  3
ACAD_MLEADERSTYLE
350
447
  3
ACAD_MLINESTYLE
350
1B
  3
ACAD_PLOTSETTINGS
350
22
  3
ACAD_PLOTSTYLENAME
350
1F
  3
ACAD_SCALELIST
350
425
  3
ACAD_TABLESTYLE
350
418
  3
ACAD_VISUALSTYLE
350
406
  3
ACAD_WIPEOUT_VARS
350
23
  3
ACDB_RECOMPOSE_DATA
350
474
  3
AcDbVariableDictionary
350
422
  0
DICTIONARY
  5
450
330
14
100
AcDbDictionary
280
     1
281
     1
  3
ADSK_XREC_LAYER_RECONCILED
360
451
  0
DICTIONARY
  5
452
330
27
100
AcDbDictionary
280
     1
281
     1
  3
ADSK_XREC_LAYER_RECONCILED
360
453
  0
DICTIONARY
  5
454
330
3E3
100
AcDbDictionary
280
     1
281
     1
  3
ADSK_XREC_LAYER_RECONCILED
360
455
  0
DICTIONARY
  5
417
102
{ACAD_REACTORS
330
19
102
}
330
19
100
AcDbDictionary
281
     1
  0
DICTIONARY
  5
1A
102
{ACAD_REACTORS
330
19
102
}
330
19
100
AcDbDictionary
281
     1
  0
DICTIONARY
  5
1E
102
{ACAD_REACTORS
330
19
102
}
330
19
100
AcDbDictionary
281
     1
  3
Layout1
350
21
  3
Model
350
20
  0
DICTIONARY
  5
402
102
{ACAD_REACTORS
330
19
102
}
330
19
100
AcDbDictionary
281
     1
  3
ByBlock
350
404
  3
ByLayer
350
403
  3
Global
350
405
  0
DICTIONARY
  5
447
102
{ACAD_REACTORS
330
19
102
}
330
19
100
AcDbDictionary
281
     1
  3
Standard
350
448
  0
DICTIONARY
  5
1B
102
{ACAD_REACTORS
330
19
102
}
330
19
100
AcDbDictionary
281
     1
  3
Standard
350
1C
  0
DICTIONARY
  5
22
102
{ACAD_REACTORS
330
19
102
}
330
19
100
AcDbDictionary
281
     1
  0
ACDBDICTIONARYWDFLT
  5
1F
102
{ACAD_REACTORS
330
19
102
}
330
19
100
AcDbDictionary
281
     1
  3
Normal
350
1D
100
AcDbDictionaryWithDefault
340
1D
  0
DICTIONARY
  5
425
102
{ACAD_REACTORS
330
19
102
}
330
19
100
AcDbDictionary
281
     1
  3
A0
350
426
  3
A1
350
427
  3
A2
350
428
  3
A3
350
429
  3
A4
350
42A
  3
A5
350
42B
  3
A6
350
42C
  3
A7
350
42D
  3
A8
350
42E
  3
A9
350
42F
  3
B0
350
430
  3
B1
350
431
  3
B2
350
432
  3
B3
350
433
  3
B4
350
434
  3
B5
350
435
  3
B6
350
436
  3
B7
350
437
  3
B8
350
438
  3
B9
350
439
  3
C0
350
43A
  3
C1
350
43B
  3
C2
350
43C
  3
C3
350
43D
  3
C4
350
43E
  3
C5
350
43F
  3
C6
350
440
  3
C7
350
441
  3
C8
350
442
  3
C9
350
443
  3
D0
350
444
  3
D1
350
445
  3
D2
350
446
  0
DICTIONARY
  5
418
102
{ACAD_REACTORS
330
19
102
}
330
19
100
AcDbDictionary
281
     1
  3
Standard
350
419
  0
DICTIONARY
  5
406
102
{ACAD_REACTORS
330
19
102
}
330
19
100
AcDbDictionary
281
     1
  3
2dWireframe
350
40C
  3
3D Hidden
350
40E
  3
3dWireframe
350
40D
  3
Basic
350
40B
  3
Brighten
350
412
  3
ColorChange
350
416
  3
Conceptual
350
40F
  3
Dim
350
411
  3
Facepattern
350
415
  3
Flat
350
407
  3
FlatWithEdges
350
408
  3
Gouraud
350
409
  3
GouraudWithEdges
350
40A
  3
Linepattern
350
414
  3
Realistic
350
410
  3
Thicken
350
413
  0
WIPEOUTVARIABLES
  5
23
330
19
100
AcDbWipeoutVariables
 70
     1
  0
XRECORD
  5
474
102
{ACAD_REACTORS
330
19
102
}
330
19
100
AcDbXrecord
280
     1
 90
        1
330
419
  0
DICTIONARY
  5
422
102
{ACAD_REACTORS
330
19
102
}
330
19
100
AcDbDictionary
281
     1
  3
CANNOSCALE
350
471
  3
CMLEADERSTYLE
350
470
  3
CTABLESTYLE
350
423
  0
XRECORD
  5
451
102
{ACAD_REACTORS
330
450
102
}
330
450
100
AcDbXrecord
280
     1
290
     1
  0
XRECORD
  5
453
102
{ACAD_REACTORS
330
452
102
}
330
452
100
AcDbXrecord
280
     1
290
     1
  0
XRECORD
  5
455
102
{ACAD_REACTORS
330
454
102
}
330
454
100
AcDbXrecord
280
     1
290
     1
  0
LAYOUT
  5
21
102
{ACAD_REACTORS
330
1E
102
}
330
1E
100
AcDbPlotSettings
  1

  2
Foxit PDF Printer
  4
Letter
  6

 40
3.174999952316284
 41
3.174999952316284
 42
3.17498779296875
 43
3.175003051757812
 44
279.3999938964844
 45
215.8999938964844
 46
31.47715384821894
 47
24.12875752349356
 48
0.0
 49
0.0
140
0.0
141
0.0
142
1.0
143
1.0
 70
     4
 72
     0
 73
     0
 74
     1
  7

 75
    16
147
1.0
 76
     1
 77
     2
 78
   300
148
-26.25461124795212
149
-20.16000981431432
100
AcDbLayout
  1
Layout1
 70
     0
 71
     1
 10
-0.3306119115190196
 20
-0.2812499079328949
 11
10.66938784818509
 21
8.218749851771214
 12
0.0
 22
0.0
 32
0.0
 14
-0.1078511874756103
 24
-0.0251999268623742
 34
-0.0015258207003583
 15
10.48192634409994
 25
7.997966536869295
 35
0.0000000349246037
146
0.0
 13
0.0
 23
0.0
 33
0.0
 16
1.0
 26
0.0
 36
0.0
 17
0.0
 27
1.0
 37
0.0
 76
     0
330
B
331
41E
1001
ACAD_PSEXT
1000
Foxit PDF Printer
1000
Foxit PDF Printer Driver
1000
FOXIT_PDF
1000

1070
     0
  0
LAYOUT
  5
20
102
{ACAD_REACTORS
330
1E
102
}
330
1E
100
AcDbPlotSettings
  1

  2

  4

  6

 40
0.0
 41
0.0
 42
0.0
 43
0.0
 44
0.0
 45
0.0
 46
0.0
 47
0.0
 48
0.0
 49
0.0
140
0.0
141
0.0
142
1.0
143
1.0
 70
  1024
 72
     0
 73
     0
 74
     0
  7

 75
     0
147
1.0
 76
     0
 77
     2
 78
   300
148
0.0
149
0.0
100
AcDbLayout
  1
Model
 70
     0
 71
     0
 10
0.0
 20
0.0
 11
0.0
 21
0.0
 12
0.0
 22
0.0
 32
0.0
 14
0.0
 24
0.0
 34
0.0
 15
0.0
 25
0.0
 35
0.0
146
0.0
 13
0.0
 23
0.0
 33
0.0
 16
0.0
 26
0.0
 36
0.0
 17
0.0
 27
0.0
 37
0.0
 76
     0
330
A
  0
MATERIAL
  5
404
102
{ACAD_XDICTIONARY
360
477
102
}
102
{ACAD_REACTORS
330
402
102
}
330
402
100
AcDbMaterial
  1
ByBlock
 73
     1
 78
     1
172
     1
176
     1
270
     1
274
     1
  0
MATERIAL
  5
403
102
{ACAD_XDICTIONARY
360
475
102
}
102
{ACAD_REACTORS
330
402
102
}
330
402
100
AcDbMaterial
  1
ByLayer
 73
     1
 78
     1
172
     1
176
     1
270
     1
274
     1
  0
MATERIAL
  5
405
102
{ACAD_XDICTIONARY
360
479
102
}
102
{ACAD_REACTORS
330
402
102
}
330
402
100
AcDbMaterial
  1
Global
 73
     1
 78
     1
172
     1
176
     1
270
     1
274
     1
  0
MLEADERSTYLE
  5
448
102
{ACAD_REACTORS
330
447
102
}
330
447
100
AcDbMLeaderStyle
170
     2
171
     1
172
     0
 90
        2
 40
0.0
 41
0.0
173
     1
 91
-1056964608
340
11
 92
       -2
290
     1
 42
0.09
291
     1
 43
0.36
  3
Standard
 44
0.18
300

342
17
174
     1
178
     6
175
     1
176
     0
 93
-1056964608
 45
0.18
292
     0
297
     0
 46
0.18
 94
-1056964608
 47
1.0
 49
1.0
140
1.0
293
     1
141
0.0
294
     1
177
     0
142
1.0
295
     0
296
     0
143
0.125
1001
ACAD_MLEADERVER
1070
     2
  0
MLINESTYLE
  5
1C
102
{ACAD_REACTORS
330
1B
102
}
330
1B
100
AcDbMlineStyle
  2
STANDARD
 70
     0
  3

 62
     0
 51
90.0
 52
90.0
 71
     2
 49
0.5
 62
   256
  6
BYLAYER
 49
-0.5
 62
   256
  6
BYLAYER
  0
ACDBPLACEHOLDER
  5
1D
102
{ACAD_REACTORS
330
1F
102
}
330
1F
  0
SCALE
  5
426
102
{ACAD_REACTORS
330
425
102
}
330
425
100
AcDbScale
 70
     0
300
1:1
140
1.0
141
1.0
290
     1
  0
SCALE
  5
427
102
{ACAD_REACTORS
330
425
102
}
330
425
100
AcDbScale
 70
     0
300
1:2
140
1.0
141
2.0
290
     0
  0
SCALE
  5
428
102
{ACAD_REACTORS
330
425
102
}
330
425
100
AcDbScale
 70
     0
300
1:4
140
1.0
141
4.0
290
     0
  0
SCALE
  5
429
102
{ACAD_REACTORS
330
425
102
}
330
425
100
AcDbScale
 70
     0
300
1:5
140
1.0
141
5.0
290
     0
  0
SCALE
  5
42A
102
{ACAD_REACTORS
330
425
102
}
330
425
100
AcDbScale
 70
     0
300
1:8
140
1.0
141
8.0
290
     0
  0
SCALE
  5
42B
102
{ACAD_REACTORS
330
425
102
}
330
425
100
AcDbScale
 70
     0
300
1:10
140
1.0
141
10.0
290
     0
  0
SCALE
  5
42C
102
{ACAD_REACTORS
330
425
102
}
330
425
100
AcDbScale
 70
     0
300
1:16
140
1.0
141
16.0
290
     0
  0
SCALE
  5
42D
102
{ACAD_REACTORS
330
425
102
}
330
425
100
AcDbScale
 70
     0
300
1:20
140
1.0
141
20.0
290
     0
  0
SCALE
  5
42E
102
{ACAD_REACTORS
330
425
102
}
330
425
100
AcDbScale
 70
     0
300
1:30
140
1.0
141
30.0
290
     0
  0
SCALE
  5
42F
102
{ACAD_REACTORS
330
425
102
}
330
425
100
AcDbScale
 70
     0
300
1:40
140
1.0
141
40.0
290
     0
  0
SCALE
  5
430
102
{ACAD_REACTORS
330
425
102
}
330
425
100
AcDbScale
 70
     0
300
1:50
140
1.0
141
50.0
290
     0
  0
SCALE
  5
431
102
{ACAD_REACTORS
330
425
102
}
330
425
100
AcDbScale
 70
     0
300
1:100
140
1.0
141
100.0
290
     0
  0
SCALE
  5
432
102
{ACAD_REACTORS
330
425
102
}
330
425
100
AcDbScale
 70
     0
300
2:1
140
2.0
141
1.0
290
     0
  0
SCALE
  5
433
102
{ACAD_REACTORS
330
425
102
}
330
425
100
AcDbScale
 70
     0
300
4:1
140
4.0
141
1.0
290
     0
  0
SCALE
  5
434
102
{ACAD_REACTORS
330
425
102
}
330
425
100
AcDbScale
 70
     0
300
8:1
140
8.0
141
1.0
290
     0
  0
SCALE
  5
435
102
{ACAD_REACTORS
330
425
102
}
330
425
100
AcDbScale
 70
     0
300
10:1
140
10.0
141
1.0
290
     0
  0
SCALE
  5
436
102
{ACAD_REACTORS
330
425
102
}
330
425
100
AcDbScale
 70
     0
300
100:1
140
100.0
141
1.0
290
     0
  0
SCALE
  5
437
102
{ACAD_REACTORS
330
425
102
}
330
425
100
AcDbScale
 70
     0
300
1/128" = 1'-0"
140
0.0078125
141
12.0
290
     0
  0
SCALE
  5
438
102
{ACAD_REACTORS
330
425
102
}
330
425
100
AcDbScale
 70
     0
300
1/64" = 1'-0"
140
0.015625
141
12.0
290
     0
  0
SCALE
  5
439
102
{ACAD_REACTORS
330
425
102
}
330
425
100
AcDbScale
 70
     0
300
1/32" = 1'-0"
140
0.03125
141
12.0
290
     0
  0
SCALE
  5
43A
102
{ACAD_REACTORS
330
425
102
}
330
425
100
AcDbScale
 70
     0
300
1/16" = 1'-0"
140
0.0625
141
12.0
290
     0
  0
SCALE
  5
43B
102
{ACAD_REACTORS
330
425
102
}
330
425
100
AcDbScale
 70
     0
300
3/32" = 1'-0"
140
0.09375
141
12.0
290
     0
  0
SCALE
  5
43C
102
{ACAD_REACTORS
330
425
102
}
330
425
100
AcDbScale
 70
     0
300
1/8" = 1'-0"
140
0.125
141
12.0
290
     0
  0
SCALE
  5
43D
102
{ACAD_REACTORS
330
425
102
}
330
425
100
AcDbScale
 70
     0
300
3/16" = 1'-0"
140
0.1875
141
12.0
290
     0
  0
SCALE
  5
43E
102
{ACAD_REACTORS
330
425
102
}
330
425
100
AcDbScale
 70
     0
300
1/4" = 1'-0"
140
0.25
141
12.0
290
     0
  0
SCALE
  5
43F
102
{ACAD_REACTORS
330
425
102
}
330
425
100
AcDbScale
 70
     0
300
3/8" = 1'-0"
140
0.375
141
12.0
290
     0
  0
SCALE
  5
440
102
{ACAD_REACTORS
330
425
102
}
330
425
100
AcDbScale
 70
     0
300
1/2" = 1'-0"
140
0.5
141
12.0
290
     0
  0
SCALE
  5
441
102
{ACAD_REACTORS
330
425
102
}
330
425
100
AcDbScale
 70
     0
300
3/4" = 1'-0"
140
0.75
141
12.0
290
     0
  0
SCALE
  5
442
102
{ACAD_REACTORS
330
425
102
}
330
425
100
AcDbScale
 70
     0
300
1" = 1'-0"
140
1.0
141
12.0
290
     0
  0
SCALE
  5
443
102
{ACAD_REACTORS
330
425
102
}
330
425
100
AcDbScale
 70
     0
300
1-1/2" = 1'-0"
140
1.5
141
12.0
290
     0
  0
SCALE
  5
444
102
{ACAD_REACTORS
330
425
102
}
330
425
100
AcDbScale
 70
     0
300
3" = 1'-0"
140
3.0
141
12.0
290
     0
  0
SCALE
  5
445
102
{ACAD_REACTORS
330
425
102
}
330
425
100
AcDbScale
 70
     0
300
6" = 1'-0"
140
6.0
141
12.0
290
     0
  0
SCALE
  5
446
102
{ACAD_REACTORS
330
425
102
}
330
425
100
AcDbScale
 70
     0
300
1'-0" = 1'-0"
140
12.0
141
12.0
290
     0
  0
TABLESTYLE
  5
419
102
{ACAD_XDICTIONARY
360
472
102
}
102
{ACAD_REACTORS
330
418
102
}
330
418
100
AcDbTableStyle
  3
Standard
 70
     0
 71
     0
 40
0.06
 41
0.06
280
     0
281
     0
  7
Standard
140
0.18
170
     2
 62
     0
 63
     7
283
     0
274
    -2
284
     1
 64
     0
275
    -2
285
     1
 65
     0
276
    -2
286
     1
 66
     0
277
    -2
287
     1
 67
     0
278
    -2
288
     1
 68
     0
279
    -2
289
     1
 69
     0
  7
Standard
140
0.25
170
     5
 62
     0
 63
     7
283
     0
274
    -2
284
     1
 64
     0
275
    -2
285
     1
 65
     0
276
    -2
286
     1
 66
     0
277
    -2
287
     1
 67
     0
278
    -2
288
     1
 68
     0
279
    -2
289
     1
 69
     0
  7
Standard
140
0.18
170
     5
 62
     0
 63
     7
283
     0
274
    -2
284
     1
 64
     0
275
    -2
285
     1
 65
     0
276
    -2
286
     1
 66
     0
277
    -2
287
     1
 67
     0
278
    -2
288
     1
 68
     0
279
    -2
289
     1
 69
     0
  0
VISUALSTYLE
  5
40C
102
{ACAD_REACTORS
330
406
102
}
330
406
100
AcDbVisualStyle
  2
2dWireframe
 70
     4
 71
     0
 72
     2
 73
     0
 90
        0
 40
-0.6
 41
-30.0
 62
     5
 63
     7
421
 16777215
 74
     1
 91
        4
 64
     7
 65
   257
 75
     1
175
     1
 42
1.0
 92
        0
 66
   257
 43
1.0
 76
     1
 77
     6
 78
     2
 67
     7
 79
     5
170
     0
171
     0
290
     0
174
     0
 93
        1
 44
0.0
173
     0
291
     0
 45
0.0
1001
ACAD
1000
AcDbSavedByObjectVersion
1070
     0
  0
VISUALSTYLE
  5
40E
102
{ACAD_REACTORS
330
406
102
}
330
406
100
AcDbVisualStyle
  2
3D Hidden
 70
     6
 71
     1
 72
     2
 73
     2
 90
        0
 40
-0.6
 41
-30.0
 62
     5
 63
     7
421
 16777215
 74
     2
 91
        2
 64
     7
 65
   257
 75
     2
175
     1
 42
40.0
 92
        0
 66
   257
 43
1.0
 76
     1
 77
     6
 78
     2
 67
     7
 79
     3
170
     0
171
     0
290
     0
174
     0
 93
        1
 44
0.0
173
     0
291
     0
 45
0.0
1001
ACAD
1000
AcDbSavedByObjectVersion
1070
     0
  0
VISUALSTYLE
  5
40D
102
{ACAD_REACTORS
330
406
102
}
330
406
100
AcDbVisualStyle
  2
3dWireframe
 70
     5
 71
     0
 72
     2
 73
     0
 90
        0
 40
-0.6
 41
-30.0
 62
     5
 63
     7
421
 16777215
 74
     1
 91
        4
 64
     7
 65
   257
 75
     1
175
     1
 42
1.0
 92
        0
 66
   257
 43
1.0
 76
     1
 77
     6
 78
     2
 67
     7
 79
     5
170
     0
171
     0
290
     0
174
     0
 93
        1
 44
0.0
173
     0
291
     0
 45
0.0
1001
ACAD
1000
AcDbSavedByObjectVersion
1070
     0
  0
VISUALSTYLE
  5
40B
102
{ACAD_REACTORS
330
406
102
}
330
406
100
AcDbVisualStyle
  2
Basic
 70
     7
 71
     1
 72
     0
 73
     1
 90
        0
 40
-0.6
 41
-30.0
 62
     5
 63
     7
421
 16777215
 74
     0
 91
        4
 64
     7
 65
   257
 75
     1
175
     1
 42
1.0
 92
        8
 66
     7
 43
1.0
 76
     1
 77
     6
 78
     2
 67
     7
 79
     5
170
     0
171
     0
290
     0
174
     0
 93
        1
 44
0.0
173
     0
291
     1
 45
0.0
1001
ACAD
1000
AcDbSavedByObjectVersion
1070
     0
  0
VISUALSTYLE
  5
412
102
{ACAD_REACTORS
330
406
102
}
330
406
100
AcDbVisualStyle
  2
Brighten
 70
    12
 71
     2
 72
     2
 73
     0
 90
        0
 40
-0.6
 41
-30.0
 62
     5
 63
     7
421
 16777215
 74
     1
 91
        4
 64
     7
 65
   257
 75
     1
175
     1
 42
1.0
 92
        8
 66
     7
 43
1.0
 76
     1
 77
     6
 78
     2
 67
     7
 79
     5
170
     0
171
     0
290
     0
174
     0
 93
        1
 44
50.0
173
     0
291
     1
 45
0.0
1001
ACAD
1000
AcDbSavedByObjectVersion
1070
     0
  0
VISUALSTYLE
  5
416
102
{ACAD_REACTORS
330
406
102
}
330
406
100
AcDbVisualStyle
  2
ColorChange
 70
    16
 71
     2
 72
     2
 73
     3
 90
        0
 40
-0.6
 41
-30.0
 62
     5
 63
     8
421
  8421504
 74
     1
 91
        4
 64
     7
 65
   257
 75
     1
175
     1
 42
1.0
 92
        8
 66
     8
424
  8421504
 43
1.0
 76
     1
 77
     6
 78
     2
 67
     7
 79
     5
170
     0
171
     0
290
     0
174
     0
 93
        1
 44
0.0
173
     0
291
     1
 45
0.0
1001
ACAD
1000
AcDbSavedByObjectVersion
1070
     0
  0
VISUALSTYLE
  5
40F
102
{ACAD_REACTORS
330
406
102
}
330
406
100
AcDbVisualStyle
  2
Conceptual
 70
     9
 71
     3
 72
     2
 73
     0
 90
        0
 40
-0.6
 41
-30.0
 62
     5
 63
     7
421
 16777215
 74
     2
 91
        2
 64
     7
 65
   257
 75
     1
175
     1
 42
40.0
 92
        8
 66
     7
 43
1.0
 76
     1
 77
     6
 78
     2
 67
     7
 79
     3
170
     0
171
     0
290
     0
174
     0
 93
        1
 44
0.0
173
     0
291
     0
 45
0.0
1001
ACAD
1000
AcDbSavedByObjectVersion
1070
     0
  0
VISUALSTYLE
  5
411
102
{ACAD_REACTORS
330
406
102
}
330
406
100
AcDbVisualStyle
  2
Dim
 70
    11
 71
     2
 72
     2
 73
     0
 90
        0
 40
-0.6
 41
-30.0
 62
     5
 63
     7
421
 16777215
 74
     1
 91
        4
 64
     7
 65
   257
 75
     1
175
     1
 42
1.0
 92
        8
 66
     7
 43
1.0
 76
     1
 77
     6
 78
     2
 67
     7
 79
     5
170
     0
171
     0
290
     0
174
     0
 93
        1
 44
-50.0
173
     0
291
     1
 45
0.0
1001
ACAD
1000
AcDbSavedByObjectVersion
1070
     0
  0
VISUALSTYLE
  5
415
102
{ACAD_REACTORS
330
406
102
}
330
406
100
AcDbVisualStyle
  2
Facepattern
 70
    15
 71
     2
 72
     2
 73
     0
 90
        0
 40
-0.6
 41
-30.0
 62
     5
 63
     7
421
 16777215
 74
     1
 91
        4
 64
     7
 65
   257
 75
     1
175
     1
 42
1.0
 92
        8
 66
     7
 43
1.0
 76
     1
 77
     6
 78
     2
 67
     7
 79
     5
170
     0
171
     0
290
     0
174
     0
 93
        1
 44
0.0
173
     0
291
     1
 45
0.0
1001
ACAD
1000
AcDbSavedByObjectVersion
1070
     0
  0
VISUALSTYLE
  5
407
102
{ACAD_REACTORS
330
406
102
}
330
406
100
AcDbVisualStyle
  2
Flat
 70
     0
 71
     2
 72
     1
 73
     1
 90
        2
 40
-0.6
 41
30.0
 62
     5
 63
     7
421
 16777215
 74
     0
 91
        4
 64
     7
 65
   257
 75
     1
175
     1
 42
1.0
 92
        8
 66
     7
 43
1.0
 76
     1
 77
     6
 78
     2
 67
     7
 79
     5
170
     0
171
     0
290
     0
174
     0
 93
       13
 44
0.0
173
     0
291
     1
 45
0.0
1001
ACAD
1000
AcDbSavedByObjectVersion
1070
     0
  0
VISUALSTYLE
  5
408
102
{ACAD_REACTORS
330
406
102
}
330
406
100
AcDbVisualStyle
  2
FlatWithEdges
 70
     1
 71
     2
 72
     1
 73
     1
 90
        2
 40
-0.6
 41
30.0
 62
     5
 63
     7
421
 16777215
 74
     1
 91
        4
 64
     7
 65
   257
 75
     1
175
     1
 42
1.0
 92
        0
 66
   257
 43
1.0
 76
     1
 77
     6
 78
     2
 67
     7
 79
     5
170
     0
171
     0
290
     0
174
     0
 93
       13
 44
0.0
173
     0
291
     1
 45
0.0
1001
ACAD
1000
AcDbSavedByObjectVersion
1070
     0
  0
VISUALSTYLE
  5
409
102
{ACAD_REACTORS
330
406
102
}
330
406
100
AcDbVisualStyle
  2
Gouraud
 70
     2
 71
     2
 72
     2
 73
     1
 90
        2
 40
-0.6
 41
30.0
 62
     5
 63
     7
421
 16777215
 74
     0
 91
        4
 64
     7
 65
   257
 75
     1
175
     1
 42
1.0
 92
        0
 66
     7
 43
1.0
 76
     1
 77
     6
 78
     2
 67
     7
 79
     5
170
     0
171
     0
290
     0
174
     0
 93
       13
 44
0.0
173
     0
291
     1
 45
0.0
1001
ACAD
1000
AcDbSavedByObjectVersion
1070
     0
  0
VISUALSTYLE
  5
40A
102
{ACAD_REACTORS
330
406
102
}
330
406
100
AcDbVisualStyle
  2
GouraudWithEdges
 70
     3
 71
     2
 72
     2
 73
     1
 90
        2
 40
-0.6
 41
30.0
 62
     5
 63
     7
421
 16777215
 74
     1
 91
        4
 64
     7
 65
   257
 75
     1
175
     1
 42
1.0
 92
        0
 66
   257
 43
1.0
 76
     1
 77
     6
 78
     2
 67
     7
 79
     5
170
     0
171
     0
290
     0
174
     0
 93
       13
 44
0.0
173
     0
291
     1
 45
0.0
1001
ACAD
1000
AcDbSavedByObjectVersion
1070
     0
  0
VISUALSTYLE
  5
414
102
{ACAD_REACTORS
330
406
102
}
330
406
100
AcDbVisualStyle
  2
Linepattern
 70
    14
 71
     2
 72
     2
 73
     0
 90
        0
 40
-0.6
 41
-30.0
 62
     5
 63
     7
421
 16777215
 74
     1
 91
        4
 64
     7
 65
   257
 75
     7
175
     7
 42
1.0
 92
        8
 66
     7
 43
1.0
 76
     1
 77
     6
 78
     2
 67
     7
 79
     5
170
     0
171
     0
290
     0
174
     0
 93
        1
 44
0.0
173
     0
291
     1
 45
0.0
1001
ACAD
1000
AcDbSavedByObjectVersion
1070
     0
  0
VISUALSTYLE
  5
410
102
{ACAD_REACTORS
330
406
102
}
330
406
100
AcDbVisualStyle
  2
Realistic
 70
     8
 71
     2
 72
     2
 73
     0
 90
        0
 40
-0.6
 41
-30.0
 62
     5
 63
     7
421
 16777215
 74
     1
 91
        0
 64
     7
 65
   257
 75
     1
175
     1
 42
1.0
 92
        8
 66
     8
424
  7895160
 43
1.0
 76
     1
 77
     6
 78
     2
 67
     7
 79
     5
170
     0
171
     0
290
     0
174
     0
 93
       13
 44
0.0
173
     0
291
     0
 45
0.0
1001
ACAD
1000
AcDbSavedByObjectVersion
1070
     0
  0
VISUALSTYLE
  5
413
102
{ACAD_REACTORS
330
406
102
}
330
406
100
AcDbVisualStyle
  2
Thicken
 70
    13
 71
     2
 72
     2
 73
     0
 90
        0
 40
-0.6
 41
-30.0
 62
     5
 63
     7
421
 16777215
 74
     1
 91
        4
 64
     7
 65
   257
 75
     1
175
     1
 42
1.0
 92
       12
 66
     7
 43
1.0
 76
     1
 77
     6
 78
     2
 67
     7
 79
     5
170
     0
171
     0
290
     0
174
     0
 93
        1
 44
0.0
173
     0
291
     1
 45
0.0
1001
ACAD
1000
AcDbSavedByObjectVersion
1070
     0
  0
DICTIONARYVAR
  5
471
102
{ACAD_REACTORS
330
422
102
}
330
422
100
DictionaryVariables
280
     0
  1
1:1
  0
DICTIONARYVAR
  5
470
102
{ACAD_REACTORS
330
422
102
}
330
422
100
DictionaryVariables
280
     0
  1
STANDARD
  0
DICTIONARYVAR
  5
423
102
{ACAD_REACTORS
330
422
102
}
330
422
100
DictionaryVariables
280
     0
  1
STANDARD
  0
DICTIONARY
  5
477
330
404
100
AcDbDictionary
280
     1
281
     1
  3
ACAD_XREC_ROUNDTRIP
360
478
  0
DICTIONARY
  5
475
330
403
100
AcDbDictionary
280
     1
281
     1
  3
ACAD_XREC_ROUNDTRIP
360
476
  0
DICTIONARY
  5
479
330
405
100
AcDbDictionary
280
     1
281
     1
  3
ACAD_XREC_ROUNDTRIP
360
47A
  0
DICTIONARY
  5
472
330
419
100
AcDbDictionary
280
     1
281
     1
  3
ACAD_ROUNDTRIP_2008_TABLESTYLE_CELLSTYLEMAP
360
473
  3
ACAD_XREC_ROUNDTRIP
360
47B
  0
XRECORD
  5
478
102
{ACAD_REACTORS
330
477
102
}
330
477
100
AcDbXrecord
280
     1
102
MATERIAL
148
0.0
149
0.0
149
0.0
 93
        0
 94
       63
282
     0
 72
     1
 77
     1
171
     1
175
     1
179
     1
273
     0
  0
XRECORD
  5
476
102
{ACAD_REACTORS
330
475
102
}
330
475
100
AcDbXrecord
280
     1
102
MATERIAL
148
0.0
149
0.0
149
0.0
 93
        0
 94
       63
282
     0
 72
     1
 77
     1
171
     1
175
     1
179
     1
273
     0
  0
XRECORD
  5
47A
102
{ACAD_REACTORS
330
479
102
}
330
479
100
AcDbXrecord
280
     1
102
MATERIAL
148
0.0
149
0.0
149
0.0
 93
        0
 94
       63
282
     0
 72
     1
 77
     1
171
     1
175
     1
179
     1
273
     0
  0
CELLSTYLEMAP
  5
473
102
{ACAD_REACTORS
330
472
102
}
330
472
100
AcDbCellStyleMap
 90
        3
300
CELLSTYLE
  1
TABLEFORMAT_BEGIN
 90
        5
170
     1
 91
        0
 92
    32768
 62
   257
 93
        1
300
CONTENTFORMAT
  1
CONTENTFORMAT_BEGIN
 90
        0
 91
        0
 92
      512
 93
        0
300

 40
0.0
140
1.0
 94
        5
 62
     0
340
17
144
0.25
309
CONTENTFORMAT_END
171
     0
 94
        6
 95
        1
302
GRIDFORMAT
  1
GRIDFORMAT_BEGIN
 90
        0
 91
        1
 62
     0
 92
       -2
340
0
 93
        0
 40
0.045
309
GRIDFORMAT_END
 95
        2
302
GRIDFORMAT
  1
GRIDFORMAT_BEGIN
 90
        0
 91
        1
 62
     0
 92
       -2
340
0
 93
        0
 40
0.045
309
GRIDFORMAT_END
 95
        4
302
GRIDFORMAT
  1
GRIDFORMAT_BEGIN
 90
        0
 91
        1
 62
     0
 92
       -2
340
0
 93
        0
 40
0.045
309
GRIDFORMAT_END
 95
        8
302
GRIDFORMAT
  1
GRIDFORMAT_BEGIN
 90
        0
 91
        1
 62
     0
 92
       -2
340
0
 93
        0
 40
0.045
309
GRIDFORMAT_END
 95
       16
302
GRIDFORMAT
  1
GRIDFORMAT_BEGIN
 90
        0
 91
        1
 62
     0
 92
       -2
340
0
 93
        0
 40
0.045
309
GRIDFORMAT_END
 95
       32
302
GRIDFORMAT
  1
GRIDFORMAT_BEGIN
 90
        0
 91
        1
 62
     0
 92
       -2
340
0
 93
        0
 40
0.045
309
GRIDFORMAT_END
309
TABLEFORMAT_END
  1
CELLSTYLE_BEGIN
 90
        1
 91
        1
300
_TITLE
309
CELLSTYLE_END
300
CELLSTYLE
  1
TABLEFORMAT_BEGIN
 90
        5
170
     1
 91
        0
 92
        0
 62
   257
 93
        1
300
CONTENTFORMAT
  1
CONTENTFORMAT_BEGIN
 90
        0
 91
        0
 92
      512
 93
        0
300

 40
0.0
140
1.0
 94
        5
 62
     0
340
17
144
0.18
309
CONTENTFORMAT_END
171
     0
 94
        6
 95
        1
302
GRIDFORMAT
  1
GRIDFORMAT_BEGIN
 90
        0
 91
        1
 62
     0
 92
       -2
340
0
 93
        0
 40
0.045
309
GRIDFORMAT_END
 95
        2
302
GRIDFORMAT
  1
GRIDFORMAT_BEGIN
 90
        0
 91
        1
 62
     0
 92
       -2
340
0
 93
        0
 40
0.045
309
GRIDFORMAT_END
 95
        4
302
GRIDFORMAT
  1
GRIDFORMAT_BEGIN
 90
        0
 91
        1
 62
     0
 92
       -2
340
0
 93
        0
 40
0.045
309
GRIDFORMAT_END
 95
        8
302
GRIDFORMAT
  1
GRIDFORMAT_BEGIN
 90
        0
 91
        1
 62
     0
 92
       -2
340
0
 93
        0
 40
0.045
309
GRIDFORMAT_END
 95
       16
302
GRIDFORMAT
  1
GRIDFORMAT_BEGIN
 90
        0
 91
        1
 62
     0
 92
       -2
340
0
 93
        0
 40
0.045
309
GRIDFORMAT_END
 95
       32
302
GRIDFORMAT
  1
GRIDFORMAT_BEGIN
 90
        0
 91
        1
 62
     0
 92
       -2
340
0
 93
        0
 40
0.045
309
GRIDFORMAT_END
309
TABLEFORMAT_END
  1
CELLSTYLE_BEGIN
 90
        2
 91
        1
300
_HEADER
309
CELLSTYLE_END
300
CELLSTYLE
  1
TABLEFORMAT_BEGIN
 90
        5
170
     1
 91
        0
 92
        0
 62
   257
 93
        1
300
CONTENTFORMAT
  1
CONTENTFORMAT_BEGIN
 90
        0
 91
        0
 92
      512
 93
        0
300

 40
0.0
140
1.0
 94
        2
 62
     0
340
17
144
0.18
309
CONTENTFORMAT_END
171
     0
 94
        6
 95
        1
302
GRIDFORMAT
  1
GRIDFORMAT_BEGIN
 90
        0
 91
        1
 62
     0
 92
       -2
340
0
 93
        0
 40
0.045
309
GRIDFORMAT_END
 95
        2
302
GRIDFORMAT
  1
GRIDFORMAT_BEGIN
 90
        0
 91
        1
 62
     0
 92
       -2
340
0
 93
        0
 40
0.045
309
GRIDFORMAT_END
 95
        4
302
GRIDFORMAT
  1
GRIDFORMAT_BEGIN
 90
        0
 91
        1
 62
     0
 92
       -2
340
0
 93
        0
 40
0.045
309
GRIDFORMAT_END
 95
        8
302
GRIDFORMAT
  1
GRIDFORMAT_BEGIN
 90
        0
 91
        1
 62
     0
 92
       -2
340
0
 93
        0
 40
0.045
309
GRIDFORMAT_END
 95
       16
302
GRIDFORMAT
  1
GRIDFORMAT_BEGIN
 90
        0
 91
        1
 62
     0
 92
       -2
340
0
 93
        0
 40
0.045
309
GRIDFORMAT_END
 95
       32
302
GRIDFORMAT
  1
GRIDFORMAT_BEGIN
 90
        0
 91
        1
 62
     0
 92
       -2
340
0
 93
        0
 40
0.045
309
GRIDFORMAT_END
309
TABLEFORMAT_END
  1
CELLSTYLE_BEGIN
 90
        3
 91
        2
300
_DATA
309
CELLSTYLE_END
  0
XRECORD
  5
47B
102
{ACAD_REACTORS
330
472
102
}
330
472
100
AcDbXrecord
280
     1
102
ACAD_ROUNDTRIP_PRE2007_TABLESTYLE
 90
      512
 91
        0
  1

 92
      512
 93
        0
  2

 94
      512
 95
        0
  3

  0
ENDSEC
  0
EOF
