  0
SECTION
  2
HEADER
  9
$ACADVER
  1
AC1018
  9
$ACADMAINTVER
 70
   104
  9
$DWGCODEPAGE
  3
ANSI_1252
  9
$LASTSAVEDBY
  1
EARL
  9
$INSBASE
 10
0.0
 20
0.0
 30
0.0
  9
$EXTMIN
 10
-3.685288808835323
 20
0.862833
 30
0.0
  9
$EXTMAX
 10
3.542831999999999
 20
2.116211999999999
 30
0.0
  9
$LIMMIN
 10
0.0
 20
0.0
  9
$LIMMAX
 10
0.0
 20
0.0
  9
$ORTHOMODE
 70
     0
  9
$REGENMODE
 70
     1
  9
$FILLMODE
 70
     1
  9
$QTEXTMODE
 70
     0
  9
$MIRRTEXT
 70
     1
  9
$LTSCALE
 40
1.0
  9
$ATTMODE
 70
     1
  9
$TEXTSIZE
 40
0.0
  9
$TRACEWID
 40
0.05
  9
$TEXTSTYLE
  7
Standard
  9
$CLAYER
  8
0
  9
$CELTYPE
  6
Continuous
  9
$CECOLOR
 62
   256
  9
$CELTSCALE
 40
1.0
  9
$DISPSILH
 70
     0
  9
$DIMSCALE
 40
1.0
  9
$DIMASZ
 40
0.18
  9
$DIMEXO
 40
0.0625
  9
$DIMDLI
 40
0.38
  9
$DIMRND
 40
0.0
  9
$DIMDLE
 40
0.0
  9
$DIMEXE
 40
0.18
  9
$DIMTP
 40
0.0
  9
$DIMTM
 40
0.0
  9
$DIMTXT
 40
0.18
  9
$DIMCEN
 40
0.09
  9
$DIMTSZ
 40
0.0
  9
$DIMTOL
 70
     0
  9
$DIMLIM
 70
     0
  9
$DIMTIH
 70
     1
  9
$DIMTOH
 70
     1
  9
$DIMSE1
 70
     0
  9
$DIMSE2
 70
     0
  9
$DIMTAD
 70
     0
  9
$DIMZIN
 70
     0
  9
$DIMBLK
  1

  9
$DIMASO
 70
     1
  9
$DIMSHO
 70
     1
  9
$DIMPOST
  1

  9
$DIMAPOST
  1

  9
$DIMALT
 70
     0
  9
$DIMALTD
 70
     2
  9
$DIMALTF
 40
25.4
  9
$DIMLFAC
 40
1.0
  9
$DIMTOFL
 70
     0
  9
$DIMTVP
 40
0.0
  9
$DIMTIX
 70
     0
  9
$DIMSOXD
 70
     0
  9
$DIMSAH
 70
     0
  9
$DIMBLK1
  1

  9
$DIMBLK2
  1

  9
$DIMSTYLE
  2
Standard
  9
$DIMCLRD
 70
     0
  9
$DIMCLRE
 70
     0
  9
$DIMCLRT
 70
     0
  9
$DIMTFAC
 40
1.0
  9
$DIMGAP
 40
0.09
  9
$DIMJUST
 70
     0
  9
$DIMSD1
 70
     0
  9
$DIMSD2
 70
     0
  9
$DIMTOLJ
 70
     1
  9
$DIMTZIN
 70
     0
  9
$DIMALTZ
 70
     0
  9
$DIMALTTZ
 70
     0
  9
$DIMUPT
 70
     0
  9
$DIMDEC
 70
     4
  9
$DIMTDEC
 70
     4
  9
$DIMALTU
 70
     2
  9
$DIMALTTD
 70
     2
  9
$DIMTXSTY
  7
Standard
  9
$DIMAUNIT
 70
     0
  9
$DIMADEC
 70
     0
  9
$DIMALTRND
 40
0.0
  9
$DIMAZIN
 70
     0
  9
$DIMDSEP
 70
    46
  9
$DIMATFIT
 70
     0
  9
$DIMFRAC
 70
     0
  9
$DIMLDRBLK
  1

  9
$DIMLUNIT
 70
     2
  9
$DIMLWD
 70
    -2
  9
$DIMLWE
 70
    -2
  9
$DIMTMOVE
 70
     0
  9
$LUNITS
 70
     2
  9
$LUPREC
 70
     4
  9
$SKETCHINC
 40
0.1
  9
$FILLETRAD
 40
0.0
  9
$AUNITS
 70
     0
  9
$AUPREC
 70
     0
  9
$MENU
  1
acad
  9
$ELEVATION
 40
0.0
  9
$PELEVATION
 40
0.0
  9
$THICKNESS
 40
0.0
  9
$LIMCHECK
 70
     0
  9
$CHAMFERA
 40
0.0
  9
$CHAMFERB
 40
0.0
  9
$CHAMFERC
 40
0.0
  9
$CHAMFERD
 40
0.0
  9
$SKPOLY
 70
     0
  9
$TDCREATE
 40
2454503.654048935
  9
$TDUCREATE
 40
2454503.820715602
  9
$TDUPDATE
 40
2455103.869029757
  9
$TDUUPDATE
 40
2455104.035696423
  9
$TDINDWG
 40
0.0017597338
  9
$TDUSRTIMER
 40
0.0017597338
  9
$USRTIMER
 70
     1
  9
$ANGBASE
 50
0.0
  9
$ANGDIR
 70
     0
  9
$PDMODE
 70
     0
  9
$PDSIZE
 40
0.0
  9
$PLINEWID
 40
0.0
  9
$SPLFRAME
 70
     0
  9
$SPLINETYPE
 70
     6
  9
$SPLINESEGS
 70
     8
  9
$HANDSEED
  5
22A
  9
$SURFTAB1
 70
     6
  9
$SURFTAB2
 70
     6
  9
$SURFTYPE
 70
     6
  9
$SURFU
 70
     6
  9
$SURFV
 70
     6
  9
$UCSBASE
  2

  9
$UCSNAME
  2

  9
$UCSORG
 10
0.0
 20
0.0
 30
0.0
  9
$UCSXDIR
 10
1.0
 20
0.0
 30
0.0
  9
$UCSYDIR
 10
0.0
 20
1.0
 30
0.0
  9
$UCSORTHOREF
  2

  9
$UCSORTHOVIEW
 70
     0
  9
$UCSORGTOP
 10
0.0
 20
0.0
 30
0.0
  9
$UCSORGBOTTOM
 10
0.0
 20
0.0
 30
0.0
  9
$UCSORGLEFT
 10
0.0
 20
0.0
 30
0.0
  9
$UCSORGRIGHT
 10
0.0
 20
0.0
 30
0.0
  9
$UCSORGFRONT
 10
0.0
 20
0.0
 30
0.0
  9
$UCSORGBACK
 10
0.0
 20
0.0
 30
0.0
  9
$PUCSBASE
  2

  9
$PUCSNAME
  2

  9
$PUCSORG
 10
0.0
 20
0.0
 30
0.0
  9
$PUCSXDIR
 10
1.0
 20
0.0
 30
0.0
  9
$PUCSYDIR
 10
0.0
 20
1.0
 30
0.0
  9
$PUCSORTHOREF
  2

  9
$PUCSORTHOVIEW
 70
     0
  9
$PUCSORGTOP
 10
0.0
 20
0.0
 30
0.0
  9
$PUCSORGBOTTOM
 10
0.0
 20
0.0
 30
0.0
  9
$PUCSORGLEFT
 10
0.0
 20
0.0
 30
0.0
  9
$PUCSORGRIGHT
 10
0.0
 20
0.0
 30
0.0
  9
$PUCSORGFRONT
 10
0.0
 20
0.0
 30
0.0
  9
$PUCSORGBACK
 10
0.0
 20
0.0
 30
0.0
  9
$USERI1
 70
     0
  9
$USERI2
 70
     0
  9
$USERI3
 70
     0
  9
$USERI4
 70
     0
  9
$USERI5
 70
     0
  9
$USERR1
 40
0.0
  9
$USERR2
 40
0.0
  9
$USERR3
 40
0.0
  9
$USERR4
 40
0.0
  9
$USERR5
 40
0.0
  9
$WORLDVIEW
 70
     1
  9
$SHADEDGE
 70
     3
  9
$SHADEDIF
 70
    70
  9
$TILEMODE
 70
     0
  9
$MAXACTVP
 70
    16
  9
$PINSBASE
 10
0.0
 20
0.0
 30
0.0
  9
$PLIMCHECK
 70
     0
  9
$PEXTMIN
 10
0.059341209582076
 20
0.120033277675283
 30
-0.0015258207003583
  9
$PEXTMAX
 10
10.38275101745838
 20
7.896178992058739
 30
0.0000000349246037
  9
$PLIMMIN
 10
-0.2500002402958907
 20
-0.2499999962453767
  9
$PLIMMAX
 10
10.74999951940821
 20
8.249999763458731
  9
$UNITMODE
 70
     0
  9
$VISRETAIN
 70
     0
  9
$PLINEGEN
 70
     1
  9
$PSLTSCALE
 70
     0
  9
$TREEDEPTH
 70
  3020
  9
$CMLSTYLE
  2
Standard
  9
$CMLJUST
 70
     0
  9
$CMLSCALE
 40
1.0
  9
$PROXYGRAPHICS
 70
     0
  9
$MEASUREMENT
 70
     0
  9
$CELWEIGHT
370
     0
  9
$ENDCAPS
280
     0
  9
$JOINSTYLE
280
     0
  9
$LWDISPLAY
290
     0
  9
$INSUNITS
 70
     0
  9
$HYPERLINKBASE
  1

  9
$STYLESHEET
  1

  9
$XEDIT
290
     1
  9
$CEPSNTYPE
380
     0
  9
$PSTYLEMODE
290
     1
  9
$FINGERPRINTGUID
  2

  9
$VERSIONGUID
  2
{EEDAEB63-2699-4636-A296-E7CB4F2386C8}
  9
$EXTNAMES
290
     1
  9
$PSVPSCALE
 40
0.0
  9
$OLESTARTUP
290
     0
  9
$SORTENTS
280
   127
  9
$INDEXCTL
280
     0
  9
$HIDETEXT
280
     0
  9
$XCLIPFRAME
290
     0
  9
$HALOGAP
280
     0
  9
$OBSCOLOR
 70
   257
  9
$OBSLTYPE
280
     0
  9
$INTERSECTIONDISPLAY
280
     0
  9
$INTERSECTIONCOLOR
 70
   257
  9
$DIMASSOC
280
     1
  9
$PROJECTNAME
  1

  0
ENDSEC
  0
SECTION
  2
CLASSES
  0
CLASS
  1
IMAGE
  2
AcDbRasterImage
  3
ISM
 90
     2175
 91
        0
280
     0
281
     1
  0
CLASS
  1
DICTIONARYVAR
  2
AcDbDictionaryVar
  3
ObjectDBX Classes
 90
        0
 91
        7
280
     0
281
     0
  0
CLASS
  1
RASTERVARIABLES
  2
AcDbRasterVariables
  3
ISM
 90
        0
 91
        0
280
     0
281
     0
  0
CLASS
  1
IMAGEDEF
  2
AcDbRasterImageDef
  3
ISM
 90
        0
 91
        0
280
     0
281
     0
  0
CLASS
  1
IMAGEDEF_REACTOR
  2
AcDbRasterImageDefReactor
  3
ISM
 90
        1
 91
        0
280
     0
281
     0
  0
CLASS
  1
IDBUFFER
  2
AcDbIdBuffer
  3
ObjectDBX Classes
 90
        0
 91
        0
280
     0
281
     0
  0
CLASS
  1
SPATIAL_FILTER
  2
AcDbSpatialFilter
  3
ObjectDBX Classes
 90
        0
 91
        0
280
     0
281
     0
  0
CLASS
  1
SORTENTSTABLE
  2
AcDbSortentsTable
  3
ObjectDBX Classes
 90
        0
 91
        1
280
     0
281
     0
  0
CLASS
  1
LAYER_INDEX
  2
AcDbLayerIndex
  3
ObjectDBX Classes
 90
        0
 91
        0
280
     0
281
     0
  0
CLASS
  1
SPATIAL_INDEX
  2
AcDbSpatialIndex
  3
ObjectDBX Classes
 90
        0
 91
        0
280
     0
281
     0
  0
CLASS
  1
OBJECT_PTR
  2
CAseDLPNTableRecord
  3
ASE-LPNTableRecord
 90
        1
 91
        0
280
     0
281
     0
  0
CLASS
  1
PLOTSETTINGS
  2
AcDbPlotSettings
  3
ObjectDBX Classes
 90
        0
 91
        0
280
     0
281
     0
  0
CLASS
  1
ACDBDICTIONARYWDFLT
  2
AcDbDictionaryWithDefault
  3
ObjectDBX Classes
 90
        0
 91
        1
280
     0
281
     0
  0
CLASS
  1
WIPEOUT
  2
AcDbWipeout
  3
"WipeOut|Product Desc: Object Enabler for WipeOut entity                        |Company: Autodesk, Inc.                        |WEB Address: www.autodesk.com"
 90
     2175
 91
        0
280
     0
281
     1
  0
CLASS
  1
WIPEOUTVARIABLES
  2
AcDbWipeoutVariables
  3
"WipeOut|Product Desc:     WipeOut Dbx Application|Company:          Autodesk, Inc.|WEB Address:      www.autodesk.com"
 90
        0
 91
        1
280
     0
281
     0
  0
CLASS
  1
RTEXT
  2
RText
  3
RText|AutoCAD Express Tool|expresstools@autodesk.com
 90
     3071
 91
        0
280
     0
281
     1
  0
CLASS
  1
ARCALIGNEDTEXT
  2
AcDbArcAlignedText
  3
ATEXT|AutoCAD Express Tool|expresstools@autodesk.com
 90
        0
 91
        0
280
     0
281
     1
  0
CLASS
  1
TABLESTYLE
  2
AcDbTableStyle
  3
ObjectDBX Classes
 90
     4095
 91
        1
280
     0
281
     0
  0
CLASS
  1
MATERIAL
  2
AcDbMaterial
  3
ObjectDBX Classes
 90
     1153
 91
        3
280
     0
281
     0
  0
CLASS
  1
VISUALSTYLE
  2
AcDbVisualStyle
  3
ObjectDBX Classes
 90
     4095
 91
       16
280
     0
281
     0
  0
CLASS
  1
SCALE
  2
AcDbScale
  3
ObjectDBX Classes
 90
     1153
 91
       33
280
     0
281
     0
  0
CLASS
  1
MLEADERSTYLE
  2
AcDbMLeaderStyle
  3
ACDB_MLEADERSTYLE_CLASS
 90
     4095
 91
        1
280
     0
281
     0
  0
CLASS
  1
CELLSTYLEMAP
  2
AcDbCellStyleMap
  3
ObjectDBX Classes
 90
     1152
 91
        3
280
     0
281
     0
  0
ENDSEC
  0
SECTION
  2
TABLES
  0
TABLE
  2
VPORT
  5
7
330
0
100
AcDbSymbolTable
 70
     1
  0
VPORT
  5
18B
330
7
100
AcDbSymbolTableRecord
100
AcDbViewportTableRecord
  2
*Active
 70
     0
 10
0.0
 20
0.0
 11
1.0
 21
1.0
 12
9.243102686597246
 22
4.579183999999999
 13
0.0
 23
0.0
 14
1.0
 24
1.0
 15
0.0
 25
0.0
 16
0.0
 26
0.0
 36
1.0
 17
0.0
 27
0.0
 37
0.0
 40
9.158369
 41
1.267665952890792
 42
50.0
 43
0.0
 44
0.0
 50
0.0
 51
0.0
 71
     0
 72
   100
 73
     1
 74
     1
 75
     0
 76
     0
 77
     0
 78
     0
281
     0
 65
     0
110
0.0
120
0.0
130
0.0
111
1.0
121
0.0
131
0.0
112
0.0
122
1.0
132
0.0
 79
     0
146
0.0
  0
ENDTAB
  0
TABLE
  2
LTYPE
  5
4
330
0
100
AcDbSymbolTable
 70
     5
  0
LTYPE
  5
11
330
4
100
AcDbSymbolTableRecord
100
AcDbLinetypeTableRecord
  2
ByBlock
 70
     0
  3

 72
    65
 73
     0
 40
0.0
  0
LTYPE
  5
12
330
4
100
AcDbSymbolTableRecord
100
AcDbLinetypeTableRecord
  2
ByLayer
 70
     0
  3

 72
    65
 73
     0
 40
0.0
  0
LTYPE
  5
13
330
4
100
AcDbSymbolTableRecord
100
AcDbLinetypeTableRecord
  2
Continuous
 70
     0
  3
Solid line
 72
    65
 73
     0
 40
0.0
  0
LTYPE
  5
24
330
4
100
AcDbSymbolTableRecord
100
AcDbLinetypeTableRecord
  2
solid
 70
     0
  3

 72
    65
 73
     0
 40
0.0
  0
LTYPE
  5
25
330
4
100
AcDbSymbolTableRecord
100
AcDbLinetypeTableRecord
  2
dashed
 70
     0
  3

 72
    65
 73
     0
 40
0.0
  0
LTYPE
  5
26
330
4
100
AcDbSymbolTableRecord
100
AcDbLinetypeTableRecord
  2
center
 70
     0
  3

 72
    65
 73
     0
 40
0.0
  0
ENDTAB
  0
TABLE
  2
LAYER
  5
2
330
0
100
AcDbSymbolTable
 70
     2
  0
LAYER
  5
14
102
{ACAD_XDICTIONARY
360
1EF
102
}
330
2
100
AcDbSymbolTableRecord
100
AcDbLayerTableRecord
  2
0
 70
     0
 62
     7
  6
Continuous
370
    -3
390
1D
  0
LAYER
  5
27
102
{ACAD_XDICTIONARY
360
1F1
102
}
330
2
100
AcDbSymbolTableRecord
100
AcDbLayerTableRecord
  2
1
 70
     0
 62
     1
  6
solid
370
    -3
390
1D
  0
ENDTAB
  0
TABLE
  2
STYLE
  5
3
330
0
100
AcDbSymbolTable
 70
     2
  0
STYLE
  5
17
330
3
100
AcDbSymbolTableRecord
100
AcDbTextStyleTableRecord
  2
Standard
 70
     0
 40
0.0
 41
1.0
 50
0.0
 71
     0
 42
0.0
  3
txt
  4

  0
ENDTAB
  0
TABLE
  2
VIEW
  5
5
330
0
100
AcDbSymbolTable
 70
     0
  0
ENDTAB
  0
TABLE
  2
UCS
  5
6
330
0
100
AcDbSymbolTable
 70
     0
  0
ENDTAB
  0
TABLE
  2
APPID
  5
8
330
0
100
AcDbSymbolTable
 70
     4
  0
APPID
  5
16
330
8
100
AcDbSymbolTableRecord
100
AcDbRegAppTableRecord
  2
ACAD
 70
     0
  0
APPID
  5
18F
330
8
100
AcDbSymbolTableRecord
100
AcDbRegAppTableRecord
  2
ACAD_PSEXT
 70
     0
  0
APPID
  5
1B8
330
8
100
AcDbSymbolTableRecord
100
AcDbRegAppTableRecord
  2
DCO15
 70
     0
  0
APPID
  5
1DF
330
8
100
AcDbSymbolTableRecord
100
AcDbRegAppTableRecord
  2
ACAD_MLEADERVER
 70
     0
  0
ENDTAB
  0
TABLE
  2
DIMSTYLE
  5
9
330
0
100
AcDbSymbolTable
 70
     3
100
AcDbDimStyleTable
 71
     1
340
18
  0
DIMSTYLE
105
18
102
{ACAD_REACTORS
330
182
102
}
330
9
100
AcDbSymbolTableRecord
100
AcDbDimStyleTableRecord
  2
Standard
 70
     0
340
17
  0
ENDTAB
  0
TABLE
  2
BLOCK_RECORD
  5
1
330
0
100
AcDbSymbolTable
 70
     4
  0
BLOCK_RECORD
  5
A
102
{ACAD_XDICTIONARY
360
1ED
102
}
330
1
100
AcDbSymbolTableRecord
100
AcDbBlockTableRecord
  2
*MODEL_SPACE
340
20
  0
BLOCK_RECORD
  5
B
330
1
100
AcDbSymbolTableRecord
100
AcDbBlockTableRecord
  2
*PAPER_SPACE
340
21
  0
BLOCK_RECORD
  5
16D
330
1
100
AcDbSymbolTableRecord
100
AcDbBlockTableRecord
  2
*D0
340
0
  0
BLOCK_RECORD
  5
178
330
1
100
AcDbSymbolTableRecord
100
AcDbBlockTableRecord
  2
*D1
340
0
  0
ENDTAB
  0
ENDSEC
  0
SECTION
  2
BLOCKS
  0
BLOCK
  5
D
330
A
100
AcDbEntity
  8
0
100
AcDbBlockBegin
  2
*MODEL_SPACE
 70
     0
 10
0.0
 20
0.0
 30
0.0
  3
*MODEL_SPACE
  1

  0
ENDBLK
  5
E
330
A
100
AcDbEntity
  8
0
100
AcDbBlockEnd
  0
BLOCK
  5
F
330
B
100
AcDbEntity
 67
     1
  8
0
100
AcDbBlockBegin
  2
*PAPER_SPACE
 70
     0
 10
0.0
 20
0.0
 30
0.0
  3
*PAPER_SPACE
  1

  0
ENDBLK
  5
10
330
B
100
AcDbEntity
 67
     1
  8
0
100
AcDbBlockEnd
  0
BLOCK
  5
16E
330
16D
100
AcDbEntity
  8
1
  6
solid
 62
     0
100
AcDbBlockBegin
  2
*D0
 70
     0
 10
0.0
 20
0.0
 30
0.0
  3
*D0
  1

  0
LINE
  5
16F
330
16D
100
AcDbEntity
  8
1
  6
solid
 62
     0
100
AcDbLine
 10
-3.132687999999999
 20
1.188572999999999
 30
0.0
 11
-3.212159
 21
1.188572999999999
 31
0.0
  0
LINE
  5
170
330
16D
100
AcDbEntity
  8
1
  6
solid
 62
     0
100
AcDbLine
 10
-3.022226999999999
 20
1.869759999999999
 30
0.0
 11
-3.212159
 21
1.869759999999999
 31
0.0
  0
LINE
  5
171
330
16D
100
AcDbEntity
  8
1
  6
solid
 62
     0
100
AcDbLine
 10
-3.149659
 20
1.188572999999999
 30
0.0
 11
-3.149659
 21
1.529166999999999
 31
0.0
  0
LINE
  5
172
330
16D
100
AcDbEntity
  8
1
  6
solid
 62
     0
100
AcDbLine
 10
-3.149659
 20
1.869759999999999
 30
0.0
 11
-3.149659
 21
1.529166999999999
 31
0.0
  0
MTEXT
  5
173
330
16D
100
AcDbEntity
  8
1
  6
solid
 62
     0
100
AcDbMText
 10
-3.318165
 20
1.529166999999999
 30
0.0
 40
0.125
 41
0.0
 71
     5
 72
     1
  1
{\H0.125000;11/16}
 73
     1
 44
1.0
  0
SOLID
  5
174
330
16D
100
AcDbEntity
  8
1
  6
solid
 62
     0
100
AcDbTrace
 10
-3.170471
 20
1.230203
 30
0.0
 11
-3.128845999999999
 21
1.230203
 31
0.0
 12
-3.149659
 22
1.188572999999999
 32
0.0
 13
-3.149659
 23
1.188572999999999
 33
0.0
  0
SOLID
  5
175
330
16D
100
AcDbEntity
  8
1
  6
solid
 62
     0
100
AcDbTrace
 10
-3.128845999999999
 20
1.828129999999999
 30
0.0
 11
-3.170471
 21
1.828129999999999
 31
0.0
 12
-3.149659
 22
1.869759999999999
 32
0.0
 13
-3.149659
 23
1.869759999999999
 33
0.0
  0
ENDBLK
  5
176
330
16D
100
AcDbEntity
  8
1
  6
solid
 62
     0
100
AcDbBlockEnd
  0
BLOCK
  5
179
330
178
100
AcDbEntity
  8
1
  6
solid
 62
     0
100
AcDbBlockBegin
  2
*D1
 70
     0
 10
0.0
 20
0.0
 30
0.0
  3
*D1
  1

  0
LINE
  5
17A
330
178
100
AcDbEntity
  8
1
  6
solid
 62
     0
100
AcDbLine
 10
-3.007687999999999
 20
1.063572999999999
 30
0.0
 11
-3.007687999999999
 21
0.862833
 31
0.0
  0
LINE
  5
17B
330
178
100
AcDbEntity
  8
1
  6
solid
 62
     0
100
AcDbLine
 10
-0.757688
 20
1.063572999999999
 30
0.0
 11
-0.757688
 21
0.862833
 31
0.0
  0
LINE
  5
17C
330
178
100
AcDbEntity
  8
1
  6
solid
 62
     0
100
AcDbLine
 10
-3.007687999999999
 20
0.925333
 30
0.0
 11
-1.882688
 21
0.925333
 31
0.0
  0
LINE
  5
17D
330
178
100
AcDbEntity
  8
1
  6
solid
 62
     0
100
AcDbLine
 10
-0.757688
 20
0.925333
 30
0.0
 11
-1.882688
 21
0.925333
 31
0.0
  0
MTEXT
  5
17E
330
178
100
AcDbEntity
  8
1
  6
solid
 62
     0
100
AcDbMText
 10
-1.882688
 20
1.028917999999999
 30
0.0
 40
0.125
 41
0.0
 71
     5
 72
     1
  1
{\H0.125000;2 1/4}
 73
     1
 44
1.0
  0
SOLID
  5
17F
330
178
100
AcDbEntity
  8
1
  6
solid
 62
     0
100
AcDbTrace
 10
-2.966058
 20
0.9461450000000001
 30
0.0
 11
-2.966058
 21
0.9045200000000001
 31
0.0
 12
-3.007687999999999
 22
0.925333
 32
0.0
 13
-3.007687999999999
 23
0.925333
 33
0.0
  0
SOLID
  5
180
330
178
100
AcDbEntity
  8
1
  6
solid
 62
     0
100
AcDbTrace
 10
-0.7993180000000001
 20
0.9045200000000001
 30
0.0
 11
-0.7993180000000001
 21
0.9461450000000001
 31
0.0
 12
-0.757688
 22
0.925333
 32
0.0
 13
-0.757688
 23
0.925333
 33
0.0
  0
ENDBLK
  5
181
330
178
100
AcDbEntity
  8
1
  6
solid
 62
     0
100
AcDbBlockEnd
  0
ENDSEC
  0
SECTION
  2
ENTITIES
  0
LINE
  5
28
330
A
100
AcDbEntity
  8
1
  6
solid
 62
     0
100
AcDbLine
 10
2.959405999999999
 20
1.286580999999999
 30
0.0
 11
2.959405999999999
 21
1.173179999999999
 31
0.0
  0
LINE
  5
29
330
A
100
AcDbEntity
  8
1
  6
solid
 62
     0
100
AcDbLine
 10
1.149513
 20
1.173179999999999
 30
0.0
 11
0.7094060000000001
 21
1.173179999999999
 31
0.0
  0
LINE
  5
2A
330
A
100
AcDbEntity
  8
1
  6
solid
 62
     0
100
AcDbLine
 10
0.7094060000000001
 20
1.173179999999999
 30
0.0
 11
0.7094060000000001
 21
1.822929999999999
 31
0.0
  0
ARC
  5
2B
330
A
100
AcDbEntity
  8
1
  6
solid
 62
     0
100
AcDbCircle
 10
0.879893
 20
1.433672999999999
 30
0.0
 40
0.4249550000000001
100
AcDbArc
 50
82.588237
 51
113.652453
  0
ARC
  5
2C
330
A
100
AcDbEntity
  8
1
  6
solid
 62
     0
100
AcDbCircle
 10
0.702236
 20
-4.099872
 30
0.0
 40
5.959484999999999
100
AcDbArc
 50
71.41444799999999
 51
87.764359
  0
ARC
  5
2D
330
A
100
AcDbEntity
  8
1
  6
solid
 62
     0
100
AcDbCircle
 10
2.428318999999999
 20
0.8845469999999998
 30
0.0
 40
0.6865130000000001
100
AcDbArc
 50
47.114753
 51
75.37611099999999
  0
ARC
  5
2E
330
A
100
AcDbEntity
  8
1
  6
solid
 62
     0
100
AcDbCircle
 10
2.666481
 20
1.171954999999999
 30
0.0
 40
0.314554
100
AcDbArc
 50
21.371115
 51
43.271237
  0
LINE
  5
2F
330
A
100
AcDbEntity
  8
1
  6
solid
 62
     0
100
AcDbLine
 10
1.243263
 20
1.266929999999999
 30
0.0
 11
2.055763
 21
1.266929999999999
 31
0.0
  0
ARC
  5
30
330
A
100
AcDbEntity
  8
1
  6
solid
 62
     0
100
AcDbCircle
 10
1.243263
 20
1.173179999999999
 30
0.0
 40
0.09375
100
AcDbArc
 50
90.0
 51
180.0
  0
ARC
  5
31
330
A
100
AcDbEntity
  8
1
  6
solid
 62
     0
100
AcDbCircle
 10
2.055763
 20
1.173179999999999
 30
0.0
 40
0.09375
100
AcDbArc
 50
0.0
 51
90.0
  0
LINE
  5
32
330
A
100
AcDbEntity
  8
1
  6
solid
 62
     0
100
AcDbLine
 10
2.149513
 20
1.173179999999999
 30
0.0
 11
2.959405999999999
 21
1.173179999999999
 31
0.0
  0
LINE
  5
33
330
A
100
AcDbEntity
  8
1
  6
solid
 62
     0
100
AcDbLine
 10
-0.757688
 20
1.301973999999999
 30
0.0
 11
-0.757688
 21
1.188572999999999
 31
0.0
  0
LINE
  5
34
330
A
100
AcDbEntity
  8
1
  6
solid
 62
     0
100
AcDbLine
 10
-2.567579999999999
 20
1.188572999999999
 30
0.0
 11
-3.007687999999999
 21
1.188572999999999
 31
0.0
  0
LINE
  5
35
330
A
100
AcDbEntity
  8
1
  6
solid
 62
     0
100
AcDbLine
 10
-3.007687999999999
 20
1.188572999999999
 30
0.0
 11
-3.007687999999999
 21
1.838322999999999
 31
0.0
  0
ARC
  5
36
330
A
100
AcDbEntity
  8
1
  6
solid
 62
     0
100
AcDbCircle
 10
-2.837200999999999
 20
1.449066
 30
0.0
 40
0.4249550000000001
100
AcDbArc
 50
82.588237
 51
113.652453
  0
ARC
  5
37
330
A
100
AcDbEntity
  8
1
  6
solid
 62
     0
100
AcDbCircle
 10
-3.014858
 20
-4.084478999999999
 30
0.0
 40
5.959484999999999
100
AcDbArc
 50
71.41444799999999
 51
87.764359
  0
ARC
  5
38
330
A
100
AcDbEntity
  8
1
  6
solid
 62
     0
100
AcDbCircle
 10
-1.288775
 20
0.8999399999999999
 30
0.0
 40
0.6865130000000001
100
AcDbArc
 50
47.114753
 51
75.37611099999999
  0
ARC
  5
39
330
A
100
AcDbEntity
  8
1
  6
solid
 62
     0
100
AcDbCircle
 10
-1.050613
 20
1.187347999999999
 30
0.0
 40
0.314554
100
AcDbArc
 50
21.371115
 51
43.271237
  0
LINE
  5
3A
330
A
100
AcDbEntity
  8
1
  6
solid
 62
     0
100
AcDbLine
 10
-2.473829999999999
 20
1.282322999999999
 30
0.0
 11
-1.661329999999999
 21
1.282322999999999
 31
0.0
  0
ARC
  5
3B
330
A
100
AcDbEntity
  8
1
  6
solid
 62
     0
100
AcDbCircle
 10
-2.473829999999999
 20
1.188572999999999
 30
0.0
 40
0.09375
100
AcDbArc
 50
90.0
 51
180.0
  0
ARC
  5
3C
330
A
100
AcDbEntity
  8
1
  6
solid
 62
     0
100
AcDbCircle
 10
-1.661329999999999
 20
1.188572999999999
 30
0.0
 40
0.09375
100
AcDbArc
 50
0.0
 51
90.0
  0
LINE
  5
3D
330
A
100
AcDbEntity
  8
1
  6
solid
 62
     0
100
AcDbLine
 10
-1.567579999999999
 20
1.188572999999999
 30
0.0
 11
-0.757688
 21
1.188572999999999
 31
0.0
  0
LINE
  5
3E
330
A
100
AcDbEntity
  8
1
  6
solid
 62
     0
100
AcDbLine
 10
3.542831999999999
 20
1.544163999999999
 30
0.0
 11
3.542831999999999
 21
1.430762999999999
 31
0.0
  0
ARC
  5
3F
330
A
100
AcDbEntity
  8
1
  6
solid
 62
     0
100
AcDbCircle
 10
1.463318
 20
1.691257
 30
0.0
 40
0.4249550000000001
100
AcDbArc
 50
82.588237
 51
113.652453
  0
ARC
  5
40
330
A
100
AcDbEntity
  8
1
  6
solid
 62
     0
100
AcDbCircle
 10
1.285661
 20
-3.842287999999999
 30
0.0
 40
5.959484999999999
100
AcDbArc
 50
71.41444799999999
 51
87.764359
  0
ARC
  5
41
330
A
100
AcDbEntity
  8
1
  6
solid
 62
     0
100
AcDbCircle
 10
3.011743999999999
 20
1.142129999999999
 30
0.0
 40
0.6865130000000001
100
AcDbArc
 50
47.114753
 51
75.37611099999999
  0
ARC
  5
42
330
A
100
AcDbEntity
  8
1
  6
solid
 62
     0
100
AcDbCircle
 10
3.249906
 20
1.429538999999999
 30
0.0
 40
0.314554
100
AcDbArc
 50
21.371115
 51
43.271237
  0
LINE
  5
43
330
A
100
AcDbEntity
  8
1
  6
solid
 62
     0
100
AcDbLine
 10
0.7094060000000001
 20
1.822929999999999
 30
0.0
 11
1.292831999999999
 21
2.080513999999999
 31
0.0
  0
LINE
  5
44
330
A
100
AcDbEntity
  8
1
  6
solid
 62
     0
100
AcDbLine
 10
2.959405999999999
 20
1.173179999999999
 30
0.0
 11
3.542831999999999
 21
1.430762999999999
 31
0.0
  0
LINE
  5
45
330
A
100
AcDbEntity
  8
1
  6
solid
 62
     0
100
AcDbLine
 10
2.959405999999999
 20
1.286580999999999
 30
0.0
 11
3.542831999999999
 21
1.544163999999999
 31
0.0
  0
LINE
  5
46
330
A
100
AcDbEntity
  8
1
  6
solid
 62
     0
100
AcDbLine
 10
1.310124
 20
1.463492
 30
0.0
 11
1.310124
 21
1.468121
 31
0.0
  0
SPLINE
  5
47
330
A
100
AcDbEntity
  8
1
  6
solid
 62
     0
100
AcDbSpline
210
0.0
220
0.0
230
1.0
 70
     8
 71
     2
 72
     6
 73
     3
 74
     0
 42
0.0000000001
 43
0.0000000001
 40
0.0
 40
0.0
 40
0.0
 40
1.0
 40
1.0
 40
1.0
 10
1.310124175249317
 20
1.468121435999687
 30
0.0
 10
1.320294545619688
 20
1.468121435999687
 30
0.0
 10
1.324797755496231
 20
1.472766868098452
 30
0.0
  0
SPLINE
  5
48
330
A
100
AcDbEntity
  8
1
  6
solid
 62
     0
100
AcDbSpline
210
0.0
220
0.0
230
1.0
 70
     8
 71
     2
 72
     7
 73
     4
 74
     0
 42
0.0000000001
 43
0.0000000001
 40
0.0
 40
0.0
 40
0.0
 40
1.0
 40
2.0
 40
2.0
 40
2.0
 10
1.324797755496231
 20
1.472766868098452
 30
0.0
 10
1.326941459199935
 20
1.474989584147835
 30
0.0
 10
1.329269360434502
 20
1.483679954518205
 30
0.0
 10
1.329269360434502
 20
1.492217732295983
 30
0.0
  0
LINE
  5
49
330
A
100
AcDbEntity
  8
1
  6
solid
 62
     0
100
AcDbLine
 10
1.329269
 20
1.492218
 30
0.0
 11
1.329269
 21
1.559170999999999
 31
0.0
  0
SPLINE
  5
4A
330
A
100
AcDbEntity
  8
1
  6
solid
 62
     0
100
AcDbSpline
210
0.0
220
0.0
230
1.0
 70
     8
 71
     2
 72
     7
 73
     4
 74
     0
 42
0.0000000001
 43
0.0000000001
 40
0.0
 40
0.0
 40
0.0
 40
1.0
 40
2.0
 40
2.0
 40
2.0
 10
1.329269360434502
 20
1.559170818715736
 30
0.0
 10
1.329269360434502
 20
1.568430077974996
 30
0.0
 10
1.32684664438512
 20
1.5767150162466
 30
0.0
 10
1.324013064138206
 20
1.579469584147835
 30
0.0
  0
SPLINE
  5
4B
330
A
100
AcDbEntity
  8
1
  6
solid
 62
     0
100
AcDbSpline
210
0.0
220
0.0
230
1.0
 70
     8
 71
     2
 72
     7
 73
     4
 74
     0
 42
0.0000000001
 43
0.0000000001
 40
0.0
 40
0.0
 40
0.0
 40
1.0
 40
2.0
 40
2.0
 40
2.0
 10
1.324013064138206
 20
1.579469584147835
 30
0.0
 10
1.322011582656725
 20
1.581376250814502
 30
0.0
 10
1.316170595002404
 20
1.583219707604625
 30
0.0
 10
1.310124175249317
 20
1.583893781678699
 30
0.0
  0
LINE
  5
4C
330
A
100
AcDbEntity
  8
1
  6
solid
 62
     0
100
AcDbLine
 10
1.310124
 20
1.583894
 30
0.0
 11
1.310124
 21
1.588492
 31
0.0
  0
LINE
  5
4D
330
A
100
AcDbEntity
  8
1
  6
solid
 62
     0
100
AcDbLine
 10
1.310124
 20
1.588492
 30
0.0
 11
1.371188999999999
 21
1.588492
 31
0.0
  0
LINE
  5
4E
330
A
100
AcDbEntity
  8
1
  6
solid
 62
     0
100
AcDbLine
 10
1.371188999999999
 20
1.588492
 30
0.0
 11
1.371188999999999
 21
1.583972999999999
 31
0.0
  0
SPLINE
  5
4F
330
A
100
AcDbEntity
  8
1
  6
solid
 62
     0
100
AcDbSpline
210
0.0
220
0.0
230
1.0
 70
     8
 71
     2
 72
     7
 73
     4
 74
     0
 42
0.0000000001
 43
0.0000000001
 40
0.0
 40
0.0
 40
0.0
 40
1.0
 40
2.0
 40
2.0
 40
2.0
 10
1.371188866607342
 20
1.583972794024378
 30
0.0
 10
1.363852076483885
 20
1.583188102666353
 30
0.0
 10
1.358953804878947
 20
1.581518473036724
 30
0.0
 10
1.356278249323391
 20
1.579406374271292
 30
0.0
  0
SPLINE
  5
50
330
A
100
AcDbEntity
  8
1
  6
solid
 62
     0
100
AcDbSpline
210
0.0
220
0.0
230
1.0
 70
     8
 71
     2
 72
     7
 73
     4
 74
     0
 42
0.0000000001
 43
0.0000000001
 40
0.0
 40
0.0
 40
0.0
 40
1.0
 40
2.0
 40
2.0
 40
2.0
 10
1.356278249323391
 20
1.579406374271292
 30
0.0
 10
1.354324175249317
 20
1.576952053283638
 30
0.0
 10
1.352417508582651
 20
1.568509090320675
 30
0.0
 10
1.352417508582651
 20
1.55854415204907
 30
0.0
  0
LINE
  5
51
330
A
100
AcDbEntity
  8
1
  6
solid
 62
     0
100
AcDbLine
 10
1.352418
 20
1.558544
 30
0.0
 11
1.352418
 21
1.506717
 31
0.0
  0
SPLINE
  5
52
330
A
100
AcDbEntity
  8
1
  6
solid
 62
     0
100
AcDbSpline
210
0.0
220
0.0
230
1.0
 70
     8
 71
     2
 72
     7
 73
     4
 74
     0
 42
0.0000000001
 43
0.0000000001
 40
0.0
 40
0.0
 40
0.0
 40
1.0
 40
2.0
 40
2.0
 40
2.0
 10
1.352417508582651
 20
1.506717485382403
 30
0.0
 10
1.352417508582651
 20
1.494356003900921
 30
0.0
 10
1.353223434508577
 20
1.4825950162466
 30
0.0
 10
1.354735039446848
 20
1.479508596493514
 30
0.0
  0
SPLINE
  5
53
330
A
100
AcDbEntity
  8
1
  6
solid
 62
     0
100
AcDbSpline
210
0.0
220
0.0
230
1.0
 70
     8
 71
     2
 72
     7
 73
     4
 74
     0
 42
0.0000000001
 43
0.0000000001
 40
0.0
 40
0.0
 40
0.0
 40
1.0
 40
2.0
 40
2.0
 40
2.0
 10
1.354735039446848
 20
1.479508596493514
 30
0.0
 10
1.35783726166907
 20
1.473146127357711
 30
0.0
 10
1.36857652092833
 20
1.468121435999687
 30
0.0
 10
1.377851582656725
 20
1.468121435999687
 30
0.0
  0
SPLINE
  5
54
330
A
100
AcDbEntity
  8
1
  6
solid
 62
     0
100
AcDbSpline
210
0.0
220
0.0
230
1.0
 70
     8
 71
     2
 72
     7
 73
     4
 74
     0
 42
0.0000000001
 43
0.0000000001
 40
0.0
 40
0.0
 40
0.0
 40
1.0
 40
2.0
 40
2.0
 40
2.0
 10
1.377851582656725
 20
1.468121435999687
 30
0.0
 10
1.38841701475549
 20
1.468121435999687
 30
0.0
 10
1.402353311051787
 20
1.473272547110798
 30
0.0
 10
1.406856520928329
 20
1.479113534765119
 30
0.0
  0
SPLINE
  5
55
330
A
100
AcDbEntity
  8
1
  6
solid
 62
     0
100
AcDbSpline
210
0.0
220
0.0
230
1.0
 70
     8
 71
     2
 72
     7
 73
     4
 74
     0
 42
0.0000000001
 43
0.0000000001
 40
0.0
 40
0.0
 40
0.0
 40
1.0
 40
2.0
 40
2.0
 40
2.0
 10
1.406856520928329
 20
1.479113534765119
 30
0.0
 10
1.409895533274009
 20
1.482721435999687
 30
0.0
 10
1.413535039446848
 20
1.492986621184872
 30
0.0
 10
1.415878743150552
 20
1.502451312542897
 30
0.0
  0
LINE
  5
56
330
A
100
AcDbEntity
  8
1
  6
solid
 62
     0
100
AcDbLine
 10
1.415879
 20
1.502450999999999
 30
0.0
 11
1.421862
 21
1.502118999999999
 31
0.0
  0
LINE
  5
57
330
A
100
AcDbEntity
  8
1
  6
solid
 62
     0
100
AcDbLine
 10
1.421862
 20
1.502118999999999
 30
0.0
 11
1.421862
 21
1.463492
 31
0.0
  0
LINE
  5
58
330
A
100
AcDbEntity
  8
1
  6
solid
 62
     0
100
AcDbLine
 10
1.310124
 20
1.463492
 30
0.0
 11
1.421862
 21
1.463492
 31
0.0
  0
LINE
  5
59
330
A
100
AcDbEntity
  8
1
  6
solid
 62
     0
100
AcDbLine
 10
1.502839999999999
 20
1.463492
 30
0.0
 11
1.429581999999999
 21
1.463492
 31
0.0
  0
LINE
  5
5A
330
A
100
AcDbEntity
  8
1
  6
solid
 62
     0
100
AcDbLine
 10
1.429581999999999
 20
1.463492
 30
0.0
 11
1.429581999999999
 21
1.467020999999999
 31
0.0
  0
SPLINE
  5
5B
330
A
100
AcDbEntity
  8
1
  6
solid
 62
     0
100
AcDbSpline
210
0.0
220
0.0
230
1.0
 70
     8
 71
     2
 72
     7
 73
     4
 74
     0
 42
0.0000000001
 43
0.0000000001
 40
0.0
 40
0.0
 40
0.0
 40
1.0
 40
2.0
 40
2.0
 40
2.0
 10
1.429581953027095
 20
1.467020695258946
 30
0.0
 10
1.440763681422157
 20
1.477475510073761
 30
0.0
 10
1.462668866607342
 20
1.501445386616971
 30
0.0
 10
1.47041652092833
 20
1.512247855752774
 30
0.0
  0
SPLINE
  5
5C
330
A
100
AcDbEntity
  8
1
  6
solid
 62
     0
100
AcDbSpline
210
0.0
220
0.0
230
1.0
 70
     8
 71
     2
 72
     7
 73
     4
 74
     0
 42
0.0000000001
 43
0.0000000001
 40
0.0
 40
0.0
 40
0.0
 40
1.0
 40
2.0
 40
2.0
 40
2.0
 10
1.47041652092833
 20
1.512247855752774
 30
0.0
 10
1.481329607348083
 20
1.527506127357711
 30
0.0
 10
1.491310348088823
 20
1.549221682913267
 30
0.0
 10
1.491310348088823
 20
1.558528349579934
 30
0.0
  0
SPLINE
  5
5D
330
A
100
AcDbEntity
  8
1
  6
solid
 62
     0
100
AcDbSpline
210
0.0
220
0.0
230
1.0
 70
     8
 71
     2
 72
     6
 73
     3
 74
     0
 42
0.0000000001
 43
0.0000000001
 40
0.0
 40
0.0
 40
0.0
 40
1.0
 40
1.0
 40
1.0
 10
1.491310348088823
 20
1.558528349579934
 30
0.0
 10
1.491310348088823
 20
1.570905633530551
 30
0.0
 10
1.483015039446848
 20
1.579706621184872
 30
0.0
  0
SPLINE
  5
5E
330
A
100
AcDbEntity
  8
1
  6
solid
 62
     0
100
AcDbSpline
210
0.0
220
0.0
230
1.0
 70
     8
 71
     2
 72
     6
 73
     3
 74
     0
 42
0.0000000001
 43
0.0000000001
 40
0.0
 40
0.0
 40
0.0
 40
1.0
 40
1.0
 40
1.0
 10
1.483015039446848
 20
1.579706621184872
 30
0.0
 10
1.476699977718453
 20
1.586948596493514
 30
0.0
 10
1.468288619693761
 20
1.586948596493514
 30
0.0
  0
SPLINE
  5
5F
330
A
100
AcDbEntity
  8
1
  6
solid
 62
     0
100
AcDbSpline
210
0.0
220
0.0
230
1.0
 70
     8
 71
     2
 72
     6
 73
     3
 74
     0
 42
0.0000000001
 43
0.0000000001
 40
0.0
 40
0.0
 40
0.0
 40
1.0
 40
1.0
 40
1.0
 10
1.468288619693761
 20
1.586948596493514
 30
0.0
 10
1.461252076483885
 20
1.586948596493514
 30
0.0
 10
1.455832323397465
 20
1.581518473036724
 30
0.0
  0
SPLINE
  5
60
330
A
100
AcDbEntity
  8
1
  6
solid
 62
     0
100
AcDbSpline
210
0.0
220
0.0
230
1.0
 70
     8
 71
     2
 72
     7
 73
     4
 74
     0
 42
0.0000000001
 43
0.0000000001
 40
0.0
 40
0.0
 40
0.0
 40
1.0
 40
2.0
 40
2.0
 40
2.0
 10
1.455832323397465
 20
1.581518473036724
 30
0.0
 10
1.452087632039441
 20
1.57868489278981
 30
0.0
 10
1.448100471545613
 20
1.568477485382403
 30
0.0
 10
1.448100471545613
 20
1.56150415204907
 30
0.0
  0
SPLINE
  5
61
330
A
100
AcDbEntity
  8
1
  6
solid
 62
     0
100
AcDbSpline
210
0.0
220
0.0
230
1.0
 70
     8
 71
     2
 72
     6
 73
     3
 74
     0
 42
0.0000000001
 43
0.0000000001
 40
0.0
 40
0.0
 40
0.0
 40
1.0
 40
1.0
 40
1.0
 10
1.448100471545613
 20
1.56150415204907
 30
0.0
 10
1.448100471545613
 20
1.550812300197218
 30
0.0
 10
1.453567632039441
 20
1.544686868098452
 30
0.0
  0
SPLINE
  5
62
330
A
100
AcDbEntity
  8
1
  6
solid
 62
     0
100
AcDbSpline
210
0.0
220
0.0
230
1.0
 70
     8
 71
     2
 72
     7
 73
     4
 74
     0
 42
0.0000000001
 43
0.0000000001
 40
0.0
 40
0.0
 40
0.0
 40
1.0
 40
2.0
 40
2.0
 40
2.0
 10
1.453567632039441
 20
1.544686868098452
 30
0.0
 10
1.456685656730799
 20
1.541442423654008
 30
0.0
 10
1.462621459199934
 20
1.539109090320675
 30
0.0
 10
1.465391829570305
 20
1.539109090320675
 30
0.0
  0
SPLINE
  5
63
330
A
100
AcDbEntity
  8
1
  6
solid
 62
     0
100
AcDbSpline
210
0.0
220
0.0
230
1.0
 70
     8
 71
     2
 72
     6
 73
     3
 74
     0
 42
0.0000000001
 43
0.0000000001
 40
0.0
 40
0.0
 40
0.0
 40
1.0
 40
1.0
 40
1.0
 10
1.465391829570305
 20
1.539109090320675
 30
0.0
 10
1.465802693767835
 20
1.538561435999687
 30
0.0
 10
1.469784422162898
 20
1.539172300197218
 30
0.0
  0
LINE
  5
64
330
A
100
AcDbEntity
  8
1
  6
solid
 62
     0
100
AcDbLine
 10
1.469783999999999
 20
1.539171999999999
 30
0.0
 11
1.471249
 21
1.535474999999999
 31
0.0
  0
SPLINE
  5
65
330
A
100
AcDbEntity
  8
1
  6
solid
 62
     0
100
AcDbSpline
210
0.0
220
0.0
230
1.0
 70
     8
 71
     2
 72
     6
 73
     3
 74
     0
 42
0.0000000001
 43
0.0000000001
 40
0.0
 40
0.0
 40
0.0
 40
1.0
 40
1.0
 40
1.0
 10
1.471248619693762
 20
1.5354750162466
 30
0.0
 10
1.462242199940675
 20
1.532936250814501
 30
0.0
 10
1.456496027101169
 20
1.532936250814501
 30
0.0
  0
SPLINE
  5
66
330
A
100
AcDbEntity
  8
1
  6
solid
 62
     0
100
AcDbSpline
210
0.0
220
0.0
230
1.0
 70
     8
 71
     2
 72
     6
 73
     3
 74
     0
 42
0.0000000001
 43
0.0000000001
 40
0.0
 40
0.0
 40
0.0
 40
1.0
 40
1.0
 40
1.0
 10
1.456496027101169
 20
1.532936250814501
 30
0.0
 10
1.448463928335737
 20
1.532936250814501
 30
0.0
 10
1.442148866607342
 20
1.5384350162466
 30
0.0
  0
SPLINE
  5
67
330
A
100
AcDbEntity
  8
1
  6
solid
 62
     0
100
AcDbSpline
210
0.0
220
0.0
230
1.0
 70
     8
 71
     2
 72
     7
 73
     4
 74
     0
 42
0.0000000001
 43
0.0000000001
 40
0.0
 40
0.0
 40
0.0
 40
1.0
 40
2.0
 40
2.0
 40
2.0
 10
1.442148866607342
 20
1.5384350162466
 30
0.0
 10
1.437993311051786
 20
1.542400942172526
 30
0.0
 10
1.434211582656724
 20
1.552997979209563
 30
0.0
 10
1.434211582656724
 20
1.558512547110798
 30
0.0
  0
SPLINE
  5
68
330
A
100
AcDbEntity
  8
1
  6
solid
 62
     0
100
AcDbSpline
210
0.0
220
0.0
230
1.0
 70
     8
 71
     2
 72
     6
 73
     3
 74
     0
 42
0.0000000001
 43
0.0000000001
 40
0.0
 40
0.0
 40
0.0
 40
1.0
 40
1.0
 40
1.0
 10
1.434211582656724
 20
1.558512547110798
 30
0.0
 10
1.434211582656724
 20
1.573186127357711
 30
0.0
 10
1.444213557965366
 20
1.58233476933302
 30
0.0
  0
SPLINE
  5
69
330
A
100
AcDbEntity
  8
1
  6
solid
 62
     0
100
AcDbSpline
210
0.0
220
0.0
230
1.0
 70
     8
 71
     2
 72
     6
 73
     3
 74
     0
 42
0.0000000001
 43
0.0000000001
 40
0.0
 40
0.0
 40
0.0
 40
1.0
 40
1.0
 40
1.0
 10
1.444213557965366
 20
1.58233476933302
 30
0.0
 10
1.454968619693761
 20
1.591578226123143
 30
0.0
 10
1.471375039446848
 20
1.591578226123143
 30
0.0
  0
SPLINE
  5
6A
330
A
100
AcDbEntity
  8
1
  6
solid
 62
     0
100
AcDbSpline
210
0.0
220
0.0
230
1.0
 70
     8
 71
     2
 72
     7
 73
     4
 74
     0
 42
0.0000000001
 43
0.0000000001
 40
0.0
 40
0.0
 40
0.0
 40
1.0
 40
2.0
 40
2.0
 40
2.0
 10
1.471375039446848
 20
1.591578226123143
 30
0.0
 10
1.480618496236971
 20
1.591578226123143
 30
0.0
 10
1.496445656730799
 20
1.584762917481168
 30
0.0
 10
1.501154298706107
 20
1.579738226123144
 30
0.0
  0
SPLINE
  5
6B
330
A
100
AcDbEntity
  8
1
  6
solid
 62
     0
100
AcDbSpline
210
0.0
220
0.0
230
1.0
 70
     8
 71
     2
 72
     7
 73
     4
 74
     0
 42
0.0000000001
 43
0.0000000001
 40
0.0
 40
0.0
 40
0.0
 40
1.0
 40
2.0
 40
2.0
 40
2.0
 10
1.501154298706107
 20
1.579738226123144
 30
0.0
 10
1.506131582656724
 20
1.573976250814502
 30
0.0
 10
1.511372076483885
 20
1.561282917481168
 30
0.0
 10
1.511372076483885
 20
1.554636003900921
 30
0.0
  0
SPLINE
  5
6C
330
A
100
AcDbEntity
  8
1
  6
solid
 62
     0
100
AcDbSpline
210
0.0
220
0.0
230
1.0
 70
     8
 71
     2
 72
     6
 73
     3
 74
     0
 42
0.0000000001
 43
0.0000000001
 40
0.0
 40
0.0
 40
0.0
 40
1.0
 40
1.0
 40
1.0
 10
1.511372076483885
 20
1.554636003900921
 30
0.0
 10
1.511372076483885
 20
1.540889337234255
 30
0.0
 10
1.501043681422157
 20
1.525710077974995
 30
0.0
  0
SPLINE
  5
6D
330
A
100
AcDbEntity
  8
1
  6
solid
 62
     0
100
AcDbSpline
210
0.0
220
0.0
230
1.0
 70
     8
 71
     2
 72
     7
 73
     4
 74
     0
 42
0.0000000001
 43
0.0000000001
 40
0.0
 40
0.0
 40
0.0
 40
1.0
 40
2.0
 40
2.0
 40
2.0
 10
1.501043681422157
 20
1.525710077974995
 30
0.0
 10
1.496635286360428
 20
1.51947402859228
 30
0.0
 10
1.483641706113515
 20
1.50577476933302
 30
0.0
 10
1.471327632039441
 20
1.495335756987341
 30
0.0
  0
SPLINE
  5
6E
330
A
100
AcDbEntity
  8
1
  6
solid
 62
     0
100
AcDbSpline
210
0.0
220
0.0
230
1.0
 70
     8
 71
     2
 72
     6
 73
     3
 74
     0
 42
0.0000000001
 43
0.0000000001
 40
0.0
 40
0.0
 40
0.0
 40
1.0
 40
1.0
 40
1.0
 10
1.471327632039441
 20
1.495335756987341
 30
0.0
 10
1.457375533274008
 20
1.4840750162466
 30
0.0
 10
1.4511868912987
 20
1.480467115012033
 30
0.0
  0
LINE
  5
6F
330
A
100
AcDbEntity
  8
1
  6
solid
 62
     0
100
AcDbLine
 10
1.451187
 20
1.480466999999999
 30
0.0
 11
1.481076999999999
 21
1.480466999999999
 31
0.0
  0
SPLINE
  5
70
330
A
100
AcDbEntity
  8
1
  6
solid
 62
     0
100
AcDbSpline
210
0.0
220
0.0
230
1.0
 70
     8
 71
     2
 72
     6
 73
     3
 74
     0
 42
0.0000000001
 43
0.0000000001
 40
0.0
 40
0.0
 40
0.0
 40
1.0
 40
1.0
 40
1.0
 10
1.48107676784191
 20
1.480467115012033
 30
0.0
 10
1.489140471545614
 20
1.480467115012033
 30
0.0
 10
1.492869360434502
 20
1.481051806370057
 30
0.0
  0
SPLINE
  5
71
330
A
100
AcDbEntity
  8
1
  6
solid
 62
     0
100
AcDbSpline
210
0.0
220
0.0
230
1.0
 70
     8
 71
     2
 72
     6
 73
     3
 74
     0
 42
0.0000000001
 43
0.0000000001
 40
0.0
 40
0.0
 40
0.0
 40
1.0
 40
1.0
 40
1.0
 10
1.492869360434502
 20
1.481051806370057
 30
0.0
 10
1.496714298706107
 20
1.482310571802156
 30
0.0
 10
1.499658496236971
 20
1.485333781678699
 30
0.0
  0
SPLINE
  5
72
330
A
100
AcDbEntity
  8
1
  6
solid
 62
     0
100
AcDbSpline
210
0.0
220
0.0
230
1.0
 70
     8
 71
     2
 72
     6
 73
     3
 74
     0
 42
0.0000000001
 43
0.0000000001
 40
0.0
 40
0.0
 40
0.0
 40
1.0
 40
1.0
 40
1.0
 10
1.499658496236971
 20
1.485333781678699
 30
0.0
 10
1.502839730804873
 20
1.488594028592279
 30
0.0
 10
1.505531088829564
 20
1.496136250814502
 30
0.0
  0
LINE
  5
73
330
A
100
AcDbEntity
  8
1
  6
solid
 62
     0
100
AcDbLine
 10
1.505530999999999
 20
1.496136
 30
0.0
 11
1.511371999999999
 21
1.494941
 31
0.0
  0
LINE
  5
74
330
A
100
AcDbEntity
  8
1
  6
solid
 62
     0
100
AcDbLine
 10
1.502839999999999
 20
1.463492
 30
0.0
 11
1.511371999999999
 21
1.494941
 31
0.0
  0
LINE
  5
75
330
A
100
AcDbEntity
  8
1
  6
solid
 62
     0
100
AcDbLine
 10
1.592349999999999
 20
1.463492
 30
0.0
 11
1.519092
 21
1.463492
 31
0.0
  0
LINE
  5
76
330
A
100
AcDbEntity
  8
1
  6
solid
 62
     0
100
AcDbLine
 10
1.519092
 20
1.463492
 30
0.0
 11
1.519092
 21
1.467020999999999
 31
0.0
  0
SPLINE
  5
77
330
A
100
AcDbEntity
  8
1
  6
solid
 62
     0
100
AcDbSpline
210
0.0
220
0.0
230
1.0
 70
     8
 71
     2
 72
     7
 73
     4
 74
     0
 42
0.0000000001
 43
0.0000000001
 40
0.0
 40
0.0
 40
0.0
 40
1.0
 40
2.0
 40
2.0
 40
2.0
 10
1.519092076483885
 20
1.467020695258946
 30
0.0
 10
1.530273804878947
 20
1.477475510073761
 30
0.0
 10
1.552178990064132
 20
1.501445386616971
 30
0.0
 10
1.55992664438512
 20
1.512247855752774
 30
0.0
  0
SPLINE
  5
78
330
A
100
AcDbEntity
  8
1
  6
solid
 62
     0
100
AcDbSpline
210
0.0
220
0.0
230
1.0
 70
     8
 71
     2
 72
     7
 73
     4
 74
     0
 42
0.0000000001
 43
0.0000000001
 40
0.0
 40
0.0
 40
0.0
 40
1.0
 40
2.0
 40
2.0
 40
2.0
 10
1.55992664438512
 20
1.512247855752774
 30
0.0
 10
1.570839730804873
 20
1.527506127357711
 30
0.0
 10
1.580820471545614
 20
1.549221682913267
 30
0.0
 10
1.580820471545614
 20
1.558528349579934
 30
0.0
  0
SPLINE
  5
79
330
A
100
AcDbEntity
  8
1
  6
solid
 62
     0
100
AcDbSpline
210
0.0
220
0.0
230
1.0
 70
     8
 71
     2
 72
     6
 73
     3
 74
     0
 42
0.0000000001
 43
0.0000000001
 40
0.0
 40
0.0
 40
0.0
 40
1.0
 40
1.0
 40
1.0
 10
1.580820471545614
 20
1.558528349579934
 30
0.0
 10
1.580820471545614
 20
1.570905633530551
 30
0.0
 10
1.572525162903638
 20
1.579706621184872
 30
0.0
  0
SPLINE
  5
7A
330
A
100
AcDbEntity
  8
1
  6
solid
 62
     0
100
AcDbSpline
210
0.0
220
0.0
230
1.0
 70
     8
 71
     2
 72
     6
 73
     3
 74
     0
 42
0.0000000001
 43
0.0000000001
 40
0.0
 40
0.0
 40
0.0
 40
1.0
 40
1.0
 40
1.0
 10
1.572525162903638
 20
1.579706621184872
 30
0.0
 10
1.566210101175243
 20
1.586948596493514
 30
0.0
 10
1.557798743150552
 20
1.586948596493514
 30
0.0
  0
SPLINE
  5
7B
330
A
100
AcDbEntity
  8
1
  6
solid
 62
     0
100
AcDbSpline
210
0.0
220
0.0
230
1.0
 70
     8
 71
     2
 72
     6
 73
     3
 74
     0
 42
0.0000000001
 43
0.0000000001
 40
0.0
 40
0.0
 40
0.0
 40
1.0
 40
1.0
 40
1.0
 10
1.557798743150552
 20
1.586948596493514
 30
0.0
 10
1.550762199940675
 20
1.586948596493514
 30
0.0
 10
1.545342446854255
 20
1.581518473036724
 30
0.0
  0
SPLINE
  5
7C
330
A
100
AcDbEntity
  8
1
  6
solid
 62
     0
100
AcDbSpline
210
0.0
220
0.0
230
1.0
 70
     8
 71
     2
 72
     7
 73
     4
 74
     0
 42
0.0000000001
 43
0.0000000001
 40
0.0
 40
0.0
 40
0.0
 40
1.0
 40
2.0
 40
2.0
 40
2.0
 10
1.545342446854255
 20
1.581518473036724
 30
0.0
 10
1.541597755496231
 20
1.57868489278981
 30
0.0
 10
1.537610595002404
 20
1.568477485382403
 30
0.0
 10
1.537610595002404
 20
1.56150415204907
 30
0.0
  0
SPLINE
  5
7D
330
A
100
AcDbEntity
  8
1
  6
solid
 62
     0
100
AcDbSpline
210
0.0
220
0.0
230
1.0
 70
     8
 71
     2
 72
     6
 73
     3
 74
     0
 42
0.0000000001
 43
0.0000000001
 40
0.0
 40
0.0
 40
0.0
 40
1.0
 40
1.0
 40
1.0
 10
1.537610595002404
 20
1.56150415204907
 30
0.0
 10
1.537610595002404
 20
1.550812300197218
 30
0.0
 10
1.543077755496231
 20
1.544686868098452
 30
0.0
  0
SPLINE
  5
7E
330
A
100
AcDbEntity
  8
1
  6
solid
 62
     0
100
AcDbSpline
210
0.0
220
0.0
230
1.0
 70
     8
 71
     2
 72
     7
 73
     4
 74
     0
 42
0.0000000001
 43
0.0000000001
 40
0.0
 40
0.0
 40
0.0
 40
1.0
 40
2.0
 40
2.0
 40
2.0
 10
1.543077755496231
 20
1.544686868098452
 30
0.0
 10
1.546195780187589
 20
1.541442423654008
 30
0.0
 10
1.552131582656724
 20
1.539109090320675
 30
0.0
 10
1.554901953027095
 20
1.539109090320675
 30
0.0
  0
SPLINE
  5
7F
330
A
100
AcDbEntity
  8
1
  6
solid
 62
     0
100
AcDbSpline
210
0.0
220
0.0
230
1.0
 70
     8
 71
     2
 72
     6
 73
     3
 74
     0
 42
0.0000000001
 43
0.0000000001
 40
0.0
 40
0.0
 40
0.0
 40
1.0
 40
1.0
 40
1.0
 10
1.554901953027095
 20
1.539109090320675
 30
0.0
 10
1.555312817224626
 20
1.538561435999687
 30
0.0
 10
1.559294545619688
 20
1.539172300197218
 30
0.0
  0
LINE
  5
80
330
A
100
AcDbEntity
  8
1
  6
solid
 62
     0
100
AcDbLine
 10
1.559295
 20
1.539171999999999
 30
0.0
 11
1.560759
 21
1.535474999999999
 31
0.0
  0
SPLINE
  5
81
330
A
100
AcDbEntity
  8
1
  6
solid
 62
     0
100
AcDbSpline
210
0.0
220
0.0
230
1.0
 70
     8
 71
     2
 72
     6
 73
     3
 74
     0
 42
0.0000000001
 43
0.0000000001
 40
0.0
 40
0.0
 40
0.0
 40
1.0
 40
1.0
 40
1.0
 10
1.560758743150552
 20
1.5354750162466
 30
0.0
 10
1.551752323397465
 20
1.532936250814501
 30
0.0
 10
1.546006150557959
 20
1.532936250814501
 30
0.0
  0
SPLINE
  5
82
330
A
100
AcDbEntity
  8
1
  6
solid
 62
     0
100
AcDbSpline
210
0.0
220
0.0
230
1.0
 70
     8
 71
     2
 72
     6
 73
     3
 74
     0
 42
0.0000000001
 43
0.0000000001
 40
0.0
 40
0.0
 40
0.0
 40
1.0
 40
1.0
 40
1.0
 10
1.546006150557959
 20
1.532936250814501
 30
0.0
 10
1.537974051792527
 20
1.532936250814501
 30
0.0
 10
1.531658990064132
 20
1.5384350162466
 30
0.0
  0
SPLINE
  5
83
330
A
100
AcDbEntity
  8
1
  6
solid
 62
     0
100
AcDbSpline
210
0.0
220
0.0
230
1.0
 70
     8
 71
     2
 72
     7
 73
     4
 74
     0
 42
0.0000000001
 43
0.0000000001
 40
0.0
 40
0.0
 40
0.0
 40
1.0
 40
2.0
 40
2.0
 40
2.0
 10
1.531658990064132
 20
1.5384350162466
 30
0.0
 10
1.527503434508576
 20
1.542400942172526
 30
0.0
 10
1.523721706113515
 20
1.552997979209563
 30
0.0
 10
1.523721706113515
 20
1.558512547110798
 30
0.0
  0
SPLINE
  5
84
330
A
100
AcDbEntity
  8
1
  6
solid
 62
     0
100
AcDbSpline
210
0.0
220
0.0
230
1.0
 70
     8
 71
     2
 72
     6
 73
     3
 74
     0
 42
0.0000000001
 43
0.0000000001
 40
0.0
 40
0.0
 40
0.0
 40
1.0
 40
1.0
 40
1.0
 10
1.523721706113515
 20
1.558512547110798
 30
0.0
 10
1.523721706113515
 20
1.573186127357711
 30
0.0
 10
1.533723681422157
 20
1.58233476933302
 30
0.0
  0
SPLINE
  5
85
330
A
100
AcDbEntity
  8
1
  6
solid
 62
     0
100
AcDbSpline
210
0.0
220
0.0
230
1.0
 70
     8
 71
     2
 72
     6
 73
     3
 74
     0
 42
0.0000000001
 43
0.0000000001
 40
0.0
 40
0.0
 40
0.0
 40
1.0
 40
1.0
 40
1.0
 10
1.533723681422157
 20
1.58233476933302
 30
0.0
 10
1.544478743150552
 20
1.591578226123143
 30
0.0
 10
1.560885162903638
 20
1.591578226123143
 30
0.0
  0
SPLINE
  5
86
330
A
100
AcDbEntity
  8
1
  6
solid
 62
     0
100
AcDbSpline
210
0.0
220
0.0
230
1.0
 70
     8
 71
     2
 72
     7
 73
     4
 74
     0
 42
0.0000000001
 43
0.0000000001
 40
0.0
 40
0.0
 40
0.0
 40
1.0
 40
2.0
 40
2.0
 40
2.0
 10
1.560885162903638
 20
1.591578226123143
 30
0.0
 10
1.570128619693762
 20
1.591578226123143
 30
0.0
 10
1.585955780187589
 20
1.584762917481168
 30
0.0
 10
1.590664422162897
 20
1.579738226123144
 30
0.0
  0
SPLINE
  5
87
330
A
100
AcDbEntity
  8
1
  6
solid
 62
     0
100
AcDbSpline
210
0.0
220
0.0
230
1.0
 70
     8
 71
     2
 72
     7
 73
     4
 74
     0
 42
0.0000000001
 43
0.0000000001
 40
0.0
 40
0.0
 40
0.0
 40
1.0
 40
2.0
 40
2.0
 40
2.0
 10
1.590664422162897
 20
1.579738226123144
 30
0.0
 10
1.595641706113515
 20
1.573976250814502
 30
0.0
 10
1.600882199940675
 20
1.561282917481168
 30
0.0
 10
1.600882199940675
 20
1.554636003900921
 30
0.0
  0
SPLINE
  5
88
330
A
100
AcDbEntity
  8
1
  6
solid
 62
     0
100
AcDbSpline
210
0.0
220
0.0
230
1.0
 70
     8
 71
     2
 72
     6
 73
     3
 74
     0
 42
0.0000000001
 43
0.0000000001
 40
0.0
 40
0.0
 40
0.0
 40
1.0
 40
1.0
 40
1.0
 10
1.600882199940675
 20
1.554636003900921
 30
0.0
 10
1.600882199940675
 20
1.540889337234255
 30
0.0
 10
1.590553804878947
 20
1.525710077974995
 30
0.0
  0
SPLINE
  5
89
330
A
100
AcDbEntity
  8
1
  6
solid
 62
     0
100
AcDbSpline
210
0.0
220
0.0
230
1.0
 70
     8
 71
     2
 72
     7
 73
     4
 74
     0
 42
0.0000000001
 43
0.0000000001
 40
0.0
 40
0.0
 40
0.0
 40
1.0
 40
2.0
 40
2.0
 40
2.0
 10
1.590553804878947
 20
1.525710077974995
 30
0.0
 10
1.586145409817219
 20
1.51947402859228
 30
0.0
 10
1.573151829570305
 20
1.50577476933302
 30
0.0
 10
1.560837755496231
 20
1.495335756987341
 30
0.0
  0
SPLINE
  5
8A
330
A
100
AcDbEntity
  8
1
  6
solid
 62
     0
100
AcDbSpline
210
0.0
220
0.0
230
1.0
 70
     8
 71
     2
 72
     6
 73
     3
 74
     0
 42
0.0000000001
 43
0.0000000001
 40
0.0
 40
0.0
 40
0.0
 40
1.0
 40
1.0
 40
1.0
 10
1.560837755496231
 20
1.495335756987341
 30
0.0
 10
1.546885656730799
 20
1.4840750162466
 30
0.0
 10
1.54069701475549
 20
1.480467115012033
 30
0.0
  0
LINE
  5
8B
330
A
100
AcDbEntity
  8
1
  6
solid
 62
     0
100
AcDbLine
 10
1.540696999999999
 20
1.480466999999999
 30
0.0
 11
1.570587
 21
1.480466999999999
 31
0.0
  0
SPLINE
  5
8C
330
A
100
AcDbEntity
  8
1
  6
solid
 62
     0
100
AcDbSpline
210
0.0
220
0.0
230
1.0
 70
     8
 71
     2
 72
     6
 73
     3
 74
     0
 42
0.0000000001
 43
0.0000000001
 40
0.0
 40
0.0
 40
0.0
 40
1.0
 40
1.0
 40
1.0
 10
1.5705868912987
 20
1.480467115012033
 30
0.0
 10
1.578650595002403
 20
1.480467115012033
 30
0.0
 10
1.582379483891292
 20
1.481051806370057
 30
0.0
  0
SPLINE
  5
8D
330
A
100
AcDbEntity
  8
1
  6
solid
 62
     0
100
AcDbSpline
210
0.0
220
0.0
230
1.0
 70
     8
 71
     2
 72
     6
 73
     3
 74
     0
 42
0.0000000001
 43
0.0000000001
 40
0.0
 40
0.0
 40
0.0
 40
1.0
 40
1.0
 40
1.0
 10
1.582379483891292
 20
1.481051806370057
 30
0.0
 10
1.586224422162897
 20
1.482310571802156
 30
0.0
 10
1.589168619693761
 20
1.485333781678699
 30
0.0
  0
SPLINE
  5
8E
330
A
100
AcDbEntity
  8
1
  6
solid
 62
     0
100
AcDbSpline
210
0.0
220
0.0
230
1.0
 70
     8
 71
     2
 72
     6
 73
     3
 74
     0
 42
0.0000000001
 43
0.0000000001
 40
0.0
 40
0.0
 40
0.0
 40
1.0
 40
1.0
 40
1.0
 10
1.589168619693761
 20
1.485333781678699
 30
0.0
 10
1.592349854261663
 20
1.488594028592279
 30
0.0
 10
1.595041212286354
 20
1.496136250814502
 30
0.0
  0
LINE
  5
8F
330
A
100
AcDbEntity
  8
1
  6
solid
 62
     0
100
AcDbLine
 10
1.595040999999999
 20
1.496136
 30
0.0
 11
1.600881999999999
 21
1.494941
 31
0.0
  0
LINE
  5
90
330
A
100
AcDbEntity
  8
1
  6
solid
 62
     0
100
AcDbLine
 10
1.592349999999999
 20
1.463492
 30
0.0
 11
1.600881999999999
 21
1.494941
 31
0.0
  0
LINE
  5
91
330
A
100
AcDbEntity
  8
1
  6
solid
 62
     0
100
AcDbLine
 10
1.630206999999999
 20
1.519837
 30
0.0
 11
1.644333
 21
1.588492
 31
0.0
  0
SPLINE
  5
92
330
A
100
AcDbEntity
  8
1
  6
solid
 62
     0
100
AcDbSpline
210
0.0
220
0.0
230
1.0
 70
     8
 71
     2
 72
     6
 73
     3
 74
     0
 42
0.0000000001
 43
0.0000000001
 40
0.0
 40
0.0
 40
0.0
 40
1.0
 40
1.0
 40
1.0
 10
1.644333064138206
 20
1.588491806370057
 30
0.0
 10
1.659875780187589
 20
1.585405386616971
 30
0.0
 10
1.669782940681416
 20
1.585405386616971
 30
0.0
  0
SPLINE
  5
93
330
A
100
AcDbEntity
  8
1
  6
solid
 62
     0
100
AcDbSpline
210
0.0
220
0.0
230
1.0
 70
     8
 71
     2
 72
     7
 73
     4
 74
     0
 42
0.0000000001
 43
0.0000000001
 40
0.0
 40
0.0
 40
0.0
 40
1.0
 40
2.0
 40
2.0
 40
2.0
 10
1.669782940681416
 20
1.585405386616971
 30
0.0
 10
1.67667726166907
 20
1.585405386616971
 30
0.0
 10
1.683418990064132
 20
1.58627452241944
 30
0.0
 10
1.690676767841909
 20
1.588491806370057
 30
0.0
  0
SPLINE
  5
94
330
A
100
AcDbEntity
  8
1
  6
solid
 62
     0
100
AcDbSpline
210
0.0
220
0.0
230
1.0
 70
     8
 71
     2
 72
     7
 73
     4
 74
     0
 42
0.0000000001
 43
0.0000000001
 40
0.0
 40
0.0
 40
0.0
 40
1.0
 40
2.0
 40
2.0
 40
2.0
 10
1.690676767841909
 20
1.588491806370057
 30
0.0
 10
1.689560224632033
 20
1.582492794024378
 30
0.0
 10
1.686552817224626
 20
1.576762423654008
 30
0.0
 10
1.683166150557959
 20
1.573770818715736
 30
0.0
  0
SPLINE
  5
95
330
A
100
AcDbEntity
  8
1
  6
solid
 62
     0
100
AcDbSpline
210
0.0
220
0.0
230
1.0
 70
     8
 71
     2
 72
     6
 73
     3
 74
     0
 42
0.0000000001
 43
0.0000000001
 40
0.0
 40
0.0
 40
0.0
 40
1.0
 40
1.0
 40
1.0
 10
1.683166150557959
 20
1.573770818715736
 30
0.0
 10
1.678220471545613
 20
1.569973287851539
 30
0.0
 10
1.666554298706107
 20
1.569973287851539
 30
0.0
  0
SPLINE
  5
96
330
A
100
AcDbEntity
  8
1
  6
solid
 62
     0
100
AcDbSpline
210
0.0
220
0.0
230
1.0
 70
     8
 71
     2
 72
     6
 73
     3
 74
     0
 42
0.0000000001
 43
0.0000000001
 40
0.0
 40
0.0
 40
0.0
 40
1.0
 40
1.0
 40
1.0
 10
1.666554298706107
 20
1.569973287851539
 30
0.0
 10
1.658933064138206
 20
1.569973287851539
 30
0.0
 10
1.64943676784191
 20
1.571516497728082
 30
0.0
  0
LINE
  5
97
330
A
100
AcDbEntity
  8
1
  6
solid
 62
     0
100
AcDbLine
 10
1.649436999999999
 20
1.571515999999999
 30
0.0
 11
1.641073
 21
1.536212
 31
0.0
  0
SPLINE
  5
98
330
A
100
AcDbEntity
  8
1
  6
solid
 62
     0
100
AcDbSpline
210
0.0
220
0.0
230
1.0
 70
     8
 71
     2
 72
     7
 73
     4
 74
     0
 42
0.0000000001
 43
0.0000000001
 40
0.0
 40
0.0
 40
0.0
 40
1.0
 40
2.0
 40
2.0
 40
2.0
 10
1.641072817224626
 20
1.536212300197218
 30
0.0
 10
1.641641706113515
 20
1.539346127357711
 30
0.0
 10
1.649610595002404
 20
1.542195510073761
 30
0.0
 10
1.655388372780181
 20
1.542195510073761
 30
0.0
  0
SPLINE
  5
99
330
A
100
AcDbEntity
  8
1
  6
solid
 62
     0
100
AcDbSpline
210
0.0
220
0.0
230
1.0
 70
     8
 71
     2
 72
     6
 73
     3
 74
     0
 42
0.0000000001
 43
0.0000000001
 40
0.0
 40
0.0
 40
0.0
 40
1.0
 40
1.0
 40
1.0
 10
1.655388372780181
 20
1.542195510073761
 30
0.0
 10
1.670883681422156
 20
1.542195510073761
 30
0.0
 10
1.680379977718453
 20
1.531661682913267
 30
0.0
  0
SPLINE
  5
9A
330
A
100
AcDbEntity
  8
1
  6
solid
 62
     0
100
AcDbSpline
210
0.0
220
0.0
230
1.0
 70
     8
 71
     2
 72
     7
 73
     4
 74
     0
 42
0.0000000001
 43
0.0000000001
 40
0.0
 40
0.0
 40
0.0
 40
1.0
 40
2.0
 40
2.0
 40
2.0
 10
1.680379977718453
 20
1.531661682913267
 30
0.0
 10
1.685215039446848
 20
1.526089337234255
 30
0.0
 10
1.690392323397465
 20
1.514449337234255
 30
0.0
 10
1.690392323397465
 20
1.508402917481168
 30
0.0
  0
SPLINE
  5
9B
330
A
100
AcDbEntity
  8
1
  6
solid
 62
     0
100
AcDbSpline
210
0.0
220
0.0
230
1.0
 70
     8
 71
     2
 72
     6
 73
     3
 74
     0
 42
0.0000000001
 43
0.0000000001
 40
0.0
 40
0.0
 40
0.0
 40
1.0
 40
1.0
 40
1.0
 10
1.690392323397465
 20
1.508402917481168
 30
0.0
 10
1.690392323397465
 20
1.49906464587623
 30
0.0
 10
1.685215039446848
 20
1.488720448345366
 30
0.0
  0
SPLINE
  5
9C
330
A
100
AcDbEntity
  8
1
  6
solid
 62
     0
100
AcDbSpline
210
0.0
220
0.0
230
1.0
 70
     8
 71
     2
 72
     7
 73
     4
 74
     0
 42
0.0000000001
 43
0.0000000001
 40
0.0
 40
0.0
 40
0.0
 40
1.0
 40
2.0
 40
2.0
 40
2.0
 10
1.685215039446848
 20
1.488720448345366
 30
0.0
 10
1.679779483891292
 20
1.476327361925613
 30
0.0
 10
1.657042199940675
 20
1.461948596493514
 30
0.0
 10
1.641989360434502
 20
1.461948596493514
 30
0.0
  0
SPLINE
  5
9D
330
A
100
AcDbEntity
  8
1
  6
solid
 62
     0
100
AcDbSpline
210
0.0
220
0.0
230
1.0
 70
     8
 71
     2
 72
     7
 73
     4
 74
     0
 42
0.0000000001
 43
0.0000000001
 40
0.0
 40
0.0
 40
0.0
 40
1.0
 40
2.0
 40
2.0
 40
2.0
 10
1.641989360434502
 20
1.461948596493514
 30
0.0
 10
1.634884175249317
 20
1.461948596493514
 30
0.0
 10
1.620995286360428
 20
1.465919954518205
 30
0.0
 10
1.616428866607342
 20
1.469996497728082
 30
0.0
  0
SPLINE
  5
9E
330
A
100
AcDbEntity
  8
1
  6
solid
 62
     0
100
AcDbSpline
210
0.0
220
0.0
230
1.0
 70
     8
 71
     2
 72
     7
 73
     4
 74
     0
 42
0.0000000001
 43
0.0000000001
 40
0.0
 40
0.0
 40
0.0
 40
1.0
 40
2.0
 40
2.0
 40
2.0
 10
1.616428866607342
 20
1.469996497728082
 30
0.0
 10
1.612399730804873
 20
1.473177732295983
 30
0.0
 10
1.608602199940675
 20
1.481367855752774
 30
0.0
 10
1.608602199940675
 20
1.486013287851539
 30
0.0
  0
SPLINE
  5
9F
330
A
100
AcDbEntity
  8
1
  6
solid
 62
     0
100
AcDbSpline
210
0.0
220
0.0
230
1.0
 70
     8
 71
     2
 72
     7
 73
     4
 74
     0
 42
0.0000000001
 43
0.0000000001
 40
0.0
 40
0.0
 40
0.0
 40
1.0
 40
2.0
 40
2.0
 40
2.0
 10
1.608602199940675
 20
1.486013287851539
 30
0.0
 10
1.608602199940675
 20
1.490658719950304
 30
0.0
 10
1.61392713821228
 20
1.497442423654008
 30
0.0
 10
1.618382940681416
 20
1.497442423654008
 30
0.0
  0
SPLINE
  5
A0
330
A
100
AcDbEntity
  8
1
  6
solid
 62
     0
100
AcDbSpline
210
0.0
220
0.0
230
1.0
 70
     8
 71
     2
 72
     7
 73
     4
 74
     0
 42
0.0000000001
 43
0.0000000001
 40
0.0
 40
0.0
 40
0.0
 40
1.0
 40
2.0
 40
2.0
 40
2.0
 10
1.618382940681416
 20
1.497442423654008
 30
0.0
 10
1.623154792533268
 20
1.497442423654008
 30
0.0
 10
1.628663928335737
 20
1.491585633530551
 30
0.0
 10
1.628663928335737
 20
1.488262176740428
 30
0.0
  0
SPLINE
  5
A1
330
A
100
AcDbEntity
  8
1
  6
solid
 62
     0
100
AcDbSpline
210
0.0
220
0.0
230
1.0
 70
     8
 71
     2
 72
     6
 73
     3
 74
     0
 42
0.0000000001
 43
0.0000000001
 40
0.0
 40
0.0
 40
0.0
 40
1.0
 40
1.0
 40
1.0
 10
1.628663928335737
 20
1.488262176740428
 30
0.0
 10
1.628116274014749
 20
1.486829584147835
 30
0.0
 10
1.627974051792527
 20
1.484106621184872
 30
0.0
  0
SPLINE
  5
A2
330
A
100
AcDbEntity
  8
1
  6
solid
 62
     0
100
AcDbSpline
210
0.0
220
0.0
230
1.0
 70
     8
 71
     2
 72
     6
 73
     3
 74
     0
 42
0.0000000001
 43
0.0000000001
 40
0.0
 40
0.0
 40
0.0
 40
1.0
 40
1.0
 40
1.0
 10
1.627974051792527
 20
1.484106621184872
 30
0.0
 10
1.627800224632033
 20
1.482278966863884
 30
0.0
 10
1.627816027101169
 20
1.480672547110798
 30
0.0
  0
SPLINE
  5
A3
330
A
100
AcDbEntity
  8
1
  6
solid
 62
     0
100
AcDbSpline
210
0.0
220
0.0
230
1.0
 70
     8
 71
     2
 72
     7
 73
     4
 74
     0
 42
0.0000000001
 43
0.0000000001
 40
0.0
 40
0.0
 40
0.0
 40
1.0
 40
2.0
 40
2.0
 40
2.0
 10
1.627816027101169
 20
1.480672547110798
 30
0.0
 10
1.627816027101169
 20
1.473446374271292
 30
0.0
 10
1.635579483891292
 20
1.466578226123143
 30
0.0
 10
1.641610101175243
 20
1.466578226123143
 30
0.0
  0
SPLINE
  5
A4
330
A
100
AcDbEntity
  8
1
  6
solid
 62
     0
100
AcDbSpline
210
0.0
220
0.0
230
1.0
 70
     8
 71
     2
 72
     6
 73
     3
 74
     0
 42
0.0000000001
 43
0.0000000001
 40
0.0
 40
0.0
 40
0.0
 40
1.0
 40
1.0
 40
1.0
 10
1.641610101175243
 20
1.466578226123143
 30
0.0
 10
1.653544915990058
 20
1.466578226123143
 30
0.0
 10
1.661245162903638
 20
1.47675402859228
 30
0.0
  0
SPLINE
  5
A5
330
A
100
AcDbEntity
  8
1
  6
solid
 62
     0
100
AcDbSpline
210
0.0
220
0.0
230
1.0
 70
     8
 71
     2
 72
     7
 73
     4
 74
     0
 42
0.0000000001
 43
0.0000000001
 40
0.0
 40
0.0
 40
0.0
 40
1.0
 40
2.0
 40
2.0
 40
2.0
 10
1.661245162903638
 20
1.47675402859228
 30
0.0
 10
1.664979483891293
 20
1.482658226123144
 30
0.0
 10
1.670330595002404
 20
1.499649337234255
 30
0.0
 10
1.670330595002404
 20
1.508624152049069
 30
0.0
  0
SPLINE
  5
A6
330
A
100
AcDbEntity
  8
1
  6
solid
 62
     0
100
AcDbSpline
210
0.0
220
0.0
230
1.0
 70
     8
 71
     2
 72
     7
 73
     4
 74
     0
 42
0.0000000001
 43
0.0000000001
 40
0.0
 40
0.0
 40
0.0
 40
1.0
 40
2.0
 40
2.0
 40
2.0
 10
1.670330595002404
 20
1.508624152049069
 30
0.0
 10
1.670330595002404
 20
1.521586127357711
 30
0.0
 10
1.660191829570305
 20
1.537565880444131
 30
0.0
 10
1.65239676784191
 20
1.537565880444131
 30
0.0
  0
SPLINE
  5
A7
330
A
100
AcDbEntity
  8
1
  6
solid
 62
     0
100
AcDbSpline
210
0.0
220
0.0
230
1.0
 70
     8
 71
     2
 72
     7
 73
     4
 74
     0
 42
0.0000000001
 43
0.0000000001
 40
0.0
 40
0.0
 40
0.0
 40
1.0
 40
2.0
 40
2.0
 40
2.0
 10
1.65239676784191
 20
1.537565880444131
 30
0.0
 10
1.64795676784191
 20
1.537565880444131
 30
0.0
 10
1.640224915990058
 20
1.529960448345366
 30
0.0
 10
1.637043681422157
 20
1.519837485382403
 30
0.0
  0
LINE
  5
A8
330
A
100
AcDbEntity
  8
1
  6
solid
 62
     0
100
AcDbLine
 10
1.630206999999999
 20
1.519837
 30
0.0
 11
1.637043999999999
 21
1.519837
 31
0.0
  0
LINE
  5
A9
330
A
100
AcDbEntity
  8
1
  6
solid
 62
     0
100
AcDbLine
 10
1.245272999999999
 20
1.097564999999999
 30
0.0
 11
1.251145999999999
 21
1.097564999999999
 31
0.0
  0
LINE
  5
AA
330
A
100
AcDbEntity
  8
1
  6
solid
 62
     0
100
AcDbLine
 10
1.251145999999999
 20
1.097564999999999
 30
0.0
 11
1.251145999999999
 21
0.99762
 31
0.0
  0
SPLINE
  5
AB
330
A
100
AcDbEntity
  8
1
  6
solid
 62
     0
100
AcDbSpline
210
0.0
220
0.0
230
1.0
 70
     8
 71
     2
 72
     7
 73
     4
 74
     0
 42
0.0000000001
 43
0.0000000001
 40
0.0
 40
0.0
 40
0.0
 40
1.0
 40
2.0
 40
2.0
 40
2.0
 10
1.25114571532592
 20
0.9976197536666518
 30
0.0
 10
1.25114571532592
 20
0.9903619758888741
 30
0.0
 10
1.253147196807401
 20
0.982314074654306
 30
0.0
 10
1.254674604214809
 20
0.9809288894691208
 30
0.0
  0
SPLINE
  5
AC
330
A
100
AcDbEntity
  8
1
  6
solid
 62
     0
100
AcDbSpline
210
0.0
220
0.0
230
1.0
 70
     8
 71
     2
 72
     6
 73
     3
 74
     0
 42
0.0000000001
 43
0.0000000001
 40
0.0
 40
0.0
 40
0.0
 40
1.0
 40
1.0
 40
1.0
 10
1.254674604214809
 20
0.9809288894691208
 30
0.0
 10
1.258893369646907
 20
0.9776212351481332
 30
0.0
 10
1.269116579523451
 20
0.9764888894691207
 30
0.0
  0
LINE
  5
AD
330
A
100
AcDbEntity
  8
1
  6
solid
 62
     0
100
AcDbLine
 10
1.269117
 20
0.9764889999999999
 30
0.0
 11
1.269117
 21
0.9725649999999999
 31
0.0
  0
LINE
  5
AE
330
A
100
AcDbEntity
  8
1
  6
solid
 62
     0
100
AcDbLine
 10
1.269117
 20
0.9725649999999999
 30
0.0
 11
1.212755
 21
0.9725649999999999
 31
0.0
  0
LINE
  5
AF
330
A
100
AcDbEntity
  8
1
  6
solid
 62
     0
100
AcDbLine
 10
1.212755
 20
0.9725649999999999
 30
0.0
 11
1.212755
 21
0.9765679999999999
 31
0.0
  0
SPLINE
  5
B0
330
A
100
AcDbEntity
  8
1
  6
solid
 62
     0
100
AcDbSpline
210
0.0
220
0.0
230
1.0
 70
     8
 71
     2
 72
     7
 73
     4
 74
     0
 42
0.0000000001
 43
0.0000000001
 40
0.0
 40
0.0
 40
0.0
 40
1.0
 40
2.0
 40
2.0
 40
2.0
 10
1.212755098041969
 20
0.9765679018148
 30
0.0
 10
1.21957583878271
 20
0.9774790129259109
 30
0.0
 10
1.225242999276537
 20
0.9792276549012195
 30
0.0
 10
1.227118061004932
 20
0.9812133339135653
 30
0.0
  0
SPLINE
  5
B1
330
A
100
AcDbEntity
  8
1
  6
solid
 62
     0
100
AcDbSpline
210
0.0
220
0.0
230
1.0
 70
     8
 71
     2
 72
     7
 73
     4
 74
     0
 42
0.0000000001
 43
0.0000000001
 40
0.0
 40
0.0
 40
0.0
 40
1.0
 40
2.0
 40
2.0
 40
2.0
 10
1.227118061004932
 20
0.9812133339135653
 30
0.0
 10
1.228993122733327
 20
0.9836992598394912
 30
0.0
 10
1.231083986930858
 20
0.9901407413209728
 30
0.0
 10
1.231083986930858
 20
0.997272099345664
 30
0.0
  0
LINE
  5
B2
330
A
100
AcDbEntity
  8
1
  6
solid
 62
     0
100
AcDbLine
 10
1.231084
 20
0.9972719999999998
 30
0.0
 11
1.231084
 21
1.080937
 31
0.0
  0
SPLINE
  5
B3
330
A
100
AcDbEntity
  8
1
  6
solid
 62
     0
100
AcDbSpline
210
0.0
220
0.0
230
1.0
 70
     8
 71
     2
 72
     6
 73
     3
 74
     0
 42
0.0000000001
 43
0.0000000001
 40
0.0
 40
0.0
 40
0.0
 40
1.0
 40
1.0
 40
1.0
 10
1.231083986930858
 20
1.080937284530849
 30
0.0
 10
1.228044974585179
 20
1.080589630209861
 30
0.0
 10
1.225242999276537
 20
1.080589630209861
 30
0.0
  0
SPLINE
  5
B4
330
A
100
AcDbEntity
  8
1
  6
solid
 62
     0
100
AcDbSpline
210
0.0
220
0.0
230
1.0
 70
     8
 71
     2
 72
     6
 73
     3
 74
     0
 42
0.0000000001
 43
0.0000000001
 40
0.0
 40
0.0
 40
0.0
 40
1.0
 40
1.0
 40
1.0
 10
1.225242999276537
 20
1.080589630209861
 30
0.0
 10
1.218143246190117
 20
1.080589630209861
 30
0.0
 10
1.213039542486414
 20
1.082433086999984
 30
0.0
  0
LINE
  5
B5
330
A
100
AcDbEntity
  8
1
  6
solid
 62
     0
100
AcDbLine
 10
1.213039999999999
 20
1.082432999999999
 30
0.0
 11
1.213039999999999
 21
1.086762
 31
0.0
  0
LINE
  5
B6
330
A
100
AcDbEntity
  8
1
  6
solid
 62
     0
100
AcDbLine
 10
1.213039999999999
 20
1.086762
 30
0.0
 11
1.216458
 21
1.086762
 31
0.0
  0
SPLINE
  5
B7
330
A
100
AcDbEntity
  8
1
  6
solid
 62
     0
100
AcDbSpline
210
0.0
220
0.0
230
1.0
 70
     8
 71
     2
 72
     7
 73
     4
 74
     0
 42
0.0000000001
 43
0.0000000001
 40
0.0
 40
0.0
 40
0.0
 40
1.0
 40
2.0
 40
2.0
 40
2.0
 10
1.216457814091352
 20
1.086762469716034
 30
0.0
 10
1.223431147424685
 20
1.086762469716034
 30
0.0
 10
1.235055344955549
 20
1.090623210456775
 30
0.0
 10
1.242581764708636
 20
1.095410864777762
 30
0.0
  0
LINE
  5
B8
330
A
100
AcDbEntity
  8
1
  6
solid
 62
     0
100
AcDbLine
 10
1.245272999999999
 20
1.097564999999999
 30
0.0
 11
1.242582
 21
1.095411
 31
0.0
  0
LINE
  5
B9
330
A
100
AcDbEntity
  8
1
  6
solid
 62
     0
100
AcDbLine
 10
1.321401999999999
 20
1.097564999999999
 30
0.0
 11
1.327274
 21
1.097564999999999
 31
0.0
  0
LINE
  5
BA
330
A
100
AcDbEntity
  8
1
  6
solid
 62
     0
100
AcDbLine
 10
1.327274
 20
1.097564999999999
 30
0.0
 11
1.327274
 21
0.99762
 31
0.0
  0
SPLINE
  5
BB
330
A
100
AcDbEntity
  8
1
  6
solid
 62
     0
100
AcDbSpline
210
0.0
220
0.0
230
1.0
 70
     8
 71
     2
 72
     7
 73
     4
 74
     0
 42
0.0000000001
 43
0.0000000001
 40
0.0
 40
0.0
 40
0.0
 40
1.0
 40
2.0
 40
2.0
 40
2.0
 10
1.327274480758019
 20
0.9976197536666518
 30
0.0
 10
1.327274480758019
 20
0.9903619758888741
 30
0.0
 10
1.3292759622395
 20
0.982314074654306
 30
0.0
 10
1.330803369646907
 20
0.9809288894691208
 30
0.0
  0
SPLINE
  5
BC
330
A
100
AcDbEntity
  8
1
  6
solid
 62
     0
100
AcDbSpline
210
0.0
220
0.0
230
1.0
 70
     8
 71
     2
 72
     6
 73
     3
 74
     0
 42
0.0000000001
 43
0.0000000001
 40
0.0
 40
0.0
 40
0.0
 40
1.0
 40
1.0
 40
1.0
 10
1.330803369646907
 20
0.9809288894691208
 30
0.0
 10
1.335022135079006
 20
0.9776212351481332
 30
0.0
 10
1.345245344955549
 20
0.9764888894691207
 30
0.0
  0
LINE
  5
BD
330
A
100
AcDbEntity
  8
1
  6
solid
 62
     0
100
AcDbLine
 10
1.345245
 20
0.9764889999999999
 30
0.0
 11
1.345245
 21
0.9725649999999999
 31
0.0
  0
LINE
  5
BE
330
A
100
AcDbEntity
  8
1
  6
solid
 62
     0
100
AcDbLine
 10
1.345245
 20
0.9725649999999999
 30
0.0
 11
1.288883999999999
 21
0.9725649999999999
 31
0.0
  0
LINE
  5
BF
330
A
100
AcDbEntity
  8
1
  6
solid
 62
     0
100
AcDbLine
 10
1.288883999999999
 20
0.9725649999999999
 30
0.0
 11
1.288883999999999
 21
0.9765679999999999
 31
0.0
  0
SPLINE
  5
C0
330
A
100
AcDbEntity
  8
1
  6
solid
 62
     0
100
AcDbSpline
210
0.0
220
0.0
230
1.0
 70
     8
 71
     2
 72
     7
 73
     4
 74
     0
 42
0.0000000001
 43
0.0000000001
 40
0.0
 40
0.0
 40
0.0
 40
1.0
 40
2.0
 40
2.0
 40
2.0
 10
1.288883863474068
 20
0.9765679018148
 30
0.0
 10
1.295704604214809
 20
0.9774790129259109
 30
0.0
 10
1.301371764708636
 20
0.9792276549012195
 30
0.0
 10
1.303246826437031
 20
0.9812133339135653
 30
0.0
  0
SPLINE
  5
C1
330
A
100
AcDbEntity
  8
1
  6
solid
 62
     0
100
AcDbSpline
210
0.0
220
0.0
230
1.0
 70
     8
 71
     2
 72
     7
 73
     4
 74
     0
 42
0.0000000001
 43
0.0000000001
 40
0.0
 40
0.0
 40
0.0
 40
1.0
 40
2.0
 40
2.0
 40
2.0
 10
1.303246826437031
 20
0.9812133339135653
 30
0.0
 10
1.305121888165426
 20
0.9836992598394912
 30
0.0
 10
1.307212752362957
 20
0.9901407413209728
 30
0.0
 10
1.307212752362957
 20
0.997272099345664
 30
0.0
  0
LINE
  5
C2
330
A
100
AcDbEntity
  8
1
  6
solid
 62
     0
100
AcDbLine
 10
1.307212999999999
 20
0.9972719999999998
 30
0.0
 11
1.307212999999999
 21
1.080937
 31
0.0
  0
SPLINE
  5
C3
330
A
100
AcDbEntity
  8
1
  6
solid
 62
     0
100
AcDbSpline
210
0.0
220
0.0
230
1.0
 70
     8
 71
     2
 72
     6
 73
     3
 74
     0
 42
0.0000000001
 43
0.0000000001
 40
0.0
 40
0.0
 40
0.0
 40
1.0
 40
1.0
 40
1.0
 10
1.307212752362957
 20
1.080937284530849
 30
0.0
 10
1.304173740017278
 20
1.080589630209861
 30
0.0
 10
1.301371764708636
 20
1.080589630209861
 30
0.0
  0
SPLINE
  5
C4
330
A
100
AcDbEntity
  8
1
  6
solid
 62
     0
100
AcDbSpline
210
0.0
220
0.0
230
1.0
 70
     8
 71
     2
 72
     6
 73
     3
 74
     0
 42
0.0000000001
 43
0.0000000001
 40
0.0
 40
0.0
 40
0.0
 40
1.0
 40
1.0
 40
1.0
 10
1.301371764708636
 20
1.080589630209861
 30
0.0
 10
1.294272011622216
 20
1.080589630209861
 30
0.0
 10
1.289168307918513
 20
1.082433086999984
 30
0.0
  0
LINE
  5
C5
330
A
100
AcDbEntity
  8
1
  6
solid
 62
     0
100
AcDbLine
 10
1.289168
 20
1.082432999999999
 30
0.0
 11
1.289168
 21
1.086762
 31
0.0
  0
LINE
  5
C6
330
A
100
AcDbEntity
  8
1
  6
solid
 62
     0
100
AcDbLine
 10
1.289168
 20
1.086762
 30
0.0
 11
1.292587
 21
1.086762
 31
0.0
  0
SPLINE
  5
C7
330
A
100
AcDbEntity
  8
1
  6
solid
 62
     0
100
AcDbSpline
210
0.0
220
0.0
230
1.0
 70
     8
 71
     2
 72
     7
 73
     4
 74
     0
 42
0.0000000001
 43
0.0000000001
 40
0.0
 40
0.0
 40
0.0
 40
1.0
 40
2.0
 40
2.0
 40
2.0
 10
1.292586579523451
 20
1.086762469716034
 30
0.0
 10
1.299559912856784
 20
1.086762469716034
 30
0.0
 10
1.311184110387648
 20
1.090623210456775
 30
0.0
 10
1.318710530140735
 20
1.095410864777762
 30
0.0
  0
LINE
  5
C8
330
A
100
AcDbEntity
  8
1
  6
solid
 62
     0
100
AcDbLine
 10
1.321401999999999
 20
1.097564999999999
 30
0.0
 11
1.318710999999999
 21
1.095411
 31
0.0
  0
LINE
  5
C9
330
A
100
AcDbEntity
  8
1
  6
solid
 62
     0
100
AcDbLine
 10
1.364822999999999
 20
0.95096
 30
0.0
 11
1.419135999999999
 21
1.102195
 31
0.0
  0
LINE
  5
CA
330
A
100
AcDbEntity
  8
1
  6
solid
 62
     0
100
AcDbLine
 10
1.419135999999999
 20
1.102195
 30
0.0
 11
1.429637999999999
 21
1.102195
 31
0.0
  0
LINE
  5
CB
330
A
100
AcDbEntity
  8
1
  6
solid
 62
     0
100
AcDbLine
 10
1.429637999999999
 20
1.102195
 30
0.0
 11
1.37473
 21
0.95096
 31
0.0
  0
LINE
  5
CC
330
A
100
AcDbEntity
  8
1
  6
solid
 62
     0
100
AcDbLine
 10
1.364822999999999
 20
0.95096
 30
0.0
 11
1.37473
 21
0.95096
 31
0.0
  0
LINE
  5
CD
330
A
100
AcDbEntity
  8
1
  6
solid
 62
     0
100
AcDbLine
 10
1.481375
 20
1.097564999999999
 30
0.0
 11
1.487247999999999
 21
1.097564999999999
 31
0.0
  0
LINE
  5
CE
330
A
100
AcDbEntity
  8
1
  6
solid
 62
     0
100
AcDbLine
 10
1.487247999999999
 20
1.097564999999999
 30
0.0
 11
1.487247999999999
 21
0.99762
 31
0.0
  0
SPLINE
  5
CF
330
A
100
AcDbEntity
  8
1
  6
solid
 62
     0
100
AcDbSpline
210
0.0
220
0.0
230
1.0
 70
     8
 71
     2
 72
     7
 73
     4
 74
     0
 42
0.0000000001
 43
0.0000000001
 40
0.0
 40
0.0
 40
0.0
 40
1.0
 40
2.0
 40
2.0
 40
2.0
 10
1.487248061004932
 20
0.9976197536666518
 30
0.0
 10
1.487248061004932
 20
0.9903619758888741
 30
0.0
 10
1.489249542486414
 20
0.982314074654306
 30
0.0
 10
1.490776949893821
 20
0.9809288894691208
 30
0.0
  0
SPLINE
  5
D0
330
A
100
AcDbEntity
  8
1
  6
solid
 62
     0
100
AcDbSpline
210
0.0
220
0.0
230
1.0
 70
     8
 71
     2
 72
     6
 73
     3
 74
     0
 42
0.0000000001
 43
0.0000000001
 40
0.0
 40
0.0
 40
0.0
 40
1.0
 40
1.0
 40
1.0
 10
1.490776949893821
 20
0.9809288894691208
 30
0.0
 10
1.49499571532592
 20
0.9776212351481332
 30
0.0
 10
1.505218925202463
 20
0.9764888894691207
 30
0.0
  0
LINE
  5
D1
330
A
100
AcDbEntity
  8
1
  6
solid
 62
     0
100
AcDbLine
 10
1.505219
 20
0.9764889999999999
 30
0.0
 11
1.505219
 21
0.9725649999999999
 31
0.0
  0
LINE
  5
D2
330
A
100
AcDbEntity
  8
1
  6
solid
 62
     0
100
AcDbLine
 10
1.505219
 20
0.9725649999999999
 30
0.0
 11
1.448857
 21
0.9725649999999999
 31
0.0
  0
LINE
  5
D3
330
A
100
AcDbEntity
  8
1
  6
solid
 62
     0
100
AcDbLine
 10
1.448857
 20
0.9725649999999999
 30
0.0
 11
1.448857
 21
0.9765679999999999
 31
0.0
  0
SPLINE
  5
D4
330
A
100
AcDbEntity
  8
1
  6
solid
 62
     0
100
AcDbSpline
210
0.0
220
0.0
230
1.0
 70
     8
 71
     2
 72
     7
 73
     4
 74
     0
 42
0.0000000001
 43
0.0000000001
 40
0.0
 40
0.0
 40
0.0
 40
1.0
 40
2.0
 40
2.0
 40
2.0
 10
1.448857443720982
 20
0.9765679018148
 30
0.0
 10
1.455678184461722
 20
0.9774790129259109
 30
0.0
 10
1.46134534495555
 20
0.9792276549012195
 30
0.0
 10
1.463220406683944
 20
0.9812133339135653
 30
0.0
  0
SPLINE
  5
D5
330
A
100
AcDbEntity
  8
1
  6
solid
 62
     0
100
AcDbSpline
210
0.0
220
0.0
230
1.0
 70
     8
 71
     2
 72
     7
 73
     4
 74
     0
 42
0.0000000001
 43
0.0000000001
 40
0.0
 40
0.0
 40
0.0
 40
1.0
 40
2.0
 40
2.0
 40
2.0
 10
1.463220406683944
 20
0.9812133339135653
 30
0.0
 10
1.46509546841234
 20
0.9836992598394912
 30
0.0
 10
1.46718633260987
 20
0.9901407413209728
 30
0.0
 10
1.46718633260987
 20
0.997272099345664
 30
0.0
  0
LINE
  5
D6
330
A
100
AcDbEntity
  8
1
  6
solid
 62
     0
100
AcDbLine
 10
1.467186
 20
0.9972719999999998
 30
0.0
 11
1.467186
 21
1.080937
 31
0.0
  0
SPLINE
  5
D7
330
A
100
AcDbEntity
  8
1
  6
solid
 62
     0
100
AcDbSpline
210
0.0
220
0.0
230
1.0
 70
     8
 71
     2
 72
     6
 73
     3
 74
     0
 42
0.0000000001
 43
0.0000000001
 40
0.0
 40
0.0
 40
0.0
 40
1.0
 40
1.0
 40
1.0
 10
1.46718633260987
 20
1.080937284530849
 30
0.0
 10
1.464147320264191
 20
1.080589630209861
 30
0.0
 10
1.46134534495555
 20
1.080589630209861
 30
0.0
  0
SPLINE
  5
D8
330
A
100
AcDbEntity
  8
1
  6
solid
 62
     0
100
AcDbSpline
210
0.0
220
0.0
230
1.0
 70
     8
 71
     2
 72
     6
 73
     3
 74
     0
 42
0.0000000001
 43
0.0000000001
 40
0.0
 40
0.0
 40
0.0
 40
1.0
 40
1.0
 40
1.0
 10
1.46134534495555
 20
1.080589630209861
 30
0.0
 10
1.45424559186913
 20
1.080589630209861
 30
0.0
 10
1.449141888165426
 20
1.082433086999984
 30
0.0
  0
LINE
  5
D9
330
A
100
AcDbEntity
  8
1
  6
solid
 62
     0
100
AcDbLine
 10
1.449141999999999
 20
1.082432999999999
 30
0.0
 11
1.449141999999999
 21
1.086762
 31
0.0
  0
LINE
  5
DA
330
A
100
AcDbEntity
  8
1
  6
solid
 62
     0
100
AcDbLine
 10
1.449141999999999
 20
1.086762
 30
0.0
 11
1.45256
 21
1.086762
 31
0.0
  0
SPLINE
  5
DB
330
A
100
AcDbEntity
  8
1
  6
solid
 62
     0
100
AcDbSpline
210
0.0
220
0.0
230
1.0
 70
     8
 71
     2
 72
     7
 73
     4
 74
     0
 42
0.0000000001
 43
0.0000000001
 40
0.0
 40
0.0
 40
0.0
 40
1.0
 40
2.0
 40
2.0
 40
2.0
 10
1.452560159770364
 20
1.086762469716034
 30
0.0
 10
1.459533493103698
 20
1.086762469716034
 30
0.0
 10
1.471157690634562
 20
1.090623210456775
 30
0.0
 10
1.478684110387648
 20
1.095410864777762
 30
0.0
  0
LINE
  5
DC
330
A
100
AcDbEntity
  8
1
  6
solid
 62
     0
100
AcDbLine
 10
1.481375
 20
1.097564999999999
 30
0.0
 11
1.478684
 21
1.095411
 31
0.0
  0
SPLINE
  5
DD
330
A
100
AcDbEntity
  8
1
  6
solid
 62
     0
100
AcDbSpline
210
0.0
220
0.0
230
1.0
 70
     8
 71
     2
 72
     7
 73
     4
 74
     0
 42
0.0000000001
 43
0.0000000001
 40
0.0
 40
0.0
 40
0.0
 40
1.0
 40
2.0
 40
2.0
 40
2.0
 10
1.546433122733327
 20
1.045332840086404
 30
0.0
 10
1.548434604214809
 20
1.049851852432083
 30
0.0
 10
1.560337814091352
 20
1.054355062308627
 30
0.0
 10
1.566747690634562
 20
1.054355062308627
 30
0.0
  0
SPLINE
  5
DE
330
A
100
AcDbEntity
  8
1
  6
solid
 62
     0
100
AcDbSpline
210
0.0
220
0.0
230
1.0
 70
     8
 71
     2
 72
     6
 73
     3
 74
     0
 42
0.0000000001
 43
0.0000000001
 40
0.0
 40
0.0
 40
0.0
 40
1.0
 40
1.0
 40
1.0
 10
1.566747690634562
 20
1.054355062308627
 30
0.0
 10
1.5746059622395
 20
1.054355062308627
 30
0.0
 10
1.582053369646907
 20
1.050610370950602
 30
0.0
  0
SPLINE
  5
DF
330
A
100
AcDbEntity
  8
1
  6
solid
 62
     0
100
AcDbSpline
210
0.0
220
0.0
230
1.0
 70
     8
 71
     2
 72
     7
 73
     4
 74
     0
 42
0.0000000001
 43
0.0000000001
 40
0.0
 40
0.0
 40
0.0
 40
1.0
 40
2.0
 40
2.0
 40
2.0
 10
1.582053369646907
 20
1.050610370950602
 30
0.0
 10
1.593582752362957
 20
1.045522469716034
 30
0.0
 10
1.606586702980241
 20
1.025681975888873
 30
0.0
 10
1.606586702980241
 20
1.01347851909875
 30
0.0
  0
SPLINE
  5
E0
330
A
100
AcDbEntity
  8
1
  6
solid
 62
     0
100
AcDbSpline
210
0.0
220
0.0
230
1.0
 70
     8
 71
     2
 72
     7
 73
     4
 74
     0
 42
0.0000000001
 43
0.0000000001
 40
0.0
 40
0.0
 40
0.0
 40
1.0
 40
2.0
 40
2.0
 40
2.0
 10
1.606586702980241
 20
1.01347851909875
 30
0.0
 10
1.606586702980241
 20
1.00509876601233
 30
0.0
 10
1.599692381992586
 20
0.9886607413209727
 30
0.0
 10
1.593235098041969
 20
0.9821718524320838
 30
0.0
  0
SPLINE
  5
E1
330
A
100
AcDbEntity
  8
1
  6
solid
 62
     0
100
AcDbSpline
210
0.0
220
0.0
230
1.0
 70
     8
 71
     2
 72
     6
 73
     3
 74
     0
 42
0.0000000001
 43
0.0000000001
 40
0.0
 40
0.0
 40
0.0
 40
1.0
 40
1.0
 40
1.0
 10
1.593235098041969
 20
0.9821718524320838
 30
0.0
 10
1.582100777054315
 20
0.9710217289752936
 30
0.0
 10
1.56504645606666
 20
0.9710217289752936
 30
0.0
  0
SPLINE
  5
E2
330
A
100
AcDbEntity
  8
1
  6
solid
 62
     0
100
AcDbSpline
210
0.0
220
0.0
230
1.0
 70
     8
 71
     2
 72
     6
 73
     3
 74
     0
 42
0.0000000001
 43
0.0000000001
 40
0.0
 40
0.0
 40
0.0
 40
1.0
 40
1.0
 40
1.0
 10
1.56504645606666
 20
0.9710217289752936
 30
0.0
 10
1.545585221498759
 20
0.9710217289752936
 30
0.0
 10
1.534514110387648
 20
0.9866908647777627
 30
0.0
  0
SPLINE
  5
E3
330
A
100
AcDbEntity
  8
1
  6
solid
 62
     0
100
AcDbSpline
210
0.0
220
0.0
230
1.0
 70
     8
 71
     2
 72
     6
 73
     3
 74
     0
 42
0.0000000001
 43
0.0000000001
 40
0.0
 40
0.0
 40
0.0
 40
1.0
 40
1.0
 40
1.0
 10
1.534514110387648
 20
0.9866908647777627
 30
0.0
 10
1.524796579523451
 20
1.000753580827145
 30
0.0
 10
1.524796579523451
 20
1.023506667246898
 30
0.0
  0
SPLINE
  5
E4
330
A
100
AcDbEntity
  8
1
  6
solid
 62
     0
100
AcDbSpline
210
0.0
220
0.0
230
1.0
 70
     8
 71
     2
 72
     7
 73
     4
 74
     0
 42
0.0000000001
 43
0.0000000001
 40
0.0
 40
0.0
 40
0.0
 40
1.0
 40
2.0
 40
2.0
 40
2.0
 10
1.524796579523451
 20
1.023506667246898
 30
0.0
 10
1.524796579523451
 20
1.041240494407392
 30
0.0
 10
1.536389172116044
 20
1.07345827218517
 30
0.0
 10
1.547365468412339
 20
1.085314074654305
 30
0.0
  0
SPLINE
  5
E5
330
A
100
AcDbEntity
  8
1
  6
solid
 62
     0
100
AcDbSpline
210
0.0
220
0.0
230
1.0
 70
     8
 71
     2
 72
     7
 73
     4
 74
     0
 42
0.0000000001
 43
0.0000000001
 40
0.0
 40
0.0
 40
0.0
 40
1.0
 40
2.0
 40
2.0
 40
2.0
 10
1.547365468412339
 20
1.085314074654305
 30
0.0
 10
1.554939295572834
 20
1.093061728975293
 30
0.0
 10
1.571250900511105
 20
1.100651358604923
 30
0.0
 10
1.580399542486413
 20
1.100651358604923
 30
0.0
  0
SPLINE
  5
E6
330
A
100
AcDbEntity
  8
1
  6
solid
 62
     0
100
AcDbSpline
210
0.0
220
0.0
230
1.0
 70
     8
 71
     2
 72
     7
 73
     4
 74
     0
 42
0.0000000001
 43
0.0000000001
 40
0.0
 40
0.0
 40
0.0
 40
1.0
 40
2.0
 40
2.0
 40
2.0
 10
1.580399542486413
 20
1.100651358604923
 30
0.0
 10
1.590591147424686
 20
1.100651358604923
 30
0.0
 10
1.605422752362957
 20
1.091929383296281
 30
0.0
 10
1.605422752362957
 20
1.085882963543195
 30
0.0
  0
SPLINE
  5
E7
330
A
100
AcDbEntity
  8
1
  6
solid
 62
     0
100
AcDbSpline
210
0.0
220
0.0
230
1.0
 70
     8
 71
     2
 72
     7
 73
     4
 74
     0
 42
0.0000000001
 43
0.0000000001
 40
0.0
 40
0.0
 40
0.0
 40
1.0
 40
2.0
 40
2.0
 40
2.0
 10
1.605422752362957
 20
1.085882963543195
 30
0.0
 10
1.605422752362957
 20
1.082796543790108
 30
0.0
 10
1.600650900511105
 20
1.077756049962947
 30
0.0
 10
1.596100283227154
 20
1.077756049962947
 30
0.0
  0
SPLINE
  5
E8
330
A
100
AcDbEntity
  8
1
  6
solid
 62
     0
100
AcDbSpline
210
0.0
220
0.0
230
1.0
 70
     8
 71
     2
 72
     6
 73
     3
 74
     0
 42
0.0000000001
 43
0.0000000001
 40
0.0
 40
0.0
 40
0.0
 40
1.0
 40
1.0
 40
1.0
 10
1.596100283227154
 20
1.077756049962947
 30
0.0
 10
1.593503740017278
 20
1.077756049962947
 30
0.0
 10
1.591739295572834
 20
1.078419753666651
 30
0.0
  0
SPLINE
  5
E9
330
A
100
AcDbEntity
  8
1
  6
solid
 62
     0
100
AcDbSpline
210
0.0
220
0.0
230
1.0
 70
     8
 71
     2
 72
     7
 73
     4
 74
     0
 42
0.0000000001
 43
0.0000000001
 40
0.0
 40
0.0
 40
0.0
 40
1.0
 40
2.0
 40
2.0
 40
2.0
 10
1.591739295572834
 20
1.078419753666651
 30
0.0
 10
1.589911641251846
 20
1.079710124037022
 30
0.0
 10
1.587299295572834
 20
1.083786667246898
 30
0.0
 10
1.585708678288883
 20
1.088321482061713
 30
0.0
  0
SPLINE
  5
EA
330
A
100
AcDbEntity
  8
1
  6
solid
 62
     0
100
AcDbSpline
210
0.0
220
0.0
230
1.0
 70
     8
 71
     2
 72
     7
 73
     4
 74
     0
 42
0.0000000001
 43
0.0000000001
 40
0.0
 40
0.0
 40
0.0
 40
1.0
 40
2.0
 40
2.0
 40
2.0
 10
1.585708678288883
 20
1.088321482061713
 30
0.0
 10
1.584133863474068
 20
1.092229630209861
 30
0.0
 10
1.579757073350611
 20
1.096021728975293
 30
0.0
 10
1.576291394338265
 20
1.096021728975293
 30
0.0
  0
SPLINE
  5
EB
330
A
100
AcDbEntity
  8
1
  6
solid
 62
     0
100
AcDbSpline
210
0.0
220
0.0
230
1.0
 70
     8
 71
     2
 72
     6
 73
     3
 74
     0
 42
0.0000000001
 43
0.0000000001
 40
0.0
 40
0.0
 40
0.0
 40
1.0
 40
1.0
 40
1.0
 10
1.576291394338265
 20
1.096021728975293
 30
0.0
 10
1.566779295572833
 20
1.096021728975293
 30
0.0
 10
1.557693863474068
 20
1.081032099345663
 30
0.0
  0
SPLINE
  5
EC
330
A
100
AcDbEntity
  8
1
  6
solid
 62
     0
100
AcDbSpline
210
0.0
220
0.0
230
1.0
 70
     8
 71
     2
 72
     6
 73
     3
 74
     0
 42
0.0000000001
 43
0.0000000001
 40
0.0
 40
0.0
 40
0.0
 40
1.0
 40
1.0
 40
1.0
 10
1.557693863474068
 20
1.081032099345663
 30
0.0
 10
1.548482011622216
 20
1.065821235148133
 30
0.0
 10
1.546433122733327
 20
1.045332840086404
 30
0.0
  0
SPLINE
  5
ED
330
A
100
AcDbEntity
  8
1
  6
solid
 62
     0
100
AcDbSpline
210
0.0
220
0.0
230
1.0
 70
     8
 71
     2
 72
     6
 73
     3
 74
     0
 42
0.0000000001
 43
0.0000000001
 40
0.0
 40
0.0
 40
0.0
 40
1.0
 40
1.0
 40
1.0
 10
1.544858307918513
 20
1.011919506753071
 30
0.0
 10
1.544858307918513
 20
0.9948493832962814
 30
0.0
 10
1.550214851128389
 20
0.985353086999985
 30
0.0
  0
SPLINE
  5
EE
330
A
100
AcDbEntity
  8
1
  6
solid
 62
     0
100
AcDbSpline
210
0.0
220
0.0
230
1.0
 70
     8
 71
     2
 72
     6
 73
     3
 74
     0
 42
0.0000000001
 43
0.0000000001
 40
0.0
 40
0.0
 40
0.0
 40
1.0
 40
1.0
 40
1.0
 10
1.550214851128389
 20
0.985353086999985
 30
0.0
 10
1.556245468412339
 20
0.9756513586049234
 30
0.0
 10
1.563866702980241
 20
0.9756513586049234
 30
0.0
  0
SPLINE
  5
EF
330
A
100
AcDbEntity
  8
1
  6
solid
 62
     0
100
AcDbSpline
210
0.0
220
0.0
230
1.0
 70
     8
 71
     2
 72
     7
 73
     4
 74
     0
 42
0.0000000001
 43
0.0000000001
 40
0.0
 40
0.0
 40
0.0
 40
1.0
 40
2.0
 40
2.0
 40
2.0
 10
1.563866702980241
 20
0.9756513586049234
 30
0.0
 10
1.568369912856784
 20
0.9756513586049234
 30
0.0
 10
1.576291394338265
 20
0.9807550623086271
 30
0.0
 10
1.579330406683945
 20
0.9857165437901084
 30
0.0
  0
SPLINE
  5
F0
330
A
100
AcDbEntity
  8
1
  6
solid
 62
     0
100
AcDbSpline
210
0.0
220
0.0
230
1.0
 70
     8
 71
     2
 72
     7
 73
     4
 74
     0
 42
0.0000000001
 43
0.0000000001
 40
0.0
 40
0.0
 40
0.0
 40
1.0
 40
2.0
 40
2.0
 40
2.0
 10
1.579330406683945
 20
0.9857165437901084
 30
0.0
 10
1.582416826437031
 20
0.9912888894691207
 30
0.0
 10
1.586524974585179
 20
1.006942222802454
 30
0.0
 10
1.586524974585179
 20
1.014595062308627
 30
0.0
  0
SPLINE
  5
F1
330
A
100
AcDbEntity
  8
1
  6
solid
 62
     0
100
AcDbSpline
210
0.0
220
0.0
230
1.0
 70
     8
 71
     2
 72
     7
 73
     4
 74
     0
 42
0.0000000001
 43
0.0000000001
 40
0.0
 40
0.0
 40
0.0
 40
1.0
 40
2.0
 40
2.0
 40
2.0
 10
1.586524974585179
 20
1.014595062308627
 30
0.0
 10
1.586524974585179
 20
1.022405926506157
 30
0.0
 10
1.582385221498759
 20
1.036816296876528
 30
0.0
 10
1.579140777054315
 20
1.042009383296281
 30
0.0
  0
SPLINE
  5
F2
330
A
100
AcDbEntity
  8
1
  6
solid
 62
     0
100
AcDbSpline
210
0.0
220
0.0
230
1.0
 70
     8
 71
     2
 72
     6
 73
     3
 74
     0
 42
0.0000000001
 43
0.0000000001
 40
0.0
 40
0.0
 40
0.0
 40
1.0
 40
1.0
 40
1.0
 10
1.579140777054315
 20
1.042009383296281
 30
0.0
 10
1.573394604214809
 20
1.049725432678997
 30
0.0
 10
1.564920036313574
 20
1.049725432678997
 30
0.0
  0
SPLINE
  5
F3
330
A
100
AcDbEntity
  8
1
  6
solid
 62
     0
100
AcDbSpline
210
0.0
220
0.0
230
1.0
 70
     8
 71
     2
 72
     6
 73
     3
 74
     0
 42
0.0000000001
 43
0.0000000001
 40
0.0
 40
0.0
 40
0.0
 40
1.0
 40
1.0
 40
1.0
 10
1.564920036313574
 20
1.049725432678997
 30
0.0
 10
1.55802571532592
 20
1.049725432678997
 30
0.0
 10
1.552874604214809
 20
1.042736296876528
 30
0.0
  0
SPLINE
  5
F4
330
A
100
AcDbEntity
  8
1
  6
solid
 62
     0
100
AcDbSpline
210
0.0
220
0.0
230
1.0
 70
     8
 71
     2
 72
     7
 73
     4
 74
     0
 42
0.0000000001
 43
0.0000000001
 40
0.0
 40
0.0
 40
0.0
 40
1.0
 40
2.0
 40
2.0
 40
2.0
 10
1.552874604214809
 20
1.042736296876528
 30
0.0
 10
1.548908678288883
 20
1.038185679592577
 30
0.0
 10
1.544858307918513
 20
1.0222479018148
 30
0.0
 10
1.544858307918513
 20
1.011919506753071
 30
0.0
  0
LINE
  5
F5
330
A
100
AcDbEntity
  8
1
  6
solid
 62
     0
100
AcDbLine
 10
1.649275999999999
 20
1.097564999999999
 30
0.0
 11
1.710029999999999
 21
1.097564999999999
 31
0.0
  0
LINE
  5
F6
330
A
100
AcDbEntity
  8
1
  6
solid
 62
     0
100
AcDbLine
 10
1.710029999999999
 20
1.097564999999999
 30
0.0
 11
1.710029999999999
 21
1.092934999999999
 31
0.0
  0
SPLINE
  5
F7
330
A
100
AcDbEntity
  8
1
  6
solid
 62
     0
100
AcDbSpline
210
0.0
220
0.0
230
1.0
 70
     8
 71
     2
 72
     6
 73
     3
 74
     0
 42
0.0000000001
 43
0.0000000001
 40
0.0
 40
0.0
 40
0.0
 40
1.0
 40
1.0
 40
1.0
 10
1.710030406683944
 20
1.092935309222207
 30
0.0
 10
1.701808678288883
 20
1.092935309222207
 30
0.0
 10
1.698738061004932
 20
1.09170814872838
 30
0.0
  0
SPLINE
  5
F8
330
A
100
AcDbEntity
  8
1
  6
solid
 62
     0
100
AcDbSpline
210
0.0
220
0.0
230
1.0
 70
     8
 71
     2
 72
     6
 73
     3
 74
     0
 42
0.0000000001
 43
0.0000000001
 40
0.0
 40
0.0
 40
0.0
 40
1.0
 40
1.0
 40
1.0
 10
1.698738061004932
 20
1.09170814872838
 30
0.0
 10
1.695572628906167
 20
1.090449383296281
 30
0.0
 10
1.695572628906167
 20
1.086040988234552
 30
0.0
  0
SPLINE
  5
F9
330
A
100
AcDbEntity
  8
1
  6
solid
 62
     0
100
AcDbSpline
210
0.0
220
0.0
230
1.0
 70
     8
 71
     2
 72
     6
 73
     3
 74
     0
 42
0.0000000001
 43
0.0000000001
 40
0.0
 40
0.0
 40
0.0
 40
1.0
 40
1.0
 40
1.0
 10
1.695572628906167
 20
1.086040988234552
 30
0.0
 10
1.695572628906167
 20
1.081237531444429
 30
0.0
 10
1.702314357301228
 20
1.071646420333318
 30
0.0
  0
LINE
  5
FA
330
A
100
AcDbEntity
  8
1
  6
solid
 62
     0
100
AcDbLine
 10
1.702313999999999
 20
1.071645999999999
 30
0.0
 11
1.716629999999999
 21
1.049115
 31
0.0
  0
LINE
  5
FB
330
A
100
AcDbEntity
  8
1
  6
solid
 62
     0
100
AcDbLine
 10
1.716629999999999
 20
1.049115
 30
0.0
 11
1.728200999999999
 21
1.065631999999999
 31
0.0
  0
SPLINE
  5
FC
330
A
100
AcDbEntity
  8
1
  6
solid
 62
     0
100
AcDbSpline
210
0.0
220
0.0
230
1.0
 70
     8
 71
     2
 72
     7
 73
     4
 74
     0
 42
0.0000000001
 43
0.0000000001
 40
0.0
 40
0.0
 40
0.0
 40
1.0
 40
2.0
 40
2.0
 40
2.0
 10
1.728201270881475
 20
1.065631605518503
 30
0.0
 10
1.735822505449377
 20
1.075206914160478
 30
0.0
 10
1.74032571532592
 20
1.082875556135787
 30
0.0
 10
1.74032571532592
 20
1.085867161074059
 30
0.0
  0
SPLINE
  5
FD
330
A
100
AcDbEntity
  8
1
  6
solid
 62
     0
100
AcDbSpline
210
0.0
220
0.0
230
1.0
 70
     8
 71
     2
 72
     6
 73
     3
 74
     0
 42
0.0000000001
 43
0.0000000001
 40
0.0
 40
0.0
 40
0.0
 40
1.0
 40
1.0
 40
1.0
 10
1.74032571532592
 20
1.085867161074059
 30
0.0
 10
1.74032571532592
 20
1.090070124037022
 30
0.0
 10
1.736249172116043
 20
1.091597531444429
 30
0.0
  0
SPLINE
  5
FE
330
A
100
AcDbEntity
  8
1
  6
solid
 62
     0
100
AcDbSpline
210
0.0
220
0.0
230
1.0
 70
     8
 71
     2
 72
     6
 73
     3
 74
     0
 42
0.0000000001
 43
0.0000000001
 40
0.0
 40
0.0
 40
0.0
 40
1.0
 40
1.0
 40
1.0
 10
1.736249172116043
 20
1.091597531444429
 30
0.0
 10
1.734437320264191
 20
1.092166420333318
 30
0.0
 10
1.727980036313574
 20
1.09299851909875
 30
0.0
  0
LINE
  5
FF
330
A
100
AcDbEntity
  8
1
  6
solid
 62
     0
100
AcDbLine
 10
1.727979999999999
 20
1.092999
 30
0.0
 11
1.727979999999999
 21
1.097564999999999
 31
0.0
  0
LINE
  5
100
330
A
100
AcDbEntity
  8
1
  6
solid
 62
     0
100
AcDbLine
 10
1.727979999999999
 20
1.097564999999999
 30
0.0
 11
1.772733
 21
1.097564999999999
 31
0.0
  0
LINE
  5
101
330
A
100
AcDbEntity
  8
1
  6
solid
 62
     0
100
AcDbLine
 10
1.772733
 20
1.097564999999999
 30
0.0
 11
1.772733
 21
1.092934999999999
 31
0.0
  0
SPLINE
  5
102
330
A
100
AcDbEntity
  8
1
  6
solid
 62
     0
100
AcDbSpline
210
0.0
220
0.0
230
1.0
 70
     8
 71
     2
 72
     6
 73
     3
 74
     0
 42
0.0000000001
 43
0.0000000001
 40
0.0
 40
0.0
 40
0.0
 40
1.0
 40
1.0
 40
1.0
 10
1.772733122733327
 20
1.092935309222207
 30
0.0
 10
1.763695098041969
 20
1.092935309222207
 30
0.0
 10
1.759808184461722
 20
1.090765432678997
 30
0.0
  0
SPLINE
  5
103
330
A
100
AcDbEntity
  8
1
  6
solid
 62
     0
100
AcDbSpline
210
0.0
220
0.0
230
1.0
 70
     8
 71
     2
 72
     6
 73
     3
 74
     0
 42
0.0000000001
 43
0.0000000001
 40
0.0
 40
0.0
 40
0.0
 40
1.0
 40
1.0
 40
1.0
 10
1.759808184461722
 20
1.090765432678997
 30
0.0
 10
1.755178554832093
 20
1.088795556135787
 30
0.0
 10
1.745540036313574
 20
1.076244445024676
 30
0.0
  0
LINE
  5
104
330
A
100
AcDbEntity
  8
1
  6
solid
 62
     0
100
AcDbLine
 10
1.74554
 20
1.076243999999999
 30
0.0
 11
1.739208999999999
 21
1.067442999999999
 31
0.0
  0
LINE
  5
105
330
A
100
AcDbEntity
  8
1
  6
solid
 62
     0
100
AcDbLine
 10
1.739208999999999
 20
1.067442999999999
 30
0.0
 11
1.721243999999999
 21
1.044327
 31
0.0
  0
LINE
  5
106
330
A
100
AcDbEntity
  8
1
  6
solid
 62
     0
100
AcDbLine
 10
1.721243999999999
 20
1.044327
 30
0.0
 11
1.752045
 21
0.9991469999999999
 31
0.0
  0
SPLINE
  5
107
330
A
100
AcDbEntity
  8
1
  6
solid
 62
     0
100
AcDbSpline
210
0.0
220
0.0
230
1.0
 70
     8
 71
     2
 72
     6
 73
     3
 74
     0
 42
0.0000000001
 43
0.0000000001
 40
0.0
 40
0.0
 40
0.0
 40
1.0
 40
1.0
 40
1.0
 10
1.752044727671599
 20
0.9991471610740592
 30
0.0
 10
1.759776579523451
 20
0.986912099345664
 30
0.0
 10
1.765601764708636
 20
0.9821244450246764
 30
0.0
  0
SPLINE
  5
108
330
A
100
AcDbEntity
  8
1
  6
solid
 62
     0
100
AcDbSpline
210
0.0
220
0.0
230
1.0
 70
     8
 71
     2
 72
     7
 73
     4
 74
     0
 42
0.0000000001
 43
0.0000000001
 40
0.0
 40
0.0
 40
0.0
 40
1.0
 40
2.0
 40
2.0
 40
2.0
 10
1.765601764708636
 20
0.9821244450246764
 30
0.0
 10
1.76892522149876
 20
0.979117037617269
 30
0.0
 10
1.774418554832093
 20
0.9773209882345527
 30
0.0
 10
1.781992381992586
 20
0.976552099345664
 30
0.0
  0
LINE
  5
109
330
A
100
AcDbEntity
  8
1
  6
solid
 62
     0
100
AcDbLine
 10
1.781991999999999
 20
0.976552
 30
0.0
 11
1.781991999999999
 21
0.9725649999999999
 31
0.0
  0
LINE
  5
10A
330
A
100
AcDbEntity
  8
1
  6
solid
 62
     0
100
AcDbLine
 10
1.781991999999999
 20
0.9725649999999999
 30
0.0
 11
1.717177999999999
 21
0.9725649999999999
 31
0.0
  0
LINE
  5
10B
330
A
100
AcDbEntity
  8
1
  6
solid
 62
     0
100
AcDbLine
 10
1.717177999999999
 20
0.9725649999999999
 30
0.0
 11
1.717177999999999
 21
0.9765360000000001
 31
0.0
  0
SPLINE
  5
10C
330
A
100
AcDbEntity
  8
1
  6
solid
 62
     0
100
AcDbSpline
210
0.0
220
0.0
230
1.0
 70
     8
 71
     2
 72
     6
 73
     3
 74
     0
 42
0.0000000001
 43
0.0000000001
 40
0.0
 40
0.0
 40
0.0
 40
1.0
 40
1.0
 40
1.0
 10
1.717177567177772
 20
0.9765362968765284
 30
0.0
 10
1.725114851128389
 20
0.9777002474938122
 30
0.0
 10
1.72810645606666
 20
0.9793066672468986
 30
0.0
  0
SPLINE
  5
10D
330
A
100
AcDbEntity
  8
1
  6
solid
 62
     0
100
AcDbSpline
210
0.0
220
0.0
230
1.0
 70
     8
 71
     2
 72
     6
 73
     3
 74
     0
 42
0.0000000001
 43
0.0000000001
 40
0.0
 40
0.0
 40
0.0
 40
1.0
 40
1.0
 40
1.0
 10
1.72810645606666
 20
0.9793066672468986
 30
0.0
 10
1.732609665943204
 20
0.9819506178641825
 30
0.0
 10
1.732609665943204
 20
0.9857323462592443
 30
0.0
  0
SPLINE
  5
10E
330
A
100
AcDbEntity
  8
1
  6
solid
 62
     0
100
AcDbSpline
210
0.0
220
0.0
230
1.0
 70
     8
 71
     2
 72
     7
 73
     4
 74
     0
 42
0.0000000001
 43
0.0000000001
 40
0.0
 40
0.0
 40
0.0
 40
1.0
 40
2.0
 40
2.0
 40
2.0
 10
1.732609665943204
 20
0.9857323462592443
 30
0.0
 10
1.732609665943204
 20
0.9871017289752936
 30
0.0
 10
1.730202752362957
 20
0.9914153092222072
 30
0.0
 10
1.727226949893821
 20
0.9958553092222071
 30
0.0
  0
LINE
  5
10F
330
A
100
AcDbEntity
  8
1
  6
solid
 62
     0
100
AcDbLine
 10
1.727227
 20
0.9958549999999998
 30
0.0
 11
1.706786
 21
1.028230999999999
 31
0.0
  0
LINE
  5
110
330
A
100
AcDbEntity
  8
1
  6
solid
 62
     0
100
AcDbLine
 10
1.706786
 20
1.028230999999999
 30
0.0
 11
1.688156999999999
 21
1.002596999999999
 31
0.0
  0
SPLINE
  5
111
330
A
100
AcDbEntity
  8
1
  6
solid
 62
     0
100
AcDbSpline
210
0.0
220
0.0
230
1.0
 70
     8
 71
     2
 72
     7
 73
     4
 74
     0
 42
0.0000000001
 43
0.0000000001
 40
0.0
 40
0.0
 40
0.0
 40
1.0
 40
2.0
 40
2.0
 40
2.0
 10
1.688156826437031
 20
1.002597037617269
 30
0.0
 10
1.683732628906167
 20
0.9974617289752936
 30
0.0
 10
1.680140530140735
 20
0.9898879018147999
 30
0.0
 10
1.680140530140735
 20
0.9865644450246763
 30
0.0
  0
SPLINE
  5
112
330
A
100
AcDbEntity
  8
1
  6
solid
 62
     0
100
AcDbSpline
210
0.0
220
0.0
230
1.0
 70
     8
 71
     2
 72
     7
 73
     4
 74
     0
 42
0.0000000001
 43
0.0000000001
 40
0.0
 40
0.0
 40
0.0
 40
1.0
 40
2.0
 40
2.0
 40
2.0
 10
1.680140530140735
 20
0.9865644450246763
 30
0.0
 10
1.680140530140735
 20
0.9812765437901084
 30
0.0
 10
1.685449665943204
 20
0.9773841981110962
 30
0.0
 10
1.694313863474068
 20
0.9765362968765284
 30
0.0
  0
LINE
  5
113
330
A
100
AcDbEntity
  8
1
  6
solid
 62
     0
100
AcDbLine
 10
1.694313999999999
 20
0.9765360000000001
 30
0.0
 11
1.694313999999999
 21
0.9725649999999999
 31
0.0
  0
LINE
  5
114
330
A
100
AcDbEntity
  8
1
  6
solid
 62
     0
100
AcDbLine
 10
1.694313999999999
 20
0.9725649999999999
 30
0.0
 11
1.646189999999999
 21
0.9725649999999999
 31
0.0
  0
LINE
  5
115
330
A
100
AcDbEntity
  8
1
  6
solid
 62
     0
100
AcDbLine
 10
1.646189999999999
 20
0.9725649999999999
 30
0.0
 11
1.646189999999999
 21
0.976473
 31
0.0
  0
SPLINE
  5
116
330
A
100
AcDbEntity
  8
1
  6
solid
 62
     0
100
AcDbSpline
210
0.0
220
0.0
230
1.0
 70
     8
 71
     2
 72
     7
 73
     4
 74
     0
 42
0.0000000001
 43
0.0000000001
 40
0.0
 40
0.0
 40
0.0
 40
1.0
 40
2.0
 40
2.0
 40
2.0
 10
1.646189912856784
 20
0.976473086999985
 30
0.0
 10
1.651546456066661
 20
0.9777318524320838
 30
0.0
 10
1.65765608569629
 20
0.9810079018148
 30
0.0
 10
1.66209608569629
 20
0.9855111116913432
 30
0.0
  0
SPLINE
  5
117
330
A
100
AcDbEntity
  8
1
  6
solid
 62
     0
100
AcDbSpline
210
0.0
220
0.0
230
1.0
 70
     8
 71
     2
 72
     6
 73
     3
 74
     0
 42
0.0000000001
 43
0.0000000001
 40
0.0
 40
0.0
 40
0.0
 40
1.0
 40
1.0
 40
1.0
 10
1.66209608569629
 20
0.9855111116913432
 30
0.0
 10
1.668221517795055
 20
0.9913046919382567
 30
0.0
 10
1.679529665943204
 20
1.005335803049367
 30
0.0
  0
LINE
  5
118
330
A
100
AcDbEntity
  8
1
  6
solid
 62
     0
100
AcDbLine
 10
1.679529999999999
 20
1.005336
 30
0.0
 11
1.702441
 21
1.032939999999999
 31
0.0
  0
LINE
  5
119
330
A
100
AcDbEntity
  8
1
  6
solid
 62
     0
100
AcDbLine
 10
1.702441
 20
1.032939999999999
 30
0.0
 11
1.675668999999999
 21
1.073362999999999
 31
0.0
  0
LINE
  5
11A
330
A
100
AcDbEntity
  8
1
  6
solid
 62
     0
100
AcDbLine
 10
1.675668999999999
 20
1.073362999999999
 30
0.0
 11
1.671070999999999
 21
1.080669
 31
0.0
  0
SPLINE
  5
11B
330
A
100
AcDbEntity
  8
1
  6
solid
 62
     0
100
AcDbSpline
210
0.0
220
0.0
230
1.0
 70
     8
 71
     2
 72
     6
 73
     3
 74
     0
 42
0.0000000001
 43
0.0000000001
 40
0.0
 40
0.0
 40
0.0
 40
1.0
 40
1.0
 40
1.0
 10
1.671070900511105
 20
1.08066864255554
 30
0.0
 10
1.666299048659253
 20
1.087710617864182
 30
0.0
 10
1.662601764708636
 20
1.090164938851836
 30
0.0
  0
SPLINE
  5
11C
330
A
100
AcDbEntity
  8
1
  6
solid
 62
     0
100
AcDbSpline
210
0.0
220
0.0
230
1.0
 70
     8
 71
     2
 72
     6
 73
     3
 74
     0
 42
0.0000000001
 43
0.0000000001
 40
0.0
 40
0.0
 40
0.0
 40
1.0
 40
1.0
 40
1.0
 10
1.662601764708636
 20
1.090164938851836
 30
0.0
 10
1.660252628906167
 20
1.091881975888874
 30
0.0
 10
1.653010653597525
 20
1.092277037617269
 30
0.0
  0
SPLINE
  5
11D
330
A
100
AcDbEntity
  8
1
  6
solid
 62
     0
100
AcDbSpline
210
0.0
220
0.0
230
1.0
 70
     8
 71
     2
 72
     6
 73
     3
 74
     0
 42
0.0000000001
 43
0.0000000001
 40
0.0
 40
0.0
 40
0.0
 40
1.0
 40
1.0
 40
1.0
 10
1.653010653597525
 20
1.092277037617269
 30
0.0
 10
1.6524259622395
 20
1.092277037617269
 30
0.0
 10
1.64927633260987
 20
1.093030124037022
 30
0.0
  0
LINE
  5
11E
330
A
100
AcDbEntity
  8
1
  6
solid
 62
     0
100
AcDbLine
 10
1.649275999999999
 20
1.097564999999999
 30
0.0
 11
1.649275999999999
 21
1.093029999999999
 31
0.0
  0
LINE
  5
11F
330
A
100
AcDbEntity
  8
1
  6
solid
 62
     0
100
AcDbLine
 10
1.894852999999999
 20
0.9725649999999999
 30
0.0
 11
1.821595999999999
 21
0.9725649999999999
 31
0.0
  0
LINE
  5
120
330
A
100
AcDbEntity
  8
1
  6
solid
 62
     0
100
AcDbLine
 10
1.821595999999999
 20
0.9725649999999999
 30
0.0
 11
1.821595999999999
 21
0.9760939999999999
 31
0.0
  0
SPLINE
  5
121
330
A
100
AcDbEntity
  8
1
  6
solid
 62
     0
100
AcDbSpline
210
0.0
220
0.0
230
1.0
 70
     8
 71
     2
 72
     7
 73
     4
 74
     0
 42
0.0000000001
 43
0.0000000001
 40
0.0
 40
0.0
 40
0.0
 40
1.0
 40
2.0
 40
2.0
 40
2.0
 10
1.82159559186913
 20
0.9760938277407259
 30
0.0
 10
1.832777320264191
 20
0.9865486425555406
 30
0.0
 10
1.854682505449376
 20
1.01051851909875
 30
0.0
 10
1.862430159770364
 20
1.021320988234553
 30
0.0
  0
SPLINE
  5
122
330
A
100
AcDbEntity
  8
1
  6
solid
 62
     0
100
AcDbSpline
210
0.0
220
0.0
230
1.0
 70
     8
 71
     2
 72
     7
 73
     4
 74
     0
 42
0.0000000001
 43
0.0000000001
 40
0.0
 40
0.0
 40
0.0
 40
1.0
 40
2.0
 40
2.0
 40
2.0
 10
1.862430159770364
 20
1.021320988234553
 30
0.0
 10
1.873343246190117
 20
1.036579259839491
 30
0.0
 10
1.883323986930858
 20
1.058294815395046
 30
0.0
 10
1.883323986930858
 20
1.067601482061713
 30
0.0
  0
SPLINE
  5
123
330
A
100
AcDbEntity
  8
1
  6
solid
 62
     0
100
AcDbSpline
210
0.0
220
0.0
230
1.0
 70
     8
 71
     2
 72
     6
 73
     3
 74
     0
 42
0.0000000001
 43
0.0000000001
 40
0.0
 40
0.0
 40
0.0
 40
1.0
 40
1.0
 40
1.0
 10
1.883323986930858
 20
1.067601482061713
 30
0.0
 10
1.883323986930858
 20
1.07997876601233
 30
0.0
 10
1.875028678288883
 20
1.088779753666651
 30
0.0
  0
SPLINE
  5
124
330
A
100
AcDbEntity
  8
1
  6
solid
 62
     0
100
AcDbSpline
210
0.0
220
0.0
230
1.0
 70
     8
 71
     2
 72
     6
 73
     3
 74
     0
 42
0.0000000001
 43
0.0000000001
 40
0.0
 40
0.0
 40
0.0
 40
1.0
 40
1.0
 40
1.0
 10
1.875028678288883
 20
1.088779753666651
 30
0.0
 10
1.868713616560488
 20
1.096021728975293
 30
0.0
 10
1.860302258535796
 20
1.096021728975293
 30
0.0
  0
SPLINE
  5
125
330
A
100
AcDbEntity
  8
1
  6
solid
 62
     0
100
AcDbSpline
210
0.0
220
0.0
230
1.0
 70
     8
 71
     2
 72
     6
 73
     3
 74
     0
 42
0.0000000001
 43
0.0000000001
 40
0.0
 40
0.0
 40
0.0
 40
1.0
 40
1.0
 40
1.0
 10
1.860302258535796
 20
1.096021728975293
 30
0.0
 10
1.853265715325919
 20
1.096021728975293
 30
0.0
 10
1.8478459622395
 20
1.090591605518503
 30
0.0
  0
SPLINE
  5
126
330
A
100
AcDbEntity
  8
1
  6
solid
 62
     0
100
AcDbSpline
210
0.0
220
0.0
230
1.0
 70
     8
 71
     2
 72
     7
 73
     4
 74
     0
 42
0.0000000001
 43
0.0000000001
 40
0.0
 40
0.0
 40
0.0
 40
1.0
 40
2.0
 40
2.0
 40
2.0
 10
1.8478459622395
 20
1.090591605518503
 30
0.0
 10
1.844101270881475
 20
1.087758025271589
 30
0.0
 10
1.840114110387648
 20
1.077550617864182
 30
0.0
 10
1.840114110387648
 20
1.070577284530849
 30
0.0
  0
SPLINE
  5
127
330
A
100
AcDbEntity
  8
1
  6
solid
 62
     0
100
AcDbSpline
210
0.0
220
0.0
230
1.0
 70
     8
 71
     2
 72
     6
 73
     3
 74
     0
 42
0.0000000001
 43
0.0000000001
 40
0.0
 40
0.0
 40
0.0
 40
1.0
 40
1.0
 40
1.0
 10
1.840114110387648
 20
1.070577284530849
 30
0.0
 10
1.840114110387648
 20
1.059885432678997
 30
0.0
 10
1.845581270881476
 20
1.053760000580231
 30
0.0
  0
SPLINE
  5
128
330
A
100
AcDbEntity
  8
1
  6
solid
 62
     0
100
AcDbSpline
210
0.0
220
0.0
230
1.0
 70
     8
 71
     2
 72
     7
 73
     4
 74
     0
 42
0.0000000001
 43
0.0000000001
 40
0.0
 40
0.0
 40
0.0
 40
1.0
 40
2.0
 40
2.0
 40
2.0
 10
1.845581270881476
 20
1.053760000580231
 30
0.0
 10
1.848699295572833
 20
1.050515556135787
 30
0.0
 10
1.854635098041969
 20
1.048182222802454
 30
0.0
 10
1.857405468412339
 20
1.048182222802454
 30
0.0
  0
SPLINE
  5
129
330
A
100
AcDbEntity
  8
1
  6
solid
 62
     0
100
AcDbSpline
210
0.0
220
0.0
230
1.0
 70
     8
 71
     2
 72
     6
 73
     3
 74
     0
 42
0.0000000001
 43
0.0000000001
 40
0.0
 40
0.0
 40
0.0
 40
1.0
 40
1.0
 40
1.0
 10
1.857405468412339
 20
1.048182222802454
 30
0.0
 10
1.85781633260987
 20
1.047634568481466
 30
0.0
 10
1.861798061004932
 20
1.048245432678997
 30
0.0
  0
LINE
  5
12A
330
A
100
AcDbEntity
  8
1
  6
solid
 62
     0
100
AcDbLine
 10
1.861798
 20
1.048245
 30
0.0
 11
1.863261999999999
 21
1.044548
 31
0.0
  0
SPLINE
  5
12B
330
A
100
AcDbEntity
  8
1
  6
solid
 62
     0
100
AcDbSpline
210
0.0
220
0.0
230
1.0
 70
     8
 71
     2
 72
     6
 73
     3
 74
     0
 42
0.0000000001
 43
0.0000000001
 40
0.0
 40
0.0
 40
0.0
 40
1.0
 40
1.0
 40
1.0
 10
1.863262258535796
 20
1.04454814872838
 30
0.0
 10
1.85425583878271
 20
1.042009383296281
 30
0.0
 10
1.848509665943204
 20
1.042009383296281
 30
0.0
  0
SPLINE
  5
12C
330
A
100
AcDbEntity
  8
1
  6
solid
 62
     0
100
AcDbSpline
210
0.0
220
0.0
230
1.0
 70
     8
 71
     2
 72
     6
 73
     3
 74
     0
 42
0.0000000001
 43
0.0000000001
 40
0.0
 40
0.0
 40
0.0
 40
1.0
 40
1.0
 40
1.0
 10
1.848509665943204
 20
1.042009383296281
 30
0.0
 10
1.840477567177772
 20
1.042009383296281
 30
0.0
 10
1.834162505449376
 20
1.04750814872838
 30
0.0
  0
SPLINE
  5
12D
330
A
100
AcDbEntity
  8
1
  6
solid
 62
     0
100
AcDbSpline
210
0.0
220
0.0
230
1.0
 70
     8
 71
     2
 72
     7
 73
     4
 74
     0
 42
0.0000000001
 43
0.0000000001
 40
0.0
 40
0.0
 40
0.0
 40
1.0
 40
2.0
 40
2.0
 40
2.0
 10
1.834162505449376
 20
1.04750814872838
 30
0.0
 10
1.830006949893821
 20
1.051474074654306
 30
0.0
 10
1.826225221498759
 20
1.062071111691343
 30
0.0
 10
1.826225221498759
 20
1.067585679592577
 30
0.0
  0
SPLINE
  5
12E
330
A
100
AcDbEntity
  8
1
  6
solid
 62
     0
100
AcDbSpline
210
0.0
220
0.0
230
1.0
 70
     8
 71
     2
 72
     6
 73
     3
 74
     0
 42
0.0000000001
 43
0.0000000001
 40
0.0
 40
0.0
 40
0.0
 40
1.0
 40
1.0
 40
1.0
 10
1.826225221498759
 20
1.067585679592577
 30
0.0
 10
1.826225221498759
 20
1.082259259839491
 30
0.0
 10
1.836227196807401
 20
1.091407901814799
 30
0.0
  0
SPLINE
  5
12F
330
A
100
AcDbEntity
  8
1
  6
solid
 62
     0
100
AcDbSpline
210
0.0
220
0.0
230
1.0
 70
     8
 71
     2
 72
     6
 73
     3
 74
     0
 42
0.0000000001
 43
0.0000000001
 40
0.0
 40
0.0
 40
0.0
 40
1.0
 40
1.0
 40
1.0
 10
1.836227196807401
 20
1.091407901814799
 30
0.0
 10
1.846982258535796
 20
1.100651358604923
 30
0.0
 10
1.863388678288883
 20
1.100651358604923
 30
0.0
  0
SPLINE
  5
130
330
A
100
AcDbEntity
  8
1
  6
solid
 62
     0
100
AcDbSpline
210
0.0
220
0.0
230
1.0
 70
     8
 71
     2
 72
     7
 73
     4
 74
     0
 42
0.0000000001
 43
0.0000000001
 40
0.0
 40
0.0
 40
0.0
 40
1.0
 40
2.0
 40
2.0
 40
2.0
 10
1.863388678288883
 20
1.100651358604923
 30
0.0
 10
1.872632135079006
 20
1.100651358604923
 30
0.0
 10
1.888459295572833
 20
1.093836049962948
 30
0.0
 10
1.893167937548142
 20
1.088811358604923
 30
0.0
  0
SPLINE
  5
131
330
A
100
AcDbEntity
  8
1
  6
solid
 62
     0
100
AcDbSpline
210
0.0
220
0.0
230
1.0
 70
     8
 71
     2
 72
     7
 73
     4
 74
     0
 42
0.0000000001
 43
0.0000000001
 40
0.0
 40
0.0
 40
0.0
 40
1.0
 40
2.0
 40
2.0
 40
2.0
 10
1.893167937548142
 20
1.088811358604923
 30
0.0
 10
1.89814522149876
 20
1.083049383296281
 30
0.0
 10
1.90338571532592
 20
1.070356049962948
 30
0.0
 10
1.90338571532592
 20
1.063709136382701
 30
0.0
  0
SPLINE
  5
132
330
A
100
AcDbEntity
  8
1
  6
solid
 62
     0
100
AcDbSpline
210
0.0
220
0.0
230
1.0
 70
     8
 71
     2
 72
     6
 73
     3
 74
     0
 42
0.0000000001
 43
0.0000000001
 40
0.0
 40
0.0
 40
0.0
 40
1.0
 40
1.0
 40
1.0
 10
1.90338571532592
 20
1.063709136382701
 30
0.0
 10
1.90338571532592
 20
1.049962469716034
 30
0.0
 10
1.893057320264192
 20
1.034783210456775
 30
0.0
  0
SPLINE
  5
133
330
A
100
AcDbEntity
  8
1
  6
solid
 62
     0
100
AcDbSpline
210
0.0
220
0.0
230
1.0
 70
     8
 71
     2
 72
     7
 73
     4
 74
     0
 42
0.0000000001
 43
0.0000000001
 40
0.0
 40
0.0
 40
0.0
 40
1.0
 40
2.0
 40
2.0
 40
2.0
 10
1.893057320264192
 20
1.034783210456775
 30
0.0
 10
1.888648925202464
 20
1.028547161074059
 30
0.0
 10
1.87565534495555
 20
1.014847901814799
 30
0.0
 10
1.863341270881475
 20
1.00440888946912
 30
0.0
  0
SPLINE
  5
134
330
A
100
AcDbEntity
  8
1
  6
solid
 62
     0
100
AcDbSpline
210
0.0
220
0.0
230
1.0
 70
     8
 71
     2
 72
     6
 73
     3
 74
     0
 42
0.0000000001
 43
0.0000000001
 40
0.0
 40
0.0
 40
0.0
 40
1.0
 40
1.0
 40
1.0
 10
1.863341270881475
 20
1.00440888946912
 30
0.0
 10
1.849389172116044
 20
0.99314814872838
 30
0.0
 10
1.843200530140735
 20
0.9895402474938121
 30
0.0
  0
LINE
  5
135
330
A
100
AcDbEntity
  8
1
  6
solid
 62
     0
100
AcDbLine
 10
1.843200999999999
 20
0.98954
 30
0.0
 11
1.87309
 21
0.98954
 31
0.0
  0
SPLINE
  5
136
330
A
100
AcDbEntity
  8
1
  6
solid
 62
     0
100
AcDbSpline
210
0.0
220
0.0
230
1.0
 70
     8
 71
     2
 72
     6
 73
     3
 74
     0
 42
0.0000000001
 43
0.0000000001
 40
0.0
 40
0.0
 40
0.0
 40
1.0
 40
1.0
 40
1.0
 10
1.873090406683944
 20
0.9895402474938121
 30
0.0
 10
1.881154110387648
 20
0.9895402474938121
 30
0.0
 10
1.884882999276537
 20
0.9901249388518367
 30
0.0
  0
SPLINE
  5
137
330
A
100
AcDbEntity
  8
1
  6
solid
 62
     0
100
AcDbSpline
210
0.0
220
0.0
230
1.0
 70
     8
 71
     2
 72
     6
 73
     3
 74
     0
 42
0.0000000001
 43
0.0000000001
 40
0.0
 40
0.0
 40
0.0
 40
1.0
 40
1.0
 40
1.0
 10
1.884882999276537
 20
0.9901249388518367
 30
0.0
 10
1.888727937548142
 20
0.9913837042839356
 30
0.0
 10
1.891672135079006
 20
0.9944069141604787
 30
0.0
  0
SPLINE
  5
138
330
A
100
AcDbEntity
  8
1
  6
solid
 62
     0
100
AcDbSpline
210
0.0
220
0.0
230
1.0
 70
     8
 71
     2
 72
     6
 73
     3
 74
     0
 42
0.0000000001
 43
0.0000000001
 40
0.0
 40
0.0
 40
0.0
 40
1.0
 40
1.0
 40
1.0
 10
1.891672135079006
 20
0.9944069141604787
 30
0.0
 10
1.894853369646908
 20
0.9976671610740591
 30
0.0
 10
1.897544727671599
 20
1.005209383296281
 30
0.0
  0
LINE
  5
139
330
A
100
AcDbEntity
  8
1
  6
solid
 62
     0
100
AcDbLine
 10
1.897545
 20
1.005209
 30
0.0
 11
1.903386
 21
1.004013999999999
 31
0.0
  0
LINE
  5
13A
330
A
100
AcDbEntity
  8
1
  6
solid
 62
     0
100
AcDbLine
 10
1.894852999999999
 20
0.9725649999999999
 30
0.0
 11
1.903386
 21
1.004013999999999
 31
0.0
  0
LINE
  5
13B
330
A
100
AcDbEntity
  8
1
  6
solid
 62
     0
100
AcDbLine
 10
1.922415999999999
 20
1.021947999999999
 30
0.0
 11
1.967168999999999
 21
1.021947999999999
 31
0.0
  0
LINE
  5
13C
330
A
100
AcDbEntity
  8
1
  6
solid
 62
     0
100
AcDbLine
 10
1.967168999999999
 20
1.021947999999999
 30
0.0
 11
1.967168999999999
 21
1.004971999999999
 31
0.0
  0
LINE
  5
13D
330
A
100
AcDbEntity
  8
1
  6
solid
 62
     0
100
AcDbLine
 10
1.967168999999999
 20
1.004971999999999
 30
0.0
 11
1.922415999999999
 21
1.004971999999999
 31
0.0
  0
LINE
  5
13E
330
A
100
AcDbEntity
  8
1
  6
solid
 62
     0
100
AcDbLine
 10
1.922415999999999
 20
1.021947999999999
 30
0.0
 11
1.922415999999999
 21
1.004971999999999
 31
0.0
  0
LINE
  5
13F
330
A
100
AcDbEntity
  8
1
  6
solid
 62
     0
100
AcDbLine
 10
2.018906
 20
1.097564999999999
 30
0.0
 11
2.024779
 21
1.097564999999999
 31
0.0
  0
LINE
  5
140
330
A
100
AcDbEntity
  8
1
  6
solid
 62
     0
100
AcDbLine
 10
2.024779
 20
1.097564999999999
 30
0.0
 11
2.024779
 21
0.99762
 31
0.0
  0
SPLINE
  5
141
330
A
100
AcDbEntity
  8
1
  6
solid
 62
     0
100
AcDbSpline
210
0.0
220
0.0
230
1.0
 70
     8
 71
     2
 72
     7
 73
     4
 74
     0
 42
0.0000000001
 43
0.0000000001
 40
0.0
 40
0.0
 40
0.0
 40
1.0
 40
2.0
 40
2.0
 40
2.0
 10
2.024779048659253
 20
0.9976197536666518
 30
0.0
 10
2.024779048659253
 20
0.9903619758888741
 30
0.0
 10
2.026780530140734
 20
0.982314074654306
 30
0.0
 10
2.028307937548142
 20
0.9809288894691208
 30
0.0
  0
SPLINE
  5
142
330
A
100
AcDbEntity
  8
1
  6
solid
 62
     0
100
AcDbSpline
210
0.0
220
0.0
230
1.0
 70
     8
 71
     2
 72
     6
 73
     3
 74
     0
 42
0.0000000001
 43
0.0000000001
 40
0.0
 40
0.0
 40
0.0
 40
1.0
 40
1.0
 40
1.0
 10
2.028307937548142
 20
0.9809288894691208
 30
0.0
 10
2.03252670298024
 20
0.9776212351481332
 30
0.0
 10
2.042749912856784
 20
0.9764888894691207
 30
0.0
  0
LINE
  5
143
330
A
100
AcDbEntity
  8
1
  6
solid
 62
     0
100
AcDbLine
 10
2.042749999999999
 20
0.9764889999999999
 30
0.0
 11
2.042749999999999
 21
0.9725649999999999
 31
0.0
  0
LINE
  5
144
330
A
100
AcDbEntity
  8
1
  6
solid
 62
     0
100
AcDbLine
 10
2.042749999999999
 20
0.9725649999999999
 30
0.0
 11
1.986387999999999
 21
0.9725649999999999
 31
0.0
  0
LINE
  5
145
330
A
100
AcDbEntity
  8
1
  6
solid
 62
     0
100
AcDbLine
 10
1.986387999999999
 20
0.9725649999999999
 30
0.0
 11
1.986387999999999
 21
0.9765679999999999
 31
0.0
  0
SPLINE
  5
146
330
A
100
AcDbEntity
  8
1
  6
solid
 62
     0
100
AcDbSpline
210
0.0
220
0.0
230
1.0
 70
     8
 71
     2
 72
     7
 73
     4
 74
     0
 42
0.0000000001
 43
0.0000000001
 40
0.0
 40
0.0
 40
0.0
 40
1.0
 40
2.0
 40
2.0
 40
2.0
 10
1.986388431375302
 20
0.9765679018148
 30
0.0
 10
1.993209172116044
 20
0.9774790129259109
 30
0.0
 10
1.99887633260987
 20
0.9792276549012195
 30
0.0
 10
2.000751394338265
 20
0.9812133339135653
 30
0.0
  0
SPLINE
  5
147
330
A
100
AcDbEntity
  8
1
  6
solid
 62
     0
100
AcDbSpline
210
0.0
220
0.0
230
1.0
 70
     8
 71
     2
 72
     7
 73
     4
 74
     0
 42
0.0000000001
 43
0.0000000001
 40
0.0
 40
0.0
 40
0.0
 40
1.0
 40
2.0
 40
2.0
 40
2.0
 10
2.000751394338265
 20
0.9812133339135653
 30
0.0
 10
2.00262645606666
 20
0.9836992598394912
 30
0.0
 10
2.004717320264191
 20
0.9901407413209728
 30
0.0
 10
2.004717320264191
 20
0.997272099345664
 30
0.0
  0
LINE
  5
148
330
A
100
AcDbEntity
  8
1
  6
solid
 62
     0
100
AcDbLine
 10
2.004716999999999
 20
0.9972719999999998
 30
0.0
 11
2.004716999999999
 21
1.080937
 31
0.0
  0
SPLINE
  5
149
330
A
100
AcDbEntity
  8
1
  6
solid
 62
     0
100
AcDbSpline
210
0.0
220
0.0
230
1.0
 70
     8
 71
     2
 72
     6
 73
     3
 74
     0
 42
0.0000000001
 43
0.0000000001
 40
0.0
 40
0.0
 40
0.0
 40
1.0
 40
1.0
 40
1.0
 10
2.004717320264191
 20
1.080937284530849
 30
0.0
 10
2.001678307918512
 20
1.080589630209861
 30
0.0
 10
1.99887633260987
 20
1.080589630209861
 30
0.0
  0
SPLINE
  5
14A
330
A
100
AcDbEntity
  8
1
  6
solid
 62
     0
100
AcDbSpline
210
0.0
220
0.0
230
1.0
 70
     8
 71
     2
 72
     6
 73
     3
 74
     0
 42
0.0000000001
 43
0.0000000001
 40
0.0
 40
0.0
 40
0.0
 40
1.0
 40
1.0
 40
1.0
 10
1.99887633260987
 20
1.080589630209861
 30
0.0
 10
1.991776579523451
 20
1.080589630209861
 30
0.0
 10
1.986672875819747
 20
1.082433086999984
 30
0.0
  0
LINE
  5
14B
330
A
100
AcDbEntity
  8
1
  6
solid
 62
     0
100
AcDbLine
 10
1.986672999999999
 20
1.082432999999999
 30
0.0
 11
1.986672999999999
 21
1.086762
 31
0.0
  0
LINE
  5
14C
330
A
100
AcDbEntity
  8
1
  6
solid
 62
     0
100
AcDbLine
 10
1.986672999999999
 20
1.086762
 30
0.0
 11
1.990090999999999
 21
1.086762
 31
0.0
  0
SPLINE
  5
14D
330
A
100
AcDbEntity
  8
1
  6
solid
 62
     0
100
AcDbSpline
210
0.0
220
0.0
230
1.0
 70
     8
 71
     2
 72
     7
 73
     4
 74
     0
 42
0.0000000001
 43
0.0000000001
 40
0.0
 40
0.0
 40
0.0
 40
1.0
 40
2.0
 40
2.0
 40
2.0
 10
1.990091147424685
 20
1.086762469716034
 30
0.0
 10
1.997064480758018
 20
1.086762469716034
 30
0.0
 10
2.008688678288883
 20
1.090623210456775
 30
0.0
 10
2.016215098041969
 20
1.095410864777762
 30
0.0
  0
LINE
  5
14E
330
A
100
AcDbEntity
  8
1
  6
solid
 62
     0
100
AcDbLine
 10
2.018906
 20
1.097564999999999
 30
0.0
 11
2.016215
 21
1.095411
 31
0.0
  0
LINE
  5
14F
330
A
100
AcDbEntity
  8
1
  6
solid
 62
     0
100
AcDbLine
 10
2.062327999999999
 20
0.95096
 30
0.0
 11
2.11664
 21
1.102195
 31
0.0
  0
LINE
  5
150
330
A
100
AcDbEntity
  8
1
  6
solid
 62
     0
100
AcDbLine
 10
2.11664
 20
1.102195
 30
0.0
 11
2.127141999999999
 21
1.102195
 31
0.0
  0
LINE
  5
151
330
A
100
AcDbEntity
  8
1
  6
solid
 62
     0
100
AcDbLine
 10
2.127141999999999
 20
1.102195
 30
0.0
 11
2.072235
 21
0.95096
 31
0.0
  0
LINE
  5
152
330
A
100
AcDbEntity
  8
1
  6
solid
 62
     0
100
AcDbLine
 10
2.062327999999999
 20
0.95096
 30
0.0
 11
2.072235
 21
0.95096
 31
0.0
  0
LINE
  5
153
330
A
100
AcDbEntity
  8
1
  6
solid
 62
     0
100
AcDbLine
 10
2.190925
 20
1.001886
 30
0.0
 11
2.146171999999999
 21
1.001886
 31
0.0
  0
LINE
  5
154
330
A
100
AcDbEntity
  8
1
  6
solid
 62
     0
100
AcDbLine
 10
2.146171999999999
 20
1.001886
 30
0.0
 11
2.146171999999999
 21
1.005557
 31
0.0
  0
LINE
  5
155
330
A
100
AcDbEntity
  8
1
  6
solid
 62
     0
100
AcDbLine
 10
2.146171999999999
 20
1.005557
 30
0.0
 11
2.202596999999999
 21
1.100651
 31
0.0
  0
LINE
  5
156
330
A
100
AcDbEntity
  8
1
  6
solid
 62
     0
100
AcDbLine
 10
2.202596999999999
 20
1.100651
 30
0.0
 11
2.210986999999999
 21
1.100651
 31
0.0
  0
LINE
  5
157
330
A
100
AcDbEntity
  8
1
  6
solid
 62
     0
100
AcDbLine
 10
2.210986999999999
 20
1.100651
 30
0.0
 11
2.210986999999999
 21
1.008059
 31
0.0
  0
SPLINE
  5
158
330
A
100
AcDbEntity
  8
1
  6
solid
 62
     0
100
AcDbSpline
210
0.0
220
0.0
230
1.0
 70
     8
 71
     2
 72
     7
 73
     4
 74
     0
 42
0.0000000001
 43
0.0000000001
 40
0.0
 40
0.0
 40
0.0
 40
1.0
 40
2.0
 40
2.0
 40
2.0
 10
2.210987196807401
 20
1.00805876601233
 30
0.0
 10
2.213115098041969
 20
1.00805876601233
 30
0.0
 10
2.217412875819747
 20
1.008864691938256
 30
0.0
 10
2.218971888165426
 20
1.01120839564196
 30
0.0
  0
SPLINE
  5
159
330
A
100
AcDbEntity
  8
1
  6
solid
 62
     0
100
AcDbSpline
210
0.0
220
0.0
230
1.0
 70
     8
 71
     2
 72
     7
 73
     4
 74
     0
 42
0.0000000001
 43
0.0000000001
 40
0.0
 40
0.0
 40
0.0
 40
1.0
 40
2.0
 40
2.0
 40
2.0
 10
2.218971888165426
 20
1.01120839564196
 30
0.0
 10
2.220262258535796
 20
1.012704198111096
 30
0.0
 10
2.221052381992586
 20
1.016312099345664
 30
0.0
 10
2.221194604214808
 20
1.019603951197515
 30
0.0
  0
LINE
  5
15A
330
A
100
AcDbEntity
  8
1
  6
solid
 62
     0
100
AcDbLine
 10
2.221195
 20
1.019604
 30
0.0
 11
2.221836999999999
 21
1.023490999999999
 31
0.0
  0
LINE
  5
15B
330
A
100
AcDbEntity
  8
1
  6
solid
 62
     0
100
AcDbLine
 10
2.221836999999999
 20
1.023490999999999
 30
0.0
 11
2.229506
 21
1.023490999999999
 31
0.0
  0
LINE
  5
15C
330
A
100
AcDbEntity
  8
1
  6
solid
 62
     0
100
AcDbLine
 10
2.229506
 20
1.023490999999999
 30
0.0
 11
2.229506
 21
0.9864539999999999
 31
0.0
  0
LINE
  5
15D
330
A
100
AcDbEntity
  8
1
  6
solid
 62
     0
100
AcDbLine
 10
2.229506
 20
0.9864539999999999
 30
0.0
 11
2.221852999999999
 21
0.9864539999999999
 31
0.0
  0
SPLINE
  5
15E
330
A
100
AcDbEntity
  8
1
  6
solid
 62
     0
100
AcDbSpline
210
0.0
220
0.0
230
1.0
 70
     8
 71
     2
 72
     7
 73
     4
 74
     0
 42
0.0000000001
 43
0.0000000001
 40
0.0
 40
0.0
 40
0.0
 40
1.0
 40
2.0
 40
2.0
 40
2.0
 10
2.221852875819747
 20
0.9864538277407257
 30
0.0
 10
2.221052381992586
 20
0.9930375314444296
 30
0.0
 10
2.219698801745672
 20
0.9976987660123308
 30
0.0
 10
2.218861270881475
 20
0.9991155561357876
 30
0.0
  0
SPLINE
  5
15F
330
A
100
AcDbEntity
  8
1
  6
solid
 62
     0
100
AcDbSpline
210
0.0
220
0.0
230
1.0
 70
     8
 71
     2
 72
     7
 73
     4
 74
     0
 42
0.0000000001
 43
0.0000000001
 40
0.0
 40
0.0
 40
0.0
 40
1.0
 40
2.0
 40
2.0
 40
2.0
 10
2.218861270881475
 20
0.9991155561357876
 30
0.0
 10
2.217412875819747
 20
1.000627161074059
 30
0.0
 10
2.21333633260987
 20
1.001885926506157
 30
0.0
 10
2.209665221498759
 20
1.001885926506157
 30
0.0
  0
LINE
  5
160
330
A
100
AcDbEntity
  8
1
  6
solid
 62
     0
100
AcDbLine
 10
2.209665
 20
1.001886
 30
0.0
 11
2.210986999999999
 21
1.001886
 31
0.0
  0
LINE
  5
161
330
A
100
AcDbEntity
  8
1
  6
solid
 62
     0
100
AcDbLine
 10
2.210986999999999
 20
1.001886
 30
0.0
 11
2.210986999999999
 21
0.9936219999999998
 31
0.0
  0
SPLINE
  5
162
330
A
100
AcDbEntity
  8
1
  6
solid
 62
     0
100
AcDbSpline
210
0.0
220
0.0
230
1.0
 70
     8
 71
     2
 72
     7
 73
     4
 74
     0
 42
0.0000000001
 43
0.0000000001
 40
0.0
 40
0.0
 40
0.0
 40
1.0
 40
2.0
 40
2.0
 40
2.0
 10
2.210987196807401
 20
0.9936222228024542
 30
0.0
 10
2.210987196807401
 20
0.988723951197516
 30
0.0
 10
2.21254620915308
 20
0.9823614820617136
 30
0.0
 10
2.213241517795056
 20
0.9809446919382567
 30
0.0
  0
SPLINE
  5
163
330
A
100
AcDbEntity
  8
1
  6
solid
 62
     0
100
AcDbSpline
210
0.0
220
0.0
230
1.0
 70
     8
 71
     2
 72
     7
 73
     4
 74
     0
 42
0.0000000001
 43
0.0000000001
 40
0.0
 40
0.0
 40
0.0
 40
1.0
 40
2.0
 40
2.0
 40
2.0
 10
2.213241517795056
 20
0.9809446919382567
 30
0.0
 10
2.214942752362957
 20
0.9788641981110961
 30
0.0
 10
2.217855344955549
 20
0.9775264203333183
 30
0.0
 10
2.224281023967896
 20
0.9764098771234419
 30
0.0
  0
LINE
  5
164
330
A
100
AcDbEntity
  8
1
  6
solid
 62
     0
100
AcDbLine
 10
2.224280999999999
 20
0.9764099999999999
 30
0.0
 11
2.224280999999999
 21
0.9725649999999999
 31
0.0
  0
LINE
  5
165
330
A
100
AcDbEntity
  8
1
  6
solid
 62
     0
100
AcDbLine
 10
2.224280999999999
 20
0.9725649999999999
 30
0.0
 11
2.175873
 21
0.9725649999999999
 31
0.0
  0
LINE
  5
166
330
A
100
AcDbEntity
  8
1
  6
solid
 62
     0
100
AcDbLine
 10
2.175873
 20
0.9725649999999999
 30
0.0
 11
2.175873
 21
0.9765679999999999
 31
0.0
  0
SPLINE
  5
167
330
A
100
AcDbEntity
  8
1
  6
solid
 62
     0
100
AcDbSpline
210
0.0
220
0.0
230
1.0
 70
     8
 71
     2
 72
     6
 73
     3
 74
     0
 42
0.0000000001
 43
0.0000000001
 40
0.0
 40
0.0
 40
0.0
 40
1.0
 40
1.0
 40
1.0
 10
2.175872628906167
 20
0.9765679018148
 30
0.0
 10
2.185384727671598
 20
0.9776844450246764
 30
0.0
 10
2.18796546841234
 20
0.9803600005802319
 30
0.0
  0
SPLINE
  5
168
330
A
100
AcDbEntity
  8
1
  6
solid
 62
     0
100
AcDbSpline
210
0.0
220
0.0
230
1.0
 70
     8
 71
     2
 72
     7
 73
     4
 74
     0
 42
0.0000000001
 43
0.0000000001
 40
0.0
 40
0.0
 40
0.0
 40
1.0
 40
2.0
 40
2.0
 40
2.0
 10
2.18796546841234
 20
0.9803600005802319
 30
0.0
 10
2.189492875819747
 20
0.9819980252715899
 30
0.0
 10
2.19092546841234
 20
0.9883446919382567
 30
0.0
 10
2.19092546841234
 20
0.9945017289752938
 30
0.0
  0
LINE
  5
169
330
A
100
AcDbEntity
  8
1
  6
solid
 62
     0
100
AcDbLine
 10
2.190925
 20
1.001886
 30
0.0
 11
2.190925
 21
0.9945019999999999
 31
0.0
  0
LINE
  5
16A
330
A
100
AcDbEntity
  8
1
  6
solid
 62
     0
100
AcDbLine
 10
2.190925
 20
1.008059
 30
0.0
 11
2.190925
 21
1.072088999999999
 31
0.0
  0
LINE
  5
16B
330
A
100
AcDbEntity
  8
1
  6
solid
 62
     0
100
AcDbLine
 10
2.190925
 20
1.072088999999999
 30
0.0
 11
2.155431999999999
 21
1.008059
 31
0.0
  0
LINE
  5
16C
330
A
100
AcDbEntity
  8
1
  6
solid
 62
     0
100
AcDbLine
 10
2.190925
 20
1.008059
 30
0.0
 11
2.155431999999999
 21
1.008059
 31
0.0
  0
DIMENSION
  5
182
330
A
100
AcDbEntity
  8
1
  6
solid
 62
     0
100
AcDbDimension
  2
*D1
 10
-1.882688
 20
1.028917999999999
 30
0.0
 11
-1.882688
 21
1.028917999999999
 31
0.0
 70
     1
 71
     5
 42
2.25
  3
Standard
100
AcDbAlignedDimension
 13
-3.007687999999999
 23
1.188572999999999
 33
0.0
 14
-0.757688
 24
1.188572999999999
 34
0.0
1001
ACAD
1000
DSTYLE
1002
{
1070
    41
1040
0.04163
1070
    42
1040
0.125
1070
    44
1040
0.0625
1070
    47
1040
0.0005
1070
    48
1040
0.0005
1070
    75
1070
     1
1070
    76
1070
     1
1070
    77
1070
     1
1070
   140
1040
0.125
1070
   146
1040
0.5
1070
   174
1070
     1
1070
   270
1070
     5
1070
   271
1070
     3
1070
   272
1070
     3
1070
   277
1070
     5
1002
}
  0
LINE
  5
1E7
330
A
100
AcDbEntity
  8
1
  6
solid
 62
     0
100
AcDbLine
 10
-3.062558570360536
 20
1.869759999999999
 30
0.0
 11
-3.212159
 21
1.869759999999999
 31
0.0
  0
LINE
  5
1E8
330
A
100
AcDbEntity
  8
1
  6
solid
 62
     0
100
AcDbLine
 10
-3.149659
 20
1.188572999999999
 30
0.0
 11
-3.149659
 21
1.529166999999999
 31
0.0
  0
LINE
  5
1E9
330
A
100
AcDbEntity
  8
1
  6
solid
 62
     0
100
AcDbLine
 10
-3.149659
 20
1.869759999999999
 30
0.0
 11
-3.149659
 21
1.529166999999999
 31
0.0
  0
MTEXT
  5
1EA
330
A
100
AcDbEntity
  8
1
  6
solid
 62
     0
100
AcDbMText
 10
-3.456122142168657
 20
1.529166999999999
 30
0.0
 40
0.125
 41
0.0
 71
     5
 72
     1
  1
{\H0.125000;11/16}
 73
     1
 44
1.0
  0
SOLID
  5
1EB
330
A
100
AcDbEntity
  8
1
  6
solid
 62
     0
100
AcDbTrace
 10
-3.170471
 20
1.230203
 30
0.0
 11
-3.128845999999999
 21
1.230203
 31
0.0
 12
-3.149659
 22
1.188572999999999
 32
0.0
 13
-3.149659
 23
1.188572999999999
 33
0.0
  0
SOLID
  5
1EC
330
A
100
AcDbEntity
  8
1
  6
solid
 62
     0
100
AcDbTrace
 10
-3.128845999999999
 20
1.828129999999999
 30
0.0
 11
-3.170471
 21
1.828129999999999
 31
0.0
 12
-3.149659
 22
1.869759999999999
 32
0.0
 13
-3.149659
 23
1.869759999999999
 33
0.0
  0
LINE
  5
219
330
A
100
AcDbEntity
  8
1
  6
solid
 62
     0
100
AcDbLine
 10
-3.058074821185837
 20
1.18866635911354
 30
0.0
 11
-3.212159
 21
1.18866635911354
 31
0.0
  0
VIEWPORT
  5
18E
330
B
100
AcDbEntity
 67
     1
  8
0
  6
Continuous
370
     0
100
AcDbViewport
 10
5.221046113520229
 20
4.008106134867011
 30
0.0
 40
14.86966571691603
 41
7.867629781611498
 68
     1
 69
     1
 12
5.221046113520229
 22
4.008106134867011
 13
0.0
 23
0.0
 14
0.5
 24
0.5
 15
0.5
 25
0.5
 16
0.0
 26
0.0
 36
1.0
 17
0.0
 27
0.0
 37
0.0
 42
50.0
 43
0.0
 44
0.0
 45
7.867629781611498
 50
0.0
 51
0.0
 72
   100
 90
    32800
  1

281
     0
 71
     1
 74
     0
110
0.0
120
0.0
130
0.0
111
1.0
121
0.0
131
0.0
112
0.0
122
1.0
132
0.0
 79
     0
146
0.0
170
     0
  0
VIEWPORT
  5
191
330
B
100
AcDbEntity
 67
     1
  8
0
  6
Continuous
370
     0
100
AcDbViewport
 10
5.221026189476248
 20
4.008060388553534
 30
0.0
 40
10.32242277497154
 41
7.775270841367017
 68
     2
 69
     2
 12
-0.027049112491541
 22
1.496421812854694
 13
0.0
 23
0.0
 14
1.0
 24
1.0
 15
0.0
 25
0.0
 16
0.0
 26
0.0
 36
1.0
 17
0.0
 27
0.0
 37
0.0
 42
50.0
 43
0.0
 44
0.0
 45
6.655068675198427
 50
0.0
 51
0.0
 72
   100
 90
    32800
  1

281
     0
 71
     1
 74
     0
110
0.0
120
0.0
130
0.0
111
1.0
121
0.0
131
0.0
112
0.0
122
1.0
132
0.0
 79
     0
146
0.0
170
     0
  0
ENDSEC
  0
SECTION
  2
OBJECTS
  0
DICTIONARY
  5
19
330
0
100
AcDbDictionary
281
     1
  3
ACAD_COLOR
350
186
  3
ACAD_GROUP
350
1A
  3
ACAD_LAYOUT
350
1E
  3
ACAD_MATERIAL
350
185
  3
ACAD_MLEADERSTYLE
350
1DD
  3
ACAD_MLINESTYLE
350
1B
  3
ACAD_PLOTSETTINGS
350
22
  3
ACAD_PLOTSTYLENAME
350
1F
  3
ACAD_SCALELIST
350
1BB
  3
ACAD_TABLESTYLE
350
187
  3
ACAD_VISUALSTYLE
350
1A3
  3
ACAD_WIPEOUT_VARS
350
23
  3
ACDB_RECOMPOSE_DATA
350
222
  3
AcDbVariableDictionary
350
19B
  3
ASE_INDEX_DICTIONARY
350
1B7
  0
DICTIONARY
  5
1EF
330
14
100
AcDbDictionary
280
     1
281
     1
  3
ADSK_XREC_LAYER_RECONCILED
360
1F0
  0
DICTIONARY
  5
1F1
330
27
100
AcDbDictionary
280
     1
281
     1
  3
ADSK_XREC_LAYER_RECONCILED
360
1F2
  0
DICTIONARY
  5
1ED
330
A
100
AcDbDictionary
280
     1
281
     1
  3
ACAD_SORTENTS
360
1EE
  0
DICTIONARY
  5
186
102
{ACAD_REACTORS
330
19
102
}
330
19
100
AcDbDictionary
281
     1
  0
DICTIONARY
  5
1A
102
{ACAD_REACTORS
330
19
102
}
330
19
100
AcDbDictionary
281
     1
  0
DICTIONARY
  5
1E
102
{ACAD_REACTORS
330
19
102
}
330
19
100
AcDbDictionary
281
     1
  3
Layout1
350
21
  3
Model
350
20
  0
DICTIONARY
  5
185
102
{ACAD_REACTORS
330
19
102
}
330
19
100
AcDbDictionary
281
     1
  3
ByBlock
350
1A1
  3
ByLayer
350
1A0
  3
Global
350
1A2
  0
DICTIONARY
  5
1DD
102
{ACAD_REACTORS
330
19
102
}
330
19
100
AcDbDictionary
281
     1
  3
Standard
350
1DE
  0
DICTIONARY
  5
1B
102
{ACAD_REACTORS
330
19
102
}
330
19
100
AcDbDictionary
281
     1
  3
Standard
350
1C
  0
DICTIONARY
  5
22
102
{ACAD_REACTORS
330
19
102
}
330
19
100
AcDbDictionary
281
     1
  0
ACDBDICTIONARYWDFLT
  5
1F
102
{ACAD_REACTORS
330
19
102
}
330
19
100
AcDbDictionary
281
     1
  3
Normal
350
1D
100
AcDbDictionaryWithDefault
340
1D
  0
DICTIONARY
  5
1BB
102
{ACAD_REACTORS
330
19
102
}
330
19
100
AcDbDictionary
281
     1
  3
A0
350
1BC
  3
A1
350
1BD
  3
A2
350
1BE
  3
A3
350
1BF
  3
A4
350
1C0
  3
A5
350
1C1
  3
A6
350
1C2
  3
A7
350
1C3
  3
A8
350
1C4
  3
A9
350
1C5
  3
B0
350
1C6
  3
B1
350
1C7
  3
B2
350
1C8
  3
B3
350
1C9
  3
B4
350
1CA
  3
B5
350
1CB
  3
B6
350
1CC
  3
B7
350
1CD
  3
B8
350
1CE
  3
B9
350
1CF
  3
C0
350
1D0
  3
C1
350
1D1
  3
C2
350
1D2
  3
C3
350
1D3
  3
C4
350
1D4
  3
C5
350
1D5
  3
C6
350
1D6
  3
C7
350
1D7
  3
C8
350
1D8
  3
C9
350
1D9
  3
D0
350
1DA
  3
D1
350
1DB
  3
D2
350
1DC
  0
DICTIONARY
  5
187
102
{ACAD_REACTORS
330
19
102
}
330
19
100
AcDbDictionary
281
     1
  3
Standard
350
188
  0
DICTIONARY
  5
1A3
102
{ACAD_REACTORS
330
19
102
}
330
19
100
AcDbDictionary
281
     1
  3
2dWireframe
350
1A9
  3
3D Hidden
350
1AB
  3
3dWireframe
350
1AA
  3
Basic
350
1A8
  3
Brighten
350
1AF
  3
ColorChange
350
1B3
  3
Conceptual
350
1AC
  3
Dim
350
1AE
  3
Facepattern
350
1B2
  3
Flat
350
1A4
  3
FlatWithEdges
350
1A5
  3
Gouraud
350
1A6
  3
GouraudWithEdges
350
1A7
  3
Linepattern
350
1B1
  3
Realistic
350
1AD
  3
Thicken
350
1B0
  0
WIPEOUTVARIABLES
  5
23
330
19
100
AcDbWipeoutVariables
 70
     1
  0
XRECORD
  5
222
102
{ACAD_REACTORS
330
19
102
}
330
19
100
AcDbXrecord
280
     1
 90
        1
330
188
  0
DICTIONARY
  5
19B
102
{ACAD_REACTORS
330
19
102
}
330
19
100
AcDbDictionary
281
     1
  3
CANNOSCALE
350
206
  3
CMLEADERSTYLE
350
205
  3
CTABLESTYLE
350
19C
  3
DIMASSOC
350
19D
  3
PROJECTNAME
350
19E
  0
DICTIONARY
  5
1B7
102
{ACAD_REACTORS
330
19
102
}
330
19
100
AcDbDictionary
281
     1
  3
ASEBlockHierarchyIndexRecord
350
1B9
1001
DCO15
1040
1644054660.971
  0
XRECORD
  5
1F0
102
{ACAD_REACTORS
330
1EF
102
}
330
1EF
100
AcDbXrecord
280
     1
290
     1
  0
XRECORD
  5
1F2
102
{ACAD_REACTORS
330
1F1
102
}
330
1F1
100
AcDbXrecord
280
     1
290
     1
  0
SORTENTSTABLE
  5
1EE
102
{ACAD_REACTORS
330
1ED
102
}
330
1ED
100
AcDbSortentsTable
330
A
331
117
  5
117
331
F5
  5
F5
331
DB
  5
DB
331
B9
  5
B9
331
139
  5
139
331
15B
  5
15B
331
128
  5
128
331
106
  5
106
331
EC
  5
EC
331
CA
  5
CA
331
A8
  5
A8
331
86
  5
86
331
6C
  5
6C
331
4A
  5
4A
331
14A
  5
14A
331
97
  5
97
331
5B
  5
5B
331
39
  5
39
331
28
  5
28
331
137
  5
137
331
115
  5
115
331
F3
  5
F3
331
D9
  5
D9
331
159
  5
159
331
126
  5
126
331
104
  5
104
331
EA
  5
EA
331
C8
  5
C8
331
A6
  5
A6
331
84
  5
84
331
6A
  5
6A
331
48
  5
48
331
148
  5
148
331
B7
  5
B7
331
95
  5
95
331
59
  5
59
331
37
  5
37
331
135
  5
135
331
113
  5
113
331
F1
  5
F1
331
157
  5
157
331
124
  5
124
331
102
  5
102
331
E8
  5
E8
331
C6
  5
C6
331
A4
  5
A4
331
82
  5
82
331
68
  5
68
331
46
  5
46
331
146
  5
146
331
182
  5
1EC
331
D7
  5
D7
331
B5
  5
B5
331
93
  5
93
331
57
  5
57
331
35
  5
35
331
133
  5
133
331
111
  5
111
331
155
  5
155
331
122
  5
122
331
100
  5
100
331
E6
  5
E6
331
C4
  5
C4
331
A2
  5
A2
331
80
  5
80
331
66
  5
66
331
44
  5
44
331
144
  5
144
331
166
  5
166
331
D5
  5
D5
331
B3
  5
B3
331
91
  5
91
331
77
  5
77
331
55
  5
55
331
33
  5
33
331
131
  5
131
331
153
  5
153
331
120
  5
120
331
FE
  5
FE
331
E4
  5
E4
331
C2
  5
C2
331
A0
  5
A0
331
7E
  5
7E
331
64
  5
64
331
42
  5
42
331
142
  5
142
331
164
  5
164
331
10F
  5
10F
331
D3
  5
D3
331
B1
  5
B1
331
8F
  5
8F
331
75
  5
75
331
53
  5
53
331
31
  5
31
331
151
  5
151
331
16B
  5
16B
331
1EB
  5
1EA
331
11E
  5
11E
331
FC
  5
FC
331
E2
  5
E2
331
C0
  5
C0
331
9E
  5
9E
331
7C
  5
7C
331
62
  5
62
331
40
  5
40
331
140
  5
140
331
162
  5
162
331
12F
  5
12F
331
10D
  5
10D
331
D1
  5
D1
331
AF
  5
AF
331
8D
  5
8D
331
73
  5
73
331
51
  5
51
331
2F
  5
2F
331
169
  5
169
331
1E9
  5
1E8
331
11C
  5
11C
331
FA
  5
FA
331
E0
  5
E0
331
BE
  5
BE
331
9C
  5
9C
331
7A
  5
7A
331
60
  5
60
331
13E
  5
13E
331
160
  5
160
331
12D
  5
12D
331
10B
  5
10B
331
CF
  5
CF
331
AD
  5
AD
331
8B
  5
8B
331
71
  5
71
331
4F
  5
4F
331
14F
  5
14F
331
3E
  5
3E
331
2D
  5
2D
331
1E7
  5
1E6
331
11A
  5
11A
331
F8
  5
F8
331
DE
  5
DE
331
BC
  5
BC
331
9A
  5
9A
331
78
  5
78
331
13C
  5
13C
331
15E
  5
15E
331
12B
  5
12B
331
109
  5
109
331
EF
  5
EF
331
CD
  5
CD
331
AB
  5
AB
331
89
  5
89
331
6F
  5
6F
331
4D
  5
4D
331
14D
  5
14D
331
5E
  5
5E
331
3C
  5
3C
331
2B
  5
2B
331
118
  5
118
331
F6
  5
F6
331
DC
  5
DC
331
BA
  5
BA
331
98
  5
98
331
13A
  5
13A
331
15C
  5
15C
331
129
  5
129
331
107
  5
107
331
ED
  5
ED
331
CB
  5
CB
331
A9
  5
A9
331
87
  5
87
331
6D
  5
6D
331
4B
  5
4B
331
14B
  5
14B
331
5C
  5
5C
331
3A
  5
3A
331
29
  5
29
331
138
  5
138
331
116
  5
116
331
F4
  5
F4
331
DA
  5
DA
331
B8
  5
B8
331
15A
  5
15A
331
127
  5
127
331
105
  5
105
331
EB
  5
EB
331
C9
  5
C9
331
A7
  5
A7
331
85
  5
85
331
6B
  5
6B
331
49
  5
49
331
149
  5
149
331
96
  5
96
331
5A
  5
5A
331
38
  5
38
331
136
  5
136
331
114
  5
114
331
F2
  5
F2
331
D8
  5
D8
331
158
  5
158
331
125
  5
125
331
103
  5
103
331
E9
  5
E9
331
C7
  5
C7
331
A5
  5
A5
331
83
  5
83
331
69
  5
69
331
47
  5
47
331
147
  5
147
331
B6
  5
B6
331
94
  5
94
331
58
  5
58
331
36
  5
36
331
134
  5
134
331
112
  5
112
331
F0
  5
F0
331
156
  5
156
331
123
  5
123
331
101
  5
101
331
E7
  5
E7
331
C5
  5
C5
331
A3
  5
A3
331
81
  5
81
331
67
  5
67
331
45
  5
45
331
145
  5
145
331
167
  5
167
331
D6
  5
D6
331
B4
  5
B4
331
92
  5
92
331
56
  5
56
331
34
  5
34
331
132
  5
132
331
110
  5
110
331
154
  5
154
331
121
  5
121
331
FF
  5
FF
331
E5
  5
E5
331
C3
  5
C3
331
A1
  5
A1
331
7F
  5
7F
331
65
  5
65
331
43
  5
43
331
143
  5
143
331
165
  5
165
331
D4
  5
D4
331
B2
  5
B2
331
90
  5
90
331
76
  5
76
331
54
  5
54
331
32
  5
32
331
130
  5
130
331
152
  5
152
331
16C
  5
16C
331
1EC
  5
1EB
331
11F
  5
11F
331
FD
  5
FD
331
E3
  5
E3
331
C1
  5
C1
331
9F
  5
9F
331
7D
  5
7D
331
63
  5
63
331
41
  5
41
331
141
  5
141
331
163
  5
163
331
10E
  5
10E
331
D2
  5
D2
331
B0
  5
B0
331
8E
  5
8E
331
74
  5
74
331
52
  5
52
331
30
  5
30
331
150
  5
150
331
16A
  5
16A
331
1EA
  5
1E9
331
11D
  5
11D
331
FB
  5
FB
331
E1
  5
E1
331
BF
  5
BF
331
9D
  5
9D
331
7B
  5
7B
331
61
  5
61
331
13F
  5
13F
331
161
  5
161
331
12E
  5
12E
331
10C
  5
10C
331
D0
  5
D0
331
AE
  5
AE
331
8C
  5
8C
331
72
  5
72
331
50
  5
50
331
3F
  5
3F
331
2E
  5
2E
331
168
  5
168
331
1E8
  5
1E7
331
11B
  5
11B
331
F9
  5
F9
331
DF
  5
DF
331
BD
  5
BD
331
9B
  5
9B
331
79
  5
79
331
13D
  5
13D
331
15F
  5
15F
331
12C
  5
12C
331
10A
  5
10A
331
CE
  5
CE
331
AC
  5
AC
331
8A
  5
8A
331
70
  5
70
331
4E
  5
4E
331
14E
  5
14E
331
5F
  5
5F
331
3D
  5
3D
331
2C
  5
2C
331
119
  5
119
331
F7
  5
F7
331
DD
  5
DD
331
BB
  5
BB
331
99
  5
99
331
13B
  5
13B
331
15D
  5
15D
331
12A
  5
12A
331
108
  5
108
331
EE
  5
EE
331
CC
  5
CC
331
AA
  5
AA
331
88
  5
88
331
6E
  5
6E
331
4C
  5
4C
331
14C
  5
14C
331
5D
  5
5D
331
3B
  5
3B
331
2A
  5
2A
  0
LAYOUT
  5
21
102
{ACAD_REACTORS
330
1E
102
}
330
1E
100
AcDbPlotSettings
  1

  2
none_device
  4
Letter_(8.50_x_11.00_Inches)
  6

 40
6.349999904632568
 41
6.349999904632568
 42
6.350006103515625
 43
6.350006103515625
 44
215.8999938964844
 45
279.3999938964844
 46
0.0
 47
0.0
 48
0.0
 49
0.0
140
0.0
141
0.0
142
1.0
143
1.0
 70
     0
 72
     0
 73
     1
 74
     0
  7

 75
     0
147
1.0
 76
     0
 77
     2
 78
   300
148
0.0
149
0.0
100
AcDbLayout
  1
Layout1
 70
     0
 71
     1
 10
-0.2500002402958907
 20
-0.2499999962453767
 11
10.74999951940821
 21
8.249999763458731
 12
0.0
 22
0.0
 32
0.0
 14
0.059341209582076
 24
0.120033277675283
 34
-0.0015258207003583
 15
10.38275101745838
 25
7.896178992058739
 35
0.0000000349246037
146
0.0
 13
0.0
 23
0.0
 33
0.0
 16
1.0
 26
0.0
 36
0.0
 17
0.0
 27
1.0
 37
0.0
 76
     0
330
B
331
18E
1001
ACAD_PSEXT
1000
None
1000
None
1000
Not applicable
1000
The layout will not be plotted unless a new plotter configuration name is selected.
1070
     0
  0
LAYOUT
  5
20
102
{ACAD_REACTORS
330
1E
102
}
330
1E
100
AcDbPlotSettings
  1

  2

  4

  6

 40
0.0
 41
0.0
 42
0.0
 43
0.0
 44
0.0
 45
0.0
 46
0.0
 47
0.0
 48
0.0
 49
0.0
140
0.0
141
0.0
142
1.0
143
1.0
 70
  1024
 72
     0
 73
     0
 74
     0
  7

 75
     0
147
1.0
 76
     0
 77
     2
 78
   300
148
0.0
149
0.0
100
AcDbLayout
  1
Model
 70
     0
 71
     0
 10
0.0
 20
0.0
 11
0.0
 21
0.0
 12
0.0
 22
0.0
 32
0.0
 14
0.0
 24
0.0
 34
0.0
 15
0.0
 25
0.0
 35
0.0
146
0.0
 13
0.0
 23
0.0
 33
0.0
 16
0.0
 26
0.0
 36
0.0
 17
0.0
 27
0.0
 37
0.0
 76
     0
330
A
  0
MATERIAL
  5
1A1
102
{ACAD_XDICTIONARY
360
226
102
}
102
{ACAD_REACTORS
330
185
102
}
330
185
100
AcDbMaterial
  1
ByBlock
 73
     1
 78
     1
172
     1
176
     1
270
     1
274
     1
  0
MATERIAL
  5
1A0
102
{ACAD_XDICTIONARY
360
224
102
}
102
{ACAD_REACTORS
330
185
102
}
330
185
100
AcDbMaterial
  1
ByLayer
 73
     1
 78
     1
172
     1
176
     1
270
     1
274
     1
  0
MATERIAL
  5
1A2
102
{ACAD_XDICTIONARY
360
228
102
}
102
{ACAD_REACTORS
330
185
102
}
330
185
100
AcDbMaterial
  1
Global
 73
     1
 78
     1
172
     1
176
     1
270
     1
274
     1
  0
MLEADERSTYLE
  5
1DE
102
{ACAD_REACTORS
330
1DD
102
}
330
1DD
100
AcDbMLeaderStyle
170
     2
171
     1
172
     0
 90
        2
 40
0.0
 41
0.0
173
     1
 91
-1056964608
340
11
 92
       -2
290
     1
 42
0.09
291
     1
 43
0.36
  3
Standard
 44
0.18
300

342
17
174
     1
178
     6
175
     1
176
     0
 93
-1056964608
 45
0.18
292
     0
297
     0
 46
0.18
 94
-1056964608
 47
1.0
 49
1.0
140
1.0
293
     1
141
0.0
294
     1
177
     0
142
1.0
295
     0
296
     0
143
0.125
1001
ACAD_MLEADERVER
1070
     2
  0
MLINESTYLE
  5
1C
102
{ACAD_REACTORS
330
1B
102
}
330
1B
100
AcDbMlineStyle
  2
STANDARD
 70
     0
  3

 62
     0
 51
90.0
 52
90.0
 71
     2
 49
0.5
 62
   256
  6
BYLAYER
 49
-0.5
 62
   256
  6
BYLAYER
  0
ACDBPLACEHOLDER
  5
1D
102
{ACAD_REACTORS
330
1F
102
}
330
1F
  0
SCALE
  5
1BC
102
{ACAD_REACTORS
330
1BB
102
}
330
1BB
100
AcDbScale
 70
     0
300
1:1
140
1.0
141
1.0
290
     1
  0
SCALE
  5
1BD
102
{ACAD_REACTORS
330
1BB
102
}
330
1BB
100
AcDbScale
 70
     0
300
1:2
140
1.0
141
2.0
290
     0
  0
SCALE
  5
1BE
102
{ACAD_REACTORS
330
1BB
102
}
330
1BB
100
AcDbScale
 70
     0
300
1:4
140
1.0
141
4.0
290
     0
  0
SCALE
  5
1BF
102
{ACAD_REACTORS
330
1BB
102
}
330
1BB
100
AcDbScale
 70
     0
300
1:5
140
1.0
141
5.0
290
     0
  0
SCALE
  5
1C0
102
{ACAD_REACTORS
330
1BB
102
}
330
1BB
100
AcDbScale
 70
     0
300
1:8
140
1.0
141
8.0
290
     0
  0
SCALE
  5
1C1
102
{ACAD_REACTORS
330
1BB
102
}
330
1BB
100
AcDbScale
 70
     0
300
1:10
140
1.0
141
10.0
290
     0
  0
SCALE
  5
1C2
102
{ACAD_REACTORS
330
1BB
102
}
330
1BB
100
AcDbScale
 70
     0
300
1:16
140
1.0
141
16.0
290
     0
  0
SCALE
  5
1C3
102
{ACAD_REACTORS
330
1BB
102
}
330
1BB
100
AcDbScale
 70
     0
300
1:20
140
1.0
141
20.0
290
     0
  0
SCALE
  5
1C4
102
{ACAD_REACTORS
330
1BB
102
}
330
1BB
100
AcDbScale
 70
     0
300
1:30
140
1.0
141
30.0
290
     0
  0
SCALE
  5
1C5
102
{ACAD_REACTORS
330
1BB
102
}
330
1BB
100
AcDbScale
 70
     0
300
1:40
140
1.0
141
40.0
290
     0
  0
SCALE
  5
1C6
102
{ACAD_REACTORS
330
1BB
102
}
330
1BB
100
AcDbScale
 70
     0
300
1:50
140
1.0
141
50.0
290
     0
  0
SCALE
  5
1C7
102
{ACAD_REACTORS
330
1BB
102
}
330
1BB
100
AcDbScale
 70
     0
300
1:100
140
1.0
141
100.0
290
     0
  0
SCALE
  5
1C8
102
{ACAD_REACTORS
330
1BB
102
}
330
1BB
100
AcDbScale
 70
     0
300
2:1
140
2.0
141
1.0
290
     0
  0
SCALE
  5
1C9
102
{ACAD_REACTORS
330
1BB
102
}
330
1BB
100
AcDbScale
 70
     0
300
4:1
140
4.0
141
1.0
290
     0
  0
SCALE
  5
1CA
102
{ACAD_REACTORS
330
1BB
102
}
330
1BB
100
AcDbScale
 70
     0
300
8:1
140
8.0
141
1.0
290
     0
  0
SCALE
  5
1CB
102
{ACAD_REACTORS
330
1BB
102
}
330
1BB
100
AcDbScale
 70
     0
300
10:1
140
10.0
141
1.0
290
     0
  0
SCALE
  5
1CC
102
{ACAD_REACTORS
330
1BB
102
}
330
1BB
100
AcDbScale
 70
     0
300
100:1
140
100.0
141
1.0
290
     0
  0
SCALE
  5
1CD
102
{ACAD_REACTORS
330
1BB
102
}
330
1BB
100
AcDbScale
 70
     0
300
1/128" = 1'-0"
140
0.0078125
141
12.0
290
     0
  0
SCALE
  5
1CE
102
{ACAD_REACTORS
330
1BB
102
}
330
1BB
100
AcDbScale
 70
     0
300
1/64" = 1'-0"
140
0.015625
141
12.0
290
     0
  0
SCALE
  5
1CF
102
{ACAD_REACTORS
330
1BB
102
}
330
1BB
100
AcDbScale
 70
     0
300
1/32" = 1'-0"
140
0.03125
141
12.0
290
     0
  0
SCALE
  5
1D0
102
{ACAD_REACTORS
330
1BB
102
}
330
1BB
100
AcDbScale
 70
     0
300
1/16" = 1'-0"
140
0.0625
141
12.0
290
     0
  0
SCALE
  5
1D1
102
{ACAD_REACTORS
330
1BB
102
}
330
1BB
100
AcDbScale
 70
     0
300
3/32" = 1'-0"
140
0.09375
141
12.0
290
     0
  0
SCALE
  5
1D2
102
{ACAD_REACTORS
330
1BB
102
}
330
1BB
100
AcDbScale
 70
     0
300
1/8" = 1'-0"
140
0.125
141
12.0
290
     0
  0
SCALE
  5
1D3
102
{ACAD_REACTORS
330
1BB
102
}
330
1BB
100
AcDbScale
 70
     0
300
3/16" = 1'-0"
140
0.1875
141
12.0
290
     0
  0
SCALE
  5
1D4
102
{ACAD_REACTORS
330
1BB
102
}
330
1BB
100
AcDbScale
 70
     0
300
1/4" = 1'-0"
140
0.25
141
12.0
290
     0
  0
SCALE
  5
1D5
102
{ACAD_REACTORS
330
1BB
102
}
330
1BB
100
AcDbScale
 70
     0
300
3/8" = 1'-0"
140
0.375
141
12.0
290
     0
  0
SCALE
  5
1D6
102
{ACAD_REACTORS
330
1BB
102
}
330
1BB
100
AcDbScale
 70
     0
300
1/2" = 1'-0"
140
0.5
141
12.0
290
     0
  0
SCALE
  5
1D7
102
{ACAD_REACTORS
330
1BB
102
}
330
1BB
100
AcDbScale
 70
     0
300
3/4" = 1'-0"
140
0.75
141
12.0
290
     0
  0
SCALE
  5
1D8
102
{ACAD_REACTORS
330
1BB
102
}
330
1BB
100
AcDbScale
 70
     0
300
1" = 1'-0"
140
1.0
141
12.0
290
     0
  0
SCALE
  5
1D9
102
{ACAD_REACTORS
330
1BB
102
}
330
1BB
100
AcDbScale
 70
     0
300
1-1/2" = 1'-0"
140
1.5
141
12.0
290
     0
  0
SCALE
  5
1DA
102
{ACAD_REACTORS
330
1BB
102
}
330
1BB
100
AcDbScale
 70
     0
300
3" = 1'-0"
140
3.0
141
12.0
290
     0
  0
SCALE
  5
1DB
102
{ACAD_REACTORS
330
1BB
102
}
330
1BB
100
AcDbScale
 70
     0
300
6" = 1'-0"
140
6.0
141
12.0
290
     0
  0
SCALE
  5
1DC
102
{ACAD_REACTORS
330
1BB
102
}
330
1BB
100
AcDbScale
 70
     0
300
1'-0" = 1'-0"
140
12.0
141
12.0
290
     0
  0
TABLESTYLE
  5
188
102
{ACAD_XDICTIONARY
360
220
102
}
102
{ACAD_REACTORS
330
187
102
}
330
187
100
AcDbTableStyle
  3
Standard
 70
     0
 71
     0
 40
0.06
 41
0.06
280
     0
281
     0
  7
Standard
140
0.18
170
     2
 62
     0
 63
     7
283
     0
274
    -2
284
     1
 64
     0
275
    -2
285
     1
 65
     0
276
    -2
286
     1
 66
     0
277
    -2
287
     1
 67
     0
278
    -2
288
     1
 68
     0
279
    -2
289
     1
 69
     0
  7
Standard
140
0.25
170
     5
 62
     0
 63
     7
283
     0
274
    -2
284
     1
 64
     0
275
    -2
285
     1
 65
     0
276
    -2
286
     1
 66
     0
277
    -2
287
     1
 67
     0
278
    -2
288
     1
 68
     0
279
    -2
289
     1
 69
     0
  7
Standard
140
0.18
170
     5
 62
     0
 63
     7
283
     0
274
    -2
284
     1
 64
     0
275
    -2
285
     1
 65
     0
276
    -2
286
     1
 66
     0
277
    -2
287
     1
 67
     0
278
    -2
288
     1
 68
     0
279
    -2
289
     1
 69
     0
  0
VISUALSTYLE
  5
1A9
102
{ACAD_REACTORS
330
1A3
102
}
330
1A3
100
AcDbVisualStyle
  2
2dWireframe
 70
     4
 71
     0
 72
     2
 73
     0
 90
        0
 40
-0.6
 41
-30.0
 62
     5
 63
     7
421
 16777215
 74
     1
 91
        4
 64
     7
 65
   257
 75
     1
175
     1
 42
1.0
 92
        0
 66
   257
 43
1.0
 76
     1
 77
     6
 78
     2
 67
     7
 79
     5
170
     0
171
     0
290
     0
174
     0
 93
        1
 44
0.0
173
     0
291
     0
 45
0.0
1001
ACAD
1000
AcDbSavedByObjectVersion
1070
     0
  0
VISUALSTYLE
  5
1AB
102
{ACAD_REACTORS
330
1A3
102
}
330
1A3
100
AcDbVisualStyle
  2
3D Hidden
 70
     6
 71
     1
 72
     2
 73
     2
 90
        0
 40
-0.6
 41
-30.0
 62
     5
 63
     7
421
 16777215
 74
     2
 91
        2
 64
     7
 65
   257
 75
     2
175
     1
 42
40.0
 92
        0
 66
   257
 43
1.0
 76
     1
 77
     6
 78
     2
 67
     7
 79
     3
170
     0
171
     0
290
     0
174
     0
 93
        1
 44
0.0
173
     0
291
     0
 45
0.0
1001
ACAD
1000
AcDbSavedByObjectVersion
1070
     0
  0
VISUALSTYLE
  5
1AA
102
{ACAD_REACTORS
330
1A3
102
}
330
1A3
100
AcDbVisualStyle
  2
3dWireframe
 70
     5
 71
     0
 72
     2
 73
     0
 90
        0
 40
-0.6
 41
-30.0
 62
     5
 63
     7
421
 16777215
 74
     1
 91
        4
 64
     7
 65
   257
 75
     1
175
     1
 42
1.0
 92
        0
 66
   257
 43
1.0
 76
     1
 77
     6
 78
     2
 67
     7
 79
     5
170
     0
171
     0
290
     0
174
     0
 93
        1
 44
0.0
173
     0
291
     0
 45
0.0
1001
ACAD
1000
AcDbSavedByObjectVersion
1070
     0
  0
VISUALSTYLE
  5
1A8
102
{ACAD_REACTORS
330
1A3
102
}
330
1A3
100
AcDbVisualStyle
  2
Basic
 70
     7
 71
     1
 72
     0
 73
     1
 90
        0
 40
-0.6
 41
-30.0
 62
     5
 63
     7
421
 16777215
 74
     0
 91
        4
 64
     7
 65
   257
 75
     1
175
     1
 42
1.0
 92
        8
 66
     7
 43
1.0
 76
     1
 77
     6
 78
     2
 67
     7
 79
     5
170
     0
171
     0
290
     0
174
     0
 93
        1
 44
0.0
173
     0
291
     1
 45
0.0
1001
ACAD
1000
AcDbSavedByObjectVersion
1070
     0
  0
VISUALSTYLE
  5
1AF
102
{ACAD_REACTORS
330
1A3
102
}
330
1A3
100
AcDbVisualStyle
  2
Brighten
 70
    12
 71
     2
 72
     2
 73
     0
 90
        0
 40
-0.6
 41
-30.0
 62
     5
 63
     7
421
 16777215
 74
     1
 91
        4
 64
     7
 65
   257
 75
     1
175
     1
 42
1.0
 92
        8
 66
     7
 43
1.0
 76
     1
 77
     6
 78
     2
 67
     7
 79
     5
170
     0
171
     0
290
     0
174
     0
 93
        1
 44
50.0
173
     0
291
     1
 45
0.0
1001
ACAD
1000
AcDbSavedByObjectVersion
1070
     0
  0
VISUALSTYLE
  5
1B3
102
{ACAD_REACTORS
330
1A3
102
}
330
1A3
100
AcDbVisualStyle
  2
ColorChange
 70
    16
 71
     2
 72
     2
 73
     3
 90
        0
 40
-0.6
 41
-30.0
 62
     5
 63
     8
421
  8421504
 74
     1
 91
        4
 64
     7
 65
   257
 75
     1
175
     1
 42
1.0
 92
        8
 66
     8
424
  8421504
 43
1.0
 76
     1
 77
     6
 78
     2
 67
     7
 79
     5
170
     0
171
     0
290
     0
174
     0
 93
        1
 44
0.0
173
     0
291
     1
 45
0.0
1001
ACAD
1000
AcDbSavedByObjectVersion
1070
     0
  0
VISUALSTYLE
  5
1AC
102
{ACAD_REACTORS
330
1A3
102
}
330
1A3
100
AcDbVisualStyle
  2
Conceptual
 70
     9
 71
     3
 72
     2
 73
     0
 90
        0
 40
-0.6
 41
-30.0
 62
     5
 63
     7
421
 16777215
 74
     2
 91
        2
 64
     7
 65
   257
 75
     1
175
     1
 42
40.0
 92
        8
 66
     7
 43
1.0
 76
     1
 77
     6
 78
     2
 67
     7
 79
     3
170
     0
171
     0
290
     0
174
     0
 93
        1
 44
0.0
173
     0
291
     0
 45
0.0
1001
ACAD
1000
AcDbSavedByObjectVersion
1070
     0
  0
VISUALSTYLE
  5
1AE
102
{ACAD_REACTORS
330
1A3
102
}
330
1A3
100
AcDbVisualStyle
  2
Dim
 70
    11
 71
     2
 72
     2
 73
     0
 90
        0
 40
-0.6
 41
-30.0
 62
     5
 63
     7
421
 16777215
 74
     1
 91
        4
 64
     7
 65
   257
 75
     1
175
     1
 42
1.0
 92
        8
 66
     7
 43
1.0
 76
     1
 77
     6
 78
     2
 67
     7
 79
     5
170
     0
171
     0
290
     0
174
     0
 93
        1
 44
-50.0
173
     0
291
     1
 45
0.0
1001
ACAD
1000
AcDbSavedByObjectVersion
1070
     0
  0
VISUALSTYLE
  5
1B2
102
{ACAD_REACTORS
330
1A3
102
}
330
1A3
100
AcDbVisualStyle
  2
Facepattern
 70
    15
 71
     2
 72
     2
 73
     0
 90
        0
 40
-0.6
 41
-30.0
 62
     5
 63
     7
421
 16777215
 74
     1
 91
        4
 64
     7
 65
   257
 75
     1
175
     1
 42
1.0
 92
        8
 66
     7
 43
1.0
 76
     1
 77
     6
 78
     2
 67
     7
 79
     5
170
     0
171
     0
290
     0
174
     0
 93
        1
 44
0.0
173
     0
291
     1
 45
0.0
1001
ACAD
1000
AcDbSavedByObjectVersion
1070
     0
  0
VISUALSTYLE
  5
1A4
102
{ACAD_REACTORS
330
1A3
102
}
330
1A3
100
AcDbVisualStyle
  2
Flat
 70
     0
 71
     2
 72
     1
 73
     1
 90
        2
 40
-0.6
 41
30.0
 62
     5
 63
     7
421
 16777215
 74
     0
 91
        4
 64
     7
 65
   257
 75
     1
175
     1
 42
1.0
 92
        8
 66
     7
 43
1.0
 76
     1
 77
     6
 78
     2
 67
     7
 79
     5
170
     0
171
     0
290
     0
174
     0
 93
       13
 44
0.0
173
     0
291
     1
 45
0.0
1001
ACAD
1000
AcDbSavedByObjectVersion
1070
     0
  0
VISUALSTYLE
  5
1A5
102
{ACAD_REACTORS
330
1A3
102
}
330
1A3
100
AcDbVisualStyle
  2
FlatWithEdges
 70
     1
 71
     2
 72
     1
 73
     1
 90
        2
 40
-0.6
 41
30.0
 62
     5
 63
     7
421
 16777215
 74
     1
 91
        4
 64
     7
 65
   257
 75
     1
175
     1
 42
1.0
 92
        0
 66
   257
 43
1.0
 76
     1
 77
     6
 78
     2
 67
     7
 79
     5
170
     0
171
     0
290
     0
174
     0
 93
       13
 44
0.0
173
     0
291
     1
 45
0.0
1001
ACAD
1000
AcDbSavedByObjectVersion
1070
     0
  0
VISUALSTYLE
  5
1A6
102
{ACAD_REACTORS
330
1A3
102
}
330
1A3
100
AcDbVisualStyle
  2
Gouraud
 70
     2
 71
     2
 72
     2
 73
     1
 90
        2
 40
-0.6
 41
30.0
 62
     5
 63
     7
421
 16777215
 74
     0
 91
        4
 64
     7
 65
   257
 75
     1
175
     1
 42
1.0
 92
        0
 66
     7
 43
1.0
 76
     1
 77
     6
 78
     2
 67
     7
 79
     5
170
     0
171
     0
290
     0
174
     0
 93
       13
 44
0.0
173
     0
291
     1
 45
0.0
1001
ACAD
1000
AcDbSavedByObjectVersion
1070
     0
  0
VISUALSTYLE
  5
1A7
102
{ACAD_REACTORS
330
1A3
102
}
330
1A3
100
AcDbVisualStyle
  2
GouraudWithEdges
 70
     3
 71
     2
 72
     2
 73
     1
 90
        2
 40
-0.6
 41
30.0
 62
     5
 63
     7
421
 16777215
 74
     1
 91
        4
 64
     7
 65
   257
 75
     1
175
     1
 42
1.0
 92
        0
 66
   257
 43
1.0
 76
     1
 77
     6
 78
     2
 67
     7
 79
     5
170
     0
171
     0
290
     0
174
     0
 93
       13
 44
0.0
173
     0
291
     1
 45
0.0
1001
ACAD
1000
AcDbSavedByObjectVersion
1070
     0
  0
VISUALSTYLE
  5
1B1
102
{ACAD_REACTORS
330
1A3
102
}
330
1A3
100
AcDbVisualStyle
  2
Linepattern
 70
    14
 71
     2
 72
     2
 73
     0
 90
        0
 40
-0.6
 41
-30.0
 62
     5
 63
     7
421
 16777215
 74
     1
 91
        4
 64
     7
 65
   257
 75
     7
175
     7
 42
1.0
 92
        8
 66
     7
 43
1.0
 76
     1
 77
     6
 78
     2
 67
     7
 79
     5
170
     0
171
     0
290
     0
174
     0
 93
        1
 44
0.0
173
     0
291
     1
 45
0.0
1001
ACAD
1000
AcDbSavedByObjectVersion
1070
     0
  0
VISUALSTYLE
  5
1AD
102
{ACAD_REACTORS
330
1A3
102
}
330
1A3
100
AcDbVisualStyle
  2
Realistic
 70
     8
 71
     2
 72
     2
 73
     0
 90
        0
 40
-0.6
 41
-30.0
 62
     5
 63
     7
421
 16777215
 74
     1
 91
        0
 64
     7
 65
   257
 75
     1
175
     1
 42
1.0
 92
        8
 66
     8
424
  7895160
 43
1.0
 76
     1
 77
     6
 78
     2
 67
     7
 79
     5
170
     0
171
     0
290
     0
174
     0
 93
       13
 44
0.0
173
     0
291
     0
 45
0.0
1001
ACAD
1000
AcDbSavedByObjectVersion
1070
     0
  0
VISUALSTYLE
  5
1B0
102
{ACAD_REACTORS
330
1A3
102
}
330
1A3
100
AcDbVisualStyle
  2
Thicken
 70
    13
 71
     2
 72
     2
 73
     0
 90
        0
 40
-0.6
 41
-30.0
 62
     5
 63
     7
421
 16777215
 74
     1
 91
        4
 64
     7
 65
   257
 75
     1
175
     1
 42
1.0
 92
       12
 66
     7
 43
1.0
 76
     1
 77
     6
 78
     2
 67
     7
 79
     5
170
     0
171
     0
290
     0
174
     0
 93
        1
 44
0.0
173
     0
291
     1
 45
0.0
1001
ACAD
1000
AcDbSavedByObjectVersion
1070
     0
  0
DICTIONARYVAR
  5
206
102
{ACAD_REACTORS
330
19B
102
}
330
19B
100
DictionaryVariables
280
     0
  1
1:1
  0
DICTIONARYVAR
  5
205
102
{ACAD_REACTORS
330
19B
102
}
330
19B
100
DictionaryVariables
280
     0
  1
STANDARD
  0
DICTIONARYVAR
  5
19C
102
{ACAD_REACTORS
330
19B
102
}
330
19B
100
DictionaryVariables
280
     0
  1
STANDARD
  0
DICTIONARYVAR
  5
19D
102
{ACAD_REACTORS
330
19B
102
}
330
19B
100
DictionaryVariables
280
     0
  1
1
  0
DICTIONARYVAR
  5
19E
102
{ACAD_REACTORS
330
19B
102
}
330
19B
100
DictionaryVariables
280
     0
  1

  0
XRECORD
  5
1B9
102
{ACAD_REACTORS
330
1B7
102
}
330
1B7
100
AcDbXrecord
280
     1
  0
DICTIONARY
  5
226
330
1A1
100
AcDbDictionary
280
     1
281
     1
  3
ACAD_XREC_ROUNDTRIP
360
227
  0
DICTIONARY
  5
224
330
1A0
100
AcDbDictionary
280
     1
281
     1
  3
ACAD_XREC_ROUNDTRIP
360
225
  0
DICTIONARY
  5
228
330
1A2
100
AcDbDictionary
280
     1
281
     1
  3
ACAD_XREC_ROUNDTRIP
360
229
  0
DICTIONARY
  5
220
330
188
100
AcDbDictionary
280
     1
281
     1
  3
ACAD_ROUNDTRIP_2008_TABLESTYLE_CELLSTYLEMAP
360
221
  3
ACAD_XREC_ROUNDTRIP
360
223
  0
XRECORD
  5
227
102
{ACAD_REACTORS
330
226
102
}
330
226
100
AcDbXrecord
280
     1
102
MATERIAL
148
0.0
149
0.0
149
0.0
 93
        0
 94
       63
282
     0
 72
     1
 77
     1
171
     1
175
     1
179
     1
273
     0
  0
XRECORD
  5
225
102
{ACAD_REACTORS
330
224
102
}
330
224
100
AcDbXrecord
280
     1
102
MATERIAL
148
0.0
149
0.0
149
0.0
 93
        0
 94
       63
282
     0
 72
     1
 77
     1
171
     1
175
     1
179
     1
273
     0
  0
XRECORD
  5
229
102
{ACAD_REACTORS
330
228
102
}
330
228
100
AcDbXrecord
280
     1
102
MATERIAL
148
0.0
149
0.0
149
0.0
 93
        0
 94
       63
282
     0
 72
     1
 77
     1
171
     1
175
     1
179
     1
273
     0
  0
CELLSTYLEMAP
  5
221
102
{ACAD_REACTORS
330
220
102
}
330
220
100
AcDbCellStyleMap
 90
        3
300
CELLSTYLE
  1
TABLEFORMAT_BEGIN
 90
        5
170
     1
 91
        0
 92
    32768
 62
   257
 93
        1
300
CONTENTFORMAT
  1
CONTENTFORMAT_BEGIN
 90
        0
 91
        0
 92
        4
 93
        0
300

 40
0.0
140
1.0
 94
        5
 62
     0
340
17
144
0.25
309
CONTENTFORMAT_END
171
     0
 94
        6
 95
        1
302
GRIDFORMAT
  1
GRIDFORMAT_BEGIN
 90
        0
 91
        1
 62
     0
 92
       -2
340
0
 93
        0
 40
0.045
309
GRIDFORMAT_END
 95
        2
302
GRIDFORMAT
  1
GRIDFORMAT_BEGIN
 90
        0
 91
        1
 62
     0
 92
       -2
340
0
 93
        0
 40
0.045
309
GRIDFORMAT_END
 95
        4
302
GRIDFORMAT
  1
GRIDFORMAT_BEGIN
 90
        0
 91
        1
 62
     0
 92
       -2
340
0
 93
        0
 40
0.045
309
GRIDFORMAT_END
 95
        8
302
GRIDFORMAT
  1
GRIDFORMAT_BEGIN
 90
        0
 91
        1
 62
     0
 92
       -2
340
0
 93
        0
 40
0.045
309
GRIDFORMAT_END
 95
       16
302
GRIDFORMAT
  1
GRIDFORMAT_BEGIN
 90
        0
 91
        1
 62
     0
 92
       -2
340
0
 93
        0
 40
0.045
309
GRIDFORMAT_END
 95
       32
302
GRIDFORMAT
  1
GRIDFORMAT_BEGIN
 90
        0
 91
        1
 62
     0
 92
       -2
340
0
 93
        0
 40
0.045
309
GRIDFORMAT_END
309
TABLEFORMAT_END
  1
CELLSTYLE_BEGIN
 90
        1
 91
        1
300
_TITLE
309
CELLSTYLE_END
300
CELLSTYLE
  1
TABLEFORMAT_BEGIN
 90
        5
170
     1
 91
        0
 92
        0
 62
   257
 93
        1
300
CONTENTFORMAT
  1
CONTENTFORMAT_BEGIN
 90
        0
 91
        0
 92
        4
 93
        0
300

 40
0.0
140
1.0
 94
        5
 62
     0
340
17
144
0.18
309
CONTENTFORMAT_END
171
     0
 94
        6
 95
        1
302
GRIDFORMAT
  1
GRIDFORMAT_BEGIN
 90
        0
 91
        1
 62
     0
 92
       -2
340
0
 93
        0
 40
0.045
309
GRIDFORMAT_END
 95
        2
302
GRIDFORMAT
  1
GRIDFORMAT_BEGIN
 90
        0
 91
        1
 62
     0
 92
       -2
340
0
 93
        0
 40
0.045
309
GRIDFORMAT_END
 95
        4
302
GRIDFORMAT
  1
GRIDFORMAT_BEGIN
 90
        0
 91
        1
 62
     0
 92
       -2
340
0
 93
        0
 40
0.045
309
GRIDFORMAT_END
 95
        8
302
GRIDFORMAT
  1
GRIDFORMAT_BEGIN
 90
        0
 91
        1
 62
     0
 92
       -2
340
0
 93
        0
 40
0.045
309
GRIDFORMAT_END
 95
       16
302
GRIDFORMAT
  1
GRIDFORMAT_BEGIN
 90
        0
 91
        1
 62
     0
 92
       -2
340
0
 93
        0
 40
0.045
309
GRIDFORMAT_END
 95
       32
302
GRIDFORMAT
  1
GRIDFORMAT_BEGIN
 90
        0
 91
        1
 62
     0
 92
       -2
340
0
 93
        0
 40
0.045
309
GRIDFORMAT_END
309
TABLEFORMAT_END
  1
CELLSTYLE_BEGIN
 90
        2
 91
        1
300
_HEADER
309
CELLSTYLE_END
300
CELLSTYLE
  1
TABLEFORMAT_BEGIN
 90
        5
170
     1
 91
        0
 92
        0
 62
   257
 93
        1
300
CONTENTFORMAT
  1
CONTENTFORMAT_BEGIN
 90
        0
 91
        0
 92
        4
 93
        0
300

 40
0.0
140
1.0
 94
        2
 62
     0
340
17
144
0.18
309
CONTENTFORMAT_END
171
     0
 94
        6
 95
        1
302
GRIDFORMAT
  1
GRIDFORMAT_BEGIN
 90
        0
 91
        1
 62
     0
 92
       -2
340
0
 93
        0
 40
0.045
309
GRIDFORMAT_END
 95
        2
302
GRIDFORMAT
  1
GRIDFORMAT_BEGIN
 90
        0
 91
        1
 62
     0
 92
       -2
340
0
 93
        0
 40
0.045
309
GRIDFORMAT_END
 95
        4
302
GRIDFORMAT
  1
GRIDFORMAT_BEGIN
 90
        0
 91
        1
 62
     0
 92
       -2
340
0
 93
        0
 40
0.045
309
GRIDFORMAT_END
 95
        8
302
GRIDFORMAT
  1
GRIDFORMAT_BEGIN
 90
        0
 91
        1
 62
     0
 92
       -2
340
0
 93
        0
 40
0.045
309
GRIDFORMAT_END
 95
       16
302
GRIDFORMAT
  1
GRIDFORMAT_BEGIN
 90
        0
 91
        1
 62
     0
 92
       -2
340
0
 93
        0
 40
0.045
309
GRIDFORMAT_END
 95
       32
302
GRIDFORMAT
  1
GRIDFORMAT_BEGIN
 90
        0
 91
        1
 62
     0
 92
       -2
340
0
 93
        0
 40
0.045
309
GRIDFORMAT_END
309
TABLEFORMAT_END
  1
CELLSTYLE_BEGIN
 90
        3
 91
        2
300
_DATA
309
CELLSTYLE_END
  0
XRECORD
  5
223
102
{ACAD_REACTORS
330
220
102
}
330
220
100
AcDbXrecord
280
     1
102
ACAD_ROUNDTRIP_PRE2007_TABLESTYLE
 90
        4
 91
        0
  1

 92
        4
 93
        0
  2

 94
        4
 95
        0
  3

  0
ENDSEC
  0
EOF
