  0
SECTION
  2
HEADER
  9
$ACADVER
  1
AC1018
  9
$ACADMAINTVER
 70
   104
  9
$DWGCODEPAGE
  3
ANSI_1252
  9
$LASTSAVEDBY
  1
EARL
  9
$INSBASE
 10
0.0
 20
0.0
 30
0.0
  9
$EXTMIN
 10
-1.916713863909543
 20
-0.1392070178943918
 30
0.0
  9
$EXTMAX
 10
1.00000004969577
 20
2.643335580825805
 30
0.0
  9
$LIMMIN
 10
0.0
 20
0.0
  9
$LIMMAX
 10
0.0
 20
0.0
  9
$ORTHOMODE
 70
     0
  9
$REGENMODE
 70
     1
  9
$FILLMODE
 70
     1
  9
$QTEXTMODE
 70
     0
  9
$MIRRTEXT
 70
     1
  9
$LTSCALE
 40
1.0
  9
$ATTMODE
 70
     1
  9
$TEXTSIZE
 40
0.0
  9
$TRACEWID
 40
0.05
  9
$TEXTSTYLE
  7
Standard
  9
$CLAYER
  8
0
  9
$CELTYPE
  6
Continuous
  9
$CECOLOR
 62
   256
  9
$CELTSCALE
 40
1.0
  9
$DISPSILH
 70
     0
  9
$DIMSCALE
 40
1.0
  9
$DIMASZ
 40
0.18
  9
$DIMEXO
 40
0.0625
  9
$DIMDLI
 40
0.38
  9
$DIMRND
 40
0.0
  9
$DIMDLE
 40
0.0
  9
$DIMEXE
 40
0.18
  9
$DIMTP
 40
0.0
  9
$DIMTM
 40
0.0
  9
$DIMTXT
 40
0.18
  9
$DIMCEN
 40
0.09
  9
$DIMTSZ
 40
0.0
  9
$DIMTOL
 70
     0
  9
$DIMLIM
 70
     0
  9
$DIMTIH
 70
     1
  9
$DIMTOH
 70
     1
  9
$DIMSE1
 70
     0
  9
$DIMSE2
 70
     0
  9
$DIMTAD
 70
     0
  9
$DIMZIN
 70
     0
  9
$DIMBLK
  1

  9
$DIMASO
 70
     1
  9
$DIMSHO
 70
     1
  9
$DIMPOST
  1

  9
$DIMAPOST
  1

  9
$DIMALT
 70
     0
  9
$DIMALTD
 70
     2
  9
$DIMALTF
 40
25.4
  9
$DIMLFAC
 40
1.0
  9
$DIMTOFL
 70
     0
  9
$DIMTVP
 40
0.0
  9
$DIMTIX
 70
     0
  9
$DIMSOXD
 70
     0
  9
$DIMSAH
 70
     0
  9
$DIMBLK1
  1

  9
$DIMBLK2
  1

  9
$DIMSTYLE
  2
Standard
  9
$DIMCLRD
 70
     0
  9
$DIMCLRE
 70
     0
  9
$DIMCLRT
 70
     0
  9
$DIMTFAC
 40
1.0
  9
$DIMGAP
 40
0.09
  9
$DIMJUST
 70
     0
  9
$DIMSD1
 70
     0
  9
$DIMSD2
 70
     0
  9
$DIMTOLJ
 70
     1
  9
$DIMTZIN
 70
     0
  9
$DIMALTZ
 70
     0
  9
$DIMALTTZ
 70
     0
  9
$DIMUPT
 70
     0
  9
$DIMDEC
 70
     4
  9
$DIMTDEC
 70
     4
  9
$DIMALTU
 70
     2
  9
$DIMALTTD
 70
     2
  9
$DIMTXSTY
  7
Standard
  9
$DIMAUNIT
 70
     0
  9
$DIMADEC
 70
     0
  9
$DIMALTRND
 40
0.0
  9
$DIMAZIN
 70
     0
  9
$DIMDSEP
 70
    46
  9
$DIMATFIT
 70
     0
  9
$DIMFRAC
 70
     0
  9
$DIMLDRBLK
  1

  9
$DIMLUNIT
 70
     2
  9
$DIMLWD
 70
    -2
  9
$DIMLWE
 70
    -2
  9
$DIMTMOVE
 70
     0
  9
$LUNITS
 70
     2
  9
$LUPREC
 70
     4
  9
$SKETCHINC
 40
0.1
  9
$FILLETRAD
 40
0.0
  9
$AUNITS
 70
     0
  9
$AUPREC
 70
     0
  9
$MENU
  1
acad
  9
$ELEVATION
 40
0.0
  9
$PELEVATION
 40
0.0
  9
$THICKNESS
 40
0.0
  9
$LIMCHECK
 70
     0
  9
$CHAMFERA
 40
0.0
  9
$CHAMFERB
 40
0.0
  9
$CHAMFERC
 40
0.0
  9
$CHAMFERD
 40
0.0
  9
$SKPOLY
 70
     0
  9
$TDCREATE
 40
2454509.427175926
  9
$TDUCREATE
 40
2454509.593842593
  9
$TDUPDATE
 40
2455104.584865452
  9
$TDUUPDATE
 40
2455104.751532118
  9
$TDINDWG
 40
0.0013067824
  9
$TDUSRTIMER
 40
0.0013067824
  9
$USRTIMER
 70
     1
  9
$ANGBASE
 50
0.0
  9
$ANGDIR
 70
     0
  9
$PDMODE
 70
     0
  9
$PDSIZE
 40
0.0
  9
$PLINEWID
 40
0.0
  9
$SPLFRAME
 70
     0
  9
$SPLINETYPE
 70
     6
  9
$SPLINESEGS
 70
     8
  9
$HANDSEED
  5
15E
  9
$SURFTAB1
 70
     6
  9
$SURFTAB2
 70
     6
  9
$SURFTYPE
 70
     6
  9
$SURFU
 70
     6
  9
$SURFV
 70
     6
  9
$UCSBASE
  2

  9
$UCSNAME
  2

  9
$UCSORG
 10
0.0
 20
0.0
 30
0.0
  9
$UCSXDIR
 10
1.0
 20
0.0
 30
0.0
  9
$UCSYDIR
 10
0.0
 20
1.0
 30
0.0
  9
$UCSORTHOREF
  2

  9
$UCSORTHOVIEW
 70
     0
  9
$UCSORGTOP
 10
0.0
 20
0.0
 30
0.0
  9
$UCSORGBOTTOM
 10
0.0
 20
0.0
 30
0.0
  9
$UCSORGLEFT
 10
0.0
 20
0.0
 30
0.0
  9
$UCSORGRIGHT
 10
0.0
 20
0.0
 30
0.0
  9
$UCSORGFRONT
 10
0.0
 20
0.0
 30
0.0
  9
$UCSORGBACK
 10
0.0
 20
0.0
 30
0.0
  9
$PUCSBASE
  2

  9
$PUCSNAME
  2

  9
$PUCSORG
 10
0.0
 20
0.0
 30
0.0
  9
$PUCSXDIR
 10
1.0
 20
0.0
 30
0.0
  9
$PUCSYDIR
 10
0.0
 20
1.0
 30
0.0
  9
$PUCSORTHOREF
  2

  9
$PUCSORTHOVIEW
 70
     0
  9
$PUCSORGTOP
 10
0.0
 20
0.0
 30
0.0
  9
$PUCSORGBOTTOM
 10
0.0
 20
0.0
 30
0.0
  9
$PUCSORGLEFT
 10
0.0
 20
0.0
 30
0.0
  9
$PUCSORGRIGHT
 10
0.0
 20
0.0
 30
0.0
  9
$PUCSORGFRONT
 10
0.0
 20
0.0
 30
0.0
  9
$PUCSORGBACK
 10
0.0
 20
0.0
 30
0.0
  9
$USERI1
 70
     0
  9
$USERI2
 70
     0
  9
$USERI3
 70
     0
  9
$USERI4
 70
     0
  9
$USERI5
 70
     0
  9
$USERR1
 40
0.0
  9
$USERR2
 40
0.0
  9
$USERR3
 40
0.0
  9
$USERR4
 40
0.0
  9
$USERR5
 40
0.0
  9
$WORLDVIEW
 70
     1
  9
$SHADEDGE
 70
     3
  9
$SHADEDIF
 70
    70
  9
$TILEMODE
 70
     0
  9
$MAXACTVP
 70
    16
  9
$PINSBASE
 10
0.0
 20
0.0
 30
0.0
  9
$PLIMCHECK
 70
     0
  9
$PEXTMIN
 10
-0.1437983215330725
 20
-0.0610198723760078
 30
-0.0015258207003583
  9
$PEXTMAX
 10
10.37683133089736
 20
8.051048074112895
 30
0.0000000349246037
  9
$PLIMMIN
 10
-0.3306119115190196
 20
-0.2812499079328949
  9
$PLIMMAX
 10
10.66938784818509
 20
8.218749851771214
  9
$UNITMODE
 70
     0
  9
$VISRETAIN
 70
     0
  9
$PLINEGEN
 70
     1
  9
$PSLTSCALE
 70
     0
  9
$TREEDEPTH
 70
  3020
  9
$CMLSTYLE
  2
Standard
  9
$CMLJUST
 70
     0
  9
$CMLSCALE
 40
1.0
  9
$PROXYGRAPHICS
 70
     0
  9
$MEASUREMENT
 70
     0
  9
$CELWEIGHT
370
     0
  9
$ENDCAPS
280
     0
  9
$JOINSTYLE
280
     0
  9
$LWDISPLAY
290
     0
  9
$INSUNITS
 70
     0
  9
$HYPERLINKBASE
  1

  9
$STYLESHEET
  1

  9
$XEDIT
290
     1
  9
$CEPSNTYPE
380
     0
  9
$PSTYLEMODE
290
     1
  9
$FINGERPRINTGUID
  2

  9
$VERSIONGUID
  2
{B7ECD23E-9793-448F-AEAC-C7534E52983D}
  9
$EXTNAMES
290
     1
  9
$PSVPSCALE
 40
0.0
  9
$OLESTARTUP
290
     0
  9
$SORTENTS
280
   127
  9
$INDEXCTL
280
     0
  9
$HIDETEXT
280
     0
  9
$XCLIPFRAME
290
     0
  9
$HALOGAP
280
     0
  9
$OBSCOLOR
 70
   257
  9
$OBSLTYPE
280
     0
  9
$INTERSECTIONDISPLAY
280
     0
  9
$INTERSECTIONCOLOR
 70
   257
  9
$DIMASSOC
280
     1
  9
$PROJECTNAME
  1

  0
ENDSEC
  0
SECTION
  2
CLASSES
  0
CLASS
  1
IMAGE
  2
AcDbRasterImage
  3
ISM
 90
     2175
 91
        0
280
     0
281
     1
  0
CLASS
  1
DICTIONARYVAR
  2
AcDbDictionaryVar
  3
ObjectDBX Classes
 90
        0
 91
        5
280
     0
281
     0
  0
CLASS
  1
RASTERVARIABLES
  2
AcDbRasterVariables
  3
ISM
 90
        0
 91
        0
280
     0
281
     0
  0
CLASS
  1
IMAGEDEF
  2
AcDbRasterImageDef
  3
ISM
 90
        0
 91
        0
280
     0
281
     0
  0
CLASS
  1
IMAGEDEF_REACTOR
  2
AcDbRasterImageDefReactor
  3
ISM
 90
        1
 91
        0
280
     0
281
     0
  0
CLASS
  1
IDBUFFER
  2
AcDbIdBuffer
  3
ObjectDBX Classes
 90
        0
 91
        0
280
     0
281
     0
  0
CLASS
  1
SPATIAL_FILTER
  2
AcDbSpatialFilter
  3
ObjectDBX Classes
 90
        0
 91
        0
280
     0
281
     0
  0
CLASS
  1
SORTENTSTABLE
  2
AcDbSortentsTable
  3
ObjectDBX Classes
 90
        0
 91
        1
280
     0
281
     0
  0
CLASS
  1
LAYER_INDEX
  2
AcDbLayerIndex
  3
ObjectDBX Classes
 90
        0
 91
        0
280
     0
281
     0
  0
CLASS
  1
SPATIAL_INDEX
  2
AcDbSpatialIndex
  3
ObjectDBX Classes
 90
        0
 91
        0
280
     0
281
     0
  0
CLASS
  1
OBJECT_PTR
  2
CAseDLPNTableRecord
  3
ASE-LPNTableRecord
 90
        1
 91
        0
280
     0
281
     0
  0
CLASS
  1
PLOTSETTINGS
  2
AcDbPlotSettings
  3
ObjectDBX Classes
 90
        0
 91
        0
280
     0
281
     0
  0
CLASS
  1
ACDBDICTIONARYWDFLT
  2
AcDbDictionaryWithDefault
  3
ObjectDBX Classes
 90
        0
 91
        1
280
     0
281
     0
  0
CLASS
  1
WIPEOUT
  2
AcDbWipeout
  3
"WipeOut|Product Desc: Object Enabler for WipeOut entity                        |Company: Autodesk, Inc.                        |WEB Address: www.autodesk.com"
 90
     2175
 91
        0
280
     0
281
     1
  0
CLASS
  1
WIPEOUTVARIABLES
  2
AcDbWipeoutVariables
  3
"WipeOut|Product Desc:     WipeOut Dbx Application|Company:          Autodesk, Inc.|WEB Address:      www.autodesk.com"
 90
        0
 91
        1
280
     0
281
     0
  0
CLASS
  1
RTEXT
  2
RText
  3
RText|AutoCAD Express Tool|expresstools@autodesk.com
 90
     3071
 91
        0
280
     0
281
     1
  0
CLASS
  1
ARCALIGNEDTEXT
  2
AcDbArcAlignedText
  3
ATEXT|AutoCAD Express Tool|expresstools@autodesk.com
 90
        0
 91
        0
280
     0
281
     1
  0
CLASS
  1
MATERIAL
  2
AcDbMaterial
  3
ObjectDBX Classes
 90
     1153
 91
        3
280
     0
281
     0
  0
CLASS
  1
VISUALSTYLE
  2
AcDbVisualStyle
  3
ObjectDBX Classes
 90
     4095
 91
       16
280
     0
281
     0
  0
CLASS
  1
TABLESTYLE
  2
AcDbTableStyle
  3
ObjectDBX Classes
 90
     4095
 91
        1
280
     0
281
     0
  0
CLASS
  1
SCALE
  2
AcDbScale
  3
ObjectDBX Classes
 90
     1153
 91
       33
280
     0
281
     0
  0
CLASS
  1
MLEADERSTYLE
  2
AcDbMLeaderStyle
  3
ACDB_MLEADERSTYLE_CLASS
 90
     4095
 91
        1
280
     0
281
     0
  0
CLASS
  1
CELLSTYLEMAP
  2
AcDbCellStyleMap
  3
ObjectDBX Classes
 90
     1152
 91
        3
280
     0
281
     0
  0
ENDSEC
  0
SECTION
  2
TABLES
  0
TABLE
  2
VPORT
  5
7
330
0
100
AcDbSymbolTable
 70
     1
  0
VPORT
  5
15
330
7
100
AcDbSymbolTableRecord
100
AcDbViewportTableRecord
  2
*ACTIVE
 70
     0
 10
0.0
 20
0.0
 11
1.0
 21
1.0
 12
13.28065635736906
 22
4.579183999999999
 13
0.0
 23
0.0
 14
1.0
 24
1.0
 15
0.0
 25
0.0
 16
0.0
 26
0.0
 36
1.0
 17
0.0
 27
0.0
 37
0.0
 40
9.158369
 41
2.149384885764499
 42
50.0
 43
0.0
 44
0.0
 50
0.0
 51
0.0
 71
     0
 72
   100
 73
     1
 74
     1
 75
     0
 76
     0
 77
     0
 78
     0
281
     0
 65
     0
110
0.0
120
0.0
130
0.0
111
1.0
121
0.0
131
0.0
112
0.0
122
1.0
132
0.0
 79
     0
146
0.0
  0
ENDTAB
  0
TABLE
  2
LTYPE
  5
4
330
0
100
AcDbSymbolTable
 70
     5
  0
LTYPE
  5
11
330
4
100
AcDbSymbolTableRecord
100
AcDbLinetypeTableRecord
  2
ByBlock
 70
     0
  3

 72
    65
 73
     0
 40
0.0
  0
LTYPE
  5
12
330
4
100
AcDbSymbolTableRecord
100
AcDbLinetypeTableRecord
  2
ByLayer
 70
     0
  3

 72
    65
 73
     0
 40
0.0
  0
LTYPE
  5
13
330
4
100
AcDbSymbolTableRecord
100
AcDbLinetypeTableRecord
  2
Continuous
 70
     0
  3
Solid line
 72
    65
 73
     0
 40
0.0
  0
LTYPE
  5
24
330
4
100
AcDbSymbolTableRecord
100
AcDbLinetypeTableRecord
  2
solid
 70
     0
  3

 72
    65
 73
     0
 40
0.0
  0
LTYPE
  5
25
330
4
100
AcDbSymbolTableRecord
100
AcDbLinetypeTableRecord
  2
dashed
 70
     0
  3

 72
    65
 73
     0
 40
0.0
  0
LTYPE
  5
26
330
4
100
AcDbSymbolTableRecord
100
AcDbLinetypeTableRecord
  2
center
 70
     0
  3

 72
    65
 73
     0
 40
0.0
  0
ENDTAB
  0
TABLE
  2
LAYER
  5
2
330
0
100
AcDbSymbolTable
 70
     2
  0
LAYER
  5
14
102
{ACAD_XDICTIONARY
360
111
102
}
330
2
100
AcDbSymbolTableRecord
100
AcDbLayerTableRecord
  2
0
 70
     0
 62
     7
  6
Continuous
370
    -3
390
1D
  0
LAYER
  5
27
102
{ACAD_XDICTIONARY
360
113
102
}
330
2
100
AcDbSymbolTableRecord
100
AcDbLayerTableRecord
  2
1
 70
     0
 62
     1
  6
solid
370
    -3
390
1D
  0
ENDTAB
  0
TABLE
  2
STYLE
  5
3
330
0
100
AcDbSymbolTable
 70
     3
  0
STYLE
  5
17
330
3
100
AcDbSymbolTableRecord
100
AcDbTextStyleTableRecord
  2
Standard
 70
     0
 40
0.0
 41
1.0
 50
0.0
 71
     0
 42
0.0
  3
txt
  4

  0
ENDTAB
  0
TABLE
  2
VIEW
  5
5
330
0
100
AcDbSymbolTable
 70
     0
  0
ENDTAB
  0
TABLE
  2
UCS
  5
6
330
0
100
AcDbSymbolTable
 70
     0
  0
ENDTAB
  0
TABLE
  2
APPID
  5
8
330
0
100
AcDbSymbolTable
 70
     4
  0
APPID
  5
16
330
8
100
AcDbSymbolTableRecord
100
AcDbRegAppTableRecord
  2
ACAD
 70
     0
  0
APPID
  5
DC
330
8
100
AcDbSymbolTableRecord
100
AcDbRegAppTableRecord
  2
ACAD_PSEXT
 70
     0
  0
APPID
  5
E1
330
8
100
AcDbSymbolTableRecord
100
AcDbRegAppTableRecord
  2
DCO15
 70
     0
  0
APPID
  5
10A
330
8
100
AcDbSymbolTableRecord
100
AcDbRegAppTableRecord
  2
ACAD_MLEADERVER
 70
     0
  0
ENDTAB
  0
TABLE
  2
DIMSTYLE
  5
9
330
0
100
AcDbSymbolTable
 70
     4
100
AcDbDimStyleTable
 71
     1
340
18
  0
DIMSTYLE
105
18
102
{ACAD_REACTORS
330
5A
102
}
330
9
100
AcDbSymbolTableRecord
100
AcDbDimStyleTableRecord
  2
Standard
 70
     0
289
     0
340
17
  0
ENDTAB
  0
TABLE
  2
BLOCK_RECORD
  5
1
330
0
100
AcDbSymbolTable
 70
     5
  0
BLOCK_RECORD
  5
A
102
{ACAD_XDICTIONARY
360
14C
102
}
330
1
100
AcDbSymbolTableRecord
100
AcDbBlockTableRecord
  2
*MODEL_SPACE
340
20
  0
BLOCK_RECORD
  5
B
330
1
100
AcDbSymbolTableRecord
100
AcDbBlockTableRecord
  2
*PAPER_SPACE
340
21
  0
BLOCK_RECORD
  5
50
330
1
100
AcDbSymbolTableRecord
100
AcDbBlockTableRecord
  2
*D0
340
0
  0
BLOCK_RECORD
  5
5B
330
1
100
AcDbSymbolTableRecord
100
AcDbBlockTableRecord
  2
*D1
340
0
  0
ENDTAB
  0
ENDSEC
  0
SECTION
  2
BLOCKS
  0
BLOCK
  5
D
330
A
100
AcDbEntity
  8
0
100
AcDbBlockBegin
  2
*MODEL_SPACE
 70
     0
 10
0.0
 20
0.0
 30
0.0
  3
*MODEL_SPACE
  1

  0
ENDBLK
  5
E
330
A
100
AcDbEntity
  8
0
100
AcDbBlockEnd
  0
BLOCK
  5
F
330
B
100
AcDbEntity
 67
     1
  8
0
100
AcDbBlockBegin
  2
*PAPER_SPACE
 70
     0
 10
0.0
 20
0.0
 30
0.0
  3
*PAPER_SPACE
  1

  0
ENDBLK
  5
10
330
B
100
AcDbEntity
 67
     1
  8
0
100
AcDbBlockEnd
  0
BLOCK
  5
51
330
50
100
AcDbEntity
  8
1
  6
solid
 62
     0
100
AcDbBlockBegin
  2
*D0
 70
     0
 10
0.0
 20
0.0
 30
0.0
  3
*D0
  1

  0
LINE
  5
52
330
50
100
AcDbEntity
  8
1
  6
solid
 62
     0
100
AcDbLine
 10
-1.170252919197082
 20
0.0087424032390117
 30
0.0
 11
-0.8407955863017788
 21
0.0087424032390115
 31
0.0
  0
LINE
  5
53
330
50
100
AcDbEntity
  8
1
  6
solid
 62
     0
100
AcDbLine
 10
-1.170252919197082
 20
2.508742332458496
 30
0.0
 11
-0.840795586301777
 21
2.508742332458496
 31
0.0
  0
LINE
  5
54
330
50
100
AcDbEntity
  8
1
  6
solid
 62
     0
100
AcDbLine
 10
-0.8720455863017788
 20
0.0087424032390115
 30
0.0
 11
-0.8720455863017779
 21
1.193789242848753
 31
0.0
  0
LINE
  5
55
330
50
100
AcDbEntity
  8
1
  6
solid
 62
     0
100
AcDbLine
 10
-0.872045586301777
 20
2.508742332458496
 30
0.0
 11
-0.8720455863017779
 21
1.323695492848753
 31
0.0
  0
MTEXT
  5
56
330
50
100
AcDbEntity
  8
1
  6
solid
 62
     0
100
AcDbMText
 10
-0.8720455863017779
 20
1.258742367848753
 30
0.0
 40
0.0625
 41
0.0
 71
     5
 72
     1
  1
{\H0.062500;2 1/2}
 73
     1
 44
1.0
  0
SOLID
  5
57
330
50
100
AcDbEntity
  8
1
  6
solid
 62
     0
100
AcDbTrace
 10
-0.8824505863017787
 20
0.0712424032390116
 30
0.0
 11
-0.8616405863017785
 21
0.0712424032390115
 31
0.0
 12
-0.8720455863017788
 22
0.0087424032390115
 32
0.0
 13
-0.8720455863017788
 23
0.0087424032390115
 33
0.0
  0
SOLID
  5
58
330
50
100
AcDbEntity
  8
1
  6
solid
 62
     0
100
AcDbTrace
 10
-0.8616405863017769
 20
2.446242332458496
 30
0.0
 11
-0.8824505863017769
 21
2.446242332458496
 31
0.0
 12
-0.872045586301777
 22
2.508742332458496
 32
0.0
 13
-0.872045586301777
 23
2.508742332458496
 33
0.0
  0
ENDBLK
  5
59
330
50
100
AcDbEntity
  8
1
  6
solid
 62
     0
100
AcDbBlockEnd
  0
BLOCK
  5
5C
330
5B
100
AcDbEntity
  8
1
  6
solid
 62
     0
100
AcDbBlockBegin
  2
*D1
 70
     0
 10
0.0
 20
0.0
 30
0.0
  3
*D1
  1

  0
LINE
  5
5D
330
5B
100
AcDbEntity
  8
1
  6
solid
 62
     0
100
AcDbLine
 10
-1.916713833808898
 20
0.7319810390472412
 30
0.0
 11
-1.916713833808898
 21
-0.1392070178943918
 31
0.0
  0
LINE
  5
5E
330
5B
100
AcDbEntity
  8
1
  6
solid
 62
     0
100
AcDbLine
 10
-1.232752919197082
 20
-0.0537575967609882
 30
0.0
 11
-1.232752919197082
 21
-0.1392070178943918
 31
0.0
  0
LINE
  5
5F
330
5B
100
AcDbEntity
  8
1
  6
solid
 62
     0
100
AcDbLine
 10
-1.916713833808898
 20
-0.1079570178943918
 30
0.0
 11
-1.706099285593899
 21
-0.1079570178943918
 31
0.0
  0
LINE
  5
60
330
5B
100
AcDbEntity
  8
1
  6
solid
 62
     0
100
AcDbLine
 10
-1.232752919197082
 20
-0.1079570178943918
 30
0.0
 11
-1.443367467412081
 21
-0.1079570178943918
 31
0.0
  0
MTEXT
  5
61
330
5B
100
AcDbEntity
  8
1
  6
solid
 62
     0
100
AcDbMText
 10
-1.57473337650299
 20
-0.1079570178943918
 30
0.0
 40
0.0625
 41
0.0
 71
     5
 72
     1
  1
{\H0.062500;11/16}
 73
     1
 44
1.0
  0
SOLID
  5
62
330
5B
100
AcDbEntity
  8
1
  6
solid
 62
     0
100
AcDbTrace
 10
-1.854213833808898
 20
-0.0975520178943919
 30
0.0
 11
-1.854213833808898
 21
-0.1183620178943918
 31
0.0
 12
-1.916713833808898
 22
-0.1079570178943918
 32
0.0
 13
-1.916713833808898
 23
-0.1079570178943918
 33
0.0
  0
SOLID
  5
63
330
5B
100
AcDbEntity
  8
1
  6
solid
 62
     0
100
AcDbTrace
 10
-1.295252919197082
 20
-0.1183620178943918
 30
0.0
 11
-1.295252919197082
 21
-0.0975520178943919
 31
0.0
 12
-1.232752919197082
 22
-0.1079570178943918
 32
0.0
 13
-1.232752919197082
 23
-0.1079570178943918
 33
0.0
  0
ENDBLK
  5
64
330
5B
100
AcDbEntity
  8
1
  6
solid
 62
     0
100
AcDbBlockEnd
  0
ENDSEC
  0
SECTION
  2
ENTITIES
  0
LINE
  5
28
330
A
100
AcDbEntity
  8
1
  6
solid
 62
     0
100
AcDbLine
 10
0.6668594631655034
 20
0.1895211818670219
 30
0.0
 11
0.6668594631655034
 21
0.3158414287478637
 31
0.0
  0
ARC
  5
29
330
A
100
AcDbEntity
  8
1
  6
solid
 62
     0
100
AcDbCircle
 10
-0.3907153773284304
 20
1.962386858020786
 30
0.0
 40
1.190637286593788
100
AcDbArc
 50
317.4344009318679
 51
362.5497856196134
  0
ARC
  5
2A
330
A
100
AcDbEntity
  8
1
  6
solid
 62
     0
100
AcDbCircle
 10
0.8076526422888468
 20
2.186564903544778
 30
0.0
 40
0.1714412980190353
100
AcDbArc
 50
96.14123903559303
 51
267.0210869888755
  0
LINE
  5
2B
330
A
100
AcDbEntity
  8
1
  6
solid
 62
     0
100
AcDbLine
 10
0.8780513479662417
 20
-0.0000000098763313
 30
0.0
 11
1.00000004969577
 21
-0.0000000098763304
 31
0.0
  0
ARC
  5
2C
330
A
100
AcDbEntity
  8
1
  6
solid
 62
     0
100
AcDbCircle
 10
0.652835517196391
 20
-0.0385371705844904
 30
0.0
 40
0.2284891314369254
100
AcDbArc
 50
9.709964524565439
 51
86.4811531333453
  0
LINE
  5
2D
330
A
100
AcDbEntity
  8
1
  6
solid
 62
     0
100
AcDbLine
 10
1.000000049695764
 20
2.499999990123669
 30
0.0
 11
0.7893118992654982
 21
2.499999990123669
 31
0.0
  0
LINE
  5
2E
330
A
100
AcDbEntity
  8
1
  6
solid
 62
     0
100
AcDbLine
 10
0.7893118992654986
 20
2.357022334633176
 30
0.0
 11
0.7893118992654982
 21
2.499999990123669
 31
0.0
  0
LINE
  5
2F
330
A
100
AcDbEntity
  8
1
  6
solid
 62
     0
100
AcDbLine
 10
1.00000004969577
 20
-0.0000000098763304
 30
0.0
 11
1.000000049695769
 21
0.46875
 31
0.0
  0
LINE
  5
30
330
A
100
AcDbEntity
  8
1
  6
solid
 62
     0
100
AcDbLine
 10
1.00000004969577
 20
2.50000000987633
 30
0.0
 11
1.000000049695769
 21
2.03125
 31
0.0
  0
ARC
  5
31
330
A
100
AcDbEntity
  8
1
  6
solid
 62
     0
100
AcDbCircle
 10
1.0
 20
1.9375
 30
0.0
 40
0.09375
100
AcDbArc
 50
90.0
 51
180.0000000000001
  0
LINE
  5
32
330
A
100
AcDbEntity
  8
1
  6
solid
 62
     0
100
AcDbLine
 10
0.90625
 20
1.937499999999999
 30
0.0
 11
0.90625
 21
0.5625000000000001
 31
0.0
  0
ARC
  5
33
330
A
100
AcDbEntity
  8
1
  6
solid
 62
     0
100
AcDbCircle
 10
1.0
 20
0.5625
 30
0.0
 40
0.09375
100
AcDbArc
 50
179.9999999999999
 51
269.9999999999999
  0
ARC
  5
34
330
A
100
AcDbEntity
  8
1
  6
solid
 62
     0
100
AcDbCircle
 10
0.806145024626713
 20
0.7857386500808019
 30
0.0
 40
0.4901059706679807
100
AcDbArc
 50
130.7547184467924
 51
253.4892835356294
  0
LINE
  5
35
330
A
100
AcDbEntity
  8
1
  6
solid
 62
     0
100
AcDbLine
 10
0.0149263101880269
 20
0.3328566935674364
 30
0.0
 11
0.0149263101880269
 21
0.4591769404482782
 31
0.0
  0
ARC
  5
36
330
A
100
AcDbEntity
  8
1
  6
solid
 62
     0
100
AcDbCircle
 10
-1.042648530305906
 20
2.1057223697212
 30
0.0
 40
1.190637286593788
100
AcDbArc
 50
317.4344009318679
 51
362.5497856196134
  0
ARC
  5
37
330
A
100
AcDbEntity
  8
1
  6
solid
 62
     0
100
AcDbCircle
 10
0.1557194893113704
 20
2.329900415245192
 30
0.0
 40
0.1714412980190353
100
AcDbArc
 50
96.14123903559303
 51
267.0210869888755
  0
ARC
  5
38
330
A
100
AcDbEntity
  8
1
  6
solid
 62
     0
100
AcDbCircle
 10
0.0009023642189144
 20
0.1047983411159241
 30
0.0
 40
0.2284891314369254
100
AcDbArc
 50
9.709964524565439
 51
68.71904959867801
  0
LINE
  5
39
330
A
100
AcDbEntity
  8
1
  6
solid
 62
     0
100
AcDbLine
 10
0.3480668967182884
 20
2.643335501824083
 30
0.0
 11
0.1373787462880217
 21
2.643335501824083
 31
0.0
  0
LINE
  5
3A
330
A
100
AcDbEntity
  8
1
  6
solid
 62
     0
100
AcDbLine
 10
0.1373787462880222
 20
2.50035784633359
 30
0.0
 11
0.1373787462880217
 21
2.643335501824083
 31
0.0
  0
ARC
  5
3B
330
A
100
AcDbEntity
  8
1
  6
solid
 62
     0
100
AcDbCircle
 10
0.1542118716492366
 20
0.9290741617812162
 30
0.0
 40
0.4901059706679807
100
AcDbArc
 50
130.7547184467924
 51
253.4892835356294
  0
LINE
  5
3C
330
A
100
AcDbEntity
  8
1
  6
solid
 62
     0
100
AcDbLine
 10
0.34806689620018
 20
2.643335580825805
 30
0.0
 11
1.0
 21
2.5
 31
0.0
  0
LINE
  5
3D
330
A
100
AcDbEntity
  8
1
  6
solid
 62
     0
100
AcDbLine
 10
0.1373787522315979
 20
2.643335580825805
 30
0.0
 11
0.7893118858337403
 21
2.5
 31
0.0
  0
LINE
  5
3E
330
A
100
AcDbEntity
  8
1
  6
solid
 62
     0
100
AcDbLine
 10
0.1373787522315979
 20
2.500357866287231
 30
0.0
 11
0.7893118858337403
 21
2.357022285461425
 31
0.0
  0
LINE
  5
3F
330
A
100
AcDbEntity
  8
1
  6
solid
 62
     0
100
AcDbLine
 10
0.1468099504709244
 20
2.158690690994262
 30
0.0
 11
0.7439264960392031
 21
2.027407443931285
 31
0.0
  0
LINE
  5
40
330
A
100
AcDbEntity
  8
1
  6
solid
 62
     0
100
AcDbLine
 10
0.0149263106286526
 20
0.4591769278049469
 30
0.0
 11
0.6668594479560852
 21
0.3158414363861084
 31
0.0
  0
LINE
  5
41
330
A
100
AcDbEntity
  8
1
  6
solid
 62
     0
100
AcDbLine
 10
0.0149263106286526
 20
0.332856684923172
 30
0.0
 11
0.6668594479560852
 21
0.1895211786031723
 31
0.0
  0
LINE
  5
42
330
A
100
AcDbEntity
  8
1
  6
solid
 62
     0
100
AcDbLine
 10
0.226118192076683
 20
0.1433355063199997
 30
0.0
 11
0.8780513405799865
 21
0.0
 31
0.0
  0
LINE
  5
43
330
A
100
AcDbEntity
  8
1
  6
solid
 62
     0
100
AcDbLine
 10
-1.565893454702772
 20
0.1982635947735558
 30
0.0
 11
-1.565893454702772
 21
0.3245838416543976
 31
0.0
  0
ARC
  5
44
330
A
100
AcDbEntity
  8
1
  6
solid
 62
     0
100
AcDbCircle
 10
-2.623468295196706
 20
1.97112927092732
 30
0.0
 40
1.190637286593788
100
AcDbArc
 50
317.4344009318679
 51
362.5497856196134
  0
ARC
  5
45
330
A
100
AcDbEntity
  8
1
  6
solid
 62
     0
100
AcDbCircle
 10
-1.425100275579429
 20
2.195307316451311
 30
0.0
 40
0.1714412980190353
100
AcDbArc
 50
96.14123903559303
 51
267.0210869888755
  0
LINE
  5
46
330
A
100
AcDbEntity
  8
1
  6
solid
 62
     0
100
AcDbLine
 10
-1.354701569902034
 20
0.0087424030302026
 30
0.0
 11
-1.232752868172505
 21
0.0087424030302035
 31
0.0
  0
ARC
  5
47
330
A
100
AcDbEntity
  8
1
  6
solid
 62
     0
100
AcDbCircle
 10
-1.579917400671885
 20
-0.0297947576779565
 30
0.0
 40
0.2284891314369254
100
AcDbArc
 50
9.709964524565439
 51
86.4811531333453
  0
LINE
  5
48
330
A
100
AcDbEntity
  8
1
  6
solid
 62
     0
100
AcDbLine
 10
-1.232752868172511
 20
2.508742403030202
 30
0.0
 11
-1.443441018602777
 21
2.508742403030202
 31
0.0
  0
LINE
  5
49
330
A
100
AcDbEntity
  8
1
  6
solid
 62
     0
100
AcDbLine
 10
-1.443441018602777
 20
2.365764747539709
 30
0.0
 11
-1.443441018602777
 21
2.508742403030202
 31
0.0
  0
LINE
  5
4A
330
A
100
AcDbEntity
  8
1
  6
solid
 62
     0
100
AcDbLine
 10
-1.232752868172505
 20
0.0087424030302035
 30
0.0
 11
-1.232752868172506
 21
0.4774924129065339
 31
0.0
  0
LINE
  5
4B
330
A
100
AcDbEntity
  8
1
  6
solid
 62
     0
100
AcDbLine
 10
-1.232752868172505
 20
2.508742422782864
 30
0.0
 11
-1.232752868172506
 21
2.039992412906533
 31
0.0
  0
ARC
  5
4C
330
A
100
AcDbEntity
  8
1
  6
solid
 62
     0
100
AcDbCircle
 10
-1.232752917868276
 20
1.946242412906533
 30
0.0
 40
0.09375
100
AcDbArc
 50
90.0
 51
180.0000000000001
  0
LINE
  5
4D
330
A
100
AcDbEntity
  8
1
  6
solid
 62
     0
100
AcDbLine
 10
-1.326502917868276
 20
1.946242412906533
 30
0.0
 11
-1.326502917868276
 21
0.5712424129065341
 31
0.0
  0
ARC
  5
4E
330
A
100
AcDbEntity
  8
1
  6
solid
 62
     0
100
AcDbCircle
 10
-1.232752917868276
 20
0.5712424129065339
 30
0.0
 40
0.09375
100
AcDbArc
 50
179.9999999999999
 51
269.9999999999999
  0
ARC
  5
4F
330
A
100
AcDbEntity
  8
1
  6
solid
 62
     0
100
AcDbCircle
 10
-1.426607893241563
 20
0.7944810629873358
 30
0.0
 40
0.4901059706679807
100
AcDbArc
 50
130.7547184467924
 51
253.4892835356294
  0
DIMENSION
  5
5A
330
A
100
AcDbEntity
  8
1
  6
solid
 62
     0
100
AcDbDimension
  2
*D0
 10
-0.8720455863017779
 20
1.258742367848753
 30
0.0
 11
-0.8720455863017779
 21
1.258742367848753
 31
0.0
 70
    33
 71
     5
 42
2.499999929219484
  3
Standard
100
AcDbAlignedDimension
 13
-1.232752919197082
 23
2.508742332458496
 33
0.0
 14
-1.232752919197082
 24
0.0087424032390118
 34
0.0
1001
ACAD
1000
DSTYLE
1002
{
1070
    41
1040
0.0625
1070
    44
1040
0.03125
1070
    47
1040
0.0005
1070
    48
1040
0.0005
1070
    75
1070
     1
1070
    76
1070
     1
1070
   140
1040
0.0625
1070
   146
1040
0.5
1070
   174
1070
     1
1070
   270
1070
     5
1070
   271
1070
     3
1070
   272
1070
     3
1070
   277
1070
     5
1002
}
  0
LINE
  5
66
330
A
100
AcDbEntity
  8
1
  6
solid
 62
     0
100
AcDbLine
 10
0.491215946236308
 20
0.7566796739488304
 30
0.0
 11
0.491215946236308
 21
0.772905635487292
 31
0.0
  0
LINE
  5
67
330
A
100
AcDbEntity
  8
1
  6
solid
 62
     0
100
AcDbLine
 10
0.491215946236308
 20
0.772905635487292
 30
0.0
 11
0.5029806521186609
 21
0.772905635487292
 31
0.0
  0
LINE
  5
68
330
A
100
AcDbEntity
  8
1
  6
solid
 62
     0
100
AcDbLine
 10
0.5029806521186609
 20
0.772905635487292
 30
0.0
 11
0.5029806521186609
 21
0.8654537124103688
 31
0.0
  0
LINE
  5
69
330
A
100
AcDbEntity
  8
1
  6
solid
 62
     0
100
AcDbLine
 10
0.5029806521186609
 20
0.8654537124103688
 30
0.0
 11
0.491215946236308
 21
0.8654537124103688
 31
0.0
  0
LINE
  5
6A
330
A
100
AcDbEntity
  8
1
  6
solid
 62
     0
100
AcDbLine
 10
0.491215946236308
 20
0.8654537124103688
 30
0.0
 11
0.491215946236308
 21
0.8816796739488303
 31
0.0
  0
LINE
  5
6B
330
A
100
AcDbEntity
  8
1
  6
solid
 62
     0
100
AcDbLine
 10
0.491215946236308
 20
0.8816796739488303
 30
0.0
 11
0.5270002599617981
 21
0.8816796739488303
 31
0.0
  0
LINE
  5
6C
330
A
100
AcDbEntity
  8
1
  6
solid
 62
     0
100
AcDbLine
 10
0.5270002599617981
 20
0.8816796739488303
 30
0.0
 11
0.5270002599617981
 21
0.8654537124103688
 31
0.0
  0
LINE
  5
6D
330
A
100
AcDbEntity
  8
1
  6
solid
 62
     0
100
AcDbLine
 10
0.5270002599617981
 20
0.8654537124103688
 30
0.0
 11
0.5167061423147393
 21
0.8654537124103688
 31
0.0
  0
LINE
  5
6E
330
A
100
AcDbEntity
  8
1
  6
solid
 62
     0
100
AcDbLine
 10
0.5167061423147393
 20
0.8654537124103688
 30
0.0
 11
0.5167061423147393
 21
0.772905635487292
 31
0.0
  0
LINE
  5
6F
330
A
100
AcDbEntity
  8
1
  6
solid
 62
     0
100
AcDbLine
 10
0.5167061423147393
 20
0.772905635487292
 30
0.0
 11
0.5419512403539551
 21
0.772905635487292
 31
0.0
  0
LINE
  5
70
330
A
100
AcDbEntity
  8
1
  6
solid
 62
     0
100
AcDbLine
 10
0.5419512403539551
 20
0.772905635487292
 30
0.0
 11
0.5419512403539551
 21
0.7957421739488304
 31
0.0
  0
LINE
  5
71
330
A
100
AcDbEntity
  8
1
  6
solid
 62
     0
100
AcDbLine
 10
0.5419512403539551
 20
0.7957421739488304
 30
0.0
 11
0.553715946236308
 21
0.7957421739488304
 31
0.0
  0
LINE
  5
72
330
A
100
AcDbEntity
  8
1
  6
solid
 62
     0
100
AcDbLine
 10
0.553715946236308
 20
0.7957421739488304
 30
0.0
 11
0.553715946236308
 21
0.7566796739488304
 31
0.0
  0
LINE
  5
73
330
A
100
AcDbEntity
  8
1
  6
solid
 62
     0
100
AcDbLine
 10
0.553715946236308
 20
0.7566796739488304
 30
0.0
 11
0.491215946236308
 21
0.7566796739488304
 31
0.0
  0
LINE
  5
74
330
A
100
AcDbEntity
  8
1
  6
solid
 62
     0
100
AcDbLine
 10
0.5689120246676805
 20
0.7566796739488304
 30
0.0
 11
0.5689120246676805
 21
0.772905635487292
 31
0.0
  0
LINE
  5
75
330
A
100
AcDbEntity
  8
1
  6
solid
 62
     0
100
AcDbLine
 10
0.5689120246676805
 20
0.772905635487292
 30
0.0
 11
0.6066571227068963
 21
0.8257902508719073
 31
0.0
  0
LINE
  5
76
330
A
100
AcDbEntity
  8
1
  6
solid
 62
     0
100
AcDbLine
 10
0.6066571227068963
 20
0.8257902508719073
 30
0.0
 11
0.6100884952559158
 21
0.8317998662565226
 31
0.0
  0
LINE
  5
77
330
A
100
AcDbEntity
  8
1
  6
solid
 62
     0
100
AcDbLine
 10
0.6100884952559158
 20
0.8317998662565226
 30
0.0
 11
0.61155908349121
 21
0.835405635487292
 31
0.0
  0
LINE
  5
78
330
A
100
AcDbEntity
  8
1
  6
solid
 62
     0
100
AcDbLine
 10
0.61155908349121
 20
0.835405635487292
 30
0.0
 11
0.613029671726504
 21
0.8420162124103688
 31
0.0
  0
LINE
  5
79
330
A
100
AcDbEntity
  8
1
  6
solid
 62
     0
100
AcDbLine
 10
0.613029671726504
 20
0.8420162124103688
 30
0.0
 11
0.613029671726504
 21
0.8468239047180611
 31
0.0
  0
LINE
  5
7A
330
A
100
AcDbEntity
  8
1
  6
solid
 62
     0
100
AcDbLine
 10
0.613029671726504
 20
0.8468239047180611
 30
0.0
 11
0.61155908349121
 21
0.852232558564215
 31
0.0
  0
LINE
  5
7B
330
A
100
AcDbEntity
  8
1
  6
solid
 62
     0
100
AcDbLine
 10
0.61155908349121
 20
0.852232558564215
 30
0.0
 11
0.6100884952559158
 21
0.8570402508719073
 31
0.0
  0
LINE
  5
7C
330
A
100
AcDbEntity
  8
1
  6
solid
 62
     0
100
AcDbLine
 10
0.6100884952559158
 20
0.8570402508719073
 30
0.0
 11
0.6073924168245433
 21
0.8606460201026765
 31
0.0
  0
LINE
  5
7D
330
A
100
AcDbEntity
  8
1
  6
solid
 62
     0
100
AcDbLine
 10
0.6073924168245433
 20
0.8606460201026765
 30
0.0
 11
0.6046963383931708
 21
0.8630498662565226
 31
0.0
  0
LINE
  5
7E
330
A
100
AcDbEntity
  8
1
  6
solid
 62
     0
100
AcDbLine
 10
0.6046963383931708
 20
0.8630498662565226
 30
0.0
 11
0.6020002599617982
 21
0.8648527508719073
 31
0.0
  0
LINE
  5
7F
330
A
100
AcDbEntity
  8
1
  6
solid
 62
     0
100
AcDbLine
 10
0.6020002599617982
 20
0.8648527508719073
 30
0.0
 11
0.5978335932951314
 21
0.866655635487292
 31
0.0
  0
LINE
  5
80
330
A
100
AcDbEntity
  8
1
  6
solid
 62
     0
100
AcDbLine
 10
0.5978335932951314
 20
0.866655635487292
 30
0.0
 11
0.5929316325108177
 21
0.866655635487292
 31
0.0
  0
LINE
  5
81
330
A
100
AcDbEntity
  8
1
  6
solid
 62
     0
100
AcDbLine
 10
0.5929316325108177
 20
0.866655635487292
 30
0.0
 11
0.5887649658441511
 21
0.8648527508719073
 31
0.0
  0
LINE
  5
82
330
A
100
AcDbEntity
  8
1
  6
solid
 62
     0
100
AcDbLine
 10
0.5887649658441511
 20
0.8648527508719073
 30
0.0
 11
0.5853335932951315
 21
0.8624489047180611
 31
0.0
  0
LINE
  5
83
330
A
100
AcDbEntity
  8
1
  6
solid
 62
     0
100
AcDbLine
 10
0.5853335932951315
 20
0.8624489047180611
 30
0.0
 11
0.583372808981406
 21
0.8594440970257535
 31
0.0
  0
LINE
  5
84
330
A
100
AcDbEntity
  8
1
  6
solid
 62
     0
100
AcDbLine
 10
0.583372808981406
 20
0.8594440970257535
 30
0.0
 11
0.5814120246676806
 21
0.8570402508719073
 31
0.0
  0
LINE
  5
85
330
A
100
AcDbEntity
  8
1
  6
solid
 62
     0
100
AcDbLine
 10
0.5814120246676806
 20
0.8570402508719073
 30
0.0
 11
0.5792061423147393
 21
0.8516315970257535
 31
0.0
  0
LINE
  5
86
330
A
100
AcDbEntity
  8
1
  6
solid
 62
     0
100
AcDbLine
 10
0.5792061423147393
 20
0.8516315970257535
 30
0.0
 11
0.577980652118661
 21
0.8438190970257535
 31
0.0
  0
LINE
  5
87
330
A
100
AcDbEntity
  8
1
  6
solid
 62
     0
100
AcDbLine
 10
0.577980652118661
 20
0.8438190970257535
 30
0.0
 11
0.5662159462363079
 21
0.8438190970257535
 31
0.0
  0
LINE
  5
88
330
A
100
AcDbEntity
  8
1
  6
solid
 62
     0
100
AcDbLine
 10
0.5662159462363079
 20
0.8438190970257535
 30
0.0
 11
0.566951240353955
 21
0.8516315970257535
 31
0.0
  0
LINE
  5
89
330
A
100
AcDbEntity
  8
1
  6
solid
 62
     0
100
AcDbLine
 10
0.566951240353955
 20
0.8516315970257535
 30
0.0
 11
0.5689120246676805
 21
0.8594440970257535
 31
0.0
  0
LINE
  5
8A
330
A
100
AcDbEntity
  8
1
  6
solid
 62
     0
100
AcDbLine
 10
0.5689120246676805
 20
0.8594440970257535
 30
0.0
 11
0.571608103099053
 21
0.8654537124103688
 31
0.0
  0
LINE
  5
8B
330
A
100
AcDbEntity
  8
1
  6
solid
 62
     0
100
AcDbLine
 10
0.571608103099053
 20
0.8654537124103688
 30
0.0
 11
0.5750394756480727
 21
0.8708623662565226
 31
0.0
  0
LINE
  5
8C
330
A
100
AcDbEntity
  8
1
  6
solid
 62
     0
100
AcDbLine
 10
0.5750394756480727
 20
0.8708623662565226
 30
0.0
 11
0.5792061423147393
 21
0.875670058564215
 31
0.0
  0
LINE
  5
8D
330
A
100
AcDbEntity
  8
1
  6
solid
 62
     0
100
AcDbLine
 10
0.5792061423147393
 20
0.875670058564215
 30
0.0
 11
0.583372808981406
 21
0.8780739047180611
 31
0.0
  0
LINE
  5
8E
330
A
100
AcDbEntity
  8
1
  6
solid
 62
     0
100
AcDbLine
 10
0.583372808981406
 20
0.8780739047180611
 30
0.0
 11
0.5895002599617981
 21
0.8810787124103688
 31
0.0
  0
LINE
  5
8F
330
A
100
AcDbEntity
  8
1
  6
solid
 62
     0
100
AcDbLine
 10
0.5895002599617981
 20
0.8810787124103688
 30
0.0
 11
0.5936669266284648
 21
0.8816796739488303
 31
0.0
  0
LINE
  5
90
330
A
100
AcDbEntity
  8
1
  6
solid
 62
     0
100
AcDbLine
 10
0.5936669266284648
 20
0.8816796739488303
 30
0.0
 11
0.5978335932951314
 21
0.8816796739488303
 31
0.0
  0
LINE
  5
91
330
A
100
AcDbEntity
  8
1
  6
solid
 62
     0
100
AcDbLine
 10
0.5978335932951314
 20
0.8816796739488303
 30
0.0
 11
0.6039610442755237
 21
0.8798767893334458
 31
0.0
  0
LINE
  5
92
330
A
100
AcDbEntity
  8
1
  6
solid
 62
     0
100
AcDbLine
 10
0.6039610442755237
 20
0.8798767893334458
 30
0.0
 11
0.6088630050598374
 21
0.8774729431795996
 31
0.0
  0
LINE
  5
93
330
A
100
AcDbEntity
  8
1
  6
solid
 62
     0
100
AcDbLine
 10
0.6088630050598374
 20
0.8774729431795996
 30
0.0
 11
0.6135198678049355
 21
0.8738671739488303
 31
0.0
  0
LINE
  5
94
330
A
100
AcDbEntity
  8
1
  6
solid
 62
     0
100
AcDbLine
 10
0.6135198678049355
 20
0.8738671739488303
 30
0.0
 11
0.6176865344716021
 21
0.8684585201026765
 31
0.0
  0
LINE
  5
95
330
A
100
AcDbEntity
  8
1
  6
solid
 62
     0
100
AcDbLine
 10
0.6176865344716021
 20
0.8684585201026765
 30
0.0
 11
0.6211179070206217
 21
0.8624489047180611
 31
0.0
  0
LINE
  5
96
330
A
100
AcDbEntity
  8
1
  6
solid
 62
     0
100
AcDbLine
 10
0.6211179070206217
 20
0.8624489047180611
 30
0.0
 11
0.6238139854519942
 21
0.8540354431795996
 31
0.0
  0
LINE
  5
97
330
A
100
AcDbEntity
  8
1
  6
solid
 62
     0
100
AcDbLine
 10
0.6238139854519942
 20
0.8540354431795996
 30
0.0
 11
0.6252845736872884
 21
0.8462229431795996
 31
0.0
  0
LINE
  5
98
330
A
100
AcDbEntity
  8
1
  6
solid
 62
     0
100
AcDbLine
 10
0.6252845736872884
 20
0.8462229431795996
 30
0.0
 11
0.6252845736872884
 21
0.8402133277949841
 31
0.0
  0
LINE
  5
99
330
A
100
AcDbEntity
  8
1
  6
solid
 62
     0
100
AcDbLine
 10
0.6252845736872884
 20
0.8402133277949841
 30
0.0
 11
0.6238139854519942
 21
0.8336027508719073
 31
0.0
  0
LINE
  5
9A
330
A
100
AcDbEntity
  8
1
  6
solid
 62
     0
100
AcDbLine
 10
0.6238139854519942
 20
0.8336027508719073
 30
0.0
 11
0.6218532011382687
 21
0.827593135487292
 31
0.0
  0
LINE
  5
9B
330
A
100
AcDbEntity
  8
1
  6
solid
 62
     0
100
AcDbLine
 10
0.6218532011382687
 20
0.827593135487292
 30
0.0
 11
0.6191571227068962
 21
0.8215835201026765
 31
0.0
  0
LINE
  5
9C
330
A
100
AcDbEntity
  8
1
  6
solid
 62
     0
100
AcDbLine
 10
0.6191571227068962
 20
0.8215835201026765
 30
0.0
 11
0.5853335932951315
 21
0.772905635487292
 31
0.0
  0
LINE
  5
9D
330
A
100
AcDbEntity
  8
1
  6
solid
 62
     0
100
AcDbLine
 10
0.5853335932951315
 20
0.772905635487292
 30
0.0
 11
0.6164610442755237
 21
0.772905635487292
 31
0.0
  0
LINE
  5
9E
330
A
100
AcDbEntity
  8
1
  6
solid
 62
     0
100
AcDbLine
 10
0.6164610442755237
 20
0.772905635487292
 30
0.0
 11
0.6164610442755237
 21
0.7945402508719073
 31
0.0
  0
LINE
  5
9F
330
A
100
AcDbEntity
  8
1
  6
solid
 62
     0
100
AcDbLine
 10
0.6164610442755237
 20
0.7945402508719073
 30
0.0
 11
0.6287159462363079
 21
0.7945402508719073
 31
0.0
  0
LINE
  5
A0
330
A
100
AcDbEntity
  8
1
  6
solid
 62
     0
100
AcDbLine
 10
0.6287159462363079
 20
0.7945402508719073
 30
0.0
 11
0.6287159462363079
 21
0.7566796739488304
 31
0.0
  0
LINE
  5
A1
330
A
100
AcDbEntity
  8
1
  6
solid
 62
     0
100
AcDbLine
 10
0.6287159462363079
 20
0.7566796739488304
 30
0.0
 11
0.5689120246676805
 21
0.7566796739488304
 31
0.0
  0
LINE
  5
A2
330
A
100
AcDbEntity
  8
1
  6
solid
 62
     0
100
AcDbLine
 10
0.649794377608857
 20
0.7566796739488304
 30
0.0
 11
0.649794377608857
 21
0.772905635487292
 31
0.0
  0
LINE
  5
A3
330
A
100
AcDbEntity
  8
1
  6
solid
 62
     0
100
AcDbLine
 10
0.649794377608857
 20
0.772905635487292
 30
0.0
 11
0.6632747697657198
 21
0.772905635487292
 31
0.0
  0
LINE
  5
A4
330
A
100
AcDbEntity
  8
1
  6
solid
 62
     0
100
AcDbLine
 10
0.6632747697657198
 20
0.772905635487292
 30
0.0
 11
0.6632747697657198
 21
0.8654537124103688
 31
0.0
  0
LINE
  5
A5
330
A
100
AcDbEntity
  8
1
  6
solid
 62
     0
100
AcDbLine
 10
0.6632747697657198
 20
0.8654537124103688
 30
0.0
 11
0.6490590834912099
 21
0.8654537124103688
 31
0.0
  0
LINE
  5
A6
330
A
100
AcDbEntity
  8
1
  6
solid
 62
     0
100
AcDbLine
 10
0.6490590834912099
 20
0.8654537124103688
 30
0.0
 11
0.6490590834912099
 21
0.8816796739488303
 31
0.0
  0
LINE
  5
A7
330
A
100
AcDbEntity
  8
1
  6
solid
 62
     0
100
AcDbLine
 10
0.6490590834912099
 20
0.8816796739488303
 30
0.0
 11
0.6809218285892492
 21
0.8816796739488303
 31
0.0
  0
LINE
  5
A8
330
A
100
AcDbEntity
  8
1
  6
solid
 62
     0
100
AcDbLine
 10
0.6809218285892492
 20
0.8816796739488303
 30
0.0
 11
0.6809218285892492
 21
0.772905635487292
 31
0.0
  0
LINE
  5
A9
330
A
100
AcDbEntity
  8
1
  6
solid
 62
     0
100
AcDbLine
 10
0.6809218285892492
 20
0.772905635487292
 30
0.0
 11
0.6958728089814059
 21
0.772905635487292
 31
0.0
  0
LINE
  5
AA
330
A
100
AcDbEntity
  8
1
  6
solid
 62
     0
100
AcDbLine
 10
0.6958728089814059
 20
0.772905635487292
 30
0.0
 11
0.6958728089814059
 21
0.7566796739488304
 31
0.0
  0
LINE
  5
AB
330
A
100
AcDbEntity
  8
1
  6
solid
 62
     0
100
AcDbLine
 10
0.6958728089814059
 20
0.7566796739488304
 30
0.0
 11
0.649794377608857
 21
0.7566796739488304
 31
0.0
  0
LINE
  5
AC
330
A
100
AcDbEntity
  8
1
  6
solid
 62
     0
100
AcDbLine
 10
0.7444022207461119
 20
0.7566796739488304
 30
0.0
 11
0.7444022207461119
 21
0.772905635487292
 31
0.0
  0
LINE
  5
AD
330
A
100
AcDbEntity
  8
1
  6
solid
 62
     0
100
AcDbLine
 10
0.7444022207461119
 20
0.772905635487292
 30
0.0
 11
0.7549414364323864
 21
0.772905635487292
 31
0.0
  0
LINE
  5
AE
330
A
100
AcDbEntity
  8
1
  6
solid
 62
     0
100
AcDbLine
 10
0.7549414364323864
 20
0.772905635487292
 30
0.0
 11
0.7549414364323864
 21
0.7873287124103689
 31
0.0
  0
LINE
  5
AF
330
A
100
AcDbEntity
  8
1
  6
solid
 62
     0
100
AcDbLine
 10
0.7549414364323864
 20
0.7873287124103689
 30
0.0
 11
0.716215946236308
 21
0.7873287124103689
 31
0.0
  0
LINE
  5
B0
330
A
100
AcDbEntity
  8
1
  6
solid
 62
     0
100
AcDbLine
 10
0.716215946236308
 20
0.7873287124103689
 30
0.0
 11
0.716215946236308
 21
0.8029537124103688
 31
0.0
  0
LINE
  5
B1
330
A
100
AcDbEntity
  8
1
  6
solid
 62
     0
100
AcDbLine
 10
0.716215946236308
 20
0.8029537124103688
 30
0.0
 11
0.7549414364323864
 21
0.8816796739488303
 31
0.0
  0
LINE
  5
B2
330
A
100
AcDbEntity
  8
1
  6
solid
 62
     0
100
AcDbLine
 10
0.7549414364323864
 20
0.8816796739488303
 30
0.0
 11
0.767686534471602
 21
0.8816796739488303
 31
0.0
  0
LINE
  5
B3
330
A
100
AcDbEntity
  8
1
  6
solid
 62
     0
100
AcDbLine
 10
0.767686534471602
 20
0.8816796739488303
 30
0.0
 11
0.767686534471602
 21
0.8035546739488303
 31
0.0
  0
LINE
  5
B4
330
A
100
AcDbEntity
  8
1
  6
solid
 62
     0
100
AcDbLine
 10
0.767686534471602
 20
0.8035546739488303
 30
0.0
 11
0.778715946236308
 21
0.8035546739488303
 31
0.0
  0
LINE
  5
B5
330
A
100
AcDbEntity
  8
1
  6
solid
 62
     0
100
AcDbLine
 10
0.778715946236308
 20
0.8035546739488303
 30
0.0
 11
0.778715946236308
 21
0.7873287124103689
 31
0.0
  0
LINE
  5
B6
330
A
100
AcDbEntity
  8
1
  6
solid
 62
     0
100
AcDbLine
 10
0.778715946236308
 20
0.7873287124103689
 30
0.0
 11
0.767686534471602
 21
0.7873287124103689
 31
0.0
  0
LINE
  5
B7
330
A
100
AcDbEntity
  8
1
  6
solid
 62
     0
100
AcDbLine
 10
0.767686534471602
 20
0.7873287124103689
 30
0.0
 11
0.767686534471602
 21
0.772905635487292
 31
0.0
  0
LINE
  5
B8
330
A
100
AcDbEntity
  8
1
  6
solid
 62
     0
100
AcDbLine
 10
0.767686534471602
 20
0.772905635487292
 30
0.0
 11
0.778715946236308
 21
0.772905635487292
 31
0.0
  0
LINE
  5
B9
330
A
100
AcDbEntity
  8
1
  6
solid
 62
     0
100
AcDbLine
 10
0.778715946236308
 20
0.772905635487292
 30
0.0
 11
0.778715946236308
 21
0.7566796739488304
 31
0.0
  0
LINE
  5
BA
330
A
100
AcDbEntity
  8
1
  6
solid
 62
     0
100
AcDbLine
 10
0.778715946236308
 20
0.7566796739488304
 30
0.0
 11
0.7444022207461119
 21
0.7566796739488304
 31
0.0
  0
LINE
  5
BB
330
A
100
AcDbEntity
  8
1
  6
solid
 62
     0
100
AcDbLine
 10
0.7296963383931708
 20
0.8035546739488303
 30
0.0
 11
0.7549414364323864
 21
0.8552373662565226
 31
0.0
  0
LINE
  5
BC
330
A
100
AcDbEntity
  8
1
  6
solid
 62
     0
100
AcDbLine
 10
0.7549414364323864
 20
0.8552373662565226
 30
0.0
 11
0.7549414364323864
 21
0.8035546739488303
 31
0.0
  0
LINE
  5
BD
330
A
100
AcDbEntity
  8
1
  6
solid
 62
     0
100
AcDbLine
 10
0.7549414364323864
 20
0.8035546739488303
 30
0.0
 11
0.7296963383931708
 21
0.8035546739488303
 31
0.0
  0
LINE
  5
145
330
A
100
AcDbEntity
  8
1
  6
solid
 62
     0
370
     0
100
AcDbLine
 10
-1.916713833808898
 20
0.580232701804051
 30
0.0
 11
-1.916713833808898
 21
-0.1392070178943918
 31
0.0
  0
LINE
  5
146
330
A
100
AcDbEntity
  8
1
  6
solid
 62
     0
370
     0
100
AcDbLine
 10
-1.232752919197082
 20
-0.0537575967609882
 30
0.0
 11
-1.232752919197082
 21
-0.1392070178943918
 31
0.0
  0
LINE
  5
147
330
A
100
AcDbEntity
  8
1
  6
solid
 62
     0
370
     0
100
AcDbLine
 10
-1.916713833808898
 20
-0.1079570178943918
 30
0.0
 11
-1.706099285593899
 21
-0.1079570178943918
 31
0.0
  0
LINE
  5
148
330
A
100
AcDbEntity
  8
1
  6
solid
 62
     0
370
     0
100
AcDbLine
 10
-1.232752919197082
 20
-0.1079570178943918
 30
0.0
 11
-1.443367467412081
 21
-0.1079570178943918
 31
0.0
  0
MTEXT
  5
149
330
A
100
AcDbEntity
  8
1
  6
solid
 62
     0
370
     0
100
AcDbMText
 10
-1.57473337650299
 20
-0.1079570178943918
 30
0.0
 40
0.0625
 41
0.0
 71
     5
 72
     1
  1
{\H0.062500;11/16}
 73
     1
 44
1.0
  0
SOLID
  5
14A
330
A
100
AcDbEntity
  8
1
  6
solid
 62
     0
370
     0
100
AcDbTrace
 10
-1.854213833808898
 20
-0.0975520178943919
 30
0.0
 11
-1.854213833808898
 21
-0.1183620178943918
 31
0.0
 12
-1.916713833808898
 22
-0.1079570178943918
 32
0.0
 13
-1.916713833808898
 23
-0.1079570178943918
 33
0.0
  0
SOLID
  5
14B
330
A
100
AcDbEntity
  8
1
  6
solid
 62
     0
370
     0
100
AcDbTrace
 10
-1.295252919197082
 20
-0.1183620178943918
 30
0.0
 11
-1.295252919197082
 21
-0.0975520178943919
 31
0.0
 12
-1.232752919197082
 22
-0.1079570178943918
 32
0.0
 13
-1.232752919197082
 23
-0.1079570178943918
 33
0.0
  0
VIEWPORT
  5
DB
330
B
100
AcDbEntity
 67
     1
  8
0
  6
Continuous
370
     0
100
AcDbViewport
 10
5.116516504682141
 20
3.995014100868443
 30
0.0
 40
15.51202138793297
 41
8.207504039977006
 68
     1
 69
     1
 12
5.116516504682141
 22
3.995014100868443
 13
0.0
 23
0.0
 14
0.5
 24
0.5
 15
0.5
 25
0.5
 16
0.0
 26
0.0
 36
1.0
 17
0.0
 27
0.0
 37
0.0
 42
50.0
 43
0.0
 44
0.0
 45
8.207504039977006
 50
0.0
 51
0.0
 72
   100
 90
   819232
  1

281
     0
 71
     1
 74
     0
110
0.0
120
0.0
130
0.0
111
1.0
121
0.0
131
0.0
112
0.0
122
1.0
132
0.0
 79
     0
146
0.0
170
     0
  0
VIEWPORT
  5
DE
330
B
100
AcDbEntity
 67
     1
  8
0
  6
Continuous
370
     0
100
AcDbViewport
 10
5.116439053934193
 20
3.995199957552243
 30
0.0
 40
10.51917898469517
 41
8.111333132093388
 68
     2
 69
     2
 12
-0.4819013874372502
 22
1.263828336272419
 13
0.0
 23
0.0
 14
0.5
 24
0.5
 15
0.5
 25
0.5
 16
0.0
 26
0.0
 36
1.0
 17
0.0
 27
0.0
 37
0.0
 42
50.0
 43
0.0
 44
0.0
 45
3.607666330080682
 50
0.0
 51
0.0
 72
   100
 90
   819232
  1

281
     0
 71
     1
 74
     0
110
0.0
120
0.0
130
0.0
111
1.0
121
0.0
131
0.0
112
0.0
122
1.0
132
0.0
 79
     0
146
0.0
170
     0
  0
ENDSEC
  0
SECTION
  2
OBJECTS
  0
DICTIONARY
  5
19
330
0
100
AcDbDictionary
281
     1
  3
ACAD_COLOR
350
D4
  3
ACAD_GROUP
350
1A
  3
ACAD_LAYOUT
350
1E
  3
ACAD_MATERIAL
350
BF
  3
ACAD_MLEADERSTYLE
350
108
  3
ACAD_MLINESTYLE
350
1B
  3
ACAD_PLOTSETTINGS
350
22
  3
ACAD_PLOTSTYLENAME
350
1F
  3
ACAD_SCALELIST
350
E6
  3
ACAD_TABLESTYLE
350
D5
  3
ACAD_VISUALSTYLE
350
C3
  3
ACAD_WIPEOUT_VARS
350
23
  3
ACDB_RECOMPOSE_DATA
350
156
  3
AcDbVariableDictionary
350
E3
  3
ASE_INDEX_DICTIONARY
350
11D
  0
DICTIONARY
  5
111
330
14
100
AcDbDictionary
280
     1
281
     1
  3
ADSK_XREC_LAYER_RECONCILED
360
112
  0
DICTIONARY
  5
113
330
27
100
AcDbDictionary
280
     1
281
     1
  3
ADSK_XREC_LAYER_RECONCILED
360
114
  0
DICTIONARY
  5
14C
330
A
100
AcDbDictionary
280
     1
281
     1
  3
ACAD_SORTENTS
360
14D
  0
DICTIONARY
  5
D4
102
{ACAD_REACTORS
330
19
102
}
330
19
100
AcDbDictionary
281
     1
  0
DICTIONARY
  5
1A
102
{ACAD_REACTORS
330
19
102
}
330
19
100
AcDbDictionary
281
     1
  0
DICTIONARY
  5
1E
102
{ACAD_REACTORS
330
19
102
}
330
19
100
AcDbDictionary
281
     1
  3
Layout1
350
21
  3
Model
350
20
  0
DICTIONARY
  5
BF
102
{ACAD_REACTORS
330
19
102
}
330
19
100
AcDbDictionary
281
     1
  3
ByBlock
350
C1
  3
ByLayer
350
C0
  3
Global
350
C2
  0
DICTIONARY
  5
108
102
{ACAD_REACTORS
330
19
102
}
330
19
100
AcDbDictionary
281
     1
  3
Standard
350
109
  0
DICTIONARY
  5
1B
102
{ACAD_REACTORS
330
19
102
}
330
19
100
AcDbDictionary
281
     1
  3
Standard
350
1C
  0
DICTIONARY
  5
22
102
{ACAD_REACTORS
330
19
102
}
330
19
100
AcDbDictionary
281
     1
  0
ACDBDICTIONARYWDFLT
  5
1F
102
{ACAD_REACTORS
330
19
102
}
330
19
100
AcDbDictionary
281
     1
  3
Normal
350
1D
100
AcDbDictionaryWithDefault
340
1D
  0
DICTIONARY
  5
E6
102
{ACAD_REACTORS
330
19
102
}
330
19
100
AcDbDictionary
281
     1
  3
A0
350
E7
  3
A1
350
E8
  3
A2
350
E9
  3
A3
350
EA
  3
A4
350
EB
  3
A5
350
EC
  3
A6
350
ED
  3
A7
350
EE
  3
A8
350
EF
  3
A9
350
F0
  3
B0
350
F1
  3
B1
350
F2
  3
B2
350
F3
  3
B3
350
F4
  3
B4
350
F5
  3
B5
350
F6
  3
B6
350
F7
  3
B7
350
F8
  3
B8
350
F9
  3
B9
350
FA
  3
C0
350
FB
  3
C1
350
FC
  3
C2
350
FD
  3
C3
350
FE
  3
C4
350
FF
  3
C5
350
100
  3
C6
350
101
  3
C7
350
102
  3
C8
350
103
  3
C9
350
104
  3
D0
350
105
  3
D1
350
106
  3
D2
350
107
  0
DICTIONARY
  5
D5
102
{ACAD_REACTORS
330
19
102
}
330
19
100
AcDbDictionary
281
     1
  3
Standard
350
D6
  0
DICTIONARY
  5
C3
102
{ACAD_REACTORS
330
19
102
}
330
19
100
AcDbDictionary
281
     1
  3
2dWireframe
350
C9
  3
3D Hidden
350
CB
  3
3dWireframe
350
CA
  3
Basic
350
C8
  3
Brighten
350
CF
  3
ColorChange
350
D3
  3
Conceptual
350
CC
  3
Dim
350
CE
  3
Facepattern
350
D2
  3
Flat
350
C4
  3
FlatWithEdges
350
C5
  3
Gouraud
350
C6
  3
GouraudWithEdges
350
C7
  3
Linepattern
350
D1
  3
Realistic
350
CD
  3
Thicken
350
D0
  0
WIPEOUTVARIABLES
  5
23
330
19
100
AcDbWipeoutVariables
 70
     1
  0
XRECORD
  5
156
102
{ACAD_REACTORS
330
19
102
}
330
19
100
AcDbXrecord
280
     1
 90
        1
330
D6
  0
DICTIONARY
  5
E3
102
{ACAD_REACTORS
330
19
102
}
330
19
100
AcDbDictionary
281
     1
  3
CANNOSCALE
350
132
  3
CMLEADERSTYLE
350
131
  3
CTABLESTYLE
350
E4
  0
DICTIONARY
  5
11D
102
{ACAD_REACTORS
330
19
102
}
330
19
100
AcDbDictionary
281
     1
  3
ASEBlockHierarchyIndexRecord
350
11E
1001
DCO15
1040
1667638628.375
  0
XRECORD
  5
112
102
{ACAD_REACTORS
330
111
102
}
330
111
100
AcDbXrecord
280
     1
290
     1
  0
XRECORD
  5
114
102
{ACAD_REACTORS
330
113
102
}
330
113
100
AcDbXrecord
280
     1
290
     1
  0
SORTENTSTABLE
  5
14D
102
{ACAD_REACTORS
330
14C
102
}
330
14C
100
AcDbSortentsTable
330
A
331
A1
  5
A8
331
7F
  5
86
331
B2
  5
B9
331
90
  5
97
331
6D
  5
74
331
4B
  5
4B
331
3A
  5
3A
331
29
  5
29
331
9F
  5
A6
331
7D
  5
84
331
B0
  5
B7
331
8E
  5
95
331
6B
  5
72
331
49
  5
49
331
5A
  5
5A
331
38
  5
38
331
9D
  5
A4
331
7B
  5
82
331
AE
  5
B5
331
8C
  5
93
331
69
  5
70
331
47
  5
47
331
36
  5
36
331
BD
  5
14B
331
9B
  5
A2
331
79
  5
80
331
AC
  5
B3
331
8A
  5
91
331
67
  5
6E
331
45
  5
45
331
34
  5
34
331
BB
  5
149
331
99
  5
A0
331
AA
  5
B1
331
88
  5
8F
331
43
  5
43
331
76
  5
7D
331
32
  5
32
331
B9
  5
147
331
A8
  5
AF
331
86
  5
8D
331
41
  5
41
331
74
  5
7B
331
97
  5
9E
331
14A
  5
6B
331
30
  5
30
331
A6
  5
AD
331
84
  5
8B
331
72
  5
79
331
B7
  5
145
331
95
  5
9C
331
148
  5
69
331
3F
  5
3F
331
2E
  5
2E
331
A4
  5
AB
331
82
  5
89
331
70
  5
77
331
B5
  5
BC
331
93
  5
9A
331
146
  5
67
331
4E
  5
4E
331
3D
  5
3D
331
2C
  5
2C
331
A2
  5
A9
331
80
  5
87
331
B3
  5
BA
331
91
  5
98
331
6E
  5
75
331
4C
  5
4C
331
3B
  5
3B
331
2A
  5
2A
331
A0
  5
A7
331
7E
  5
85
331
B1
  5
B8
331
8F
  5
96
331
6C
  5
73
331
4A
  5
4A
331
39
  5
39
331
28
  5
28
331
9E
  5
A5
331
7C
  5
83
331
AF
  5
B6
331
8D
  5
94
331
6A
  5
71
331
48
  5
48
331
37
  5
37
331
9C
  5
A3
331
7A
  5
81
331
AD
  5
B4
331
8B
  5
92
331
68
  5
6F
331
46
  5
46
331
35
  5
35
331
BC
  5
14A
331
9A
  5
A1
331
78
  5
7F
331
AB
  5
B2
331
89
  5
90
331
66
  5
6D
331
44
  5
44
331
77
  5
7E
331
33
  5
33
331
BA
  5
148
331
98
  5
9F
331
A9
  5
B0
331
87
  5
8E
331
42
  5
42
331
75
  5
7C
331
14B
  5
6C
331
31
  5
31
331
B8
  5
146
331
A7
  5
AE
331
85
  5
8C
331
40
  5
40
331
73
  5
7A
331
96
  5
9D
331
149
  5
6A
331
2F
  5
2F
331
A5
  5
AC
331
83
  5
8A
331
71
  5
78
331
B6
  5
BD
331
94
  5
9B
331
147
  5
68
331
4F
  5
4F
331
3E
  5
3E
331
2D
  5
2D
331
A3
  5
AA
331
81
  5
88
331
6F
  5
76
331
B4
  5
BB
331
92
  5
99
331
145
  5
66
331
4D
  5
4D
331
3C
  5
3C
331
2B
  5
2B
  0
LAYOUT
  5
21
102
{ACAD_REACTORS
330
1E
102
}
330
1E
100
AcDbPlotSettings
  1

  2
Foxit PDF Printer
  4
Letter
  6

 40
3.174999952316284
 41
3.174999952316284
 42
3.17498779296875
 43
3.175003051757812
 44
279.3999938964844
 45
215.8999938964844
 46
31.47715384821894
 47
24.12875752349356
 48
0.0
 49
0.0
140
0.0
141
0.0
142
1.0
143
1.0
 70
     4
 72
     0
 73
     0
 74
     1
  7

 75
     0
147
1.0
 76
     0
 77
     2
 78
   300
148
-26.25461124795212
149
-20.16000981431432
100
AcDbLayout
  1
Layout1
 70
     0
 71
     1
 10
-0.3306119115190196
 20
-0.2812499079328949
 11
10.66938784818509
 21
8.218749851771214
 12
0.0
 22
0.0
 32
0.0
 14
-0.1437983215330725
 24
-0.0610198723760078
 34
-0.0015258207003583
 15
10.37683133089736
 25
8.051048074112895
 35
0.0000000349246037
146
0.0
 13
0.0
 23
0.0
 33
0.0
 16
1.0
 26
0.0
 36
0.0
 17
0.0
 27
1.0
 37
0.0
 76
     0
330
B
331
DB
1001
ACAD_PSEXT
1000
Foxit PDF Printer
1000
Foxit PDF Printer Driver
1000
FOXIT_PDF
1000

1070
     0
  0
LAYOUT
  5
20
102
{ACAD_REACTORS
330
1E
102
}
330
1E
100
AcDbPlotSettings
  1

  2

  4

  6

 40
0.0
 41
0.0
 42
0.0
 43
0.0
 44
0.0
 45
0.0
 46
0.0
 47
0.0
 48
0.0
 49
0.0
140
0.0
141
0.0
142
1.0
143
1.0
 70
  1024
 72
     0
 73
     0
 74
     0
  7

 75
     0
147
1.0
 76
     0
 77
     2
 78
   300
148
0.0
149
0.0
100
AcDbLayout
  1
Model
 70
     0
 71
     0
 10
0.0
 20
0.0
 11
0.0
 21
0.0
 12
0.0
 22
0.0
 32
0.0
 14
0.0
 24
0.0
 34
0.0
 15
0.0
 25
0.0
 35
0.0
146
0.0
 13
0.0
 23
0.0
 33
0.0
 16
0.0
 26
0.0
 36
0.0
 17
0.0
 27
0.0
 37
0.0
 76
     0
330
A
  0
MATERIAL
  5
C1
102
{ACAD_XDICTIONARY
360
159
102
}
102
{ACAD_REACTORS
330
BF
102
}
330
BF
100
AcDbMaterial
  1
ByBlock
 73
     1
 78
     1
172
     1
176
     1
270
     1
274
     1
  0
MATERIAL
  5
C0
102
{ACAD_XDICTIONARY
360
157
102
}
102
{ACAD_REACTORS
330
BF
102
}
330
BF
100
AcDbMaterial
  1
ByLayer
 73
     1
 78
     1
172
     1
176
     1
270
     1
274
     1
  0
MATERIAL
  5
C2
102
{ACAD_XDICTIONARY
360
15B
102
}
102
{ACAD_REACTORS
330
BF
102
}
330
BF
100
AcDbMaterial
  1
Global
 73
     1
 78
     1
172
     1
176
     1
270
     1
274
     1
  0
MLEADERSTYLE
  5
109
102
{ACAD_REACTORS
330
108
102
}
330
108
100
AcDbMLeaderStyle
170
     2
171
     1
172
     0
 90
        2
 40
0.0
 41
0.0
173
     1
 91
-1056964608
340
11
 92
       -2
290
     1
 42
0.09
291
     1
 43
0.36
  3
Standard
 44
0.18
300

342
17
174
     1
178
     6
175
     1
176
     0
 93
-1056964608
 45
0.18
292
     0
297
     0
 46
0.18
 94
-1056964608
 47
1.0
 49
1.0
140
1.0
293
     1
141
0.0
294
     1
177
     0
142
1.0
295
     0
296
     0
143
0.125
1001
ACAD_MLEADERVER
1070
     2
  0
MLINESTYLE
  5
1C
102
{ACAD_REACTORS
330
1B
102
}
330
1B
100
AcDbMlineStyle
  2
STANDARD
 70
     0
  3

 62
     0
 51
90.0
 52
90.0
 71
     2
 49
0.5
 62
   256
  6
BYLAYER
 49
-0.5
 62
   256
  6
BYLAYER
  0
ACDBPLACEHOLDER
  5
1D
102
{ACAD_REACTORS
330
1F
102
}
330
1F
  0
SCALE
  5
E7
102
{ACAD_REACTORS
330
E6
102
}
330
E6
100
AcDbScale
 70
     0
300
1:1
140
1.0
141
1.0
290
     1
  0
SCALE
  5
E8
102
{ACAD_REACTORS
330
E6
102
}
330
E6
100
AcDbScale
 70
     0
300
1:2
140
1.0
141
2.0
290
     0
  0
SCALE
  5
E9
102
{ACAD_REACTORS
330
E6
102
}
330
E6
100
AcDbScale
 70
     0
300
1:4
140
1.0
141
4.0
290
     0
  0
SCALE
  5
EA
102
{ACAD_REACTORS
330
E6
102
}
330
E6
100
AcDbScale
 70
     0
300
1:5
140
1.0
141
5.0
290
     0
  0
SCALE
  5
EB
102
{ACAD_REACTORS
330
E6
102
}
330
E6
100
AcDbScale
 70
     0
300
1:8
140
1.0
141
8.0
290
     0
  0
SCALE
  5
EC
102
{ACAD_REACTORS
330
E6
102
}
330
E6
100
AcDbScale
 70
     0
300
1:10
140
1.0
141
10.0
290
     0
  0
SCALE
  5
ED
102
{ACAD_REACTORS
330
E6
102
}
330
E6
100
AcDbScale
 70
     0
300
1:16
140
1.0
141
16.0
290
     0
  0
SCALE
  5
EE
102
{ACAD_REACTORS
330
E6
102
}
330
E6
100
AcDbScale
 70
     0
300
1:20
140
1.0
141
20.0
290
     0
  0
SCALE
  5
EF
102
{ACAD_REACTORS
330
E6
102
}
330
E6
100
AcDbScale
 70
     0
300
1:30
140
1.0
141
30.0
290
     0
  0
SCALE
  5
F0
102
{ACAD_REACTORS
330
E6
102
}
330
E6
100
AcDbScale
 70
     0
300
1:40
140
1.0
141
40.0
290
     0
  0
SCALE
  5
F1
102
{ACAD_REACTORS
330
E6
102
}
330
E6
100
AcDbScale
 70
     0
300
1:50
140
1.0
141
50.0
290
     0
  0
SCALE
  5
F2
102
{ACAD_REACTORS
330
E6
102
}
330
E6
100
AcDbScale
 70
     0
300
1:100
140
1.0
141
100.0
290
     0
  0
SCALE
  5
F3
102
{ACAD_REACTORS
330
E6
102
}
330
E6
100
AcDbScale
 70
     0
300
2:1
140
2.0
141
1.0
290
     0
  0
SCALE
  5
F4
102
{ACAD_REACTORS
330
E6
102
}
330
E6
100
AcDbScale
 70
     0
300
4:1
140
4.0
141
1.0
290
     0
  0
SCALE
  5
F5
102
{ACAD_REACTORS
330
E6
102
}
330
E6
100
AcDbScale
 70
     0
300
8:1
140
8.0
141
1.0
290
     0
  0
SCALE
  5
F6
102
{ACAD_REACTORS
330
E6
102
}
330
E6
100
AcDbScale
 70
     0
300
10:1
140
10.0
141
1.0
290
     0
  0
SCALE
  5
F7
102
{ACAD_REACTORS
330
E6
102
}
330
E6
100
AcDbScale
 70
     0
300
100:1
140
100.0
141
1.0
290
     0
  0
SCALE
  5
F8
102
{ACAD_REACTORS
330
E6
102
}
330
E6
100
AcDbScale
 70
     0
300
1/128" = 1'-0"
140
0.0078125
141
12.0
290
     0
  0
SCALE
  5
F9
102
{ACAD_REACTORS
330
E6
102
}
330
E6
100
AcDbScale
 70
     0
300
1/64" = 1'-0"
140
0.015625
141
12.0
290
     0
  0
SCALE
  5
FA
102
{ACAD_REACTORS
330
E6
102
}
330
E6
100
AcDbScale
 70
     0
300
1/32" = 1'-0"
140
0.03125
141
12.0
290
     0
  0
SCALE
  5
FB
102
{ACAD_REACTORS
330
E6
102
}
330
E6
100
AcDbScale
 70
     0
300
1/16" = 1'-0"
140
0.0625
141
12.0
290
     0
  0
SCALE
  5
FC
102
{ACAD_REACTORS
330
E6
102
}
330
E6
100
AcDbScale
 70
     0
300
3/32" = 1'-0"
140
0.09375
141
12.0
290
     0
  0
SCALE
  5
FD
102
{ACAD_REACTORS
330
E6
102
}
330
E6
100
AcDbScale
 70
     0
300
1/8" = 1'-0"
140
0.125
141
12.0
290
     0
  0
SCALE
  5
FE
102
{ACAD_REACTORS
330
E6
102
}
330
E6
100
AcDbScale
 70
     0
300
3/16" = 1'-0"
140
0.1875
141
12.0
290
     0
  0
SCALE
  5
FF
102
{ACAD_REACTORS
330
E6
102
}
330
E6
100
AcDbScale
 70
     0
300
1/4" = 1'-0"
140
0.25
141
12.0
290
     0
  0
SCALE
  5
100
102
{ACAD_REACTORS
330
E6
102
}
330
E6
100
AcDbScale
 70
     0
300
3/8" = 1'-0"
140
0.375
141
12.0
290
     0
  0
SCALE
  5
101
102
{ACAD_REACTORS
330
E6
102
}
330
E6
100
AcDbScale
 70
     0
300
1/2" = 1'-0"
140
0.5
141
12.0
290
     0
  0
SCALE
  5
102
102
{ACAD_REACTORS
330
E6
102
}
330
E6
100
AcDbScale
 70
     0
300
3/4" = 1'-0"
140
0.75
141
12.0
290
     0
  0
SCALE
  5
103
102
{ACAD_REACTORS
330
E6
102
}
330
E6
100
AcDbScale
 70
     0
300
1" = 1'-0"
140
1.0
141
12.0
290
     0
  0
SCALE
  5
104
102
{ACAD_REACTORS
330
E6
102
}
330
E6
100
AcDbScale
 70
     0
300
1-1/2" = 1'-0"
140
1.5
141
12.0
290
     0
  0
SCALE
  5
105
102
{ACAD_REACTORS
330
E6
102
}
330
E6
100
AcDbScale
 70
     0
300
3" = 1'-0"
140
3.0
141
12.0
290
     0
  0
SCALE
  5
106
102
{ACAD_REACTORS
330
E6
102
}
330
E6
100
AcDbScale
 70
     0
300
6" = 1'-0"
140
6.0
141
12.0
290
     0
  0
SCALE
  5
107
102
{ACAD_REACTORS
330
E6
102
}
330
E6
100
AcDbScale
 70
     0
300
1'-0" = 1'-0"
140
12.0
141
12.0
290
     0
  0
TABLESTYLE
  5
D6
102
{ACAD_XDICTIONARY
360
154
102
}
102
{ACAD_REACTORS
330
D5
102
}
330
D5
100
AcDbTableStyle
  3
Standard
 70
     0
 71
     0
 40
0.06
 41
0.06
280
     0
281
     0
  7
Standard
140
0.18
170
     2
 62
     0
 63
     7
283
     0
274
    -2
284
     1
 64
     0
275
    -2
285
     1
 65
     0
276
    -2
286
     1
 66
     0
277
    -2
287
     1
 67
     0
278
    -2
288
     1
 68
     0
279
    -2
289
     1
 69
     0
  7
Standard
140
0.25
170
     5
 62
     0
 63
     7
283
     0
274
    -2
284
     1
 64
     0
275
    -2
285
     1
 65
     0
276
    -2
286
     1
 66
     0
277
    -2
287
     1
 67
     0
278
    -2
288
     1
 68
     0
279
    -2
289
     1
 69
     0
  7
Standard
140
0.18
170
     5
 62
     0
 63
     7
283
     0
274
    -2
284
     1
 64
     0
275
    -2
285
     1
 65
     0
276
    -2
286
     1
 66
     0
277
    -2
287
     1
 67
     0
278
    -2
288
     1
 68
     0
279
    -2
289
     1
 69
     0
  0
VISUALSTYLE
  5
C9
102
{ACAD_REACTORS
330
C3
102
}
330
C3
100
AcDbVisualStyle
  2
2dWireframe
 70
     4
 71
     0
 72
     2
 73
     0
 90
        0
 40
-0.6
 41
-30.0
 62
     5
 63
     7
421
 16777215
 74
     1
 91
        4
 64
     7
 65
   257
 75
     1
175
     1
 42
1.0
 92
        0
 66
   257
 43
1.0
 76
     1
 77
     6
 78
     2
 67
     7
 79
     5
170
     0
171
     0
290
     0
174
     0
 93
        1
 44
0.0
173
     0
291
     0
 45
0.0
1001
ACAD
1000
AcDbSavedByObjectVersion
1070
     0
  0
VISUALSTYLE
  5
CB
102
{ACAD_REACTORS
330
C3
102
}
330
C3
100
AcDbVisualStyle
  2
3D Hidden
 70
     6
 71
     1
 72
     2
 73
     2
 90
        0
 40
-0.6
 41
-30.0
 62
     5
 63
     7
421
 16777215
 74
     2
 91
        2
 64
     7
 65
   257
 75
     2
175
     1
 42
40.0
 92
        0
 66
   257
 43
1.0
 76
     1
 77
     6
 78
     2
 67
     7
 79
     3
170
     0
171
     0
290
     0
174
     0
 93
        1
 44
0.0
173
     0
291
     0
 45
0.0
1001
ACAD
1000
AcDbSavedByObjectVersion
1070
     0
  0
VISUALSTYLE
  5
CA
102
{ACAD_REACTORS
330
C3
102
}
330
C3
100
AcDbVisualStyle
  2
3dWireframe
 70
     5
 71
     0
 72
     2
 73
     0
 90
        0
 40
-0.6
 41
-30.0
 62
     5
 63
     7
421
 16777215
 74
     1
 91
        4
 64
     7
 65
   257
 75
     1
175
     1
 42
1.0
 92
        0
 66
   257
 43
1.0
 76
     1
 77
     6
 78
     2
 67
     7
 79
     5
170
     0
171
     0
290
     0
174
     0
 93
        1
 44
0.0
173
     0
291
     0
 45
0.0
1001
ACAD
1000
AcDbSavedByObjectVersion
1070
     0
  0
VISUALSTYLE
  5
C8
102
{ACAD_REACTORS
330
C3
102
}
330
C3
100
AcDbVisualStyle
  2
Basic
 70
     7
 71
     1
 72
     0
 73
     1
 90
        0
 40
-0.6
 41
-30.0
 62
     5
 63
     7
421
 16777215
 74
     0
 91
        4
 64
     7
 65
   257
 75
     1
175
     1
 42
1.0
 92
        8
 66
     7
 43
1.0
 76
     1
 77
     6
 78
     2
 67
     7
 79
     5
170
     0
171
     0
290
     0
174
     0
 93
        1
 44
0.0
173
     0
291
     1
 45
0.0
1001
ACAD
1000
AcDbSavedByObjectVersion
1070
     0
  0
VISUALSTYLE
  5
CF
102
{ACAD_REACTORS
330
C3
102
}
330
C3
100
AcDbVisualStyle
  2
Brighten
 70
    12
 71
     2
 72
     2
 73
     0
 90
        0
 40
-0.6
 41
-30.0
 62
     5
 63
     7
421
 16777215
 74
     1
 91
        4
 64
     7
 65
   257
 75
     1
175
     1
 42
1.0
 92
        8
 66
     7
 43
1.0
 76
     1
 77
     6
 78
     2
 67
     7
 79
     5
170
     0
171
     0
290
     0
174
     0
 93
        1
 44
50.0
173
     0
291
     1
 45
0.0
1001
ACAD
1000
AcDbSavedByObjectVersion
1070
     0
  0
VISUALSTYLE
  5
D3
102
{ACAD_REACTORS
330
C3
102
}
330
C3
100
AcDbVisualStyle
  2
ColorChange
 70
    16
 71
     2
 72
     2
 73
     3
 90
        0
 40
-0.6
 41
-30.0
 62
     5
 63
     8
421
  8421504
 74
     1
 91
        4
 64
     7
 65
   257
 75
     1
175
     1
 42
1.0
 92
        8
 66
     8
424
  8421504
 43
1.0
 76
     1
 77
     6
 78
     2
 67
     7
 79
     5
170
     0
171
     0
290
     0
174
     0
 93
        1
 44
0.0
173
     0
291
     1
 45
0.0
1001
ACAD
1000
AcDbSavedByObjectVersion
1070
     0
  0
VISUALSTYLE
  5
CC
102
{ACAD_REACTORS
330
C3
102
}
330
C3
100
AcDbVisualStyle
  2
Conceptual
 70
     9
 71
     3
 72
     2
 73
     0
 90
        0
 40
-0.6
 41
-30.0
 62
     5
 63
     7
421
 16777215
 74
     2
 91
        2
 64
     7
 65
   257
 75
     1
175
     1
 42
40.0
 92
        8
 66
     7
 43
1.0
 76
     1
 77
     6
 78
     2
 67
     7
 79
     3
170
     0
171
     0
290
     0
174
     0
 93
        1
 44
0.0
173
     0
291
     0
 45
0.0
1001
ACAD
1000
AcDbSavedByObjectVersion
1070
     0
  0
VISUALSTYLE
  5
CE
102
{ACAD_REACTORS
330
C3
102
}
330
C3
100
AcDbVisualStyle
  2
Dim
 70
    11
 71
     2
 72
     2
 73
     0
 90
        0
 40
-0.6
 41
-30.0
 62
     5
 63
     7
421
 16777215
 74
     1
 91
        4
 64
     7
 65
   257
 75
     1
175
     1
 42
1.0
 92
        8
 66
     7
 43
1.0
 76
     1
 77
     6
 78
     2
 67
     7
 79
     5
170
     0
171
     0
290
     0
174
     0
 93
        1
 44
-50.0
173
     0
291
     1
 45
0.0
1001
ACAD
1000
AcDbSavedByObjectVersion
1070
     0
  0
VISUALSTYLE
  5
D2
102
{ACAD_REACTORS
330
C3
102
}
330
C3
100
AcDbVisualStyle
  2
Facepattern
 70
    15
 71
     2
 72
     2
 73
     0
 90
        0
 40
-0.6
 41
-30.0
 62
     5
 63
     7
421
 16777215
 74
     1
 91
        4
 64
     7
 65
   257
 75
     1
175
     1
 42
1.0
 92
        8
 66
     7
 43
1.0
 76
     1
 77
     6
 78
     2
 67
     7
 79
     5
170
     0
171
     0
290
     0
174
     0
 93
        1
 44
0.0
173
     0
291
     1
 45
0.0
1001
ACAD
1000
AcDbSavedByObjectVersion
1070
     0
  0
VISUALSTYLE
  5
C4
102
{ACAD_REACTORS
330
C3
102
}
330
C3
100
AcDbVisualStyle
  2
Flat
 70
     0
 71
     2
 72
     1
 73
     1
 90
        2
 40
-0.6
 41
30.0
 62
     5
 63
     7
421
 16777215
 74
     0
 91
        4
 64
     7
 65
   257
 75
     1
175
     1
 42
1.0
 92
        8
 66
     7
 43
1.0
 76
     1
 77
     6
 78
     2
 67
     7
 79
     5
170
     0
171
     0
290
     0
174
     0
 93
       13
 44
0.0
173
     0
291
     1
 45
0.0
1001
ACAD
1000
AcDbSavedByObjectVersion
1070
     0
  0
VISUALSTYLE
  5
C5
102
{ACAD_REACTORS
330
C3
102
}
330
C3
100
AcDbVisualStyle
  2
FlatWithEdges
 70
     1
 71
     2
 72
     1
 73
     1
 90
        2
 40
-0.6
 41
30.0
 62
     5
 63
     7
421
 16777215
 74
     1
 91
        4
 64
     7
 65
   257
 75
     1
175
     1
 42
1.0
 92
        0
 66
   257
 43
1.0
 76
     1
 77
     6
 78
     2
 67
     7
 79
     5
170
     0
171
     0
290
     0
174
     0
 93
       13
 44
0.0
173
     0
291
     1
 45
0.0
1001
ACAD
1000
AcDbSavedByObjectVersion
1070
     0
  0
VISUALSTYLE
  5
C6
102
{ACAD_REACTORS
330
C3
102
}
330
C3
100
AcDbVisualStyle
  2
Gouraud
 70
     2
 71
     2
 72
     2
 73
     1
 90
        2
 40
-0.6
 41
30.0
 62
     5
 63
     7
421
 16777215
 74
     0
 91
        4
 64
     7
 65
   257
 75
     1
175
     1
 42
1.0
 92
        0
 66
     7
 43
1.0
 76
     1
 77
     6
 78
     2
 67
     7
 79
     5
170
     0
171
     0
290
     0
174
     0
 93
       13
 44
0.0
173
     0
291
     1
 45
0.0
1001
ACAD
1000
AcDbSavedByObjectVersion
1070
     0
  0
VISUALSTYLE
  5
C7
102
{ACAD_REACTORS
330
C3
102
}
330
C3
100
AcDbVisualStyle
  2
GouraudWithEdges
 70
     3
 71
     2
 72
     2
 73
     1
 90
        2
 40
-0.6
 41
30.0
 62
     5
 63
     7
421
 16777215
 74
     1
 91
        4
 64
     7
 65
   257
 75
     1
175
     1
 42
1.0
 92
        0
 66
   257
 43
1.0
 76
     1
 77
     6
 78
     2
 67
     7
 79
     5
170
     0
171
     0
290
     0
174
     0
 93
       13
 44
0.0
173
     0
291
     1
 45
0.0
1001
ACAD
1000
AcDbSavedByObjectVersion
1070
     0
  0
VISUALSTYLE
  5
D1
102
{ACAD_REACTORS
330
C3
102
}
330
C3
100
AcDbVisualStyle
  2
Linepattern
 70
    14
 71
     2
 72
     2
 73
     0
 90
        0
 40
-0.6
 41
-30.0
 62
     5
 63
     7
421
 16777215
 74
     1
 91
        4
 64
     7
 65
   257
 75
     7
175
     7
 42
1.0
 92
        8
 66
     7
 43
1.0
 76
     1
 77
     6
 78
     2
 67
     7
 79
     5
170
     0
171
     0
290
     0
174
     0
 93
        1
 44
0.0
173
     0
291
     1
 45
0.0
1001
ACAD
1000
AcDbSavedByObjectVersion
1070
     0
  0
VISUALSTYLE
  5
CD
102
{ACAD_REACTORS
330
C3
102
}
330
C3
100
AcDbVisualStyle
  2
Realistic
 70
     8
 71
     2
 72
     2
 73
     0
 90
        0
 40
-0.6
 41
-30.0
 62
     5
 63
     7
421
 16777215
 74
     1
 91
        0
 64
     7
 65
   257
 75
     1
175
     1
 42
1.0
 92
        8
 66
     8
424
  7895160
 43
1.0
 76
     1
 77
     6
 78
     2
 67
     7
 79
     5
170
     0
171
     0
290
     0
174
     0
 93
       13
 44
0.0
173
     0
291
     0
 45
0.0
1001
ACAD
1000
AcDbSavedByObjectVersion
1070
     0
  0
VISUALSTYLE
  5
D0
102
{ACAD_REACTORS
330
C3
102
}
330
C3
100
AcDbVisualStyle
  2
Thicken
 70
    13
 71
     2
 72
     2
 73
     0
 90
        0
 40
-0.6
 41
-30.0
 62
     5
 63
     7
421
 16777215
 74
     1
 91
        4
 64
     7
 65
   257
 75
     1
175
     1
 42
1.0
 92
       12
 66
     7
 43
1.0
 76
     1
 77
     6
 78
     2
 67
     7
 79
     5
170
     0
171
     0
290
     0
174
     0
 93
        1
 44
0.0
173
     0
291
     1
 45
0.0
1001
ACAD
1000
AcDbSavedByObjectVersion
1070
     0
  0
DICTIONARYVAR
  5
132
102
{ACAD_REACTORS
330
E3
102
}
330
E3
100
DictionaryVariables
280
     0
  1
1:1
  0
DICTIONARYVAR
  5
131
102
{ACAD_REACTORS
330
E3
102
}
330
E3
100
DictionaryVariables
280
     0
  1
STANDARD
  0
DICTIONARYVAR
  5
E4
102
{ACAD_REACTORS
330
E3
102
}
330
E3
100
DictionaryVariables
280
     0
  1
STANDARD
  0
XRECORD
  5
11E
102
{ACAD_REACTORS
330
11D
102
}
330
11D
100
AcDbXrecord
280
     1
  0
DICTIONARY
  5
159
330
C1
100
AcDbDictionary
280
     1
281
     1
  3
ACAD_XREC_ROUNDTRIP
360
15A
  0
DICTIONARY
  5
157
330
C0
100
AcDbDictionary
280
     1
281
     1
  3
ACAD_XREC_ROUNDTRIP
360
158
  0
DICTIONARY
  5
15B
330
C2
100
AcDbDictionary
280
     1
281
     1
  3
ACAD_XREC_ROUNDTRIP
360
15C
  0
DICTIONARY
  5
154
330
D6
100
AcDbDictionary
280
     1
281
     1
  3
ACAD_ROUNDTRIP_2008_TABLESTYLE_CELLSTYLEMAP
360
155
  3
ACAD_XREC_ROUNDTRIP
360
15D
  0
XRECORD
  5
15A
102
{ACAD_REACTORS
330
159
102
}
330
159
100
AcDbXrecord
280
     1
102
MATERIAL
148
0.0
149
0.0
149
0.0
 93
        0
 94
       63
282
     0
 72
     1
 77
     1
171
     1
175
     1
179
     1
273
     0
  0
XRECORD
  5
158
102
{ACAD_REACTORS
330
157
102
}
330
157
100
AcDbXrecord
280
     1
102
MATERIAL
148
0.0
149
0.0
149
0.0
 93
        0
 94
       63
282
     0
 72
     1
 77
     1
171
     1
175
     1
179
     1
273
     0
  0
XRECORD
  5
15C
102
{ACAD_REACTORS
330
15B
102
}
330
15B
100
AcDbXrecord
280
     1
102
MATERIAL
148
0.0
149
0.0
149
0.0
 93
        0
 94
       63
282
     0
 72
     1
 77
     1
171
     1
175
     1
179
     1
273
     0
  0
CELLSTYLEMAP
  5
155
102
{ACAD_REACTORS
330
154
102
}
330
154
100
AcDbCellStyleMap
 90
        3
300
CELLSTYLE
  1
TABLEFORMAT_BEGIN
 90
        5
170
     1
 91
        0
 92
    32768
 62
   257
 93
        1
300
CONTENTFORMAT
  1
CONTENTFORMAT_BEGIN
 90
        0
 91
        0
 92
      512
 93
        0
300

 40
0.0
140
1.0
 94
        5
 62
     0
340
17
144
0.25
309
CONTENTFORMAT_END
171
     0
 94
        6
 95
        1
302
GRIDFORMAT
  1
GRIDFORMAT_BEGIN
 90
        0
 91
        1
 62
     0
 92
       -2
340
0
 93
        0
 40
0.045
309
GRIDFORMAT_END
 95
        2
302
GRIDFORMAT
  1
GRIDFORMAT_BEGIN
 90
        0
 91
        1
 62
     0
 92
       -2
340
0
 93
        0
 40
0.045
309
GRIDFORMAT_END
 95
        4
302
GRIDFORMAT
  1
GRIDFORMAT_BEGIN
 90
        0
 91
        1
 62
     0
 92
       -2
340
0
 93
        0
 40
0.045
309
GRIDFORMAT_END
 95
        8
302
GRIDFORMAT
  1
GRIDFORMAT_BEGIN
 90
        0
 91
        1
 62
     0
 92
       -2
340
0
 93
        0
 40
0.045
309
GRIDFORMAT_END
 95
       16
302
GRIDFORMAT
  1
GRIDFORMAT_BEGIN
 90
        0
 91
        1
 62
     0
 92
       -2
340
0
 93
        0
 40
0.045
309
GRIDFORMAT_END
 95
       32
302
GRIDFORMAT
  1
GRIDFORMAT_BEGIN
 90
        0
 91
        1
 62
     0
 92
       -2
340
0
 93
        0
 40
0.045
309
GRIDFORMAT_END
309
TABLEFORMAT_END
  1
CELLSTYLE_BEGIN
 90
        1
 91
        1
300
_TITLE
309
CELLSTYLE_END
300
CELLSTYLE
  1
TABLEFORMAT_BEGIN
 90
        5
170
     1
 91
        0
 92
        0
 62
   257
 93
        1
300
CONTENTFORMAT
  1
CONTENTFORMAT_BEGIN
 90
        0
 91
        0
 92
      512
 93
        0
300

 40
0.0
140
1.0
 94
        5
 62
     0
340
17
144
0.18
309
CONTENTFORMAT_END
171
     0
 94
        6
 95
        1
302
GRIDFORMAT
  1
GRIDFORMAT_BEGIN
 90
        0
 91
        1
 62
     0
 92
       -2
340
0
 93
        0
 40
0.045
309
GRIDFORMAT_END
 95
        2
302
GRIDFORMAT
  1
GRIDFORMAT_BEGIN
 90
        0
 91
        1
 62
     0
 92
       -2
340
0
 93
        0
 40
0.045
309
GRIDFORMAT_END
 95
        4
302
GRIDFORMAT
  1
GRIDFORMAT_BEGIN
 90
        0
 91
        1
 62
     0
 92
       -2
340
0
 93
        0
 40
0.045
309
GRIDFORMAT_END
 95
        8
302
GRIDFORMAT
  1
GRIDFORMAT_BEGIN
 90
        0
 91
        1
 62
     0
 92
       -2
340
0
 93
        0
 40
0.045
309
GRIDFORMAT_END
 95
       16
302
GRIDFORMAT
  1
GRIDFORMAT_BEGIN
 90
        0
 91
        1
 62
     0
 92
       -2
340
0
 93
        0
 40
0.045
309
GRIDFORMAT_END
 95
       32
302
GRIDFORMAT
  1
GRIDFORMAT_BEGIN
 90
        0
 91
        1
 62
     0
 92
       -2
340
0
 93
        0
 40
0.045
309
GRIDFORMAT_END
309
TABLEFORMAT_END
  1
CELLSTYLE_BEGIN
 90
        2
 91
        1
300
_HEADER
309
CELLSTYLE_END
300
CELLSTYLE
  1
TABLEFORMAT_BEGIN
 90
        5
170
     1
 91
        0
 92
        0
 62
   257
 93
        1
300
CONTENTFORMAT
  1
CONTENTFORMAT_BEGIN
 90
        0
 91
        0
 92
      512
 93
        0
300

 40
0.0
140
1.0
 94
        2
 62
     0
340
17
144
0.18
309
CONTENTFORMAT_END
171
     0
 94
        6
 95
        1
302
GRIDFORMAT
  1
GRIDFORMAT_BEGIN
 90
        0
 91
        1
 62
     0
 92
       -2
340
0
 93
        0
 40
0.045
309
GRIDFORMAT_END
 95
        2
302
GRIDFORMAT
  1
GRIDFORMAT_BEGIN
 90
        0
 91
        1
 62
     0
 92
       -2
340
0
 93
        0
 40
0.045
309
GRIDFORMAT_END
 95
        4
302
GRIDFORMAT
  1
GRIDFORMAT_BEGIN
 90
        0
 91
        1
 62
     0
 92
       -2
340
0
 93
        0
 40
0.045
309
GRIDFORMAT_END
 95
        8
302
GRIDFORMAT
  1
GRIDFORMAT_BEGIN
 90
        0
 91
        1
 62
     0
 92
       -2
340
0
 93
        0
 40
0.045
309
GRIDFORMAT_END
 95
       16
302
GRIDFORMAT
  1
GRIDFORMAT_BEGIN
 90
        0
 91
        1
 62
     0
 92
       -2
340
0
 93
        0
 40
0.045
309
GRIDFORMAT_END
 95
       32
302
GRIDFORMAT
  1
GRIDFORMAT_BEGIN
 90
        0
 91
        1
 62
     0
 92
       -2
340
0
 93
        0
 40
0.045
309
GRIDFORMAT_END
309
TABLEFORMAT_END
  1
CELLSTYLE_BEGIN
 90
        3
 91
        2
300
_DATA
309
CELLSTYLE_END
  0
XRECORD
  5
15D
102
{ACAD_REACTORS
330
154
102
}
330
154
100
AcDbXrecord
280
     1
102
ACAD_ROUNDTRIP_PRE2007_TABLESTYLE
 90
      512
 91
        0
  1

 92
      512
 93
        0
  2

 94
      512
 95
        0
  3

  0
ENDSEC
  0
EOF
