  0
SECTION
  2
HEADER
  9
$ACADVER
  1
AC1018
  9
$ACADMAINTVER
 70
   104
  9
$DWGCODEPAGE
  3
ANSI_1252
  9
$LASTSAVEDBY
  1
EARL
  9
$INSBASE
 10
0.0
 20
0.0
 30
0.0
  9
$EXTMIN
 10
-1.356755999999999
 20
-0.2512003445097845
 30
0.0
  9
$EXTMAX
 10
4.645306999999999
 20
4.588478038253075
 30
0.0
  9
$LIMMIN
 10
0.0
 20
0.0
  9
$LIMMAX
 10
0.0
 20
0.0
  9
$ORTHOMODE
 70
     0
  9
$REGENMODE
 70
     1
  9
$FILLMODE
 70
     1
  9
$QTEXTMODE
 70
     0
  9
$MIRRTEXT
 70
     1
  9
$LTSCALE
 40
1.0
  9
$ATTMODE
 70
     1
  9
$TEXTSIZE
 40
0.0
  9
$TRACEWID
 40
0.05
  9
$TEXTSTYLE
  7
Standard
  9
$CLAYER
  8
0
  9
$CELTYPE
  6
Continuous
  9
$CECOLOR
 62
   256
  9
$CELTSCALE
 40
1.0
  9
$DISPSILH
 70
     0
  9
$DIMSCALE
 40
1.0
  9
$DIMASZ
 40
0.18
  9
$DIMEXO
 40
0.0625
  9
$DIMDLI
 40
0.38
  9
$DIMRND
 40
0.0
  9
$DIMDLE
 40
0.0
  9
$DIMEXE
 40
0.18
  9
$DIMTP
 40
0.0
  9
$DIMTM
 40
0.0
  9
$DIMTXT
 40
0.18
  9
$DIMCEN
 40
0.09
  9
$DIMTSZ
 40
0.0
  9
$DIMTOL
 70
     0
  9
$DIMLIM
 70
     0
  9
$DIMTIH
 70
     1
  9
$DIMTOH
 70
     1
  9
$DIMSE1
 70
     0
  9
$DIMSE2
 70
     0
  9
$DIMTAD
 70
     0
  9
$DIMZIN
 70
     0
  9
$DIMBLK
  1

  9
$DIMASO
 70
     1
  9
$DIMSHO
 70
     1
  9
$DIMPOST
  1

  9
$DIMAPOST
  1

  9
$DIMALT
 70
     0
  9
$DIMALTD
 70
     2
  9
$DIMALTF
 40
25.4
  9
$DIMLFAC
 40
1.0
  9
$DIMTOFL
 70
     0
  9
$DIMTVP
 40
0.0
  9
$DIMTIX
 70
     0
  9
$DIMSOXD
 70
     0
  9
$DIMSAH
 70
     0
  9
$DIMBLK1
  1

  9
$DIMBLK2
  1

  9
$DIMSTYLE
  2
Standard
  9
$DIMCLRD
 70
     0
  9
$DIMCLRE
 70
     0
  9
$DIMCLRT
 70
     0
  9
$DIMTFAC
 40
1.0
  9
$DIMGAP
 40
0.09
  9
$DIMJUST
 70
     0
  9
$DIMSD1
 70
     0
  9
$DIMSD2
 70
     0
  9
$DIMTOLJ
 70
     1
  9
$DIMTZIN
 70
     0
  9
$DIMALTZ
 70
     0
  9
$DIMALTTZ
 70
     0
  9
$DIMUPT
 70
     0
  9
$DIMDEC
 70
     4
  9
$DIMTDEC
 70
     4
  9
$DIMALTU
 70
     2
  9
$DIMALTTD
 70
     2
  9
$DIMTXSTY
  7
Standard
  9
$DIMAUNIT
 70
     0
  9
$DIMADEC
 70
     0
  9
$DIMALTRND
 40
0.0
  9
$DIMAZIN
 70
     0
  9
$DIMDSEP
 70
    46
  9
$DIMATFIT
 70
     0
  9
$DIMFRAC
 70
     0
  9
$DIMLDRBLK
  1

  9
$DIMLUNIT
 70
     2
  9
$DIMLWD
 70
    -2
  9
$DIMLWE
 70
    -2
  9
$DIMTMOVE
 70
     0
  9
$LUNITS
 70
     2
  9
$LUPREC
 70
     4
  9
$SKETCHINC
 40
0.1
  9
$FILLETRAD
 40
0.0
  9
$AUNITS
 70
     0
  9
$AUPREC
 70
     0
  9
$MENU
  1
acad
  9
$ELEVATION
 40
0.0
  9
$PELEVATION
 40
0.0
  9
$THICKNESS
 40
0.0
  9
$LIMCHECK
 70
     0
  9
$CHAMFERA
 40
0.0
  9
$CHAMFERB
 40
0.0
  9
$CHAMFERC
 40
0.0
  9
$CHAMFERD
 40
0.0
  9
$SKPOLY
 70
     0
  9
$TDCREATE
 40
2455006.487418982
  9
$TDUCREATE
 40
2455006.654085648
  9
$TDUPDATE
 40
2455105.062103044
  9
$TDUUPDATE
 40
2455105.228769711
  9
$TDINDWG
 40
0.0006904398
  9
$TDUSRTIMER
 40
0.0006904398
  9
$USRTIMER
 70
     1
  9
$ANGBASE
 50
0.0
  9
$ANGDIR
 70
     0
  9
$PDMODE
 70
     0
  9
$PDSIZE
 40
0.0
  9
$PLINEWID
 40
0.0
  9
$SPLFRAME
 70
     0
  9
$SPLINETYPE
 70
     6
  9
$SPLINESEGS
 70
     8
  9
$HANDSEED
  5
2A8
  9
$SURFTAB1
 70
     6
  9
$SURFTAB2
 70
     6
  9
$SURFTYPE
 70
     6
  9
$SURFU
 70
     6
  9
$SURFV
 70
     6
  9
$UCSBASE
  2

  9
$UCSNAME
  2

  9
$UCSORG
 10
0.0
 20
0.0
 30
0.0
  9
$UCSXDIR
 10
1.0
 20
0.0
 30
0.0
  9
$UCSYDIR
 10
0.0
 20
1.0
 30
0.0
  9
$UCSORTHOREF
  2

  9
$UCSORTHOVIEW
 70
     0
  9
$UCSORGTOP
 10
0.0
 20
0.0
 30
0.0
  9
$UCSORGBOTTOM
 10
0.0
 20
0.0
 30
0.0
  9
$UCSORGLEFT
 10
0.0
 20
0.0
 30
0.0
  9
$UCSORGRIGHT
 10
0.0
 20
0.0
 30
0.0
  9
$UCSORGFRONT
 10
0.0
 20
0.0
 30
0.0
  9
$UCSORGBACK
 10
0.0
 20
0.0
 30
0.0
  9
$PUCSBASE
  2

  9
$PUCSNAME
  2

  9
$PUCSORG
 10
0.0
 20
0.0
 30
0.0
  9
$PUCSXDIR
 10
1.0
 20
0.0
 30
0.0
  9
$PUCSYDIR
 10
0.0
 20
1.0
 30
0.0
  9
$PUCSORTHOREF
  2

  9
$PUCSORTHOVIEW
 70
     0
  9
$PUCSORGTOP
 10
0.0
 20
0.0
 30
0.0
  9
$PUCSORGBOTTOM
 10
0.0
 20
0.0
 30
0.0
  9
$PUCSORGLEFT
 10
0.0
 20
0.0
 30
0.0
  9
$PUCSORGRIGHT
 10
0.0
 20
0.0
 30
0.0
  9
$PUCSORGFRONT
 10
0.0
 20
0.0
 30
0.0
  9
$PUCSORGBACK
 10
0.0
 20
0.0
 30
0.0
  9
$USERI1
 70
     0
  9
$USERI2
 70
     0
  9
$USERI3
 70
     0
  9
$USERI4
 70
     0
  9
$USERI5
 70
     0
  9
$USERR1
 40
0.0
  9
$USERR2
 40
0.0
  9
$USERR3
 40
0.0
  9
$USERR4
 40
0.0
  9
$USERR5
 40
0.0
  9
$WORLDVIEW
 70
     1
  9
$SHADEDGE
 70
     3
  9
$SHADEDIF
 70
    70
  9
$TILEMODE
 70
     0
  9
$MAXACTVP
 70
    16
  9
$PINSBASE
 10
0.0
 20
0.0
 30
0.0
  9
$PLIMCHECK
 70
     0
  9
$PEXTMIN
 10
-0.1078511654042842
 20
-0.0251999192191939
 30
-0.0015258207003583
  9
$PEXTMAX
 10
10.42897745798915
 20
8.033233211889179
 30
0.0000000349246037
  9
$PLIMMIN
 10
-0.3306119115190196
 20
-0.2812499079328949
  9
$PLIMMAX
 10
10.66938784818509
 20
8.218749851771214
  9
$UNITMODE
 70
     0
  9
$VISRETAIN
 70
     0
  9
$PLINEGEN
 70
     1
  9
$PSLTSCALE
 70
     0
  9
$TREEDEPTH
 70
  3020
  9
$CMLSTYLE
  2
Standard
  9
$CMLJUST
 70
     0
  9
$CMLSCALE
 40
1.0
  9
$PROXYGRAPHICS
 70
     0
  9
$MEASUREMENT
 70
     0
  9
$CELWEIGHT
370
     0
  9
$ENDCAPS
280
     0
  9
$JOINSTYLE
280
     0
  9
$LWDISPLAY
290
     0
  9
$INSUNITS
 70
     0
  9
$HYPERLINKBASE
  1

  9
$STYLESHEET
  1

  9
$XEDIT
290
     1
  9
$CEPSNTYPE
380
     0
  9
$PSTYLEMODE
290
     1
  9
$FINGERPRINTGUID
  2

  9
$VERSIONGUID
  2
{00580913-45A9-4A4A-985C-D627FE3C50C0}
  9
$EXTNAMES
290
     1
  9
$PSVPSCALE
 40
0.0
  9
$OLESTARTUP
290
     0
  9
$SORTENTS
280
   127
  9
$INDEXCTL
280
     0
  9
$HIDETEXT
280
     0
  9
$XCLIPFRAME
290
     0
  9
$HALOGAP
280
     0
  9
$OBSCOLOR
 70
   257
  9
$OBSLTYPE
280
     0
  9
$INTERSECTIONDISPLAY
280
     0
  9
$INTERSECTIONCOLOR
 70
   257
  9
$DIMASSOC
280
     1
  9
$PROJECTNAME
  1

  0
ENDSEC
  0
SECTION
  2
CLASSES
  0
CLASS
  1
IMAGE
  2
AcDbRasterImage
  3
ISM
 90
     2175
 91
        0
280
     0
281
     1
  0
CLASS
  1
DICTIONARYVAR
  2
AcDbDictionaryVar
  3
ObjectDBX Classes
 90
        0
 91
        5
280
     0
281
     0
  0
CLASS
  1
RASTERVARIABLES
  2
AcDbRasterVariables
  3
ISM
 90
        0
 91
        0
280
     0
281
     0
  0
CLASS
  1
IMAGEDEF
  2
AcDbRasterImageDef
  3
ISM
 90
        0
 91
        0
280
     0
281
     0
  0
CLASS
  1
IMAGEDEF_REACTOR
  2
AcDbRasterImageDefReactor
  3
ISM
 90
        1
 91
        0
280
     0
281
     0
  0
CLASS
  1
IDBUFFER
  2
AcDbIdBuffer
  3
ObjectDBX Classes
 90
        0
 91
        0
280
     0
281
     0
  0
CLASS
  1
SPATIAL_FILTER
  2
AcDbSpatialFilter
  3
ObjectDBX Classes
 90
        0
 91
        0
280
     0
281
     0
  0
CLASS
  1
SORTENTSTABLE
  2
AcDbSortentsTable
  3
ObjectDBX Classes
 90
        0
 91
        0
280
     0
281
     0
  0
CLASS
  1
LAYER_INDEX
  2
AcDbLayerIndex
  3
ObjectDBX Classes
 90
        0
 91
        0
280
     0
281
     0
  0
CLASS
  1
SPATIAL_INDEX
  2
AcDbSpatialIndex
  3
ObjectDBX Classes
 90
        0
 91
        0
280
     0
281
     0
  0
CLASS
  1
OBJECT_PTR
  2
CAseDLPNTableRecord
  3
"ASE-LPNTableRecord"
 90
        1
 91
        0
280
     0
281
     0
  0
CLASS
  1
PLOTSETTINGS
  2
AcDbPlotSettings
  3
ObjectDBX Classes
 90
        0
 91
        0
280
     0
281
     0
  0
CLASS
  1
ACDBDICTIONARYWDFLT
  2
AcDbDictionaryWithDefault
  3
ObjectDBX Classes
 90
        0
 91
        1
280
     0
281
     0
  0
CLASS
  1
WIPEOUT
  2
AcDbWipeout
  3
"WipeOut|Product Desc: Object Enabler for WipeOut entity                        |Company: Autodesk, Inc.                        |WEB Address: www.autodesk.com"
 90
     2175
 91
        0
280
     0
281
     1
  0
CLASS
  1
WIPEOUTVARIABLES
  2
AcDbWipeoutVariables
  3
"WipeOut|Product Desc:     WipeOut Dbx Application|Company:          Autodesk, Inc.|WEB Address:      www.autodesk.com"
 90
        0
 91
        1
280
     0
281
     0
  0
CLASS
  1
RTEXT
  2
RText
  3
RText|AutoCAD Express Tool|expresstools@autodesk.com
 90
        0
 91
        0
280
     0
281
     1
  0
CLASS
  1
ARCALIGNEDTEXT
  2
AcDbArcAlignedText
  3
ATEXT|AutoCAD Express Tool|expresstools@autodesk.com
 90
        0
 91
        0
280
     0
281
     1
  0
CLASS
  1
MATERIAL
  2
AcDbMaterial
  3
ObjectDBX Classes
 90
     1153
 91
        3
280
     0
281
     0
  0
CLASS
  1
VISUALSTYLE
  2
AcDbVisualStyle
  3
ObjectDBX Classes
 90
     4095
 91
       16
280
     0
281
     0
  0
CLASS
  1
TABLESTYLE
  2
AcDbTableStyle
  3
ObjectDBX Classes
 90
     4095
 91
        1
280
     0
281
     0
  0
CLASS
  1
SCALE
  2
AcDbScale
  3
ObjectDBX Classes
 90
     1153
 91
       33
280
     0
281
     0
  0
CLASS
  1
MLEADERSTYLE
  2
AcDbMLeaderStyle
  3
ACDB_MLEADERSTYLE_CLASS
 90
     4095
 91
        1
280
     0
281
     0
  0
CLASS
  1
CELLSTYLEMAP
  2
AcDbCellStyleMap
  3
ObjectDBX Classes
 90
     1152
 91
        2
280
     0
281
     0
  0
ENDSEC
  0
SECTION
  2
TABLES
  0
TABLE
  2
VPORT
  5
7
330
0
100
AcDbSymbolTable
 70
     1
  0
VPORT
  5
15
330
7
100
AcDbSymbolTableRecord
100
AcDbViewportTableRecord
  2
*ACTIVE
 70
     0
 10
0.0
 20
0.0
 11
1.0
 21
1.0
 12
12.11780667605996
 22
4.579183999999999
 13
0.0
 23
0.0
 14
1.0
 24
1.0
 15
0.0
 25
0.0
 16
0.0
 26
0.0
 36
1.0
 17
0.0
 27
0.0
 37
0.0
 40
9.158369
 41
1.895442359249329
 42
50.0
 43
0.0
 44
0.0
 50
0.0
 51
0.0
 71
     0
 72
   100
 73
     1
 74
     1
 75
     0
 76
     0
 77
     0
 78
     0
281
     0
 65
     0
110
0.0
120
0.0
130
0.0
111
1.0
121
0.0
131
0.0
112
0.0
122
1.0
132
0.0
 79
     0
146
0.0
  0
ENDTAB
  0
TABLE
  2
LTYPE
  5
4
330
0
100
AcDbSymbolTable
 70
     4
  0
LTYPE
  5
11
330
4
100
AcDbSymbolTableRecord
100
AcDbLinetypeTableRecord
  2
ByBlock
 70
     0
  3

 72
    65
 73
     0
 40
0.0
  0
LTYPE
  5
12
330
4
100
AcDbSymbolTableRecord
100
AcDbLinetypeTableRecord
  2
ByLayer
 70
     0
  3

 72
    65
 73
     0
 40
0.0
  0
LTYPE
  5
13
330
4
100
AcDbSymbolTableRecord
100
AcDbLinetypeTableRecord
  2
Continuous
 70
     0
  3
Solid line
 72
    65
 73
     0
 40
0.0
  0
LTYPE
  5
24
330
4
100
AcDbSymbolTableRecord
100
AcDbLinetypeTableRecord
  2
solid
 70
     0
  3

 72
    65
 73
     0
 40
0.0
  0
LTYPE
  5
25
330
4
100
AcDbSymbolTableRecord
100
AcDbLinetypeTableRecord
  2
dashed
 70
     0
  3

 72
    65
 73
     0
 40
0.0
  0
LTYPE
  5
26
330
4
100
AcDbSymbolTableRecord
100
AcDbLinetypeTableRecord
  2
center
 70
     0
  3

 72
    65
 73
     0
 40
0.0
  0
ENDTAB
  0
TABLE
  2
LAYER
  5
2
330
0
100
AcDbSymbolTable
 70
     3
  0
LAYER
  5
14
102
{ACAD_XDICTIONARY
360
27C
102
}
330
2
100
AcDbSymbolTableRecord
100
AcDbLayerTableRecord
  2
0
 70
     0
 62
     7
  6
Continuous
370
    -3
390
1D
  0
LAYER
  5
27
102
{ACAD_XDICTIONARY
360
27E
102
}
330
2
100
AcDbSymbolTableRecord
100
AcDbLayerTableRecord
  2
1
 70
     0
 62
     1
  6
solid
370
    -3
390
1D
  0
LAYER
  5
1EC
102
{ACAD_XDICTIONARY
360
280
102
}
330
2
100
AcDbSymbolTableRecord
100
AcDbLayerTableRecord
  2
0
 70
     0
 62
     1
  6
solid
370
    -3
390
1D
  0
ENDTAB
  0
TABLE
  2
STYLE
  5
3
330
0
100
AcDbSymbolTable
 70
     2
  0
STYLE
  5
17
330
3
100
AcDbSymbolTableRecord
100
AcDbTextStyleTableRecord
  2
Standard
 70
     0
 40
0.0
 41
1.0
 50
0.0
 71
     0
 42
0.0
  3
txt
  4

  0
ENDTAB
  0
TABLE
  2
VIEW
  5
5
330
0
100
AcDbSymbolTable
 70
     0
  0
ENDTAB
  0
TABLE
  2
UCS
  5
6
330
0
100
AcDbSymbolTable
 70
     0
  0
ENDTAB
  0
TABLE
  2
APPID
  5
8
330
0
100
AcDbSymbolTable
 70
     3
  0
APPID
  5
16
330
8
100
AcDbSymbolTableRecord
100
AcDbRegAppTableRecord
  2
ACAD
 70
     0
  0
APPID
  5
24B
330
8
100
AcDbSymbolTableRecord
100
AcDbRegAppTableRecord
  2
ACAD_PSEXT
 70
     0
  0
APPID
  5
275
330
8
100
AcDbSymbolTableRecord
100
AcDbRegAppTableRecord
  2
ACAD_MLEADERVER
 70
     0
  0
ENDTAB
  0
TABLE
  2
DIMSTYLE
  5
9
330
0
100
AcDbSymbolTable
 70
     2
100
AcDbDimStyleTable
 71
     1
340
18
  0
DIMSTYLE
105
18
102
{ACAD_REACTORS
330
74
330
7F
102
}
330
9
100
AcDbSymbolTableRecord
100
AcDbDimStyleTableRecord
  2
Standard
 70
     0
289
     0
340
17
  0
ENDTAB
  0
TABLE
  2
BLOCK_RECORD
  5
1
330
0
100
AcDbSymbolTable
 70
     3
  0
BLOCK_RECORD
  5
A
330
1
100
AcDbSymbolTableRecord
100
AcDbBlockTableRecord
  2
*MODEL_SPACE
340
20
  0
BLOCK_RECORD
  5
B
330
1
100
AcDbSymbolTableRecord
100
AcDbBlockTableRecord
  2
*PAPER_SPACE
340
21
  0
BLOCK_RECORD
  5
6A
330
1
100
AcDbSymbolTableRecord
100
AcDbBlockTableRecord
  2
*D0
340
0
  0
BLOCK_RECORD
  5
75
330
1
100
AcDbSymbolTableRecord
100
AcDbBlockTableRecord
  2
*D1
340
0
  0
ENDTAB
  0
ENDSEC
  0
SECTION
  2
BLOCKS
  0
BLOCK
  5
D
330
A
100
AcDbEntity
  8
0
100
AcDbBlockBegin
  2
*MODEL_SPACE
 70
     0
 10
0.0
 20
0.0
 30
0.0
  3
*MODEL_SPACE
  1

  0
ENDBLK
  5
E
330
A
100
AcDbEntity
  8
0
100
AcDbBlockEnd
  0
BLOCK
  5
F
330
B
100
AcDbEntity
 67
     1
  8
0
100
AcDbBlockBegin
  2
*PAPER_SPACE
 70
     0
 10
0.0
 20
0.0
 30
0.0
  3
*PAPER_SPACE
  1

  0
ENDBLK
  5
10
330
B
100
AcDbEntity
 67
     1
  8
0
100
AcDbBlockEnd
  0
BLOCK
  5
6B
330
6A
100
AcDbEntity
  8
1
  6
solid
 62
     7
100
AcDbBlockBegin
  2
*D0
 70
     0
 10
0.0
 20
0.0
 30
0.0
  3
*D0
  1

  0
LINE
  5
6C
330
6A
100
AcDbEntity
  8
1
  6
solid
 62
     7
100
AcDbLine
 10
2.204496999999999
 20
0.0142499999999999
 30
0.0
 11
2.539837999999998
 21
0.0142499999999996
 31
0.0
  0
LINE
  5
6D
330
6A
100
AcDbEntity
  8
1
  6
solid
 62
     7
100
AcDbLine
 10
2.204496999999999
 20
4.264249999999999
 30
0.0
 11
2.539838000000001
 21
4.264249999999998
 31
0.0
  0
LINE
  5
6E
330
6A
100
AcDbEntity
  8
1
  6
solid
 62
     7
100
AcDbLine
 10
2.477337999999998
 20
0.0142499999999997
 30
0.0
 11
2.477338
 21
1.979377403846153
 31
0.0
  0
LINE
  5
6F
330
6A
100
AcDbEntity
  8
1
  6
solid
 62
     7
100
AcDbLine
 10
2.477338000000001
 20
4.264249999999998
 30
0.0
 11
2.477338
 21
2.299122596153845
 31
0.0
  0
MTEXT
  5
70
330
6A
100
AcDbEntity
  8
1
  6
solid
 62
     7
100
AcDbMText
 10
2.477338
 20
2.139249999999999
 30
0.0
 40
0.125
 41
0.0
 71
     5
 72
     1
  1
{\H0.125000;4 1/4}
 73
     1
 44
1.0
  0
SOLID
  5
71
330
6A
100
AcDbEntity
  8
1
  6
solid
 62
     7
100
AcDbTrace
 10
2.456525499999998
 20
0.0558800000030023
 30
0.0
 11
2.498150499999999
 21
0.0558800000030023
 31
0.0
 12
2.477337999999998
 22
0.0142499999999997
 32
0.0
 13
2.477337999999998
 23
0.0142499999999997
 33
0.0
  0
SOLID
  5
72
330
6A
100
AcDbEntity
  8
1
  6
solid
 62
     7
100
AcDbTrace
 10
2.498150500000001
 20
4.222619999996996
 30
0.0
 11
2.456525500000001
 21
4.222619999996996
 31
0.0
 12
2.477338000000001
 22
4.264249999999998
 32
0.0
 13
2.477338000000001
 23
4.264249999999998
 33
0.0
  0
ENDBLK
  5
73
330
6A
100
AcDbEntity
  8
1
  6
solid
 62
     7
100
AcDbBlockEnd
  0
BLOCK
  5
76
330
75
100
AcDbEntity
  8
1
  6
solid
 62
     7
100
AcDbBlockBegin
  2
*D1
 70
     0
 10
0.0
 20
0.0
 30
0.0
  3
*D1
  1

  0
LINE
  5
77
330
75
100
AcDbEntity
  8
1
  6
solid
 62
     7
100
AcDbLine
 10
1.329496999999999
 20
-0.11075
 30
0.0
 11
1.329496999999999
 21
-0.1956735961538462
 31
0.0
  0
LINE
  5
78
330
75
100
AcDbEntity
  8
1
  6
solid
 62
     7
100
AcDbLine
 10
2.079496999999999
 20
-0.11075
 30
0.0
 11
2.079496999999999
 21
-0.1956735961538462
 31
0.0
  0
LINE
  5
79
330
75
100
AcDbEntity
  8
1
  6
solid
 62
     7
100
AcDbLine
 10
1.329496999999999
 20
-0.1331735961538462
 30
0.0
 11
1.512423470588235
 21
-0.1331735961538462
 31
0.0
  0
LINE
  5
7A
330
75
100
AcDbEntity
  8
1
  6
solid
 62
     7
100
AcDbLine
 10
2.079496999999999
 20
-0.1331735961538462
 30
0.0
 11
1.896570529411764
 21
-0.1331735961538462
 31
0.0
  0
MTEXT
  5
7B
330
75
100
AcDbEntity
  8
1
  6
solid
 62
     7
100
AcDbMText
 10
1.704496999999999
 20
-0.1331735961538462
 30
0.0
 40
0.125
 41
0.0
 71
     5
 72
     1
  1
{\H0.125000;3/4}
 73
     1
 44
1.0
  0
SOLID
  5
7C
330
75
100
AcDbEntity
  8
1
  6
solid
 62
     7
100
AcDbTrace
 10
1.371127000003002
 20
-0.1123610961538462
 30
0.0
 11
1.371127000003002
 21
-0.1539860961538462
 31
0.0
 12
1.329496999999999
 22
-0.1331735961538462
 32
0.0
 13
1.329496999999999
 23
-0.1331735961538462
 33
0.0
  0
SOLID
  5
7D
330
75
100
AcDbEntity
  8
1
  6
solid
 62
     7
100
AcDbTrace
 10
2.037866999996997
 20
-0.1539860961538462
 30
0.0
 11
2.037866999996997
 21
-0.1123610961538462
 31
0.0
 12
2.079496999999999
 22
-0.1331735961538462
 32
0.0
 13
2.079496999999999
 23
-0.1331735961538462
 33
0.0
  0
ENDBLK
  5
7E
330
75
100
AcDbEntity
  8
1
  6
solid
 62
     7
100
AcDbBlockEnd
  0
ENDSEC
  0
SECTION
  2
ENTITIES
  0
LINE
  5
28
330
A
100
AcDbEntity
  8
1
  6
solid
 62
     7
100
AcDbLine
 10
-0.75
 20
4.25
 30
0.0
 11
0.0
 21
4.25
 31
0.0
  0
LINE
  5
29
330
A
100
AcDbEntity
  8
1
  6
solid
 62
     7
100
AcDbLine
 10
0.0
 20
0.0
 30
0.0
 11
-0.75
 21
0.0
 31
0.0
  0
ARC
  5
2A
330
A
100
AcDbEntity
  8
1
  6
solid
 62
     7
100
AcDbCircle
 10
-0.75
 20
2.125
 30
0.0
 40
0.1875
100
AcDbArc
 50
270.0
 51
450.0
  0
LINE
  5
2B
330
A
100
AcDbEntity
  8
1
  6
solid
 62
     7
100
AcDbLine
 10
-0.75
 20
1.6875
 30
0.0
 11
-0.75
 21
1.9375
 31
0.0
  0
LINE
  5
2C
330
A
100
AcDbEntity
  8
1
  6
solid
 62
     7
100
AcDbLine
 10
-0.75
 20
2.3125
 30
0.0
 11
-0.75
 21
2.5625
 31
0.0
  0
ARC
  5
2D
330
A
100
AcDbEntity
  8
1
  6
solid
 62
     7
100
AcDbCircle
 10
-0.75
 20
1.5
 30
0.0
 40
0.1875
100
AcDbArc
 50
270.0
 51
450.0
  0
LINE
  5
2E
330
A
100
AcDbEntity
  8
1
  6
solid
 62
     7
100
AcDbLine
 10
-0.75
 20
1.0625
 30
0.0
 11
-0.75
 21
1.3125
 31
0.0
  0
ARC
  5
2F
330
A
100
AcDbEntity
  8
1
  6
solid
 62
     7
100
AcDbCircle
 10
-0.75
 20
0.875
 30
0.0
 40
0.1875
100
AcDbArc
 50
270.0
 51
450.0
  0
ARC
  5
30
330
A
100
AcDbEntity
  8
1
  6
solid
 62
     7
100
AcDbCircle
 10
-0.75
 20
2.75
 30
0.0
 40
0.1875
100
AcDbArc
 50
270.0
 51
450.0
  0
LINE
  5
31
330
A
100
AcDbEntity
  8
1
  6
solid
 62
     7
100
AcDbLine
 10
-0.75
 20
2.9375
 30
0.0
 11
-0.75
 21
3.1875
 31
0.0
  0
ARC
  5
32
330
A
100
AcDbEntity
  8
1
  6
solid
 62
     7
100
AcDbCircle
 10
-0.75
 20
3.375
 30
0.0
 40
0.1875
100
AcDbArc
 50
270.0
 51
450.0
  0
LINE
  5
33
330
A
100
AcDbEntity
  8
1
  6
solid
 62
     7
100
AcDbLine
 10
-0.75
 20
0.6875
 30
0.0
 11
-0.75
 21
0.0
 31
0.0
  0
LINE
  5
34
330
A
100
AcDbEntity
  8
1
  6
solid
 62
     7
100
AcDbLine
 10
-0.75
 20
3.5625
 30
0.0
 11
-0.75
 21
4.25
 31
0.0
  0
ARC
  5
35
330
A
100
AcDbEntity
  8
1
  6
solid
 62
     7
100
AcDbCircle
 10
-0.21875
 20
2.125
 30
0.0
 40
0.21875
100
AcDbArc
 50
270.0
 51
450.0
  0
ARC
  5
36
330
A
100
AcDbEntity
  8
1
  6
solid
 62
     7
100
AcDbCircle
 10
-0.21875
 20
1.6875
 30
0.0
 40
0.21875
100
AcDbArc
 50
270.0
 51
450.0
  0
ARC
  5
37
330
A
100
AcDbEntity
  8
1
  6
solid
 62
     7
100
AcDbCircle
 10
-0.21875
 20
1.25
 30
0.0
 40
0.21875
100
AcDbArc
 50
270.0
 51
450.0
  0
ARC
  5
38
330
A
100
AcDbEntity
  8
1
  6
solid
 62
     7
100
AcDbCircle
 10
-0.21875
 20
2.5625
 30
0.0
 40
0.21875
100
AcDbArc
 50
270.0
 51
450.0
  0
ARC
  5
39
330
A
100
AcDbEntity
  8
1
  6
solid
 62
     7
100
AcDbCircle
 10
-0.21875
 20
3.0
 30
0.0
 40
0.21875
100
AcDbArc
 50
270.0
 51
450.0
  0
ARC
  5
3A
330
A
100
AcDbEntity
  8
1
  6
solid
 62
     7
100
AcDbCircle
 10
0.0
 20
1.03125
 30
0.0
 40
0.21875
100
AcDbArc
 50
180.0
 51
270.0
  0
ARC
  5
3B
330
A
100
AcDbEntity
  8
1
  6
solid
 62
     7
100
AcDbCircle
 10
0.0
 20
3.21875
 30
0.0
 40
0.21875
100
AcDbArc
 50
90.0
 51
180.0
  0
LINE
  5
3C
330
A
100
AcDbEntity
  8
1
  6
solid
 62
     7
100
AcDbLine
 10
0.0
 20
0.8125
 30
0.0
 11
0.0
 21
0.0
 31
0.0
  0
LINE
  5
3D
330
A
100
AcDbEntity
  8
1
  6
solid
 62
     7
100
AcDbLine
 10
0.0
 20
3.4375
 30
0.0
 11
0.0
 21
4.25
 31
0.0
  0
LINE
  5
3E
330
A
100
AcDbEntity
  8
1
  6
solid
 62
     7
100
AcDbLine
 10
1.329496999999999
 20
4.264249999999999
 30
0.0
 11
2.079496999999999
 21
4.264249999999999
 31
0.0
  0
LINE
  5
3F
330
A
100
AcDbEntity
  8
1
  6
solid
 62
     7
100
AcDbLine
 10
2.079496999999999
 20
0.01425
 30
0.0
 11
1.329496999999999
 21
0.01425
 31
0.0
  0
ARC
  5
40
330
A
100
AcDbEntity
  8
1
  6
solid
 62
     7
100
AcDbCircle
 10
1.329496999999999
 20
2.13925
 30
0.0
 40
0.1875
100
AcDbArc
 50
270.0
 51
450.0
  0
LINE
  5
41
330
A
100
AcDbEntity
  8
1
  6
solid
 62
     7
100
AcDbLine
 10
1.329496999999999
 20
1.70175
 30
0.0
 11
1.329496999999999
 21
1.95175
 31
0.0
  0
LINE
  5
42
330
A
100
AcDbEntity
  8
1
  6
solid
 62
     7
100
AcDbLine
 10
1.329496999999999
 20
2.32675
 30
0.0
 11
1.329496999999999
 21
2.57675
 31
0.0
  0
ARC
  5
43
330
A
100
AcDbEntity
  8
1
  6
solid
 62
     7
100
AcDbCircle
 10
1.329496999999999
 20
1.51425
 30
0.0
 40
0.1875
100
AcDbArc
 50
270.0
 51
450.0
  0
LINE
  5
44
330
A
100
AcDbEntity
  8
1
  6
solid
 62
     7
100
AcDbLine
 10
1.329496999999999
 20
1.07675
 30
0.0
 11
1.329496999999999
 21
1.32675
 31
0.0
  0
ARC
  5
45
330
A
100
AcDbEntity
  8
1
  6
solid
 62
     7
100
AcDbCircle
 10
1.329496999999999
 20
0.88925
 30
0.0
 40
0.1875
100
AcDbArc
 50
270.0
 51
450.0
  0
ARC
  5
46
330
A
100
AcDbEntity
  8
1
  6
solid
 62
     7
100
AcDbCircle
 10
1.329496999999999
 20
2.76425
 30
0.0
 40
0.1875
100
AcDbArc
 50
270.0
 51
450.0
  0
LINE
  5
47
330
A
100
AcDbEntity
  8
1
  6
solid
 62
     7
100
AcDbLine
 10
1.329496999999999
 20
2.95175
 30
0.0
 11
1.329496999999999
 21
3.20175
 31
0.0
  0
ARC
  5
48
330
A
100
AcDbEntity
  8
1
  6
solid
 62
     7
100
AcDbCircle
 10
1.329496999999999
 20
3.38925
 30
0.0
 40
0.1875
100
AcDbArc
 50
270.0
 51
450.0
  0
LINE
  5
49
330
A
100
AcDbEntity
  8
1
  6
solid
 62
     7
100
AcDbLine
 10
1.329496999999999
 20
0.70175
 30
0.0
 11
1.329496999999999
 21
0.01425
 31
0.0
  0
LINE
  5
4A
330
A
100
AcDbEntity
  8
1
  6
solid
 62
     7
100
AcDbLine
 10
1.329496999999999
 20
3.57675
 30
0.0
 11
1.329496999999999
 21
4.264249999999999
 31
0.0
  0
ARC
  5
4B
330
A
100
AcDbEntity
  8
1
  6
solid
 62
     7
100
AcDbCircle
 10
1.860747
 20
2.13925
 30
0.0
 40
0.21875
100
AcDbArc
 50
270.0
 51
450.0
  0
ARC
  5
4C
330
A
100
AcDbEntity
  8
1
  6
solid
 62
     7
100
AcDbCircle
 10
1.860747
 20
1.70175
 30
0.0
 40
0.21875
100
AcDbArc
 50
270.0
 51
450.0
  0
ARC
  5
4D
330
A
100
AcDbEntity
  8
1
  6
solid
 62
     7
100
AcDbCircle
 10
1.860747
 20
1.26425
 30
0.0
 40
0.21875
100
AcDbArc
 50
270.0
 51
450.0
  0
ARC
  5
4E
330
A
100
AcDbEntity
  8
1
  6
solid
 62
     7
100
AcDbCircle
 10
1.860747
 20
2.57675
 30
0.0
 40
0.21875
100
AcDbArc
 50
270.0
 51
450.0
  0
ARC
  5
4F
330
A
100
AcDbEntity
  8
1
  6
solid
 62
     7
100
AcDbCircle
 10
1.860747
 20
3.01425
 30
0.0
 40
0.21875
100
AcDbArc
 50
270.0
 51
450.0
  0
ARC
  5
50
330
A
100
AcDbEntity
  8
1
  6
solid
 62
     7
100
AcDbCircle
 10
2.079496999999999
 20
1.0455
 30
0.0
 40
0.21875
100
AcDbArc
 50
180.0
 51
270.0
  0
ARC
  5
51
330
A
100
AcDbEntity
  8
1
  6
solid
 62
     7
100
AcDbCircle
 10
2.079496999999999
 20
3.233
 30
0.0
 40
0.21875
100
AcDbArc
 50
90.0
 51
180.0
  0
LINE
  5
52
330
A
100
AcDbEntity
  8
1
  6
solid
 62
     7
100
AcDbLine
 10
2.079496999999999
 20
0.82675
 30
0.0
 11
2.079496999999999
 21
0.01425
 31
0.0
  0
LINE
  5
53
330
A
100
AcDbEntity
  8
1
  6
solid
 62
     7
100
AcDbLine
 10
2.079496999999999
 20
3.45175
 30
0.0
 11
2.079496999999999
 21
4.264249999999999
 31
0.0
  0
LINE
  5
54
330
A
100
AcDbEntity
  8
1
  6
solid
 62
     7
100
AcDbLine
 10
3.408993
 20
4.2785
 30
0.0
 11
4.158992999999999
 21
4.2785
 31
0.0
  0
LINE
  5
55
330
A
100
AcDbEntity
  8
1
  6
solid
 62
     7
100
AcDbLine
 10
4.158992999999999
 20
0.0285
 30
0.0
 11
3.408993
 21
0.0285
 31
0.0
  0
ARC
  5
56
330
A
100
AcDbEntity
  8
1
  6
solid
 62
     7
100
AcDbCircle
 10
3.408993
 20
2.1535
 30
0.0
 40
0.1875
100
AcDbArc
 50
270.0
 51
450.0
  0
LINE
  5
57
330
A
100
AcDbEntity
  8
1
  6
solid
 62
     7
100
AcDbLine
 10
3.408993
 20
1.716
 30
0.0
 11
3.408993
 21
1.966
 31
0.0
  0
LINE
  5
58
330
A
100
AcDbEntity
  8
1
  6
solid
 62
     7
100
AcDbLine
 10
3.408993
 20
2.340999999999999
 30
0.0
 11
3.408993
 21
2.591
 31
0.0
  0
ARC
  5
59
330
A
100
AcDbEntity
  8
1
  6
solid
 62
     7
100
AcDbCircle
 10
3.408993
 20
1.5285
 30
0.0
 40
0.1875
100
AcDbArc
 50
270.0
 51
450.0
  0
LINE
  5
5A
330
A
100
AcDbEntity
  8
1
  6
solid
 62
     7
100
AcDbLine
 10
3.408993
 20
1.090999999999999
 30
0.0
 11
3.408993
 21
1.340999999999999
 31
0.0
  0
ARC
  5
5B
330
A
100
AcDbEntity
  8
1
  6
solid
 62
     7
100
AcDbCircle
 10
3.408993
 20
0.9035
 30
0.0
 40
0.1875
100
AcDbArc
 50
270.0
 51
450.0
  0
ARC
  5
5C
330
A
100
AcDbEntity
  8
1
  6
solid
 62
     7
100
AcDbCircle
 10
3.408993
 20
2.7785
 30
0.0
 40
0.1875
100
AcDbArc
 50
270.0
 51
450.0
  0
LINE
  5
5D
330
A
100
AcDbEntity
  8
1
  6
solid
 62
     7
100
AcDbLine
 10
3.408993
 20
2.966
 30
0.0
 11
3.408993
 21
3.216
 31
0.0
  0
ARC
  5
5E
330
A
100
AcDbEntity
  8
1
  6
solid
 62
     7
100
AcDbCircle
 10
3.408993
 20
3.4035
 30
0.0
 40
0.1875
100
AcDbArc
 50
270.0
 51
450.0
  0
LINE
  5
5F
330
A
100
AcDbEntity
  8
1
  6
solid
 62
     7
100
AcDbLine
 10
3.408993
 20
0.7160000000000001
 30
0.0
 11
3.408993
 21
0.0285
 31
0.0
  0
LINE
  5
60
330
A
100
AcDbEntity
  8
1
  6
solid
 62
     7
100
AcDbLine
 10
3.408993
 20
3.591
 30
0.0
 11
3.408993
 21
4.2785
 31
0.0
  0
ARC
  5
61
330
A
100
AcDbEntity
  8
1
  6
solid
 62
     7
100
AcDbCircle
 10
3.940243
 20
2.1535
 30
0.0
 40
0.21875
100
AcDbArc
 50
270.0
 51
450.0
  0
ARC
  5
62
330
A
100
AcDbEntity
  8
1
  6
solid
 62
     7
100
AcDbCircle
 10
3.940243
 20
1.716
 30
0.0
 40
0.21875
100
AcDbArc
 50
270.0
 51
450.0
  0
ARC
  5
63
330
A
100
AcDbEntity
  8
1
  6
solid
 62
     7
100
AcDbCircle
 10
3.940243
 20
1.278499999999999
 30
0.0
 40
0.21875
100
AcDbArc
 50
270.0
 51
450.0
  0
ARC
  5
64
330
A
100
AcDbEntity
  8
1
  6
solid
 62
     7
100
AcDbCircle
 10
3.940243
 20
2.591
 30
0.0
 40
0.21875
100
AcDbArc
 50
270.0
 51
450.0
  0
ARC
  5
65
330
A
100
AcDbEntity
  8
1
  6
solid
 62
     7
100
AcDbCircle
 10
3.940243
 20
3.0285
 30
0.0
 40
0.21875
100
AcDbArc
 50
270.0
 51
450.0
  0
ARC
  5
66
330
A
100
AcDbEntity
  8
1
  6
solid
 62
     7
100
AcDbCircle
 10
4.158992999999999
 20
1.059749999999999
 30
0.0
 40
0.21875
100
AcDbArc
 50
180.0
 51
270.0
  0
ARC
  5
67
330
A
100
AcDbEntity
  8
1
  6
solid
 62
     7
100
AcDbCircle
 10
4.158992999999999
 20
3.24725
 30
0.0
 40
0.21875
100
AcDbArc
 50
90.0
 51
180.0
  0
LINE
  5
68
330
A
100
AcDbEntity
  8
1
  6
solid
 62
     7
100
AcDbLine
 10
4.158992999999999
 20
0.841
 30
0.0
 11
4.158992999999999
 21
0.0285
 31
0.0
  0
LINE
  5
69
330
A
100
AcDbEntity
  8
1
  6
solid
 62
     7
100
AcDbLine
 10
4.158992999999999
 20
3.466
 30
0.0
 11
4.158992999999999
 21
4.2785
 31
0.0
  0
DIMENSION
  5
74
330
A
100
AcDbEntity
  8
1
  6
solid
 62
     7
100
AcDbDimension
  2
*D0
 10
2.477338
 20
2.139249999999999
 30
0.0
 11
2.477338
 21
2.139249999999999
 31
0.0
 70
    33
 71
     5
 42
4.25
  3
Standard
100
AcDbAlignedDimension
 13
2.079496999999999
 23
4.264249999999999
 33
0.0
 14
2.079496999999999
 24
0.01425
 34
0.0
1001
ACAD
1000
DSTYLE
1002
{
1070
    41
1040
0.0416300000030026
1070
    42
1040
0.125
1070
    44
1040
0.0625
1070
    47
1040
0.0005
1070
    48
1040
0.0005
1070
    75
1070
     1
1070
    76
1070
     1
1070
   140
1040
0.125
1070
   146
1040
0.5
1070
   270
1070
     5
1070
   271
1070
     3
1070
   272
1070
     3
1070
   277
1070
     5
1002
}
  0
DIMENSION
  5
7F
330
A
100
AcDbEntity
  8
1
  6
solid
 62
     7
100
AcDbDimension
  2
*D1
 10
1.704496999999999
 20
-0.1331735961538462
 30
0.0
 11
1.704496999999999
 21
-0.1331735961538462
 31
0.0
 70
    33
 71
     5
 42
0.75
  3
Standard
100
AcDbAlignedDimension
 13
1.329496999999999
 23
0.01425
 33
0.0
 14
2.079496999999999
 24
0.01425
 34
0.0
1001
ACAD
1000
DSTYLE
1002
{
1070
    41
1040
0.0416300000030027
1070
    42
1040
0.125
1070
    44
1040
0.0625
1070
    47
1040
0.0005
1070
    48
1040
0.0005
1070
    75
1070
     1
1070
    76
1070
     1
1070
   140
1040
0.125
1070
   146
1040
0.5
1070
   270
1070
     5
1070
   271
1070
     3
1070
   272
1070
     3
1070
   277
1070
     5
1002
}
  0
LINE
  5
80
330
A
100
AcDbEntity
  8
1
  6
solid
 62
     7
100
AcDbLine
 10
-1.356755999999999
 20
4.472202999999999
 30
0.0
 11
-0.6067560000000001
 21
4.472202999999999
 31
0.0
  0
ARC
  5
81
330
A
100
AcDbEntity
  8
1
  6
solid
 62
     7
100
AcDbCircle
 10
-1.356755999999999
 20
2.347202999999999
 30
0.0
 40
0.1875
100
AcDbArc
 50
270.0
 51
409.77306
  0
LINE
  5
82
330
A
100
AcDbEntity
  8
1
  6
solid
 62
     7
100
AcDbLine
 10
-1.356755999999999
 20
1.909703
 30
0.0
 11
-1.356755999999999
 21
2.159702999999999
 31
0.0
  0
LINE
  5
83
330
A
100
AcDbEntity
  8
1
  6
solid
 62
     7
100
AcDbLine
 10
-1.356755999999999
 20
2.534702999999999
 30
0.0
 11
-1.356755999999999
 21
2.784702999999999
 31
0.0
  0
ARC
  5
84
330
A
100
AcDbEntity
  8
1
  6
solid
 62
     7
100
AcDbCircle
 10
-1.356755999999999
 20
1.722202999999999
 30
0.0
 40
0.1875
100
AcDbArc
 50
270.0
 51
409.7729799999999
  0
LINE
  5
85
330
A
100
AcDbEntity
  8
1
  6
solid
 62
     7
100
AcDbLine
 10
-1.356755999999999
 20
1.284703
 30
0.0
 11
-1.356755999999999
 21
1.534703
 31
0.0
  0
ARC
  5
86
330
A
100
AcDbEntity
  8
1
  6
solid
 62
     7
100
AcDbCircle
 10
-1.356755999999999
 20
1.097203
 30
0.0
 40
0.1875
100
AcDbArc
 50
270.0
 51
409.7729799999999
  0
ARC
  5
87
330
A
100
AcDbEntity
  8
1
  6
solid
 62
     7
100
AcDbCircle
 10
-1.356755999999999
 20
2.972203
 30
0.0
 40
0.1875
100
AcDbArc
 50
270.0
 51
409.77306
  0
LINE
  5
88
330
A
100
AcDbEntity
  8
1
  6
solid
 62
     7
100
AcDbLine
 10
-1.356755999999999
 20
3.159702999999999
 30
0.0
 11
-1.356755999999999
 21
3.409702999999999
 31
0.0
  0
ARC
  5
89
330
A
100
AcDbEntity
  8
1
  6
solid
 62
     7
100
AcDbCircle
 10
-1.356755999999999
 20
3.597202999999999
 30
0.0
 40
0.1875
100
AcDbArc
 50
270.0
 51
409.77306
  0
LINE
  5
8A
330
A
100
AcDbEntity
  8
1
  6
solid
 62
     7
100
AcDbLine
 10
-1.356755999999999
 20
0.909703
 30
0.0
 11
-1.356755999999999
 21
0.222203
 31
0.0
  0
LINE
  5
8B
330
A
100
AcDbEntity
  8
1
  6
solid
 62
     7
100
AcDbLine
 10
-1.356755999999999
 20
3.784702999999999
 30
0.0
 11
-1.356755999999999
 21
4.472202999999999
 31
0.0
  0
LINE
  5
8C
330
A
100
AcDbEntity
  8
1
  6
solid
 62
     7
100
AcDbLine
 10
3.895306999999999
 20
4.472202999999999
 30
0.0
 11
4.645306999999999
 21
4.472202999999999
 31
0.0
  0
ARC
  5
8D
330
A
100
AcDbEntity
  8
1
  6
solid
 62
     7
100
AcDbCircle
 10
4.426556999999999
 20
2.347202999999999
 30
0.0
 40
0.21875
100
AcDbArc
 50
270.0
 51
450.0
  0
ARC
  5
8E
330
A
100
AcDbEntity
  8
1
  6
solid
 62
     7
100
AcDbCircle
 10
4.426556999999999
 20
1.909703
 30
0.0
 40
0.21875
100
AcDbArc
 50
270.0
 51
450.0
  0
ARC
  5
8F
330
A
100
AcDbEntity
  8
1
  6
solid
 62
     7
100
AcDbCircle
 10
4.426556999999999
 20
1.472203
 30
0.0
 40
0.21875
100
AcDbArc
 50
270.0
 51
450.0
  0
ARC
  5
90
330
A
100
AcDbEntity
  8
1
  6
solid
 62
     7
100
AcDbCircle
 10
4.426556999999999
 20
2.784702999999999
 30
0.0
 40
0.21875
100
AcDbArc
 50
270.0
 51
450.0
  0
ARC
  5
91
330
A
100
AcDbEntity
  8
1
  6
solid
 62
     7
100
AcDbCircle
 10
4.426556999999999
 20
3.222202999999999
 30
0.0
 40
0.21875
100
AcDbArc
 50
270.0
 51
450.0
  0
ARC
  5
92
330
A
100
AcDbEntity
  8
1
  6
solid
 62
     7
100
AcDbCircle
 10
4.645306999999999
 20
1.253453
 30
0.0
 40
0.21875
100
AcDbArc
 50
180.0
 51
270.0
  0
ARC
  5
93
330
A
100
AcDbEntity
  8
1
  6
solid
 62
     7
100
AcDbCircle
 10
4.645306999999999
 20
3.440952999999999
 30
0.0
 40
0.21875
100
AcDbArc
 50
133.435621
 51
180.0
  0
LINE
  5
94
330
A
100
AcDbEntity
  8
1
  6
solid
 62
     7
100
AcDbLine
 10
4.645306999999999
 20
1.034703
 30
0.0
 11
4.645306999999999
 21
0.222203
 31
0.0
  0
LINE
  5
95
330
A
100
AcDbEntity
  8
1
  6
solid
 62
     7
100
AcDbLine
 10
4.645306999999999
 20
3.659702999999999
 30
0.0
 11
4.645306999999999
 21
4.472202999999999
 31
0.0
  0
LINE
  5
96
330
A
100
AcDbEntity
  8
1
  6
solid
 62
     7
100
AcDbLine
 10
-0.6067560000000001
 20
4.472202999999999
 30
0.0
 11
0.0
 21
4.25
 31
0.0
  0
LINE
  5
97
330
A
100
AcDbEntity
  8
1
  6
solid
 62
     7
100
AcDbLine
 10
-1.356755999999999
 20
4.472202999999999
 30
0.0
 11
-0.75
 21
4.25
 31
0.0
  0
LINE
  5
98
330
A
100
AcDbEntity
  8
1
  6
solid
 62
     7
100
AcDbLine
 10
-1.356755999999999
 20
3.784702999999999
 30
0.0
 11
-0.75
 21
3.5625
 31
0.0
  0
LINE
  5
99
330
A
100
AcDbEntity
  8
1
  6
solid
 62
     7
100
AcDbLine
 10
-1.356755999999999
 20
3.409702999999999
 30
0.0
 11
-0.75
 21
3.1875
 31
0.0
  0
LINE
  5
9A
330
A
100
AcDbEntity
  8
1
  6
solid
 62
     7
100
AcDbLine
 10
-1.356755999999999
 20
3.159702999999999
 30
0.0
 11
-0.75
 21
2.9375
 31
0.0
  0
LINE
  5
9B
330
A
100
AcDbEntity
  8
1
  6
solid
 62
     7
100
AcDbLine
 10
-1.356755999999999
 20
2.784702999999999
 30
0.0
 11
-0.75
 21
2.5625
 31
0.0
  0
LINE
  5
9C
330
A
100
AcDbEntity
  8
1
  6
solid
 62
     7
100
AcDbLine
 10
-1.356755999999999
 20
2.534702999999999
 30
0.0
 11
-0.75
 21
2.3125
 31
0.0
  0
LINE
  5
9D
330
A
100
AcDbEntity
  8
1
  6
solid
 62
     7
100
AcDbLine
 10
-1.356755999999999
 20
2.159702999999999
 30
0.0
 11
-0.75
 21
1.9375
 31
0.0
  0
LINE
  5
9E
330
A
100
AcDbEntity
  8
1
  6
solid
 62
     7
100
AcDbLine
 10
-1.356755999999999
 20
1.909703
 30
0.0
 11
-0.75
 21
1.6875
 31
0.0
  0
LINE
  5
9F
330
A
100
AcDbEntity
  8
1
  6
solid
 62
     7
100
AcDbLine
 10
-1.356755999999999
 20
1.534703
 30
0.0
 11
-0.75
 21
1.3125
 31
0.0
  0
LINE
  5
A0
330
A
100
AcDbEntity
  8
1
  6
solid
 62
     7
100
AcDbLine
 10
-1.356755999999999
 20
1.284703
 30
0.0
 11
-0.75
 21
1.0625
 31
0.0
  0
LINE
  5
A1
330
A
100
AcDbEntity
  8
1
  6
solid
 62
     7
100
AcDbLine
 10
-1.356755999999999
 20
0.909703
 30
0.0
 11
-0.75
 21
0.6875
 31
0.0
  0
LINE
  5
A2
330
A
100
AcDbEntity
  8
1
  6
solid
 62
     7
100
AcDbLine
 10
-1.356755999999999
 20
0.222203
 30
0.0
 11
-0.75
 21
0.0
 31
0.0
  0
LINE
  5
A3
330
A
100
AcDbEntity
  8
1
  6
solid
 62
     7
100
AcDbLine
 10
4.645306999999999
 20
0.222203
 30
0.0
 11
4.158993999999999
 21
0.0285
 31
0.0
  0
LINE
  5
A4
330
A
100
AcDbEntity
  8
1
  6
solid
 62
     7
100
AcDbLine
 10
4.645306999999999
 20
1.034703
 30
0.0
 11
4.158993999999999
 21
0.841
 31
0.0
  0
LINE
  5
A5
330
A
100
AcDbEntity
  8
1
  6
solid
 62
     7
100
AcDbLine
 10
4.426556999999999
 20
1.253453
 30
0.0
 11
4.090643
 21
1.119655999999999
 31
0.0
  0
LINE
  5
A6
330
A
100
AcDbEntity
  8
1
  6
solid
 62
     7
100
AcDbLine
 10
4.426556999999999
 20
1.690952999999999
 30
0.0
 11
4.090643
 21
1.557155999999999
 31
0.0
  0
LINE
  5
A7
330
A
100
AcDbEntity
  8
1
  6
solid
 62
     7
100
AcDbLine
 10
4.426556999999999
 20
2.128452999999999
 30
0.0
 11
4.090643
 21
1.994656
 31
0.0
  0
LINE
  5
A8
330
A
100
AcDbEntity
  8
1
  6
solid
 62
     7
100
AcDbLine
 10
4.426556999999999
 20
2.565952999999999
 30
0.0
 11
4.090643
 21
2.432155999999999
 31
0.0
  0
LINE
  5
A9
330
A
100
AcDbEntity
  8
1
  6
solid
 62
     7
100
AcDbLine
 10
4.426556999999999
 20
3.003452999999999
 30
0.0
 11
4.090643
 21
2.869655999999999
 31
0.0
  0
LINE
  5
AA
330
A
100
AcDbEntity
  8
1
  6
solid
 62
     7
100
AcDbLine
 10
4.426556999999999
 20
3.440952999999999
 30
0.0
 11
3.940243
 21
3.24725
 31
0.0
  0
LINE
  5
AB
330
A
100
AcDbEntity
  8
1
  6
solid
 62
     7
100
AcDbLine
 10
4.645306999999999
 20
3.659702999999999
 30
0.0
 11
4.158993999999999
 21
3.466
 31
0.0
  0
LINE
  5
AC
330
A
100
AcDbEntity
  8
1
  6
solid
 62
     7
100
AcDbLine
 10
4.645306999999999
 20
4.472202999999999
 30
0.0
 11
4.158993999999999
 21
4.2785
 31
0.0
  0
LINE
  5
AD
330
A
100
AcDbEntity
  8
1
  6
solid
 62
     7
100
AcDbLine
 10
3.895306999999999
 20
4.472202999999999
 30
0.0
 11
3.408993
 21
4.2785
 31
0.0
  0
LINE
  5
AE
330
A
100
AcDbEntity
  8
1
  6
solid
 62
     7
100
AcDbLine
 10
3.396703
 20
-0.21341
 30
0.0
 11
3.421412
 21
-0.210503
 31
0.0
  0
SPLINE
  5
AF
330
A
100
AcDbEntity
  8
1
  6
solid
 62
     7
100
AcDbSpline
210
0.0
220
0.0
230
1.0
 70
     8
 71
     2
 72
     7
 73
     4
 74
     0
 42
0.0000000001
 43
0.0000000001
 40
0.0
 40
0.0
 40
0.0
 40
1.0
 40
2.0
 40
2.0
 40
2.0
 10
3.421412243646145
 20
-0.2105026700911798
 30
0.0
 10
3.422096894808936
 20
-0.2200222049749007
 30
0.0
 10
3.431646197134517
 20
-0.2293980189283891
 30
0.0
 10
3.437936429692656
 20
-0.2293980189283891
 30
0.0
  0
SPLINE
  5
B0
330
A
100
AcDbEntity
  8
1
  6
solid
 62
     7
100
AcDbSpline
210
0.0
220
0.0
230
1.0
 70
     8
 71
     2
 72
     7
 73
     4
 74
     0
 42
0.0000000001
 43
0.0000000001
 40
0.0
 40
0.0
 40
0.0
 40
1.0
 40
2.0
 40
2.0
 40
2.0
 10
3.437936429692656
 20
-0.2293980189283891
 30
0.0
 10
3.445040150622889
 20
-0.2293980189283891
 30
0.0
 10
3.454842476204284
 20
-0.2197542979981565
 30
0.0
 10
3.454842476204284
 20
-0.2111226700911798
 30
0.0
  0
SPLINE
  5
B1
330
A
100
AcDbEntity
  8
1
  6
solid
 62
     7
100
AcDbSpline
210
0.0
220
0.0
230
1.0
 70
     8
 71
     2
 72
     7
 73
     4
 74
     0
 42
0.0000000001
 43
0.0000000001
 40
0.0
 40
0.0
 40
0.0
 40
1.0
 40
2.0
 40
2.0
 40
2.0
 10
3.454842476204284
 20
-0.2111226700911798
 30
0.0
 10
3.454842476204284
 20
-0.202803600323738
 30
0.0
 10
3.446151313413587
 20
-0.1930608096260635
 30
0.0
 10
3.439568522715912
 20
-0.1930608096260635
 30
0.0
  0
SPLINE
  5
B2
330
A
100
AcDbEntity
  8
1
  6
solid
 62
     7
100
AcDbSpline
210
0.0
220
0.0
230
1.0
 70
     8
 71
     2
 72
     6
 73
     3
 74
     0
 42
0.0000000001
 43
0.0000000001
 40
0.0
 40
0.0
 40
0.0
 40
1.0
 40
1.0
 40
1.0
 10
3.439568522715912
 20
-0.1930608096260635
 30
0.0
 10
3.435371778529866
 20
-0.1930608096260635
 30
0.0
 10
3.430133173878703
 20
-0.1952384840446682
 30
0.0
  0
LINE
  5
B3
330
A
100
AcDbEntity
  8
1
  6
solid
 62
     7
100
AcDbLine
 10
3.430133
 20
-0.195238
 30
0.0
 11
3.432077999999999
 21
-0.174165
 31
0.0
  0
SPLINE
  5
B4
330
A
100
AcDbEntity
  8
1
  6
solid
 62
     7
100
AcDbSpline
210
0.0
220
0.0
230
1.0
 70
     8
 71
     2
 72
     7
 73
     4
 74
     0
 42
0.0000000001
 43
0.0000000001
 40
0.0
 40
0.0
 40
0.0
 40
1.0
 40
2.0
 40
2.0
 40
2.0
 10
3.432077825041494
 20
-0.1741654607888542
 30
0.0
 10
3.440411778529866
 20
-0.1748449956725752
 30
0.0
 10
3.449028522715912
 20
-0.1664068561376914
 30
0.0
 10
3.449028522715912
 20
-0.1594073212539705
 30
0.0
  0
SPLINE
  5
B5
330
A
100
AcDbEntity
  8
1
  6
solid
 62
     7
100
AcDbSpline
210
0.0
220
0.0
230
1.0
 70
     8
 71
     2
 72
     7
 73
     4
 74
     0
 42
0.0000000001
 43
0.0000000001
 40
0.0
 40
0.0
 40
0.0
 40
1.0
 40
2.0
 40
2.0
 40
2.0
 10
3.449028522715912
 20
-0.1594073212539705
 30
0.0
 10
3.449028522715912
 20
-0.1535933677655984
 30
0.0
 10
3.442401080855447
 20
-0.1465491817190868
 30
0.0
 10
3.43748991806475
 20
-0.1465491817190868
 30
0.0
  0
SPLINE
  5
B6
330
A
100
AcDbEntity
  8
1
  6
solid
 62
     7
100
AcDbSpline
210
0.0
220
0.0
230
1.0
 70
     8
 71
     2
 72
     7
 73
     4
 74
     0
 42
0.0000000001
 43
0.0000000001
 40
0.0
 40
0.0
 40
0.0
 40
1.0
 40
2.0
 40
2.0
 40
2.0
 10
3.43748991806475
 20
-0.1465491817190868
 30
0.0
 10
3.432107592483354
 20
-0.1465491817190868
 30
0.0
 10
3.424840150622889
 20
-0.1548980189283891
 30
0.0
 10
3.424319220390331
 20
-0.1625375538121101
 30
0.0
  0
LINE
  5
B7
330
A
100
AcDbEntity
  8
1
  6
solid
 62
     7
100
AcDbLine
 10
3.424319
 20
-0.162538
 30
0.0
 11
3.39961
 21
-0.159184
 31
0.0
  0
SPLINE
  5
B8
330
A
100
AcDbEntity
  8
1
  6
solid
 62
     7
100
AcDbSpline
210
0.0
220
0.0
230
1.0
 70
     8
 71
     2
 72
     8
 73
     5
 74
     0
 42
0.0000000001
 43
0.0000000001
 40
0.0
 40
0.0
 40
0.0
 40
1.0
 40
2.0
 40
3.0
 40
3.0
 40
3.0
 10
3.399609918064749
 20
-0.159184065440017
 30
0.0
 10
3.401584336669401
 20
-0.1473924375330403
 30
0.0
 10
3.410558290157773
 20
-0.1330808096260635
 30
0.0
 10
3.427255964576378
 20
-0.1247468561376914
 30
0.0
 10
3.43688480178568
 20
-0.1247468561376914
 30
0.0
  0
SPLINE
  5
B9
330
A
100
AcDbEntity
  8
1
  6
solid
 62
     7
100
AcDbSpline
210
0.0
220
0.0
230
1.0
 70
     8
 71
     2
 72
     6
 73
     3
 74
     0
 42
0.0000000001
 43
0.0000000001
 40
0.0
 40
0.0
 40
0.0
 40
1.0
 40
1.0
 40
1.0
 10
3.43688480178568
 20
-0.1247468561376914
 30
0.0
 10
3.454237359925215
 20
-0.1247468561376914
 30
0.0
 10
3.465091313413587
 20
-0.1361812747423426
 30
0.0
  0
SPLINE
  5
BA
330
A
100
AcDbEntity
  8
1
  6
solid
 62
     7
100
AcDbSpline
210
0.0
220
0.0
230
1.0
 70
     8
 71
     2
 72
     6
 73
     3
 74
     0
 42
0.0000000001
 43
0.0000000001
 40
0.0
 40
0.0
 40
0.0
 40
1.0
 40
1.0
 40
1.0
 10
3.465091313413587
 20
-0.1361812747423426
 30
0.0
 10
3.473737825041494
 20
-0.1457603445097845
 30
0.0
 10
3.473737825041494
 20
-0.1574031352074589
 30
0.0
  0
SPLINE
  5
BB
330
A
100
AcDbEntity
  8
1
  6
solid
 62
     7
100
AcDbSpline
210
0.0
220
0.0
230
1.0
 70
     8
 71
     2
 72
     6
 73
     3
 74
     0
 42
0.0000000001
 43
0.0000000001
 40
0.0
 40
0.0
 40
0.0
 40
1.0
 40
1.0
 40
1.0
 10
3.473737825041494
 20
-0.1574031352074589
 30
0.0
 10
3.473737825041494
 20
-0.1737784840446682
 30
0.0
 10
3.455110383181029
 20
-0.1837445305562961
 30
0.0
  0
SPLINE
  5
BC
330
A
100
AcDbEntity
  8
1
  6
solid
 62
     7
100
AcDbSpline
210
0.0
220
0.0
230
1.0
 70
     8
 71
     2
 72
     7
 73
     4
 74
     0
 42
0.0000000001
 43
0.0000000001
 40
0.0
 40
0.0
 40
0.0
 40
1.0
 40
2.0
 40
2.0
 40
2.0
 10
3.455110383181029
 20
-0.1837445305562961
 30
0.0
 10
3.465865266901959
 20
-0.1857189491609473
 30
0.0
 10
3.479551778529866
 20
-0.2014989491609472
 30
0.0
 10
3.479551778529866
 20
-0.2127696468353659
 30
0.0
  0
SPLINE
  5
BD
330
A
100
AcDbEntity
  8
1
  6
solid
 62
     7
100
AcDbSpline
210
0.0
220
0.0
230
1.0
 70
     8
 71
     2
 72
     7
 73
     4
 74
     0
 42
0.0000000001
 43
0.0000000001
 40
0.0
 40
0.0
 40
0.0
 40
1.0
 40
2.0
 40
2.0
 40
2.0
 10
3.479551778529866
 20
-0.2127696468353659
 30
0.0
 10
3.479551778529866
 20
-0.2288324375330403
 30
0.0
 10
3.455318755274052
 20
-0.2512003445097845
 30
0.0
 10
3.437594104111261
 20
-0.2512003445097845
 30
0.0
  0
SPLINE
  5
BE
330
A
100
AcDbEntity
  8
1
  6
solid
 62
     7
100
AcDbSpline
210
0.0
220
0.0
230
1.0
 70
     8
 71
     2
 72
     7
 73
     4
 74
     0
 42
0.0000000001
 43
0.0000000001
 40
0.0
 40
0.0
 40
0.0
 40
1.0
 40
2.0
 40
2.0
 40
2.0
 10
3.437594104111261
 20
-0.2512003445097845
 30
0.0
 10
3.42049456922754
 20
-0.2512003445097845
 30
0.0
 10
3.39837968550661
 20
-0.2304942979981565
 30
0.0
 10
3.396702941320564
 20
-0.2134096468353658
 30
0.0
  0
LINE
  5
BF
330
A
100
AcDbEntity
  8
1
  6
solid
 62
     7
100
AcDbLine
 10
3.495873
 20
-0.249747
 30
0.0
 11
3.524958
 21
-0.124747
 31
0.0
  0
LINE
  5
C0
330
A
100
AcDbEntity
  8
1
  6
solid
 62
     7
100
AcDbLine
 10
3.524958
 20
-0.124747
 30
0.0
 11
3.544667
 21
-0.124747
 31
0.0
  0
LINE
  5
C1
330
A
100
AcDbEntity
  8
1
  6
solid
 62
     7
100
AcDbLine
 10
3.544667
 20
-0.124747
 30
0.0
 11
3.515597
 21
-0.249747
 31
0.0
  0
LINE
  5
C2
330
A
100
AcDbEntity
  8
1
  6
solid
 62
     7
100
AcDbLine
 10
3.495873
 20
-0.249747
 30
0.0
 11
3.515597
 21
-0.249747
 31
0.0
  0
LINE
  5
C3
330
A
100
AcDbEntity
  8
1
  6
solid
 62
     7
100
AcDbLine
 10
3.611234999999999
 20
-0.249747
 30
0.0
 11
3.611234999999999
 21
-0.225038
 31
0.0
  0
LINE
  5
C4
330
A
100
AcDbEntity
  8
1
  6
solid
 62
     7
100
AcDbLine
 10
3.611234999999999
 20
-0.225038
 30
0.0
 11
3.561817
 21
-0.225038
 31
0.0
  0
LINE
  5
C5
330
A
100
AcDbEntity
  8
1
  6
solid
 62
     7
100
AcDbLine
 10
3.561817
 20
-0.225038
 30
0.0
 11
3.561817
 21
-0.205249
 31
0.0
  0
LINE
  5
C6
330
A
100
AcDbEntity
  8
1
  6
solid
 62
     7
100
AcDbLine
 10
3.561817
 20
-0.205249
 30
0.0
 11
3.614380999999999
 21
-0.1262
 31
0.0
  0
LINE
  5
C7
330
A
100
AcDbEntity
  8
1
  6
solid
 62
     7
100
AcDbLine
 10
3.614380999999999
 20
-0.1262
 30
0.0
 11
3.635944999999999
 21
-0.1262
 31
0.0
  0
LINE
  5
C8
330
A
100
AcDbEntity
  8
1
  6
solid
 62
     7
100
AcDbLine
 10
3.635944999999999
 20
-0.1262
 30
0.0
 11
3.635944999999999
 21
-0.204689
 31
0.0
  0
LINE
  5
C9
330
A
100
AcDbEntity
  8
1
  6
solid
 62
     7
100
AcDbLine
 10
3.635944999999999
 20
-0.204689
 30
0.0
 11
3.651933
 21
-0.204689
 31
0.0
  0
LINE
  5
CA
330
A
100
AcDbEntity
  8
1
  6
solid
 62
     7
100
AcDbLine
 10
3.651933
 20
-0.204689
 30
0.0
 11
3.651933
 21
-0.225038
 31
0.0
  0
LINE
  5
CB
330
A
100
AcDbEntity
  8
1
  6
solid
 62
     7
100
AcDbLine
 10
3.651933
 20
-0.225038
 30
0.0
 11
3.635944999999999
 21
-0.225038
 31
0.0
  0
LINE
  5
CC
330
A
100
AcDbEntity
  8
1
  6
solid
 62
     7
100
AcDbLine
 10
3.635944999999999
 20
-0.225038
 30
0.0
 11
3.635944999999999
 21
-0.249747
 31
0.0
  0
LINE
  5
CD
330
A
100
AcDbEntity
  8
1
  6
solid
 62
     7
100
AcDbLine
 10
3.611234999999999
 20
-0.249747
 30
0.0
 11
3.635944999999999
 21
-0.249747
 31
0.0
  0
LINE
  5
CE
330
A
100
AcDbEntity
  8
1
  6
solid
 62
     7
100
AcDbLine
 10
3.611234999999999
 20
-0.204689
 30
0.0
 11
3.611234999999999
 21
-0.164864
 31
0.0
  0
LINE
  5
CF
330
A
100
AcDbEntity
  8
1
  6
solid
 62
     7
100
AcDbLine
 10
3.611234999999999
 20
-0.164864
 30
0.0
 11
3.584080999999999
 21
-0.204689
 31
0.0
  0
LINE
  5
D0
330
A
100
AcDbEntity
  8
1
  6
solid
 62
     7
100
AcDbLine
 10
3.611234999999999
 20
-0.204689
 30
0.0
 11
3.584080999999999
 21
-0.204689
 31
0.0
  0
LINE
  5
D1
330
A
100
AcDbEntity
  8
1
  6
solid
 62
     7
100
AcDbLine
 10
3.688162999999999
 20
-0.249747
 30
0.0
 11
3.731291
 21
-0.184057
 31
0.0
  0
LINE
  5
D2
330
A
100
AcDbEntity
  8
1
  6
solid
 62
     7
100
AcDbLine
 10
3.731291
 20
-0.184057
 30
0.0
 11
3.692523
 21
-0.124747
 31
0.0
  0
LINE
  5
D3
330
A
100
AcDbEntity
  8
1
  6
solid
 62
     7
100
AcDbLine
 10
3.692523
 20
-0.124747
 30
0.0
 11
3.721578
 21
-0.124747
 31
0.0
  0
LINE
  5
D4
330
A
100
AcDbEntity
  8
1
  6
solid
 62
     7
100
AcDbLine
 10
3.721578
 20
-0.124747
 30
0.0
 11
3.745826
 21
-0.161912
 31
0.0
  0
LINE
  5
D5
330
A
100
AcDbEntity
  8
1
  6
solid
 62
     7
100
AcDbLine
 10
3.745826
 20
-0.161912
 30
0.0
 11
3.769557999999999
 21
-0.124747
 31
0.0
  0
LINE
  5
D6
330
A
100
AcDbEntity
  8
1
  6
solid
 62
     7
100
AcDbLine
 10
3.769557999999999
 20
-0.124747
 30
0.0
 11
3.798627999999999
 21
-0.124747
 31
0.0
  0
LINE
  5
D7
330
A
100
AcDbEntity
  8
1
  6
solid
 62
     7
100
AcDbLine
 10
3.798627999999999
 20
-0.124747
 30
0.0
 11
3.760361
 21
-0.184057
 31
0.0
  0
LINE
  5
D8
330
A
100
AcDbEntity
  8
1
  6
solid
 62
     7
100
AcDbLine
 10
3.760361
 20
-0.184057
 30
0.0
 11
3.802988999999999
 21
-0.249747
 31
0.0
  0
LINE
  5
D9
330
A
100
AcDbEntity
  8
1
  6
solid
 62
     7
100
AcDbLine
 10
3.802988999999999
 20
-0.249747
 30
0.0
 11
3.773919
 21
-0.249747
 31
0.0
  0
LINE
  5
DA
330
A
100
AcDbEntity
  8
1
  6
solid
 62
     7
100
AcDbLine
 10
3.773919
 20
-0.249747
 30
0.0
 11
3.745826
 21
-0.206688
 31
0.0
  0
LINE
  5
DB
330
A
100
AcDbEntity
  8
1
  6
solid
 62
     7
100
AcDbLine
 10
3.745826
 20
-0.206688
 30
0.0
 11
3.717217999999999
 21
-0.249747
 31
0.0
  0
LINE
  5
DC
330
A
100
AcDbEntity
  8
1
  6
solid
 62
     7
100
AcDbLine
 10
3.688162999999999
 20
-0.249747
 30
0.0
 11
3.717217999999999
 21
-0.249747
 31
0.0
  0
LINE
  5
DD
330
A
100
AcDbEntity
  8
1
  6
solid
 62
     7
100
AcDbLine
 10
3.889137999999999
 20
-0.249747
 30
0.0
 11
3.889137999999999
 21
-0.225038
 31
0.0
  0
LINE
  5
DE
330
A
100
AcDbEntity
  8
1
  6
solid
 62
     7
100
AcDbLine
 10
3.889137999999999
 20
-0.225038
 30
0.0
 11
3.839719
 21
-0.225038
 31
0.0
  0
LINE
  5
DF
330
A
100
AcDbEntity
  8
1
  6
solid
 62
     7
100
AcDbLine
 10
3.839719
 20
-0.225038
 30
0.0
 11
3.839719
 21
-0.205249
 31
0.0
  0
LINE
  5
E0
330
A
100
AcDbEntity
  8
1
  6
solid
 62
     7
100
AcDbLine
 10
3.839719
 20
-0.205249
 30
0.0
 11
3.892283
 21
-0.1262
 31
0.0
  0
LINE
  5
E1
330
A
100
AcDbEntity
  8
1
  6
solid
 62
     7
100
AcDbLine
 10
3.892283
 20
-0.1262
 30
0.0
 11
3.913847
 21
-0.1262
 31
0.0
  0
LINE
  5
E2
330
A
100
AcDbEntity
  8
1
  6
solid
 62
     7
100
AcDbLine
 10
3.913847
 20
-0.1262
 30
0.0
 11
3.913847
 21
-0.204689
 31
0.0
  0
LINE
  5
E3
330
A
100
AcDbEntity
  8
1
  6
solid
 62
     7
100
AcDbLine
 10
3.913847
 20
-0.204689
 30
0.0
 11
3.929834999999999
 21
-0.204689
 31
0.0
  0
LINE
  5
E4
330
A
100
AcDbEntity
  8
1
  6
solid
 62
     7
100
AcDbLine
 10
3.929834999999999
 20
-0.204689
 30
0.0
 11
3.929834999999999
 21
-0.225038
 31
0.0
  0
LINE
  5
E5
330
A
100
AcDbEntity
  8
1
  6
solid
 62
     7
100
AcDbLine
 10
3.929834999999999
 20
-0.225038
 30
0.0
 11
3.913847
 21
-0.225038
 31
0.0
  0
LINE
  5
E6
330
A
100
AcDbEntity
  8
1
  6
solid
 62
     7
100
AcDbLine
 10
3.913847
 20
-0.225038
 30
0.0
 11
3.913847
 21
-0.249747
 31
0.0
  0
LINE
  5
E7
330
A
100
AcDbEntity
  8
1
  6
solid
 62
     7
100
AcDbLine
 10
3.889137999999999
 20
-0.249747
 30
0.0
 11
3.913847
 21
-0.249747
 31
0.0
  0
LINE
  5
E8
330
A
100
AcDbEntity
  8
1
  6
solid
 62
     7
100
AcDbLine
 10
3.889137999999999
 20
-0.204689
 30
0.0
 11
3.889137999999999
 21
-0.164864
 31
0.0
  0
LINE
  5
E9
330
A
100
AcDbEntity
  8
1
  6
solid
 62
     7
100
AcDbLine
 10
3.889137999999999
 20
-0.164864
 30
0.0
 11
3.861983
 21
-0.204689
 31
0.0
  0
LINE
  5
EA
330
A
100
AcDbEntity
  8
1
  6
solid
 62
     7
100
AcDbLine
 10
3.889137999999999
 20
-0.204689
 30
0.0
 11
3.861983
 21
-0.204689
 31
0.0
  0
LINE
  5
EB
330
A
100
AcDbEntity
  8
1
  6
solid
 62
     7
100
AcDbLine
 10
3.946984999999999
 20
-0.216317
 30
0.0
 11
3.946984999999999
 21
-0.194514
 31
0.0
  0
LINE
  5
EC
330
A
100
AcDbEntity
  8
1
  6
solid
 62
     7
100
AcDbLine
 10
3.946984999999999
 20
-0.194514
 30
0.0
 11
3.994951
 21
-0.194514
 31
0.0
  0
LINE
  5
ED
330
A
100
AcDbEntity
  8
1
  6
solid
 62
     7
100
AcDbLine
 10
3.994951
 20
-0.194514
 30
0.0
 11
3.994951
 21
-0.216317
 31
0.0
  0
LINE
  5
EE
330
A
100
AcDbEntity
  8
1
  6
solid
 62
     7
100
AcDbLine
 10
3.946984999999999
 20
-0.216317
 30
0.0
 11
3.994951
 21
-0.216317
 31
0.0
  0
LINE
  5
EF
330
A
100
AcDbEntity
  8
1
  6
solid
 62
     7
100
AcDbLine
 10
4.067333
 20
-0.249747
 30
0.0
 11
4.042623999999999
 21
-0.249747
 31
0.0
  0
LINE
  5
F0
330
A
100
AcDbEntity
  8
1
  6
solid
 62
     7
100
AcDbLine
 10
4.042623999999999
 20
-0.249747
 30
0.0
 11
4.042623999999999
 21
-0.160891
 31
0.0
  0
SPLINE
  5
F1
330
A
100
AcDbEntity
  8
1
  6
solid
 62
     7
100
AcDbSpline
210
0.0
220
0.0
230
1.0
 70
     8
 71
     2
 72
     6
 73
     3
 74
     0
 42
0.0000000001
 43
0.0000000001
 40
0.0
 40
0.0
 40
0.0
 40
1.0
 40
1.0
 40
1.0
 10
4.042623871553121
 20
-0.160890577067924
 30
0.0
 10
4.029631778529866
 20
-0.1750533677655984
 30
0.0
 10
4.012100615739169
 20
-0.1814329026493193
 30
0.0
  0
LINE
  5
F2
330
A
100
AcDbEntity
  8
1
  6
solid
 62
     7
100
AcDbLine
 10
4.012101
 20
-0.181433
 30
0.0
 11
4.012101
 21
-0.156724
 31
0.0
  0
SPLINE
  5
F3
330
A
100
AcDbEntity
  8
1
  6
solid
 62
     7
100
AcDbSpline
210
0.0
220
0.0
230
1.0
 70
     8
 71
     2
 72
     7
 73
     4
 74
     0
 42
0.0000000001
 43
0.0000000001
 40
0.0
 40
0.0
 40
0.0
 40
1.0
 40
2.0
 40
2.0
 40
2.0
 10
4.012100615739169
 20
-0.1567236003237379
 30
0.0
 10
4.021282941320564
 20
-0.1536826700911798
 30
0.0
 10
4.043308522715912
 20
-0.1363301119516449
 30
0.0
 10
4.047505266901959
 20
-0.1247468561376914
 30
0.0
  0
LINE
  5
F4
330
A
100
AcDbEntity
  8
1
  6
solid
 62
     7
100
AcDbLine
 10
4.047505
 20
-0.124747
 30
0.0
 11
4.067333
 21
-0.124747
 31
0.0
  0
LINE
  5
F5
330
A
100
AcDbEntity
  8
1
  6
solid
 62
     7
100
AcDbLine
 10
4.067333
 20
-0.249747
 30
0.0
 11
4.067333
 21
-0.124747
 31
0.0
  0
LINE
  5
F6
330
A
100
AcDbEntity
  8
1
  6
solid
 62
     7
100
AcDbLine
 10
4.083655
 20
-0.249747
 30
0.0
 11
4.112739
 21
-0.124747
 31
0.0
  0
LINE
  5
F7
330
A
100
AcDbEntity
  8
1
  6
solid
 62
     7
100
AcDbLine
 10
4.112739
 20
-0.124747
 30
0.0
 11
4.132448
 21
-0.124747
 31
0.0
  0
LINE
  5
F8
330
A
100
AcDbEntity
  8
1
  6
solid
 62
     7
100
AcDbLine
 10
4.132448
 20
-0.124747
 30
0.0
 11
4.103379
 21
-0.249747
 31
0.0
  0
LINE
  5
F9
330
A
100
AcDbEntity
  8
1
  6
solid
 62
     7
100
AcDbLine
 10
4.083655
 20
-0.249747
 30
0.0
 11
4.103379
 21
-0.249747
 31
0.0
  0
LINE
  5
FA
330
A
100
AcDbEntity
  8
1
  6
solid
 62
     7
100
AcDbLine
 10
4.199016999999999
 20
-0.249747
 30
0.0
 11
4.199016999999999
 21
-0.225038
 31
0.0
  0
LINE
  5
FB
330
A
100
AcDbEntity
  8
1
  6
solid
 62
     7
100
AcDbLine
 10
4.199016999999999
 20
-0.225038
 30
0.0
 11
4.149598
 21
-0.225038
 31
0.0
  0
LINE
  5
FC
330
A
100
AcDbEntity
  8
1
  6
solid
 62
     7
100
AcDbLine
 10
4.149598
 20
-0.225038
 30
0.0
 11
4.149598
 21
-0.205249
 31
0.0
  0
LINE
  5
FD
330
A
100
AcDbEntity
  8
1
  6
solid
 62
     7
100
AcDbLine
 10
4.149598
 20
-0.205249
 30
0.0
 11
4.202162
 21
-0.1262
 31
0.0
  0
LINE
  5
FE
330
A
100
AcDbEntity
  8
1
  6
solid
 62
     7
100
AcDbLine
 10
4.202162
 20
-0.1262
 30
0.0
 11
4.223726
 21
-0.1262
 31
0.0
  0
LINE
  5
FF
330
A
100
AcDbEntity
  8
1
  6
solid
 62
     7
100
AcDbLine
 10
4.223726
 20
-0.1262
 30
0.0
 11
4.223726
 21
-0.204689
 31
0.0
  0
LINE
  5
100
330
A
100
AcDbEntity
  8
1
  6
solid
 62
     7
100
AcDbLine
 10
4.223726
 20
-0.204689
 30
0.0
 11
4.239715
 21
-0.204689
 31
0.0
  0
LINE
  5
101
330
A
100
AcDbEntity
  8
1
  6
solid
 62
     7
100
AcDbLine
 10
4.239715
 20
-0.204689
 30
0.0
 11
4.239715
 21
-0.225038
 31
0.0
  0
LINE
  5
102
330
A
100
AcDbEntity
  8
1
  6
solid
 62
     7
100
AcDbLine
 10
4.239715
 20
-0.225038
 30
0.0
 11
4.223726
 21
-0.225038
 31
0.0
  0
LINE
  5
103
330
A
100
AcDbEntity
  8
1
  6
solid
 62
     7
100
AcDbLine
 10
4.223726
 20
-0.225038
 30
0.0
 11
4.223726
 21
-0.249747
 31
0.0
  0
LINE
  5
104
330
A
100
AcDbEntity
  8
1
  6
solid
 62
     7
100
AcDbLine
 10
4.199016999999999
 20
-0.249747
 30
0.0
 11
4.223726
 21
-0.249747
 31
0.0
  0
LINE
  5
105
330
A
100
AcDbEntity
  8
1
  6
solid
 62
     7
100
AcDbLine
 10
4.199016999999999
 20
-0.204689
 30
0.0
 11
4.199016999999999
 21
-0.164864
 31
0.0
  0
LINE
  5
106
330
A
100
AcDbEntity
  8
1
  6
solid
 62
     7
100
AcDbLine
 10
4.199016999999999
 20
-0.164864
 30
0.0
 11
4.171861999999999
 21
-0.204689
 31
0.0
  0
LINE
  5
107
330
A
100
AcDbEntity
  8
1
  6
solid
 62
     7
100
AcDbLine
 10
4.199016999999999
 20
-0.204689
 30
0.0
 11
4.171861999999999
 21
-0.204689
 31
0.0
  0
LINE
  5
108
330
A
100
AcDbEntity
  8
1
  6
solid
 62
     7
100
AcDbLine
 10
-1.116624999999999
 20
-0.180345
 30
0.0
 11
-1.091915999999999
 21
-0.177438
 31
0.0
  0
SPLINE
  5
109
330
A
100
AcDbEntity
  8
1
  6
solid
 62
     7
100
AcDbSpline
210
0.0
220
0.0
230
1.0
 70
     8
 71
     2
 72
     7
 73
     4
 74
     0
 42
0.0000000001
 43
0.0000000001
 40
0.0
 40
0.0
 40
0.0
 40
1.0
 40
2.0
 40
2.0
 40
2.0
 10
-1.091915529850153
 20
-0.1774379977578734
 30
0.0
 10
-1.091230878687363
 20
-0.1869575326415944
 30
0.0
 10
-1.081681576361781
 20
-0.1963333465950828
 30
0.0
 10
-1.075391343803642
 20
-0.1963333465950828
 30
0.0
  0
SPLINE
  5
10A
330
A
100
AcDbEntity
  8
1
  6
solid
 62
     7
100
AcDbSpline
210
0.0
220
0.0
230
1.0
 70
     8
 71
     2
 72
     7
 73
     4
 74
     0
 42
0.0000000001
 43
0.0000000001
 40
0.0
 40
0.0
 40
0.0
 40
1.0
 40
2.0
 40
2.0
 40
2.0
 10
-1.075391343803642
 20
-0.1963333465950828
 30
0.0
 10
-1.068287622873409
 20
-0.1963333465950828
 30
0.0
 10
-1.058485297292014
 20
-0.1866896256648502
 30
0.0
 10
-1.058485297292014
 20
-0.1780579977578735
 30
0.0
  0
SPLINE
  5
10B
330
A
100
AcDbEntity
  8
1
  6
solid
 62
     7
100
AcDbSpline
210
0.0
220
0.0
230
1.0
 70
     8
 71
     2
 72
     7
 73
     4
 74
     0
 42
0.0000000001
 43
0.0000000001
 40
0.0
 40
0.0
 40
0.0
 40
1.0
 40
2.0
 40
2.0
 40
2.0
 10
-1.058485297292014
 20
-0.1780579977578735
 30
0.0
 10
-1.058485297292014
 20
-0.1697389279904316
 30
0.0
 10
-1.067176460082712
 20
-0.1599961372927572
 30
0.0
 10
-1.073759250780386
 20
-0.1599961372927572
 30
0.0
  0
SPLINE
  5
10C
330
A
100
AcDbEntity
  8
1
  6
solid
 62
     7
100
AcDbSpline
210
0.0
220
0.0
230
1.0
 70
     8
 71
     2
 72
     6
 73
     3
 74
     0
 42
0.0000000001
 43
0.0000000001
 40
0.0
 40
0.0
 40
0.0
 40
1.0
 40
1.0
 40
1.0
 10
-1.073759250780386
 20
-0.1599961372927572
 30
0.0
 10
-1.077955994966433
 20
-0.1599961372927572
 30
0.0
 10
-1.083194599617595
 20
-0.1621738117113618
 30
0.0
  0
LINE
  5
10D
330
A
100
AcDbEntity
  8
1
  6
solid
 62
     7
100
AcDbLine
 10
-1.083195
 20
-0.162174
 30
0.0
 11
-1.08125
 21
-0.141101
 31
0.0
  0
SPLINE
  5
10E
330
A
100
AcDbEntity
  8
1
  6
solid
 62
     7
100
AcDbSpline
210
0.0
220
0.0
230
1.0
 70
     8
 71
     2
 72
     7
 73
     4
 74
     0
 42
0.0000000001
 43
0.0000000001
 40
0.0
 40
0.0
 40
0.0
 40
1.0
 40
2.0
 40
2.0
 40
2.0
 10
-1.081249948454805
 20
-0.1411007884555479
 30
0.0
 10
-1.072915994966432
 20
-0.1417803233392688
 30
0.0
 10
-1.064299250780386
 20
-0.1333421838043851
 30
0.0
 10
-1.064299250780386
 20
-0.1263426489206642
 30
0.0
  0
SPLINE
  5
10F
330
A
100
AcDbEntity
  8
1
  6
solid
 62
     7
100
AcDbSpline
210
0.0
220
0.0
230
1.0
 70
     8
 71
     2
 72
     7
 73
     4
 74
     0
 42
0.0000000001
 43
0.0000000001
 40
0.0
 40
0.0
 40
0.0
 40
1.0
 40
2.0
 40
2.0
 40
2.0
 10
-1.064299250780386
 20
-0.1263426489206642
 30
0.0
 10
-1.064299250780386
 20
-0.1205286954322921
 30
0.0
 10
-1.070926692640851
 20
-0.1134845093857804
 30
0.0
 10
-1.075837855431549
 20
-0.1134845093857804
 30
0.0
  0
SPLINE
  5
110
330
A
100
AcDbEntity
  8
1
  6
solid
 62
     7
100
AcDbSpline
210
0.0
220
0.0
230
1.0
 70
     8
 71
     2
 72
     7
 73
     4
 74
     0
 42
0.0000000001
 43
0.0000000001
 40
0.0
 40
0.0
 40
0.0
 40
1.0
 40
2.0
 40
2.0
 40
2.0
 10
-1.075837855431549
 20
-0.1134845093857804
 30
0.0
 10
-1.081220181012944
 20
-0.1134845093857804
 30
0.0
 10
-1.088487622873409
 20
-0.1218333465950828
 30
0.0
 10
-1.089008553105967
 20
-0.1294728814788037
 30
0.0
  0
LINE
  5
111
330
A
100
AcDbEntity
  8
1
  6
solid
 62
     7
100
AcDbLine
 10
-1.089009
 20
-0.129473
 30
0.0
 11
-1.113717999999999
 21
-0.126119
 31
0.0
  0
SPLINE
  5
112
330
A
100
AcDbEntity
  8
1
  6
solid
 62
     7
100
AcDbSpline
210
0.0
220
0.0
230
1.0
 70
     8
 71
     2
 72
     8
 73
     5
 74
     0
 42
0.0000000001
 43
0.0000000001
 40
0.0
 40
0.0
 40
0.0
 40
1.0
 40
2.0
 40
3.0
 40
3.0
 40
3.0
 10
-1.113717855431549
 20
-0.1261193931067107
 30
0.0
 10
-1.111743436826897
 20
-0.1143277651997339
 30
0.0
 10
-1.102769483338525
 20
-0.1000161372927572
 30
0.0
 10
-1.086071808919921
 20
-0.0916821838043851
 30
0.0
 10
-1.076442971710618
 20
-0.0916821838043851
 30
0.0
  0
SPLINE
  5
113
330
A
100
AcDbEntity
  8
1
  6
solid
 62
     7
100
AcDbSpline
210
0.0
220
0.0
230
1.0
 70
     8
 71
     2
 72
     6
 73
     3
 74
     0
 42
0.0000000001
 43
0.0000000001
 40
0.0
 40
0.0
 40
0.0
 40
1.0
 40
1.0
 40
1.0
 10
-1.076442971710618
 20
-0.0916821838043851
 30
0.0
 10
-1.059090413571083
 20
-0.0916821838043851
 30
0.0
 10
-1.048236460082712
 20
-0.1031166024090362
 30
0.0
  0
SPLINE
  5
114
330
A
100
AcDbEntity
  8
1
  6
solid
 62
     7
100
AcDbSpline
210
0.0
220
0.0
230
1.0
 70
     8
 71
     2
 72
     6
 73
     3
 74
     0
 42
0.0000000001
 43
0.0000000001
 40
0.0
 40
0.0
 40
0.0
 40
1.0
 40
1.0
 40
1.0
 10
-1.048236460082712
 20
-0.1031166024090362
 30
0.0
 10
-1.039589948454805
 20
-0.1126956721764781
 30
0.0
 10
-1.039589948454805
 20
-0.1243384628741525
 30
0.0
  0
SPLINE
  5
115
330
A
100
AcDbEntity
  8
1
  6
solid
 62
     7
100
AcDbSpline
210
0.0
220
0.0
230
1.0
 70
     8
 71
     2
 72
     6
 73
     3
 74
     0
 42
0.0000000001
 43
0.0000000001
 40
0.0
 40
0.0
 40
0.0
 40
1.0
 40
1.0
 40
1.0
 10
-1.039589948454805
 20
-0.1243384628741525
 30
0.0
 10
-1.039589948454805
 20
-0.1407138117113618
 30
0.0
 10
-1.05821739031527
 20
-0.1506798582229897
 30
0.0
  0
SPLINE
  5
116
330
A
100
AcDbEntity
  8
1
  6
solid
 62
     7
100
AcDbSpline
210
0.0
220
0.0
230
1.0
 70
     8
 71
     2
 72
     7
 73
     4
 74
     0
 42
0.0000000001
 43
0.0000000001
 40
0.0
 40
0.0
 40
0.0
 40
1.0
 40
2.0
 40
2.0
 40
2.0
 10
-1.05821739031527
 20
-0.1506798582229897
 30
0.0
 10
-1.047462506594339
 20
-0.1526542768276409
 30
0.0
 10
-1.033775994966432
 20
-0.1684342768276409
 30
0.0
 10
-1.033775994966432
 20
-0.1797049745020595
 30
0.0
  0
SPLINE
  5
117
330
A
100
AcDbEntity
  8
1
  6
solid
 62
     7
100
AcDbSpline
210
0.0
220
0.0
230
1.0
 70
     8
 71
     2
 72
     7
 73
     4
 74
     0
 42
0.0000000001
 43
0.0000000001
 40
0.0
 40
0.0
 40
0.0
 40
1.0
 40
2.0
 40
2.0
 40
2.0
 10
-1.033775994966432
 20
-0.1797049745020595
 30
0.0
 10
-1.033775994966432
 20
-0.1957677651997339
 30
0.0
 10
-1.058009018222247
 20
-0.2181356721764781
 30
0.0
 10
-1.075733669385037
 20
-0.2181356721764781
 30
0.0
  0
SPLINE
  5
118
330
A
100
AcDbEntity
  8
1
  6
solid
 62
     7
100
AcDbSpline
210
0.0
220
0.0
230
1.0
 70
     8
 71
     2
 72
     7
 73
     4
 74
     0
 42
0.0000000001
 43
0.0000000001
 40
0.0
 40
0.0
 40
0.0
 40
1.0
 40
2.0
 40
2.0
 40
2.0
 10
-1.075733669385037
 20
-0.2181356721764781
 30
0.0
 10
-1.092833204268758
 20
-0.2181356721764781
 30
0.0
 10
-1.114948087989688
 20
-0.1974296256648502
 30
0.0
 10
-1.116624832175735
 20
-0.1803449745020595
 30
0.0
  0
LINE
  5
119
330
A
100
AcDbEntity
  8
1
  6
solid
 62
     7
100
AcDbLine
 10
-1.017454
 20
-0.216682
 30
0.0
 11
-0.9883700000000001
 21
-0.091682
 31
0.0
  0
LINE
  5
11A
330
A
100
AcDbEntity
  8
1
  6
solid
 62
     7
100
AcDbLine
 10
-0.9883700000000001
 20
-0.091682
 30
0.0
 11
-0.9686610000000001
 21
-0.091682
 31
0.0
  0
LINE
  5
11B
330
A
100
AcDbEntity
  8
1
  6
solid
 62
     7
100
AcDbLine
 10
-0.9686610000000001
 20
-0.091682
 30
0.0
 11
-0.9977309999999999
 21
-0.216682
 31
0.0
  0
LINE
  5
11C
330
A
100
AcDbEntity
  8
1
  6
solid
 62
     7
100
AcDbLine
 10
-1.017454
 20
-0.216682
 30
0.0
 11
-0.9977309999999999
 21
-0.216682
 31
0.0
  0
LINE
  5
11D
330
A
100
AcDbEntity
  8
1
  6
solid
 62
     7
100
AcDbLine
 10
-0.902092
 20
-0.216682
 30
0.0
 11
-0.902092
 21
-0.191973
 31
0.0
  0
LINE
  5
11E
330
A
100
AcDbEntity
  8
1
  6
solid
 62
     7
100
AcDbLine
 10
-0.902092
 20
-0.191973
 30
0.0
 11
-0.9515110000000001
 21
-0.191973
 31
0.0
  0
LINE
  5
11F
330
A
100
AcDbEntity
  8
1
  6
solid
 62
     7
100
AcDbLine
 10
-0.9515110000000001
 20
-0.191973
 30
0.0
 11
-0.9515110000000001
 21
-0.172185
 31
0.0
  0
LINE
  5
120
330
A
100
AcDbEntity
  8
1
  6
solid
 62
     7
100
AcDbLine
 10
-0.9515110000000001
 20
-0.172185
 30
0.0
 11
-0.8989469999999998
 21
-0.093136
 31
0.0
  0
LINE
  5
121
330
A
100
AcDbEntity
  8
1
  6
solid
 62
     7
100
AcDbLine
 10
-0.8989469999999998
 20
-0.093136
 30
0.0
 11
-0.877383
 21
-0.093136
 31
0.0
  0
LINE
  5
122
330
A
100
AcDbEntity
  8
1
  6
solid
 62
     7
100
AcDbLine
 10
-0.877383
 20
-0.093136
 30
0.0
 11
-0.877383
 21
-0.171624
 31
0.0
  0
LINE
  5
123
330
A
100
AcDbEntity
  8
1
  6
solid
 62
     7
100
AcDbLine
 10
-0.877383
 20
-0.171624
 30
0.0
 11
-0.861395
 21
-0.171624
 31
0.0
  0
LINE
  5
124
330
A
100
AcDbEntity
  8
1
  6
solid
 62
     7
100
AcDbLine
 10
-0.861395
 20
-0.171624
 30
0.0
 11
-0.861395
 21
-0.191973
 31
0.0
  0
LINE
  5
125
330
A
100
AcDbEntity
  8
1
  6
solid
 62
     7
100
AcDbLine
 10
-0.861395
 20
-0.191973
 30
0.0
 11
-0.877383
 21
-0.191973
 31
0.0
  0
LINE
  5
126
330
A
100
AcDbEntity
  8
1
  6
solid
 62
     7
100
AcDbLine
 10
-0.877383
 20
-0.191973
 30
0.0
 11
-0.877383
 21
-0.216682
 31
0.0
  0
LINE
  5
127
330
A
100
AcDbEntity
  8
1
  6
solid
 62
     7
100
AcDbLine
 10
-0.902092
 20
-0.216682
 30
0.0
 11
-0.877383
 21
-0.216682
 31
0.0
  0
LINE
  5
128
330
A
100
AcDbEntity
  8
1
  6
solid
 62
     7
100
AcDbLine
 10
-0.902092
 20
-0.171624
 30
0.0
 11
-0.902092
 21
-0.131799
 31
0.0
  0
LINE
  5
129
330
A
100
AcDbEntity
  8
1
  6
solid
 62
     7
100
AcDbLine
 10
-0.902092
 20
-0.131799
 30
0.0
 11
-0.9292469999999999
 21
-0.171624
 31
0.0
  0
LINE
  5
12A
330
A
100
AcDbEntity
  8
1
  6
solid
 62
     7
100
AcDbLine
 10
-0.902092
 20
-0.171624
 30
0.0
 11
-0.9292469999999999
 21
-0.171624
 31
0.0
  0
LINE
  5
12B
330
A
100
AcDbEntity
  8
1
  6
solid
 62
     7
100
AcDbLine
 10
-0.8251649999999999
 20
-0.216682
 30
0.0
 11
-0.7820359999999999
 21
-0.150992
 31
0.0
  0
LINE
  5
12C
330
A
100
AcDbEntity
  8
1
  6
solid
 62
     7
100
AcDbLine
 10
-0.7820359999999999
 20
-0.150992
 30
0.0
 11
-0.820804
 21
-0.091682
 31
0.0
  0
LINE
  5
12D
330
A
100
AcDbEntity
  8
1
  6
solid
 62
     7
100
AcDbLine
 10
-0.820804
 20
-0.091682
 30
0.0
 11
-0.7917489999999999
 21
-0.091682
 31
0.0
  0
LINE
  5
12E
330
A
100
AcDbEntity
  8
1
  6
solid
 62
     7
100
AcDbLine
 10
-0.7917489999999999
 20
-0.091682
 30
0.0
 11
-0.767502
 21
-0.128848
 31
0.0
  0
LINE
  5
12F
330
A
100
AcDbEntity
  8
1
  6
solid
 62
     7
100
AcDbLine
 10
-0.767502
 20
-0.128848
 30
0.0
 11
-0.743769
 21
-0.091682
 31
0.0
  0
LINE
  5
130
330
A
100
AcDbEntity
  8
1
  6
solid
 62
     7
100
AcDbLine
 10
-0.743769
 20
-0.091682
 30
0.0
 11
-0.7147000000000001
 21
-0.091682
 31
0.0
  0
LINE
  5
131
330
A
100
AcDbEntity
  8
1
  6
solid
 62
     7
100
AcDbLine
 10
-0.7147000000000001
 20
-0.091682
 30
0.0
 11
-0.7529670000000001
 21
-0.150992
 31
0.0
  0
LINE
  5
132
330
A
100
AcDbEntity
  8
1
  6
solid
 62
     7
100
AcDbLine
 10
-0.7529670000000001
 20
-0.150992
 30
0.0
 11
-0.7103390000000001
 21
-0.216682
 31
0.0
  0
LINE
  5
133
330
A
100
AcDbEntity
  8
1
  6
solid
 62
     7
100
AcDbLine
 10
-0.7103390000000001
 20
-0.216682
 30
0.0
 11
-0.7394090000000001
 21
-0.216682
 31
0.0
  0
LINE
  5
134
330
A
100
AcDbEntity
  8
1
  6
solid
 62
     7
100
AcDbLine
 10
-0.7394090000000001
 20
-0.216682
 30
0.0
 11
-0.767502
 21
-0.173623
 31
0.0
  0
LINE
  5
135
330
A
100
AcDbEntity
  8
1
  6
solid
 62
     7
100
AcDbLine
 10
-0.767502
 20
-0.173623
 30
0.0
 11
-0.79611
 21
-0.216682
 31
0.0
  0
LINE
  5
136
330
A
100
AcDbEntity
  8
1
  6
solid
 62
     7
100
AcDbLine
 10
-0.8251649999999999
 20
-0.216682
 30
0.0
 11
-0.79611
 21
-0.216682
 31
0.0
  0
LINE
  5
137
330
A
100
AcDbEntity
  8
1
  6
solid
 62
     7
100
AcDbLine
 10
-0.62419
 20
-0.216682
 30
0.0
 11
-0.62419
 21
-0.191973
 31
0.0
  0
LINE
  5
138
330
A
100
AcDbEntity
  8
1
  6
solid
 62
     7
100
AcDbLine
 10
-0.62419
 20
-0.191973
 30
0.0
 11
-0.673609
 21
-0.191973
 31
0.0
  0
LINE
  5
139
330
A
100
AcDbEntity
  8
1
  6
solid
 62
     7
100
AcDbLine
 10
-0.673609
 20
-0.191973
 30
0.0
 11
-0.673609
 21
-0.172185
 31
0.0
  0
LINE
  5
13A
330
A
100
AcDbEntity
  8
1
  6
solid
 62
     7
100
AcDbLine
 10
-0.673609
 20
-0.172185
 30
0.0
 11
-0.621045
 21
-0.093136
 31
0.0
  0
LINE
  5
13B
330
A
100
AcDbEntity
  8
1
  6
solid
 62
     7
100
AcDbLine
 10
-0.621045
 20
-0.093136
 30
0.0
 11
-0.5994810000000001
 21
-0.093136
 31
0.0
  0
LINE
  5
13C
330
A
100
AcDbEntity
  8
1
  6
solid
 62
     7
100
AcDbLine
 10
-0.5994810000000001
 20
-0.093136
 30
0.0
 11
-0.5994810000000001
 21
-0.171624
 31
0.0
  0
LINE
  5
13D
330
A
100
AcDbEntity
  8
1
  6
solid
 62
     7
100
AcDbLine
 10
-0.5994810000000001
 20
-0.171624
 30
0.0
 11
-0.5834920000000001
 21
-0.171624
 31
0.0
  0
LINE
  5
13E
330
A
100
AcDbEntity
  8
1
  6
solid
 62
     7
100
AcDbLine
 10
-0.5834920000000001
 20
-0.171624
 30
0.0
 11
-0.5834920000000001
 21
-0.191973
 31
0.0
  0
LINE
  5
13F
330
A
100
AcDbEntity
  8
1
  6
solid
 62
     7
100
AcDbLine
 10
-0.5834920000000001
 20
-0.191973
 30
0.0
 11
-0.5994810000000001
 21
-0.191973
 31
0.0
  0
LINE
  5
140
330
A
100
AcDbEntity
  8
1
  6
solid
 62
     7
100
AcDbLine
 10
-0.5994810000000001
 20
-0.191973
 30
0.0
 11
-0.5994810000000001
 21
-0.216682
 31
0.0
  0
LINE
  5
141
330
A
100
AcDbEntity
  8
1
  6
solid
 62
     7
100
AcDbLine
 10
-0.62419
 20
-0.216682
 30
0.0
 11
-0.5994810000000001
 21
-0.216682
 31
0.0
  0
LINE
  5
142
330
A
100
AcDbEntity
  8
1
  6
solid
 62
     7
100
AcDbLine
 10
-0.62419
 20
-0.171624
 30
0.0
 11
-0.62419
 21
-0.131799
 31
0.0
  0
LINE
  5
143
330
A
100
AcDbEntity
  8
1
  6
solid
 62
     7
100
AcDbLine
 10
-0.62419
 20
-0.131799
 30
0.0
 11
-0.651345
 21
-0.171624
 31
0.0
  0
LINE
  5
144
330
A
100
AcDbEntity
  8
1
  6
solid
 62
     7
100
AcDbLine
 10
-0.62419
 20
-0.171624
 30
0.0
 11
-0.651345
 21
-0.171624
 31
0.0
  0
LINE
  5
145
330
A
100
AcDbEntity
  8
1
  6
solid
 62
     7
100
AcDbLine
 10
-0.5663420000000001
 20
-0.183252
 30
0.0
 11
-0.5663420000000001
 21
-0.16145
 31
0.0
  0
LINE
  5
146
330
A
100
AcDbEntity
  8
1
  6
solid
 62
     7
100
AcDbLine
 10
-0.5663420000000001
 20
-0.16145
 30
0.0
 11
-0.5183770000000001
 21
-0.16145
 31
0.0
  0
LINE
  5
147
330
A
100
AcDbEntity
  8
1
  6
solid
 62
     7
100
AcDbLine
 10
-0.5183770000000001
 20
-0.16145
 30
0.0
 11
-0.5183770000000001
 21
-0.183252
 31
0.0
  0
LINE
  5
148
330
A
100
AcDbEntity
  8
1
  6
solid
 62
     7
100
AcDbLine
 10
-0.5663420000000001
 20
-0.183252
 30
0.0
 11
-0.5183770000000001
 21
-0.183252
 31
0.0
  0
LINE
  5
149
330
A
100
AcDbEntity
  8
1
  6
solid
 62
     7
100
AcDbLine
 10
-0.445995
 20
-0.216682
 30
0.0
 11
-0.4707040000000001
 21
-0.216682
 31
0.0
  0
LINE
  5
14A
330
A
100
AcDbEntity
  8
1
  6
solid
 62
     7
100
AcDbLine
 10
-0.4707040000000001
 20
-0.216682
 30
0.0
 11
-0.4707040000000001
 21
-0.127826
 31
0.0
  0
SPLINE
  5
14B
330
A
100
AcDbEntity
  8
1
  6
solid
 62
     7
100
AcDbSpline
210
0.0
220
0.0
230
1.0
 70
     8
 71
     2
 72
     6
 73
     3
 74
     0
 42
0.0000000001
 43
0.0000000001
 40
0.0
 40
0.0
 40
0.0
 40
1.0
 40
1.0
 40
1.0
 10
-0.4707039019431773
 20
-0.1278259047346176
 30
0.0
 10
-0.4836959949664332
 20
-0.1419886954322921
 30
0.0
 10
-0.5012271577571309
 20
-0.148368230316013
 30
0.0
  0
LINE
  5
14C
330
A
100
AcDbEntity
  8
1
  6
solid
 62
     7
100
AcDbLine
 10
-0.5012270000000001
 20
-0.148368
 30
0.0
 11
-0.5012270000000001
 21
-0.123659
 31
0.0
  0
SPLINE
  5
14D
330
A
100
AcDbEntity
  8
1
  6
solid
 62
     7
100
AcDbSpline
210
0.0
220
0.0
230
1.0
 70
     8
 71
     2
 72
     7
 73
     4
 74
     0
 42
0.0000000001
 43
0.0000000001
 40
0.0
 40
0.0
 40
0.0
 40
1.0
 40
2.0
 40
2.0
 40
2.0
 10
-0.5012271577571309
 20
-0.1236589279904316
 30
0.0
 10
-0.4920448321757356
 20
-0.1206179977578735
 30
0.0
 10
-0.4700192507803866
 20
-0.1032654396183386
 30
0.0
 10
-0.4658225065943401
 20
-0.0916821838043851
 30
0.0
  0
LINE
  5
14E
330
A
100
AcDbEntity
  8
1
  6
solid
 62
     7
100
AcDbLine
 10
-0.465823
 20
-0.091682
 30
0.0
 11
-0.445995
 21
-0.091682
 31
0.0
  0
LINE
  5
14F
330
A
100
AcDbEntity
  8
1
  6
solid
 62
     7
100
AcDbLine
 10
-0.445995
 20
-0.216682
 30
0.0
 11
-0.445995
 21
-0.091682
 31
0.0
  0
LINE
  5
150
330
A
100
AcDbEntity
  8
1
  6
solid
 62
     7
100
AcDbLine
 10
-0.4296730000000001
 20
-0.216682
 30
0.0
 11
-0.4005880000000001
 21
-0.091682
 31
0.0
  0
LINE
  5
151
330
A
100
AcDbEntity
  8
1
  6
solid
 62
     7
100
AcDbLine
 10
-0.4005880000000001
 20
-0.091682
 30
0.0
 11
-0.380879
 21
-0.091682
 31
0.0
  0
LINE
  5
152
330
A
100
AcDbEntity
  8
1
  6
solid
 62
     7
100
AcDbLine
 10
-0.380879
 20
-0.091682
 30
0.0
 11
-0.409949
 21
-0.216682
 31
0.0
  0
LINE
  5
153
330
A
100
AcDbEntity
  8
1
  6
solid
 62
     7
100
AcDbLine
 10
-0.4296730000000001
 20
-0.216682
 30
0.0
 11
-0.409949
 21
-0.216682
 31
0.0
  0
LINE
  5
154
330
A
100
AcDbEntity
  8
1
  6
solid
 62
     7
100
AcDbLine
 10
-0.314311
 20
-0.216682
 30
0.0
 11
-0.314311
 21
-0.191973
 31
0.0
  0
LINE
  5
155
330
A
100
AcDbEntity
  8
1
  6
solid
 62
     7
100
AcDbLine
 10
-0.314311
 20
-0.191973
 30
0.0
 11
-0.363729
 21
-0.191973
 31
0.0
  0
LINE
  5
156
330
A
100
AcDbEntity
  8
1
  6
solid
 62
     7
100
AcDbLine
 10
-0.363729
 20
-0.191973
 30
0.0
 11
-0.363729
 21
-0.172185
 31
0.0
  0
LINE
  5
157
330
A
100
AcDbEntity
  8
1
  6
solid
 62
     7
100
AcDbLine
 10
-0.363729
 20
-0.172185
 30
0.0
 11
-0.311166
 21
-0.093136
 31
0.0
  0
LINE
  5
158
330
A
100
AcDbEntity
  8
1
  6
solid
 62
     7
100
AcDbLine
 10
-0.311166
 20
-0.093136
 30
0.0
 11
-0.289602
 21
-0.093136
 31
0.0
  0
LINE
  5
159
330
A
100
AcDbEntity
  8
1
  6
solid
 62
     7
100
AcDbLine
 10
-0.289602
 20
-0.093136
 30
0.0
 11
-0.289602
 21
-0.171624
 31
0.0
  0
LINE
  5
15A
330
A
100
AcDbEntity
  8
1
  6
solid
 62
     7
100
AcDbLine
 10
-0.289602
 20
-0.171624
 30
0.0
 11
-0.273613
 21
-0.171624
 31
0.0
  0
LINE
  5
15B
330
A
100
AcDbEntity
  8
1
  6
solid
 62
     7
100
AcDbLine
 10
-0.273613
 20
-0.171624
 30
0.0
 11
-0.273613
 21
-0.191973
 31
0.0
  0
LINE
  5
15C
330
A
100
AcDbEntity
  8
1
  6
solid
 62
     7
100
AcDbLine
 10
-0.273613
 20
-0.191973
 30
0.0
 11
-0.289602
 21
-0.191973
 31
0.0
  0
LINE
  5
15D
330
A
100
AcDbEntity
  8
1
  6
solid
 62
     7
100
AcDbLine
 10
-0.289602
 20
-0.191973
 30
0.0
 11
-0.289602
 21
-0.216682
 31
0.0
  0
LINE
  5
15E
330
A
100
AcDbEntity
  8
1
  6
solid
 62
     7
100
AcDbLine
 10
-0.314311
 20
-0.216682
 30
0.0
 11
-0.289602
 21
-0.216682
 31
0.0
  0
LINE
  5
15F
330
A
100
AcDbEntity
  8
1
  6
solid
 62
     7
100
AcDbLine
 10
-0.314311
 20
-0.171624
 30
0.0
 11
-0.314311
 21
-0.131799
 31
0.0
  0
LINE
  5
160
330
A
100
AcDbEntity
  8
1
  6
solid
 62
     7
100
AcDbLine
 10
-0.314311
 20
-0.131799
 30
0.0
 11
-0.341466
 21
-0.171624
 31
0.0
  0
LINE
  5
161
330
A
100
AcDbEntity
  8
1
  6
solid
 62
     7
100
AcDbLine
 10
-0.314311
 20
-0.171624
 30
0.0
 11
-0.341466
 21
-0.171624
 31
0.0
  0
LINE
  5
162
330
A
100
AcDbEntity
  8
1
  6
solid
 62
     7
100
AcDbLine
 10
3.512429
 20
0.254489
 30
0.0
 11
3.512429
 21
0.379489
 31
0.0
  0
LINE
  5
163
330
A
100
AcDbEntity
  8
1
  6
solid
 62
     7
100
AcDbLine
 10
3.512429
 20
0.379489
 30
0.0
 11
3.537138999999999
 21
0.379489
 31
0.0
  0
LINE
  5
164
330
A
100
AcDbEntity
  8
1
  6
solid
 62
     7
100
AcDbLine
 10
3.537138999999999
 20
0.379489
 30
0.0
 11
3.537138999999999
 21
0.276292
 31
0.0
  0
LINE
  5
165
330
A
100
AcDbEntity
  8
1
  6
solid
 62
     7
100
AcDbLine
 10
3.537138999999999
 20
0.276292
 30
0.0
 11
3.599638999999999
 21
0.276292
 31
0.0
  0
LINE
  5
166
330
A
100
AcDbEntity
  8
1
  6
solid
 62
     7
100
AcDbLine
 10
3.599638999999999
 20
0.276292
 30
0.0
 11
3.599638999999999
 21
0.254489
 31
0.0
  0
LINE
  5
167
330
A
100
AcDbEntity
  8
1
  6
solid
 62
     7
100
AcDbLine
 10
3.512429
 20
0.254489
 30
0.0
 11
3.599638999999999
 21
0.254489
 31
0.0
  0
LINE
  5
168
330
A
100
AcDbEntity
  8
1
  6
solid
 62
     7
100
AcDbLine
 10
3.613448999999999
 20
0.379489
 30
0.0
 11
3.660094
 21
0.379489
 31
0.0
  0
SPLINE
  5
169
330
A
100
AcDbEntity
  8
1
  6
solid
 62
     7
100
AcDbSpline
210
0.0
220
0.0
230
1.0
 70
     8
 71
     2
 72
     6
 73
     3
 74
     0
 42
0.0000000001
 43
0.0000000001
 40
0.0
 40
0.0
 40
0.0
 40
1.0
 40
1.0
 40
1.0
 10
3.660094178208066
 20
0.3794893969452284
 30
0.0
 10
3.675948596812717
 20
0.3794893969452284
 30
0.0
 10
3.683885806115042
 20
0.3769247457824377
 30
0.0
  0
SPLINE
  5
16A
330
A
100
AcDbEntity
  8
1
  6
solid
 62
     7
100
AcDbSpline
210
0.0
220
0.0
230
1.0
 70
     8
 71
     2
 72
     8
 73
     5
 74
     0
 42
0.0000000001
 43
0.0000000001
 40
0.0
 40
0.0
 40
0.0
 40
1.0
 40
2.0
 40
3.0
 40
3.0
 40
3.0
 10
3.683885806115042
 20
0.3769247457824377
 30
0.0
 10
3.695201154952251
 20
0.3737945132242982
 30
0.0
 10
3.711115108440623
 20
0.3569480015963911
 30
0.0
 10
3.719553247975508
 20
0.3332307922940657
 30
0.0
 10
3.719553247975508
 20
0.3156996295033679
 30
0.0
  0
SPLINE
  5
16B
330
A
100
AcDbEntity
  8
1
  6
solid
 62
     7
100
AcDbSpline
210
0.0
220
0.0
230
1.0
 70
     8
 71
     2
 72
     6
 73
     3
 74
     0
 42
0.0000000001
 43
0.0000000001
 40
0.0
 40
0.0
 40
0.0
 40
1.0
 40
1.0
 40
1.0
 10
3.719553247975508
 20
0.3156996295033679
 30
0.0
 10
3.719553247975508
 20
0.3000833504336005
 30
0.0
 10
3.715505340998764
 20
0.288753117875461
 30
0.0
  0
SPLINE
  5
16C
330
A
100
AcDbEntity
  8
1
  6
solid
 62
     7
100
AcDbSpline
210
0.0
220
0.0
230
1.0
 70
     8
 71
     2
 72
     6
 73
     3
 74
     0
 42
0.0000000001
 43
0.0000000001
 40
0.0
 40
0.0
 40
0.0
 40
1.0
 40
1.0
 40
1.0
 10
3.715505340998764
 20
0.288753117875461
 30
0.0
 10
3.710891852626671
 20
0.275299629503368
 30
0.0
 10
3.702111387510392
 20
0.2667721876429028
 30
0.0
  0
SPLINE
  5
16D
330
A
100
AcDbEntity
  8
1
  6
solid
 62
     7
100
AcDbSpline
210
0.0
220
0.0
230
1.0
 70
     8
 71
     2
 72
     6
 73
     3
 74
     0
 42
0.0000000001
 43
0.0000000001
 40
0.0
 40
0.0
 40
0.0
 40
1.0
 40
1.0
 40
1.0
 10
3.702111387510392
 20
0.2667721876429028
 30
0.0
 10
3.695245806115043
 20
0.2605712574103447
 30
0.0
 10
3.683826271231321
 20
0.2567168388056936
 30
0.0
  0
SPLINE
  5
16E
330
A
100
AcDbEntity
  8
1
  6
solid
 62
     7
100
AcDbSpline
210
0.0
220
0.0
230
1.0
 70
     8
 71
     2
 72
     6
 73
     3
 74
     0
 42
0.0000000001
 43
0.0000000001
 40
0.0
 40
0.0
 40
0.0
 40
1.0
 40
1.0
 40
1.0
 10
3.683826271231321
 20
0.2567168388056936
 30
0.0
 10
3.675283945649927
 20
0.2544893969452284
 30
0.0
 10
3.661488131696438
 20
0.2544893969452284
 30
0.0
  0
LINE
  5
16F
330
A
100
AcDbEntity
  8
1
  6
solid
 62
     7
100
AcDbLine
 10
3.661487999999999
 20
0.254489
 30
0.0
 11
3.613448999999999
 21
0.254489
 31
0.0
  0
LINE
  5
170
330
A
100
AcDbEntity
  8
1
  6
solid
 62
     7
100
AcDbLine
 10
3.613448999999999
 20
0.379489
 30
0.0
 11
3.613448999999999
 21
0.254489
 31
0.0
  0
LINE
  5
171
330
A
100
AcDbEntity
  8
1
  6
solid
 62
     7
100
AcDbLine
 10
3.638158
 20
0.3576869999999999
 30
0.0
 11
3.638158
 21
0.276292
 31
0.0
  0
LINE
  5
172
330
A
100
AcDbEntity
  8
1
  6
solid
 62
     7
100
AcDbLine
 10
3.638158
 20
0.276292
 30
0.0
 11
3.657767999999999
 21
0.276292
 31
0.0
  0
SPLINE
  5
173
330
A
100
AcDbEntity
  8
1
  6
solid
 62
     7
100
AcDbSpline
210
0.0
220
0.0
230
1.0
 70
     8
 71
     2
 72
     6
 73
     3
 74
     0
 42
0.0000000001
 43
0.0000000001
 40
0.0
 40
0.0
 40
0.0
 40
1.0
 40
1.0
 40
1.0
 10
3.657767666580159
 20
0.2762917225266238
 30
0.0
 10
3.669112782859228
 20
0.2762917225266238
 30
0.0
 10
3.673875108440623
 20
0.2770656760149959
 30
0.0
  0
SPLINE
  5
174
330
A
100
AcDbEntity
  8
1
  6
solid
 62
     7
100
AcDbSpline
210
0.0
220
0.0
230
1.0
 70
     8
 71
     2
 72
     8
 73
     5
 74
     0
 42
0.0000000001
 43
0.0000000001
 40
0.0
 40
0.0
 40
0.0
 40
1.0
 40
2.0
 40
3.0
 40
3.0
 40
3.0
 10
3.673875108440623
 20
0.2770656760149959
 30
0.0
 10
3.680651387510391
 20
0.2785489318289494
 30
0.0
 10
3.689283015417367
 20
0.2857866062475539
 30
0.0
 10
3.694843945649927
 20
0.3026182341545308
 30
0.0
 10
3.694843945649927
 20
0.3164586992708098
 30
0.0
  0
SPLINE
  5
175
330
A
100
AcDbEntity
  8
1
  6
solid
 62
     7
100
AcDbSpline
210
0.0
220
0.0
230
1.0
 70
     8
 71
     2
 72
     8
 73
     5
 74
     0
 42
0.0000000001
 43
0.0000000001
 40
0.0
 40
0.0
 40
0.0
 40
1.0
 40
2.0
 40
3.0
 40
3.0
 40
3.0
 10
3.694843945649927
 20
0.3164586992708098
 30
0.0
 10
3.694843945649927
 20
0.3308149783405773
 30
0.0
 10
3.689283015417367
 20
0.3463121876429028
 30
0.0
 10
3.679376503789461
 20
0.3549289318289494
 30
0.0
 10
3.671960224719693
 20
0.3564121876429028
 30
0.0
  0
SPLINE
  5
176
330
A
100
AcDbEntity
  8
1
  6
solid
 62
     7
100
AcDbSpline
210
0.0
220
0.0
230
1.0
 70
     8
 71
     2
 72
     6
 73
     3
 74
     0
 42
0.0000000001
 43
0.0000000001
 40
0.0
 40
0.0
 40
0.0
 40
1.0
 40
1.0
 40
1.0
 10
3.671960224719693
 20
0.3564121876429028
 30
0.0
 10
3.666280224719693
 20
0.3576870713638331
 30
0.0
 10
3.650038829370856
 20
0.3576870713638331
 30
0.0
  0
LINE
  5
177
330
A
100
AcDbEntity
  8
1
  6
solid
 62
     7
100
AcDbLine
 10
3.638158
 20
0.3576869999999999
 30
0.0
 11
3.650039
 21
0.3576869999999999
 31
0.0
  0
LINE
  5
178
330
A
100
AcDbEntity
  8
1
  6
solid
 62
     7
100
AcDbLine
 10
3.733362999999999
 20
0.290827
 30
0.0
 11
3.758073
 21
0.293734
 31
0.0
  0
SPLINE
  5
179
330
A
100
AcDbEntity
  8
1
  6
solid
 62
     7
100
AcDbSpline
210
0.0
220
0.0
230
1.0
 70
     8
 71
     2
 72
     7
 73
     4
 74
     0
 42
0.0000000001
 43
0.0000000001
 40
0.0
 40
0.0
 40
0.0
 40
1.0
 40
2.0
 40
2.0
 40
2.0
 10
3.758072550301089
 20
0.2937335829917401
 30
0.0
 10
3.758757201463879
 20
0.2842140481080192
 30
0.0
 10
3.768306503789461
 20
0.2748382341545307
 30
0.0
 10
3.774596736347601
 20
0.2748382341545307
 30
0.0
  0
SPLINE
  5
17A
330
A
100
AcDbEntity
  8
1
  6
solid
 62
     7
100
AcDbSpline
210
0.0
220
0.0
230
1.0
 70
     8
 71
     2
 72
     7
 73
     4
 74
     0
 42
0.0000000001
 43
0.0000000001
 40
0.0
 40
0.0
 40
0.0
 40
1.0
 40
2.0
 40
2.0
 40
2.0
 10
3.774596736347601
 20
0.2748382341545307
 30
0.0
 10
3.781700457277833
 20
0.2748382341545307
 30
0.0
 10
3.791502782859228
 20
0.2844819550847633
 30
0.0
 10
3.791502782859228
 20
0.2931135829917401
 30
0.0
  0
SPLINE
  5
17B
330
A
100
AcDbEntity
  8
1
  6
solid
 62
     7
100
AcDbSpline
210
0.0
220
0.0
230
1.0
 70
     8
 71
     2
 72
     7
 73
     4
 74
     0
 42
0.0000000001
 43
0.0000000001
 40
0.0
 40
0.0
 40
0.0
 40
1.0
 40
2.0
 40
2.0
 40
2.0
 10
3.791502782859228
 20
0.2931135829917401
 30
0.0
 10
3.791502782859228
 20
0.3014326527591819
 30
0.0
 10
3.782811620068532
 20
0.3111754434568563
 30
0.0
 10
3.776228829370857
 20
0.3111754434568563
 30
0.0
  0
SPLINE
  5
17C
330
A
100
AcDbEntity
  8
1
  6
solid
 62
     7
100
AcDbSpline
210
0.0
220
0.0
230
1.0
 70
     8
 71
     2
 72
     6
 73
     3
 74
     0
 42
0.0000000001
 43
0.0000000001
 40
0.0
 40
0.0
 40
0.0
 40
1.0
 40
1.0
 40
1.0
 10
3.776228829370857
 20
0.3111754434568563
 30
0.0
 10
3.77203208518481
 20
0.3111754434568563
 30
0.0
 10
3.766793480533647
 20
0.3089977690382517
 30
0.0
  0
LINE
  5
17D
330
A
100
AcDbEntity
  8
1
  6
solid
 62
     7
100
AcDbLine
 10
3.766792999999999
 20
0.308998
 30
0.0
 11
3.768737999999999
 21
0.330071
 31
0.0
  0
SPLINE
  5
17E
330
A
100
AcDbEntity
  8
1
  6
solid
 62
     7
100
AcDbSpline
210
0.0
220
0.0
230
1.0
 70
     8
 71
     2
 72
     7
 73
     4
 74
     0
 42
0.0000000001
 43
0.0000000001
 40
0.0
 40
0.0
 40
0.0
 40
1.0
 40
2.0
 40
2.0
 40
2.0
 10
3.768738131696439
 20
0.3300707922940657
 30
0.0
 10
3.77707208518481
 20
0.3293912574103447
 30
0.0
 10
3.785688829370856
 20
0.3378293969452284
 30
0.0
 10
3.785688829370856
 20
0.3448289318289494
 30
0.0
  0
SPLINE
  5
17F
330
A
100
AcDbEntity
  8
1
  6
solid
 62
     7
100
AcDbSpline
210
0.0
220
0.0
230
1.0
 70
     8
 71
     2
 72
     7
 73
     4
 74
     0
 42
0.0000000001
 43
0.0000000001
 40
0.0
 40
0.0
 40
0.0
 40
1.0
 40
2.0
 40
2.0
 40
2.0
 10
3.785688829370856
 20
0.3448289318289494
 30
0.0
 10
3.785688829370856
 20
0.3506428853173215
 30
0.0
 10
3.779061387510391
 20
0.3576870713638331
 30
0.0
 10
3.774150224719695
 20
0.3576870713638331
 30
0.0
  0
SPLINE
  5
180
330
A
100
AcDbEntity
  8
1
  6
solid
 62
     7
100
AcDbSpline
210
0.0
220
0.0
230
1.0
 70
     8
 71
     2
 72
     7
 73
     4
 74
     0
 42
0.0000000001
 43
0.0000000001
 40
0.0
 40
0.0
 40
0.0
 40
1.0
 40
2.0
 40
2.0
 40
2.0
 10
3.774150224719695
 20
0.3576870713638331
 30
0.0
 10
3.768767899138298
 20
0.3576870713638331
 30
0.0
 10
3.761500457277833
 20
0.3493382341545308
 30
0.0
 10
3.760979527045276
 20
0.3416986992708098
 30
0.0
  0
LINE
  5
181
330
A
100
AcDbEntity
  8
1
  6
solid
 62
     7
100
AcDbLine
 10
3.76098
 20
0.341699
 30
0.0
 11
3.736269999999999
 21
0.345052
 31
0.0
  0
SPLINE
  5
182
330
A
100
AcDbEntity
  8
1
  6
solid
 62
     7
100
AcDbSpline
210
0.0
220
0.0
230
1.0
 70
     8
 71
     2
 72
     8
 73
     5
 74
     0
 42
0.0000000001
 43
0.0000000001
 40
0.0
 40
0.0
 40
0.0
 40
1.0
 40
2.0
 40
3.0
 40
3.0
 40
3.0
 10
3.736270224719694
 20
0.3450521876429029
 30
0.0
 10
3.738244643324345
 20
0.3568438155498796
 30
0.0
 10
3.747218596812717
 20
0.3711554434568564
 30
0.0
 10
3.763916271231321
 20
0.3794893969452284
 30
0.0
 10
3.773545108440623
 20
0.3794893969452284
 30
0.0
  0
SPLINE
  5
183
330
A
100
AcDbEntity
  8
1
  6
solid
 62
     7
100
AcDbSpline
210
0.0
220
0.0
230
1.0
 70
     8
 71
     2
 72
     6
 73
     3
 74
     0
 42
0.0000000001
 43
0.0000000001
 40
0.0
 40
0.0
 40
0.0
 40
1.0
 40
1.0
 40
1.0
 10
3.773545108440623
 20
0.3794893969452284
 30
0.0
 10
3.79089766658016
 20
0.3794893969452284
 30
0.0
 10
3.801751620068531
 20
0.3680549783405773
 30
0.0
  0
SPLINE
  5
184
330
A
100
AcDbEntity
  8
1
  6
solid
 62
     7
100
AcDbSpline
210
0.0
220
0.0
230
1.0
 70
     8
 71
     2
 72
     6
 73
     3
 74
     0
 42
0.0000000001
 43
0.0000000001
 40
0.0
 40
0.0
 40
0.0
 40
1.0
 40
1.0
 40
1.0
 10
3.801751620068531
 20
0.3680549783405773
 30
0.0
 10
3.810398131696438
 20
0.3584759085731354
 30
0.0
 10
3.810398131696438
 20
0.346833117875461
 30
0.0
  0
SPLINE
  5
185
330
A
100
AcDbEntity
  8
1
  6
solid
 62
     7
100
AcDbSpline
210
0.0
220
0.0
230
1.0
 70
     8
 71
     2
 72
     6
 73
     3
 74
     0
 42
0.0000000001
 43
0.0000000001
 40
0.0
 40
0.0
 40
0.0
 40
1.0
 40
1.0
 40
1.0
 10
3.810398131696438
 20
0.346833117875461
 30
0.0
 10
3.810398131696438
 20
0.3304577690382517
 30
0.0
 10
3.791770689835972
 20
0.3204917225266238
 30
0.0
  0
SPLINE
  5
186
330
A
100
AcDbEntity
  8
1
  6
solid
 62
     7
100
AcDbSpline
210
0.0
220
0.0
230
1.0
 70
     8
 71
     2
 72
     7
 73
     4
 74
     0
 42
0.0000000001
 43
0.0000000001
 40
0.0
 40
0.0
 40
0.0
 40
1.0
 40
2.0
 40
2.0
 40
2.0
 10
3.791770689835972
 20
0.3204917225266238
 30
0.0
 10
3.802525573556903
 20
0.3185173039219726
 30
0.0
 10
3.81621208518481
 20
0.3027373039219726
 30
0.0
 10
3.81621208518481
 20
0.2914666062475539
 30
0.0
  0
SPLINE
  5
187
330
A
100
AcDbEntity
  8
1
  6
solid
 62
     7
100
AcDbSpline
210
0.0
220
0.0
230
1.0
 70
     8
 71
     2
 72
     7
 73
     4
 74
     0
 42
0.0000000001
 43
0.0000000001
 40
0.0
 40
0.0
 40
0.0
 40
1.0
 40
2.0
 40
2.0
 40
2.0
 10
3.81621208518481
 20
0.2914666062475539
 30
0.0
 10
3.81621208518481
 20
0.2754038155498796
 30
0.0
 10
3.791979061928996
 20
0.2530359085731354
 30
0.0
 10
3.774254410766205
 20
0.2530359085731354
 30
0.0
  0
SPLINE
  5
188
330
A
100
AcDbEntity
  8
1
  6
solid
 62
     7
100
AcDbSpline
210
0.0
220
0.0
230
1.0
 70
     8
 71
     2
 72
     7
 73
     4
 74
     0
 42
0.0000000001
 43
0.0000000001
 40
0.0
 40
0.0
 40
0.0
 40
1.0
 40
2.0
 40
2.0
 40
2.0
 10
3.774254410766205
 20
0.2530359085731354
 30
0.0
 10
3.757154875882484
 20
0.2530359085731354
 30
0.0
 10
3.735039992161554
 20
0.2737419550847633
 30
0.0
 10
3.733363247975507
 20
0.290826606247554
 30
0.0
  0
LINE
  5
189
330
A
100
AcDbEntity
  8
1
  6
solid
 62
     7
100
AcDbLine
 10
3.879441
 20
0.254489
 30
0.0
 11
3.879441
 21
0.279199
 31
0.0
  0
LINE
  5
18A
330
A
100
AcDbEntity
  8
1
  6
solid
 62
     7
100
AcDbLine
 10
3.879441
 20
0.279199
 30
0.0
 11
3.830021999999999
 21
0.279199
 31
0.0
  0
LINE
  5
18B
330
A
100
AcDbEntity
  8
1
  6
solid
 62
     7
100
AcDbLine
 10
3.830021999999999
 20
0.279199
 30
0.0
 11
3.830021999999999
 21
0.298987
 31
0.0
  0
LINE
  5
18C
330
A
100
AcDbEntity
  8
1
  6
solid
 62
     7
100
AcDbLine
 10
3.830021999999999
 20
0.298987
 30
0.0
 11
3.882585999999999
 21
0.378036
 31
0.0
  0
LINE
  5
18D
330
A
100
AcDbEntity
  8
1
  6
solid
 62
     7
100
AcDbLine
 10
3.882585999999999
 20
0.378036
 30
0.0
 11
3.904149999999999
 21
0.378036
 31
0.0
  0
LINE
  5
18E
330
A
100
AcDbEntity
  8
1
  6
solid
 62
     7
100
AcDbLine
 10
3.904149999999999
 20
0.378036
 30
0.0
 11
3.904149999999999
 21
0.299548
 31
0.0
  0
LINE
  5
18F
330
A
100
AcDbEntity
  8
1
  6
solid
 62
     7
100
AcDbLine
 10
3.904149999999999
 20
0.299548
 30
0.0
 11
3.920137999999999
 21
0.299548
 31
0.0
  0
LINE
  5
190
330
A
100
AcDbEntity
  8
1
  6
solid
 62
     7
100
AcDbLine
 10
3.920137999999999
 20
0.299548
 30
0.0
 11
3.920137999999999
 21
0.279199
 31
0.0
  0
LINE
  5
191
330
A
100
AcDbEntity
  8
1
  6
solid
 62
     7
100
AcDbLine
 10
3.920137999999999
 20
0.279199
 30
0.0
 11
3.904149999999999
 21
0.279199
 31
0.0
  0
LINE
  5
192
330
A
100
AcDbEntity
  8
1
  6
solid
 62
     7
100
AcDbLine
 10
3.904149999999999
 20
0.279199
 30
0.0
 11
3.904149999999999
 21
0.254489
 31
0.0
  0
LINE
  5
193
330
A
100
AcDbEntity
  8
1
  6
solid
 62
     7
100
AcDbLine
 10
3.879441
 20
0.254489
 30
0.0
 11
3.904149999999999
 21
0.254489
 31
0.0
  0
LINE
  5
194
330
A
100
AcDbEntity
  8
1
  6
solid
 62
     7
100
AcDbLine
 10
3.879441
 20
0.299548
 30
0.0
 11
3.879441
 21
0.339372
 31
0.0
  0
LINE
  5
195
330
A
100
AcDbEntity
  8
1
  6
solid
 62
     7
100
AcDbLine
 10
3.879441
 20
0.339372
 30
0.0
 11
3.852285999999999
 21
0.299548
 31
0.0
  0
LINE
  5
196
330
A
100
AcDbEntity
  8
1
  6
solid
 62
     7
100
AcDbLine
 10
3.879441
 20
0.299548
 30
0.0
 11
3.852285999999999
 21
0.299548
 31
0.0
  0
LINE
  5
197
330
A
100
AcDbEntity
  8
1
  6
solid
 62
     7
100
AcDbLine
 10
3.933948
 20
0.29099
 30
0.0
 11
3.955751
 21
0.293734
 31
0.0
  0
SPLINE
  5
198
330
A
100
AcDbEntity
  8
1
  6
solid
 62
     7
100
AcDbSpline
210
0.0
220
0.0
230
1.0
 70
     8
 71
     2
 72
     7
 73
     4
 74
     0
 42
0.0000000001
 43
0.0000000001
 40
0.0
 40
0.0
 40
0.0
 40
1.0
 40
2.0
 40
2.0
 40
2.0
 10
3.955750689835972
 20
0.2937335829917401
 30
0.0
 10
3.956465108440624
 20
0.2850126527591819
 30
0.0
 10
3.967482782859228
 20
0.2748382341545307
 30
0.0
 10
3.974055806115043
 20
0.2748382341545307
 30
0.0
  0
SPLINE
  5
199
330
A
100
AcDbEntity
  8
1
  6
solid
 62
     7
100
AcDbSpline
210
0.0
220
0.0
230
1.0
 70
     8
 71
     2
 72
     7
 73
     4
 74
     0
 42
0.0000000001
 43
0.0000000001
 40
0.0
 40
0.0
 40
0.0
 40
1.0
 40
2.0
 40
2.0
 40
2.0
 10
3.974055806115043
 20
0.2748382341545307
 30
0.0
 10
3.982285573556903
 20
0.2748382341545307
 30
0.0
 10
3.993541387510391
 20
0.2844521876429029
 30
0.0
 10
3.993541387510391
 20
0.2945968388056935
 30
0.0
  0
SPLINE
  5
19A
330
A
100
AcDbEntity
  8
1
  6
solid
 62
     7
100
AcDbSpline
210
0.0
220
0.0
230
1.0
 70
     8
 71
     2
 72
     7
 73
     4
 74
     0
 42
0.0000000001
 43
0.0000000001
 40
0.0
 40
0.0
 40
0.0
 40
1.0
 40
2.0
 40
2.0
 40
2.0
 10
3.993541387510391
 20
0.2945968388056935
 30
0.0
 10
3.993541387510391
 20
0.304339629503368
 30
0.0
 10
3.983590224719694
 20
0.3140824202010424
 30
0.0
 10
3.975419992161554
 20
0.3140824202010424
 30
0.0
  0
SPLINE
  5
19B
330
A
100
AcDbEntity
  8
1
  6
solid
 62
     7
100
AcDbSpline
210
0.0
220
0.0
230
1.0
 70
     8
 71
     2
 72
     6
 73
     3
 74
     0
 42
0.0000000001
 43
0.0000000001
 40
0.0
 40
0.0
 40
0.0
 40
1.0
 40
1.0
 40
1.0
 10
3.975419992161554
 20
0.3140824202010424
 30
0.0
 10
3.965969759603415
 20
0.3140824202010424
 30
0.0
 10
3.957859061928996
 20
0.3053614899684842
 30
0.0
  0
LINE
  5
19C
330
A
100
AcDbEntity
  8
1
  6
solid
 62
     7
100
AcDbLine
 10
3.957858999999999
 20
0.305361
 30
0.0
 11
3.936855
 21
0.307619
 31
0.0
  0
LINE
  5
19D
330
A
100
AcDbEntity
  8
1
  6
solid
 62
     7
100
AcDbLine
 10
3.936855
 20
0.307619
 30
0.0
 11
3.951389999999999
 21
0.378036
 31
0.0
  0
LINE
  5
19E
330
A
100
AcDbEntity
  8
1
  6
solid
 62
     7
100
AcDbLine
 10
3.951389999999999
 20
0.378036
 30
0.0
 11
4.012437
 21
0.378036
 31
0.0
  0
LINE
  5
19F
330
A
100
AcDbEntity
  8
1
  6
solid
 62
     7
100
AcDbLine
 10
4.012437
 20
0.378036
 30
0.0
 11
4.012437
 21
0.353327
 31
0.0
  0
LINE
  5
1A0
330
A
100
AcDbEntity
  8
1
  6
solid
 62
     7
100
AcDbLine
 10
4.012437
 20
0.353327
 30
0.0
 11
3.970866
 21
0.353327
 31
0.0
  0
LINE
  5
1A1
330
A
100
AcDbEntity
  8
1
  6
solid
 62
     7
100
AcDbLine
 10
3.970866
 20
0.353327
 30
0.0
 11
3.966088999999999
 21
0.330577
 31
0.0
  0
SPLINE
  5
1A2
330
A
100
AcDbEntity
  8
1
  6
solid
 62
     7
100
AcDbSpline
210
0.0
220
0.0
230
1.0
 70
     8
 71
     2
 72
     6
 73
     3
 74
     0
 42
0.0000000001
 43
0.0000000001
 40
0.0
 40
0.0
 40
0.0
 40
1.0
 40
1.0
 40
1.0
 10
3.966088829370857
 20
0.3305768388056936
 30
0.0
 10
3.973609294487136
 20
0.3358847457824378
 30
0.0
 10
3.981353015417368
 20
0.3358847457824378
 30
0.0
  0
SPLINE
  5
1A3
330
A
100
AcDbEntity
  8
1
  6
solid
 62
     7
100
AcDbSpline
210
0.0
220
0.0
230
1.0
 70
     8
 71
     2
 72
     7
 73
     4
 74
     0
 42
0.0000000001
 43
0.0000000001
 40
0.0
 40
0.0
 40
0.0
 40
1.0
 40
2.0
 40
2.0
 40
2.0
 10
3.981353015417368
 20
0.3358847457824378
 30
0.0
 10
3.996850224719694
 20
0.3358847457824378
 30
0.0
 10
4.018250689835972
 20
0.3131945132242982
 30
0.0
 10
4.018250689835972
 20
0.2954698620615075
 30
0.0
  0
SPLINE
  5
1A4
330
A
100
AcDbEntity
  8
1
  6
solid
 62
     7
100
AcDbSpline
210
0.0
220
0.0
230
1.0
 70
     8
 71
     2
 72
     6
 73
     3
 74
     0
 42
0.0000000001
 43
0.0000000001
 40
0.0
 40
0.0
 40
0.0
 40
1.0
 40
1.0
 40
1.0
 10
4.018250689835972
 20
0.2954698620615075
 30
0.0
 10
4.018250689835972
 20
0.2806819550847633
 30
0.0
 10
4.008865108440624
 20
0.2685084667126703
 30
0.0
  0
SPLINE
  5
1A5
330
A
100
AcDbEntity
  8
1
  6
solid
 62
     7
100
AcDbSpline
210
0.0
220
0.0
230
1.0
 70
     8
 71
     2
 72
     6
 73
     3
 74
     0
 42
0.0000000001
 43
0.0000000001
 40
0.0
 40
0.0
 40
0.0
 40
1.0
 40
1.0
 40
1.0
 10
4.008865108440624
 20
0.2685084667126703
 30
0.0
 10
3.996835340998763
 20
0.2530359085731354
 30
0.0
 10
3.975092550301089
 20
0.2530359085731354
 30
0.0
  0
SPLINE
  5
1A6
330
A
100
AcDbEntity
  8
1
  6
solid
 62
     7
100
AcDbSpline
210
0.0
220
0.0
230
1.0
 70
     8
 71
     2
 72
     7
 73
     4
 74
     0
 42
0.0000000001
 43
0.0000000001
 40
0.0
 40
0.0
 40
0.0
 40
1.0
 40
2.0
 40
2.0
 40
2.0
 10
3.975092550301089
 20
0.2530359085731354
 30
0.0
 10
3.957710224719693
 20
0.2530359085731354
 30
0.0
 10
3.935848364254577
 20
0.2735633504336005
 30
0.0
 10
3.933948364254577
 20
0.2909903271777866
 30
0.0
  0
LINE
  5
1A7
330
A
100
AcDbEntity
  8
1
  6
solid
 62
     7
100
AcDbLine
 10
-0.6206550000000001
 20
0.254489
 30
0.0
 11
-0.6206550000000001
 21
0.379489
 31
0.0
  0
LINE
  5
1A8
330
A
100
AcDbEntity
  8
1
  6
solid
 62
     7
100
AcDbLine
 10
-0.6206550000000001
 20
0.379489
 30
0.0
 11
-0.595945
 21
0.379489
 31
0.0
  0
LINE
  5
1A9
330
A
100
AcDbEntity
  8
1
  6
solid
 62
     7
100
AcDbLine
 10
-0.595945
 20
0.379489
 30
0.0
 11
-0.595945
 21
0.276292
 31
0.0
  0
LINE
  5
1AA
330
A
100
AcDbEntity
  8
1
  6
solid
 62
     7
100
AcDbLine
 10
-0.595945
 20
0.276292
 30
0.0
 11
-0.533445
 21
0.276292
 31
0.0
  0
LINE
  5
1AB
330
A
100
AcDbEntity
  8
1
  6
solid
 62
     7
100
AcDbLine
 10
-0.533445
 20
0.276292
 30
0.0
 11
-0.533445
 21
0.254489
 31
0.0
  0
LINE
  5
1AC
330
A
100
AcDbEntity
  8
1
  6
solid
 62
     7
100
AcDbLine
 10
-0.6206550000000001
 20
0.254489
 30
0.0
 11
-0.533445
 21
0.254489
 31
0.0
  0
LINE
  5
1AD
330
A
100
AcDbEntity
  8
1
  6
solid
 62
     7
100
AcDbLine
 10
-0.5196350000000001
 20
0.379489
 30
0.0
 11
-0.47299
 21
0.379489
 31
0.0
  0
SPLINE
  5
1AE
330
A
100
AcDbEntity
  8
1
  6
solid
 62
     7
100
AcDbSpline
210
0.0
220
0.0
230
1.0
 70
     8
 71
     2
 72
     6
 73
     3
 74
     0
 42
0.0000000001
 43
0.0000000001
 40
0.0
 40
0.0
 40
0.0
 40
1.0
 40
1.0
 40
1.0
 10
-0.4729898634552117
 20
0.3794893969452284
 30
0.0
 10
-0.4571354448505606
 20
0.3794893969452284
 30
0.0
 10
-0.449198235548235
 20
0.3769247457824377
 30
0.0
  0
SPLINE
  5
1AF
330
A
100
AcDbEntity
  8
1
  6
solid
 62
     7
100
AcDbSpline
210
0.0
220
0.0
230
1.0
 70
     8
 71
     2
 72
     8
 73
     5
 74
     0
 42
0.0000000001
 43
0.0000000001
 40
0.0
 40
0.0
 40
0.0
 40
1.0
 40
2.0
 40
3.0
 40
3.0
 40
3.0
 10
-0.449198235548235
 20
0.3769247457824377
 30
0.0
 10
-0.4378828867110256
 20
0.3737945132242982
 30
0.0
 10
-0.4219689332226535
 20
0.3569480015963911
 30
0.0
 10
-0.4135307936877699
 20
0.3332307922940657
 30
0.0
 10
-0.4135307936877699
 20
0.3156996295033679
 30
0.0
  0
SPLINE
  5
1B0
330
A
100
AcDbEntity
  8
1
  6
solid
 62
     7
100
AcDbSpline
210
0.0
220
0.0
230
1.0
 70
     8
 71
     2
 72
     6
 73
     3
 74
     0
 42
0.0000000001
 43
0.0000000001
 40
0.0
 40
0.0
 40
0.0
 40
1.0
 40
1.0
 40
1.0
 10
-0.4135307936877699
 20
0.3156996295033679
 30
0.0
 10
-0.4135307936877699
 20
0.3000833504336005
 30
0.0
 10
-0.4175787006645141
 20
0.288753117875461
 30
0.0
  0
SPLINE
  5
1B1
330
A
100
AcDbEntity
  8
1
  6
solid
 62
     7
100
AcDbSpline
210
0.0
220
0.0
230
1.0
 70
     8
 71
     2
 72
     6
 73
     3
 74
     0
 42
0.0000000001
 43
0.0000000001
 40
0.0
 40
0.0
 40
0.0
 40
1.0
 40
1.0
 40
1.0
 10
-0.4175787006645141
 20
0.288753117875461
 30
0.0
 10
-0.4221921890366071
 20
0.275299629503368
 30
0.0
 10
-0.4309726541528862
 20
0.2667721876429028
 30
0.0
  0
SPLINE
  5
1B2
330
A
100
AcDbEntity
  8
1
  6
solid
 62
     7
100
AcDbSpline
210
0.0
220
0.0
230
1.0
 70
     8
 71
     2
 72
     6
 73
     3
 74
     0
 42
0.0000000001
 43
0.0000000001
 40
0.0
 40
0.0
 40
0.0
 40
1.0
 40
1.0
 40
1.0
 10
-0.4309726541528862
 20
0.2667721876429028
 30
0.0
 10
-0.437838235548235
 20
0.2605712574103447
 30
0.0
 10
-0.4492577704319558
 20
0.2567168388056936
 30
0.0
  0
SPLINE
  5
1B3
330
A
100
AcDbEntity
  8
1
  6
solid
 62
     7
100
AcDbSpline
210
0.0
220
0.0
230
1.0
 70
     8
 71
     2
 72
     6
 73
     3
 74
     0
 42
0.0000000001
 43
0.0000000001
 40
0.0
 40
0.0
 40
0.0
 40
1.0
 40
1.0
 40
1.0
 10
-0.4492577704319558
 20
0.2567168388056936
 30
0.0
 10
-0.4578000960133511
 20
0.2544893969452284
 30
0.0
 10
-0.4715959099668395
 20
0.2544893969452284
 30
0.0
  0
LINE
  5
1B4
330
A
100
AcDbEntity
  8
1
  6
solid
 62
     7
100
AcDbLine
 10
-0.471596
 20
0.254489
 30
0.0
 11
-0.5196350000000001
 21
0.254489
 31
0.0
  0
LINE
  5
1B5
330
A
100
AcDbEntity
  8
1
  6
solid
 62
     7
100
AcDbLine
 10
-0.5196350000000001
 20
0.379489
 30
0.0
 11
-0.5196350000000001
 21
0.254489
 31
0.0
  0
LINE
  5
1B6
330
A
100
AcDbEntity
  8
1
  6
solid
 62
     7
100
AcDbLine
 10
-0.4949260000000001
 20
0.3576869999999999
 30
0.0
 11
-0.4949260000000001
 21
0.276292
 31
0.0
  0
LINE
  5
1B7
330
A
100
AcDbEntity
  8
1
  6
solid
 62
     7
100
AcDbLine
 10
-0.4949260000000001
 20
0.276292
 30
0.0
 11
-0.475316
 21
0.276292
 31
0.0
  0
SPLINE
  5
1B8
330
A
100
AcDbEntity
  8
1
  6
solid
 62
     7
100
AcDbSpline
210
0.0
220
0.0
230
1.0
 70
     8
 71
     2
 72
     6
 73
     3
 74
     0
 42
0.0000000001
 43
0.0000000001
 40
0.0
 40
0.0
 40
0.0
 40
1.0
 40
1.0
 40
1.0
 10
-0.4753163750831186
 20
0.2762917225266238
 30
0.0
 10
-0.4639712588040489
 20
0.2762917225266238
 30
0.0
 10
-0.4592089332226535
 20
0.2770656760149959
 30
0.0
  0
SPLINE
  5
1B9
330
A
100
AcDbEntity
  8
1
  6
solid
 62
     7
100
AcDbSpline
210
0.0
220
0.0
230
1.0
 70
     8
 71
     2
 72
     8
 73
     5
 74
     0
 42
0.0000000001
 43
0.0000000001
 40
0.0
 40
0.0
 40
0.0
 40
1.0
 40
2.0
 40
3.0
 40
3.0
 40
3.0
 10
-0.4592089332226535
 20
0.2770656760149959
 30
0.0
 10
-0.452432654152886
 20
0.2785489318289494
 30
0.0
 10
-0.4438010262459093
 20
0.2857866062475539
 30
0.0
 10
-0.4382400960133512
 20
0.3026182341545308
 30
0.0
 10
-0.4382400960133512
 20
0.3164586992708098
 30
0.0
  0
SPLINE
  5
1BA
330
A
100
AcDbEntity
  8
1
  6
solid
 62
     7
100
AcDbSpline
210
0.0
220
0.0
230
1.0
 70
     8
 71
     2
 72
     8
 73
     5
 74
     0
 42
0.0000000001
 43
0.0000000001
 40
0.0
 40
0.0
 40
0.0
 40
1.0
 40
2.0
 40
3.0
 40
3.0
 40
3.0
 10
-0.4382400960133512
 20
0.3164586992708098
 30
0.0
 10
-0.4382400960133512
 20
0.3308149783405773
 30
0.0
 10
-0.4438010262459093
 20
0.3463121876429028
 30
0.0
 10
-0.4537075378738164
 20
0.3549289318289494
 30
0.0
 10
-0.4611238169435837
 20
0.3564121876429028
 30
0.0
  0
SPLINE
  5
1BB
330
A
100
AcDbEntity
  8
1
  6
solid
 62
     7
100
AcDbSpline
210
0.0
220
0.0
230
1.0
 70
     8
 71
     2
 72
     6
 73
     3
 74
     0
 42
0.0000000001
 43
0.0000000001
 40
0.0
 40
0.0
 40
0.0
 40
1.0
 40
1.0
 40
1.0
 10
-0.4611238169435837
 20
0.3564121876429028
 30
0.0
 10
-0.4668038169435838
 20
0.3576870713638331
 30
0.0
 10
-0.4830452122924209
 20
0.3576870713638331
 30
0.0
  0
LINE
  5
1BC
330
A
100
AcDbEntity
  8
1
  6
solid
 62
     7
100
AcDbLine
 10
-0.4949260000000001
 20
0.3576869999999999
 30
0.0
 11
-0.483045
 21
0.3576869999999999
 31
0.0
  0
LINE
  5
1BD
330
A
100
AcDbEntity
  8
1
  6
solid
 62
     7
100
AcDbLine
 10
-0.399721
 20
0.290827
 30
0.0
 11
-0.375011
 21
0.293734
 31
0.0
  0
SPLINE
  5
1BE
330
A
100
AcDbEntity
  8
1
  6
solid
 62
     7
100
AcDbSpline
210
0.0
220
0.0
230
1.0
 70
     8
 71
     2
 72
     7
 73
     4
 74
     0
 42
0.0000000001
 43
0.0000000001
 40
0.0
 40
0.0
 40
0.0
 40
1.0
 40
2.0
 40
2.0
 40
2.0
 10
-0.3750114913621884
 20
0.2937335829917401
 30
0.0
 10
-0.3743268401993977
 20
0.2842140481080192
 30
0.0
 10
-0.3647775378738163
 20
0.2748382341545307
 30
0.0
 10
-0.3584873053156767
 20
0.2748382341545307
 30
0.0
  0
SPLINE
  5
1BF
330
A
100
AcDbEntity
  8
1
  6
solid
 62
     7
100
AcDbSpline
210
0.0
220
0.0
230
1.0
 70
     8
 71
     2
 72
     7
 73
     4
 74
     0
 42
0.0000000001
 43
0.0000000001
 40
0.0
 40
0.0
 40
0.0
 40
1.0
 40
2.0
 40
2.0
 40
2.0
 10
-0.3584873053156767
 20
0.2748382341545307
 30
0.0
 10
-0.3513835843854442
 20
0.2748382341545307
 30
0.0
 10
-0.3415812588040488
 20
0.2844819550847633
 30
0.0
 10
-0.3415812588040488
 20
0.2931135829917401
 30
0.0
  0
SPLINE
  5
1C0
330
A
100
AcDbEntity
  8
1
  6
solid
 62
     7
100
AcDbSpline
210
0.0
220
0.0
230
1.0
 70
     8
 71
     2
 72
     7
 73
     4
 74
     0
 42
0.0000000001
 43
0.0000000001
 40
0.0
 40
0.0
 40
0.0
 40
1.0
 40
2.0
 40
2.0
 40
2.0
 10
-0.3415812588040488
 20
0.2931135829917401
 30
0.0
 10
-0.3415812588040488
 20
0.3014326527591819
 30
0.0
 10
-0.3502724215947465
 20
0.3111754434568563
 30
0.0
 10
-0.3568552122924209
 20
0.3111754434568563
 30
0.0
  0
SPLINE
  5
1C1
330
A
100
AcDbEntity
  8
1
  6
solid
 62
     7
100
AcDbSpline
210
0.0
220
0.0
230
1.0
 70
     8
 71
     2
 72
     6
 73
     3
 74
     0
 42
0.0000000001
 43
0.0000000001
 40
0.0
 40
0.0
 40
0.0
 40
1.0
 40
1.0
 40
1.0
 10
-0.3568552122924209
 20
0.3111754434568563
 30
0.0
 10
-0.3610519564784674
 20
0.3111754434568563
 30
0.0
 10
-0.3662905611296302
 20
0.3089977690382517
 30
0.0
  0
LINE
  5
1C2
330
A
100
AcDbEntity
  8
1
  6
solid
 62
     7
100
AcDbLine
 10
-0.366291
 20
0.308998
 30
0.0
 11
-0.364346
 21
0.330071
 31
0.0
  0
SPLINE
  5
1C3
330
A
100
AcDbEntity
  8
1
  6
solid
 62
     7
100
AcDbSpline
210
0.0
220
0.0
230
1.0
 70
     8
 71
     2
 72
     7
 73
     4
 74
     0
 42
0.0000000001
 43
0.0000000001
 40
0.0
 40
0.0
 40
0.0
 40
1.0
 40
2.0
 40
2.0
 40
2.0
 10
-0.3643459099668395
 20
0.3300707922940657
 30
0.0
 10
-0.3560119564784675
 20
0.3293912574103447
 30
0.0
 10
-0.3473952122924209
 20
0.3378293969452284
 30
0.0
 10
-0.3473952122924209
 20
0.3448289318289494
 30
0.0
  0
SPLINE
  5
1C4
330
A
100
AcDbEntity
  8
1
  6
solid
 62
     7
100
AcDbSpline
210
0.0
220
0.0
230
1.0
 70
     8
 71
     2
 72
     7
 73
     4
 74
     0
 42
0.0000000001
 43
0.0000000001
 40
0.0
 40
0.0
 40
0.0
 40
1.0
 40
2.0
 40
2.0
 40
2.0
 10
-0.3473952122924209
 20
0.3448289318289494
 30
0.0
 10
-0.3473952122924209
 20
0.3506428853173215
 30
0.0
 10
-0.354022654152886
 20
0.3576870713638331
 30
0.0
 10
-0.3589338169435837
 20
0.3576870713638331
 30
0.0
  0
SPLINE
  5
1C5
330
A
100
AcDbEntity
  8
1
  6
solid
 62
     7
100
AcDbSpline
210
0.0
220
0.0
230
1.0
 70
     8
 71
     2
 72
     7
 73
     4
 74
     0
 42
0.0000000001
 43
0.0000000001
 40
0.0
 40
0.0
 40
0.0
 40
1.0
 40
2.0
 40
2.0
 40
2.0
 10
-0.3589338169435837
 20
0.3576870713638331
 30
0.0
 10
-0.3643161425249791
 20
0.3576870713638331
 30
0.0
 10
-0.3715835843854442
 20
0.3493382341545308
 30
0.0
 10
-0.3721045146180023
 20
0.3416986992708098
 30
0.0
  0
LINE
  5
1C6
330
A
100
AcDbEntity
  8
1
  6
solid
 62
     7
100
AcDbLine
 10
-0.372105
 20
0.341699
 30
0.0
 11
-0.396814
 21
0.345052
 31
0.0
  0
SPLINE
  5
1C7
330
A
100
AcDbEntity
  8
1
  6
solid
 62
     7
100
AcDbSpline
210
0.0
220
0.0
230
1.0
 70
     8
 71
     2
 72
     8
 73
     5
 74
     0
 42
0.0000000001
 43
0.0000000001
 40
0.0
 40
0.0
 40
0.0
 40
1.0
 40
2.0
 40
3.0
 40
3.0
 40
3.0
 10
-0.3968138169435837
 20
0.3450521876429029
 30
0.0
 10
-0.3948393983389326
 20
0.3568438155498796
 30
0.0
 10
-0.3858654448505605
 20
0.3711554434568564
 30
0.0
 10
-0.3691677704319558
 20
0.3794893969452284
 30
0.0
 10
-0.3595389332226535
 20
0.3794893969452284
 30
0.0
  0
SPLINE
  5
1C8
330
A
100
AcDbEntity
  8
1
  6
solid
 62
     7
100
AcDbSpline
210
0.0
220
0.0
230
1.0
 70
     8
 71
     2
 72
     6
 73
     3
 74
     0
 42
0.0000000001
 43
0.0000000001
 40
0.0
 40
0.0
 40
0.0
 40
1.0
 40
1.0
 40
1.0
 10
-0.3595389332226535
 20
0.3794893969452284
 30
0.0
 10
-0.3421863750831186
 20
0.3794893969452284
 30
0.0
 10
-0.3313324215947465
 20
0.3680549783405773
 30
0.0
  0
SPLINE
  5
1C9
330
A
100
AcDbEntity
  8
1
  6
solid
 62
     7
100
AcDbSpline
210
0.0
220
0.0
230
1.0
 70
     8
 71
     2
 72
     6
 73
     3
 74
     0
 42
0.0000000001
 43
0.0000000001
 40
0.0
 40
0.0
 40
0.0
 40
1.0
 40
1.0
 40
1.0
 10
-0.3313324215947465
 20
0.3680549783405773
 30
0.0
 10
-0.3226859099668396
 20
0.3584759085731354
 30
0.0
 10
-0.3226859099668396
 20
0.346833117875461
 30
0.0
  0
SPLINE
  5
1CA
330
A
100
AcDbEntity
  8
1
  6
solid
 62
     7
100
AcDbSpline
210
0.0
220
0.0
230
1.0
 70
     8
 71
     2
 72
     6
 73
     3
 74
     0
 42
0.0000000001
 43
0.0000000001
 40
0.0
 40
0.0
 40
0.0
 40
1.0
 40
1.0
 40
1.0
 10
-0.3226859099668396
 20
0.346833117875461
 30
0.0
 10
-0.3226859099668396
 20
0.3304577690382517
 30
0.0
 10
-0.3413133518273047
 20
0.3204917225266238
 30
0.0
  0
SPLINE
  5
1CB
330
A
100
AcDbEntity
  8
1
  6
solid
 62
     7
100
AcDbSpline
210
0.0
220
0.0
230
1.0
 70
     8
 71
     2
 72
     7
 73
     4
 74
     0
 42
0.0000000001
 43
0.0000000001
 40
0.0
 40
0.0
 40
0.0
 40
1.0
 40
2.0
 40
2.0
 40
2.0
 10
-0.3413133518273047
 20
0.3204917225266238
 30
0.0
 10
-0.3305584681063744
 20
0.3185173039219726
 30
0.0
 10
-0.3168719564784674
 20
0.3027373039219726
 30
0.0
 10
-0.3168719564784674
 20
0.2914666062475539
 30
0.0
  0
SPLINE
  5
1CC
330
A
100
AcDbEntity
  8
1
  6
solid
 62
     7
100
AcDbSpline
210
0.0
220
0.0
230
1.0
 70
     8
 71
     2
 72
     7
 73
     4
 74
     0
 42
0.0000000001
 43
0.0000000001
 40
0.0
 40
0.0
 40
0.0
 40
1.0
 40
2.0
 40
2.0
 40
2.0
 10
-0.3168719564784674
 20
0.2914666062475539
 30
0.0
 10
-0.3168719564784674
 20
0.2754038155498796
 30
0.0
 10
-0.3411049797342814
 20
0.2530359085731354
 30
0.0
 10
-0.3588296308970721
 20
0.2530359085731354
 30
0.0
  0
SPLINE
  5
1CD
330
A
100
AcDbEntity
  8
1
  6
solid
 62
     7
100
AcDbSpline
210
0.0
220
0.0
230
1.0
 70
     8
 71
     2
 72
     7
 73
     4
 74
     0
 42
0.0000000001
 43
0.0000000001
 40
0.0
 40
0.0
 40
0.0
 40
1.0
 40
2.0
 40
2.0
 40
2.0
 10
-0.3588296308970721
 20
0.2530359085731354
 30
0.0
 10
-0.375929165780793
 20
0.2530359085731354
 30
0.0
 10
-0.3980440495017232
 20
0.2737419550847633
 30
0.0
 10
-0.3997207936877698
 20
0.290826606247554
 30
0.0
  0
LINE
  5
1CE
330
A
100
AcDbEntity
  8
1
  6
solid
 62
     7
100
AcDbLine
 10
-0.253643
 20
0.254489
 30
0.0
 11
-0.253643
 21
0.279199
 31
0.0
  0
LINE
  5
1CF
330
A
100
AcDbEntity
  8
1
  6
solid
 62
     7
100
AcDbLine
 10
-0.253643
 20
0.279199
 30
0.0
 11
-0.303062
 21
0.279199
 31
0.0
  0
LINE
  5
1D0
330
A
100
AcDbEntity
  8
1
  6
solid
 62
     7
100
AcDbLine
 10
-0.303062
 20
0.279199
 30
0.0
 11
-0.303062
 21
0.298987
 31
0.0
  0
LINE
  5
1D1
330
A
100
AcDbEntity
  8
1
  6
solid
 62
     7
100
AcDbLine
 10
-0.303062
 20
0.298987
 30
0.0
 11
-0.250498
 21
0.378036
 31
0.0
  0
LINE
  5
1D2
330
A
100
AcDbEntity
  8
1
  6
solid
 62
     7
100
AcDbLine
 10
-0.250498
 20
0.378036
 30
0.0
 11
-0.228934
 21
0.378036
 31
0.0
  0
LINE
  5
1D3
330
A
100
AcDbEntity
  8
1
  6
solid
 62
     7
100
AcDbLine
 10
-0.228934
 20
0.378036
 30
0.0
 11
-0.228934
 21
0.299548
 31
0.0
  0
LINE
  5
1D4
330
A
100
AcDbEntity
  8
1
  6
solid
 62
     7
100
AcDbLine
 10
-0.228934
 20
0.299548
 30
0.0
 11
-0.212946
 21
0.299548
 31
0.0
  0
LINE
  5
1D5
330
A
100
AcDbEntity
  8
1
  6
solid
 62
     7
100
AcDbLine
 10
-0.212946
 20
0.299548
 30
0.0
 11
-0.212946
 21
0.279199
 31
0.0
  0
LINE
  5
1D6
330
A
100
AcDbEntity
  8
1
  6
solid
 62
     7
100
AcDbLine
 10
-0.212946
 20
0.279199
 30
0.0
 11
-0.228934
 21
0.279199
 31
0.0
  0
LINE
  5
1D7
330
A
100
AcDbEntity
  8
1
  6
solid
 62
     7
100
AcDbLine
 10
-0.228934
 20
0.279199
 30
0.0
 11
-0.228934
 21
0.254489
 31
0.0
  0
LINE
  5
1D8
330
A
100
AcDbEntity
  8
1
  6
solid
 62
     7
100
AcDbLine
 10
-0.253643
 20
0.254489
 30
0.0
 11
-0.228934
 21
0.254489
 31
0.0
  0
LINE
  5
1D9
330
A
100
AcDbEntity
  8
1
  6
solid
 62
     7
100
AcDbLine
 10
-0.253643
 20
0.299548
 30
0.0
 11
-0.253643
 21
0.339372
 31
0.0
  0
LINE
  5
1DA
330
A
100
AcDbEntity
  8
1
  6
solid
 62
     7
100
AcDbLine
 10
-0.253643
 20
0.339372
 30
0.0
 11
-0.280798
 21
0.299548
 31
0.0
  0
LINE
  5
1DB
330
A
100
AcDbEntity
  8
1
  6
solid
 62
     7
100
AcDbLine
 10
-0.253643
 20
0.299548
 30
0.0
 11
-0.280798
 21
0.299548
 31
0.0
  0
LINE
  5
1DC
330
A
100
AcDbEntity
  8
1
  6
solid
 62
     7
100
AcDbLine
 10
-0.199136
 20
0.29099
 30
0.0
 11
-0.177333
 21
0.293734
 31
0.0
  0
SPLINE
  5
1DD
330
A
100
AcDbEntity
  8
1
  6
solid
 62
     7
100
AcDbSpline
210
0.0
220
0.0
230
1.0
 70
     8
 71
     2
 72
     7
 73
     4
 74
     0
 42
0.0000000001
 43
0.0000000001
 40
0.0
 40
0.0
 40
0.0
 40
1.0
 40
2.0
 40
2.0
 40
2.0
 10
-0.1773333518273047
 20
0.2937335829917401
 30
0.0
 10
-0.1766189332226535
 20
0.2850126527591819
 30
0.0
 10
-0.1656012588040489
 20
0.2748382341545307
 30
0.0
 10
-0.1590282355482349
 20
0.2748382341545307
 30
0.0
  0
SPLINE
  5
1DE
330
A
100
AcDbEntity
  8
1
  6
solid
 62
     7
100
AcDbSpline
210
0.0
220
0.0
230
1.0
 70
     8
 71
     2
 72
     7
 73
     4
 74
     0
 42
0.0000000001
 43
0.0000000001
 40
0.0
 40
0.0
 40
0.0
 40
1.0
 40
2.0
 40
2.0
 40
2.0
 10
-0.1590282355482349
 20
0.2748382341545307
 30
0.0
 10
-0.1507984681063745
 20
0.2748382341545307
 30
0.0
 10
-0.1395426541528861
 20
0.2844521876429029
 30
0.0
 10
-0.1395426541528861
 20
0.2945968388056935
 30
0.0
  0
SPLINE
  5
1DF
330
A
100
AcDbEntity
  8
1
  6
solid
 62
     7
100
AcDbSpline
210
0.0
220
0.0
230
1.0
 70
     8
 71
     2
 72
     7
 73
     4
 74
     0
 42
0.0000000001
 43
0.0000000001
 40
0.0
 40
0.0
 40
0.0
 40
1.0
 40
2.0
 40
2.0
 40
2.0
 10
-0.1395426541528861
 20
0.2945968388056935
 30
0.0
 10
-0.1395426541528861
 20
0.304339629503368
 30
0.0
 10
-0.1494938169435838
 20
0.3140824202010424
 30
0.0
 10
-0.1576640495017233
 20
0.3140824202010424
 30
0.0
  0
SPLINE
  5
1E0
330
A
100
AcDbEntity
  8
1
  6
solid
 62
     7
100
AcDbSpline
210
0.0
220
0.0
230
1.0
 70
     8
 71
     2
 72
     6
 73
     3
 74
     0
 42
0.0000000001
 43
0.0000000001
 40
0.0
 40
0.0
 40
0.0
 40
1.0
 40
1.0
 40
1.0
 10
-0.1576640495017233
 20
0.3140824202010424
 30
0.0
 10
-0.1671142820598628
 20
0.3140824202010424
 30
0.0
 10
-0.1752249797342814
 20
0.3053614899684842
 30
0.0
  0
LINE
  5
1E1
330
A
100
AcDbEntity
  8
1
  6
solid
 62
     7
100
AcDbLine
 10
-0.175225
 20
0.305361
 30
0.0
 11
-0.196229
 21
0.307619
 31
0.0
  0
LINE
  5
1E2
330
A
100
AcDbEntity
  8
1
  6
solid
 62
     7
100
AcDbLine
 10
-0.196229
 20
0.307619
 30
0.0
 11
-0.181694
 21
0.378036
 31
0.0
  0
LINE
  5
1E3
330
A
100
AcDbEntity
  8
1
  6
solid
 62
     7
100
AcDbLine
 10
-0.181694
 20
0.378036
 30
0.0
 11
-0.120647
 21
0.378036
 31
0.0
  0
LINE
  5
1E4
330
A
100
AcDbEntity
  8
1
  6
solid
 62
     7
100
AcDbLine
 10
-0.120647
 20
0.378036
 30
0.0
 11
-0.120647
 21
0.353327
 31
0.0
  0
LINE
  5
1E5
330
A
100
AcDbEntity
  8
1
  6
solid
 62
     7
100
AcDbLine
 10
-0.120647
 20
0.353327
 30
0.0
 11
-0.162218
 21
0.353327
 31
0.0
  0
LINE
  5
1E6
330
A
100
AcDbEntity
  8
1
  6
solid
 62
     7
100
AcDbLine
 10
-0.162218
 20
0.353327
 30
0.0
 11
-0.166995
 21
0.330577
 31
0.0
  0
SPLINE
  5
1E7
330
A
100
AcDbEntity
  8
1
  6
solid
 62
     7
100
AcDbSpline
210
0.0
220
0.0
230
1.0
 70
     8
 71
     2
 72
     6
 73
     3
 74
     0
 42
0.0000000001
 43
0.0000000001
 40
0.0
 40
0.0
 40
0.0
 40
1.0
 40
1.0
 40
1.0
 10
-0.166995212292421
 20
0.3305768388056936
 30
0.0
 10
-0.1594747471761419
 20
0.3358847457824378
 30
0.0
 10
-0.1517310262459093
 20
0.3358847457824378
 30
0.0
  0
SPLINE
  5
1E8
330
A
100
AcDbEntity
  8
1
  6
solid
 62
     7
100
AcDbSpline
210
0.0
220
0.0
230
1.0
 70
     8
 71
     2
 72
     7
 73
     4
 74
     0
 42
0.0000000001
 43
0.0000000001
 40
0.0
 40
0.0
 40
0.0
 40
1.0
 40
2.0
 40
2.0
 40
2.0
 10
-0.1517310262459093
 20
0.3358847457824378
 30
0.0
 10
-0.1362338169435838
 20
0.3358847457824378
 30
0.0
 10
-0.1148333518273047
 20
0.3131945132242982
 30
0.0
 10
-0.1148333518273047
 20
0.2954698620615075
 30
0.0
  0
SPLINE
  5
1E9
330
A
100
AcDbEntity
  8
1
  6
solid
 62
     7
100
AcDbSpline
210
0.0
220
0.0
230
1.0
 70
     8
 71
     2
 72
     6
 73
     3
 74
     0
 42
0.0000000001
 43
0.0000000001
 40
0.0
 40
0.0
 40
0.0
 40
1.0
 40
1.0
 40
1.0
 10
-0.1148333518273047
 20
0.2954698620615075
 30
0.0
 10
-0.1148333518273047
 20
0.2806819550847633
 30
0.0
 10
-0.1242189332226535
 20
0.2685084667126703
 30
0.0
  0
SPLINE
  5
1EA
330
A
100
AcDbEntity
  8
1
  6
solid
 62
     7
100
AcDbSpline
210
0.0
220
0.0
230
1.0
 70
     8
 71
     2
 72
     6
 73
     3
 74
     0
 42
0.0000000001
 43
0.0000000001
 40
0.0
 40
0.0
 40
0.0
 40
1.0
 40
1.0
 40
1.0
 10
-0.1242189332226535
 20
0.2685084667126703
 30
0.0
 10
-0.136248700664514
 20
0.2530359085731354
 30
0.0
 10
-0.1579914913621884
 20
0.2530359085731354
 30
0.0
  0
SPLINE
  5
1EB
330
A
100
AcDbEntity
  8
1
  6
solid
 62
     7
100
AcDbSpline
210
0.0
220
0.0
230
1.0
 70
     8
 71
     2
 72
     7
 73
     4
 74
     0
 42
0.0000000001
 43
0.0000000001
 40
0.0
 40
0.0
 40
0.0
 40
1.0
 40
2.0
 40
2.0
 40
2.0
 10
-0.1579914913621884
 20
0.2530359085731354
 30
0.0
 10
-0.1753738169435838
 20
0.2530359085731354
 30
0.0
 10
-0.1972356774087
 20
0.2735633504336005
 30
0.0
 10
-0.1991356774087
 20
0.2909903271777866
 30
0.0
  0
LINE
  5
1ED
330
A
100
AcDbEntity
  8
0
  6
solid
 62
     7
100
AcDbLine
 10
1.240855874348756
 20
4.338478038253075
 30
0.0
 11
1.240855874348756
 21
4.588478038253075
 31
0.0
  0
LINE
  5
1EE
330
A
100
AcDbEntity
  8
0
  6
solid
 62
     7
100
AcDbLine
 10
1.240855874348756
 20
4.588478038253075
 30
0.0
 11
1.287957323624119
 21
4.588478038253075
 31
0.0
  0
LINE
  5
1EF
330
A
100
AcDbEntity
  8
0
  6
solid
 62
     7
100
AcDbLine
 10
1.287957323624119
 20
4.588478038253075
 30
0.0
 11
1.287957323624119
 21
4.381956299122641
 31
0.0
  0
LINE
  5
1F0
330
A
100
AcDbEntity
  8
0
  6
solid
 62
     7
100
AcDbLine
 10
1.287957323624119
 20
4.381956299122641
 30
0.0
 11
1.418392106232814
 21
4.381956299122641
 31
0.0
  0
LINE
  5
1F1
330
A
100
AcDbEntity
  8
0
  6
solid
 62
     7
100
AcDbLine
 10
1.418392106232814
 20
4.381956299122641
 30
0.0
 11
1.418392106232814
 21
4.338478038253075
 31
0.0
  0
LINE
  5
1F2
330
A
100
AcDbEntity
  8
0
  6
solid
 62
     7
100
AcDbLine
 10
1.240855874348756
 20
4.338478038253075
 30
0.0
 11
1.418392106232814
 21
4.338478038253075
 31
0.0
  0
LINE
  5
1F3
330
A
100
AcDbEntity
  8
0
  6
solid
 62
     7
100
AcDbLine
 10
1.629441961305278
 20
4.385579487528437
 30
0.0
 11
1.629441961305278
 21
4.338478038253075
 31
0.0
  0
LINE
  5
1F4
330
A
100
AcDbEntity
  8
0
  6
solid
 62
     7
100
AcDbLine
 10
1.629441961305278
 20
4.338478038253075
 30
0.0
 11
1.466398483044408
 21
4.338478038253075
 31
0.0
  0
SPLINE
  5
1F5
330
A
100
AcDbEntity
  8
0
  6
solid
 62
     7
100
AcDbSpline
210
0.0
220
0.0
230
1.0
 70
     8
 71
     2
 72
     7
 73
     4
 74
     0
 42
0.0000000001
 43
0.0000000001
 40
0.0
 40
0.0
 40
0.0
 40
1.0
 40
2.0
 40
2.0
 40
2.0
 10
1.466398483044408
 20
4.338478038253075
 30
0.0
 10
1.468142251160351
 20
4.362146444050177
 30
0.0
 10
1.495421091740061
 20
4.40731861796322
 30
0.0
 10
1.533396743913974
 20
4.443736009267568
 30
0.0
  0
SPLINE
  5
1F6
330
A
100
AcDbEntity
  8
0
  6
solid
 62
     7
100
AcDbSpline
210
0.0
220
0.0
230
1.0
 70
     8
 71
     2
 72
     6
 73
     3
 74
     0
 42
0.0000000001
 43
0.0000000001
 40
0.0
 40
0.0
 40
0.0
 40
1.0
 40
1.0
 40
1.0
 10
1.533396743913974
 20
4.443736009267568
 30
0.0
 10
1.56518920768209
 20
4.473055429557423
 30
0.0
 10
1.572324280145858
 20
4.483665284629887
 30
0.0
  0
SPLINE
  5
1F7
330
A
100
AcDbEntity
  8
0
  6
solid
 62
     7
100
AcDbSpline
210
0.0
220
0.0
230
1.0
 70
     8
 71
     2
 72
     6
 73
     3
 74
     0
 42
0.0000000001
 43
0.0000000001
 40
0.0
 40
0.0
 40
0.0
 40
1.0
 40
1.0
 40
1.0
 10
1.572324280145858
 20
4.483665284629887
 30
0.0
 10
1.582340512029916
 20
4.49819513970235
 30
0.0
 10
1.582340512029916
 20
4.512465284629887
 30
0.0
  0
SPLINE
  5
1F8
330
A
100
AcDbEntity
  8
0
  6
solid
 62
     7
100
AcDbSpline
210
0.0
220
0.0
230
1.0
 70
     8
 71
     2
 72
     7
 73
     4
 74
     0
 42
0.0000000001
 43
0.0000000001
 40
0.0
 40
0.0
 40
0.0
 40
1.0
 40
2.0
 40
2.0
 40
2.0
 10
1.582340512029916
 20
4.512465284629887
 30
0.0
 10
1.582340512029916
 20
4.527737168687858
 30
0.0
 10
1.565040801884988
 20
4.54499977738351
 30
0.0
 10
1.550288338116872
 20
4.54499977738351
 30
0.0
  0
SPLINE
  5
1F9
330
A
100
AcDbEntity
  8
0
  6
solid
 62
     7
100
AcDbSpline
210
0.0
220
0.0
230
1.0
 70
     8
 71
     2
 72
     7
 73
     4
 74
     0
 42
0.0000000001
 43
0.0000000001
 40
0.0
 40
0.0
 40
0.0
 40
1.0
 40
2.0
 40
2.0
 40
2.0
 10
1.550288338116872
 20
4.54499977738351
 30
0.0
 10
1.535647178696582
 20
4.54499977738351
 30
0.0
 10
1.518013555508177
 20
4.527774270137133
 30
0.0
 10
1.517123120725568
 20
4.508767893325539
 30
0.0
  0
LINE
  5
1FA
330
A
100
AcDbEntity
  8
0
  6
solid
 62
     7
100
AcDbLine
 10
1.517123120725568
 20
4.508767893325539
 30
0.0
 11
1.470021671450206
 21
4.512910502021191
 31
0.0
  0
SPLINE
  5
1FB
330
A
100
AcDbEntity
  8
0
  6
solid
 62
     7
100
AcDbSpline
210
0.0
220
0.0
230
1.0
 70
     8
 71
     2
 72
     7
 73
     4
 74
     0
 42
0.0000000001
 43
0.0000000001
 40
0.0
 40
0.0
 40
0.0
 40
1.0
 40
2.0
 40
2.0
 40
2.0
 10
1.470021671450206
 20
4.512910502021191
 30
0.0
 10
1.474015874348756
 20
4.553025284629887
 30
0.0
 10
1.517976454058901
 20
4.588478038253075
 30
0.0
 10
1.550956164203829
 20
4.588478038253075
 30
0.0
  0
SPLINE
  5
1FC
330
A
100
AcDbEntity
  8
0
  6
solid
 62
     7
100
AcDbSpline
210
0.0
220
0.0
230
1.0
 70
     8
 71
     2
 72
     7
 73
     4
 74
     0
 42
0.0000000001
 43
0.0000000001
 40
0.0
 40
0.0
 40
0.0
 40
1.0
 40
2.0
 40
2.0
 40
2.0
 10
1.550956164203829
 20
4.588478038253075
 30
0.0
 10
1.587225149711075
 20
4.588478038253075
 30
0.0
 10
1.629441961305278
 20
4.549031081731336
 30
0.0
 10
1.629441961305278
 20
4.519971371586408
 30
0.0
  0
SPLINE
  5
1FD
330
A
100
AcDbEntity
  8
0
  6
solid
 62
     7
100
AcDbSpline
210
0.0
220
0.0
230
1.0
 70
     8
 71
     2
 72
     7
 73
     4
 74
     0
 42
0.0000000001
 43
0.0000000001
 40
0.0
 40
0.0
 40
0.0
 40
1.0
 40
2.0
 40
2.0
 40
2.0
 10
1.629441961305278
 20
4.519971371586408
 30
0.0
 10
1.629441961305278
 20
4.502857168687858
 30
0.0
 10
1.616915584493684
 20
4.473203835354524
 30
0.0
 10
1.604970077247307
 20
4.4562009368038
 30
0.0
  0
SPLINE
  5
1FE
330
A
100
AcDbEntity
  8
0
  6
solid
 62
     7
100
AcDbSpline
210
0.0
220
0.0
230
1.0
 70
     8
 71
     2
 72
     8
 73
     5
 74
     0
 42
0.0000000001
 43
0.0000000001
 40
0.0
 40
0.0
 40
0.0
 40
1.0
 40
2.0
 40
3.0
 40
3.0
 40
3.0
 10
1.604970077247307
 20
4.4562009368038
 30
0.0
 10
1.597055874348756
 20
4.445294270137133
 30
0.0
 10
1.551364280145858
 20
4.404771371586408
 30
0.0
 10
1.540049497537162
 20
4.390983545499452
 30
0.0
 10
1.53646341058064
 20
4.385579487528437
 30
0.0
  0
LINE
  5
1FF
330
A
100
AcDbEntity
  8
0
  6
solid
 62
     7
100
AcDbLine
 10
1.629441961305278
 20
4.385579487528437
 30
0.0
 11
1.53646341058064
 21
4.385579487528437
 31
0.0
  0
LINE
  5
200
330
A
100
AcDbEntity
  8
0
  6
solid
 62
     7
100
AcDbLine
 10
1.778897613479191
 20
4.338478038253075
 30
0.0
 11
1.731796164203829
 21
4.338478038253075
 31
0.0
  0
LINE
  5
201
330
A
100
AcDbEntity
  8
0
  6
solid
 62
     7
100
AcDbLine
 10
1.731796164203829
 20
4.338478038253075
 30
0.0
 11
1.731796164203829
 21
4.518054849847278
 31
0.0
  0
SPLINE
  5
202
330
A
100
AcDbEntity
  8
0
  6
solid
 62
     7
100
AcDbSpline
210
0.0
220
0.0
230
1.0
 70
     8
 71
     2
 72
     6
 73
     3
 74
     0
 42
0.0000000001
 43
0.0000000001
 40
0.0
 40
0.0
 40
0.0
 40
1.0
 40
1.0
 40
1.0
 10
1.731796164203829
 20
4.518054849847278
 30
0.0
 10
1.70466572942122
 20
4.49187629912264
 30
0.0
 10
1.670201961305278
 20
4.479782386079162
 30
0.0
  0
LINE
  5
203
330
A
100
AcDbEntity
  8
0
  6
solid
 62
     7
100
AcDbLine
 10
1.670201961305278
 20
4.479782386079162
 30
0.0
 11
1.670201961305278
 21
4.526883835354524
 31
0.0
  0
SPLINE
  5
204
330
A
100
AcDbEntity
  8
0
  6
solid
 62
     7
100
AcDbSpline
210
0.0
220
0.0
230
1.0
 70
     8
 71
     2
 72
     7
 73
     4
 74
     0
 42
0.0000000001
 43
0.0000000001
 40
0.0
 40
0.0
 40
0.0
 40
1.0
 40
2.0
 40
2.0
 40
2.0
 10
1.670201961305278
 20
4.526883835354524
 30
0.0
 10
1.688614714928467
 20
4.532065284629887
 30
0.0
 10
1.732130077247307
 20
4.565156299122641
 30
0.0
 10
1.739932975798032
 20
4.588478038253075
 30
0.0
  0
LINE
  5
205
330
A
100
AcDbEntity
  8
0
  6
solid
 62
     7
100
AcDbLine
 10
1.739932975798032
 20
4.588478038253075
 30
0.0
 11
1.778897613479191
 21
4.588478038253075
 31
0.0
  0
LINE
  5
206
330
A
100
AcDbEntity
  8
0
  6
solid
 62
     7
100
AcDbLine
 10
1.778897613479191
 20
4.338478038253075
 30
0.0
 11
1.778897613479191
 21
4.588478038253075
 31
0.0
  0
LINE
  5
207
330
A
100
AcDbEntity
  8
0
  6
solid
 62
     7
100
AcDbLine
 10
1.826903990290785
 20
4.408394559992205
 30
0.0
 11
1.874005439566148
 21
4.414564994774814
 31
0.0
  0
SPLINE
  5
208
330
A
100
AcDbEntity
  8
0
  6
solid
 62
     7
100
AcDbSpline
210
0.0
220
0.0
230
1.0
 70
     8
 71
     2
 72
     7
 73
     4
 74
     0
 42
0.0000000001
 43
0.0000000001
 40
0.0
 40
0.0
 40
0.0
 40
1.0
 40
2.0
 40
2.0
 40
2.0
 10
1.874005439566148
 20
4.414564994774814
 30
0.0
 10
1.875415294638611
 20
4.396782965789307
 30
0.0
 10
1.894087758406727
 20
4.378333110716844
 30
0.0
 10
1.907912685942959
 20
4.378333110716844
 30
0.0
  0
SPLINE
  5
209
330
A
100
AcDbEntity
  8
0
  6
solid
 62
     7
100
AcDbSpline
210
0.0
220
0.0
230
1.0
 70
     8
 71
     2
 72
     7
 73
     4
 74
     0
 42
0.0000000001
 43
0.0000000001
 40
0.0
 40
0.0
 40
0.0
 40
1.0
 40
2.0
 40
2.0
 40
2.0
 10
1.907912685942959
 20
4.378333110716844
 30
0.0
 10
1.922368338116872
 20
4.378333110716844
 30
0.0
 10
1.942846019276292
 20
4.397784704919742
 30
0.0
 10
1.942846019276292
 20
4.415269922311046
 30
0.0
  0
SPLINE
  5
20A
330
A
100
AcDbEntity
  8
0
  6
solid
 62
     7
100
AcDbSpline
210
0.0
220
0.0
230
1.0
 70
     8
 71
     2
 72
     7
 73
     4
 74
     0
 42
0.0000000001
 43
0.0000000001
 40
0.0
 40
0.0
 40
0.0
 40
1.0
 40
2.0
 40
2.0
 40
2.0
 10
1.942846019276292
 20
4.415269922311046
 30
0.0
 10
1.942846019276292
 20
4.430875719412496
 30
0.0
 10
1.924952685942959
 20
4.450796878832785
 30
0.0
 10
1.911572975798032
 20
4.450796878832785
 30
0.0
  0
SPLINE
  5
20B
330
A
100
AcDbEntity
  8
0
  6
solid
 62
     7
100
AcDbSpline
210
0.0
220
0.0
230
1.0
 70
     8
 71
     2
 72
     6
 73
     3
 74
     0
 42
0.0000000001
 43
0.0000000001
 40
0.0
 40
0.0
 40
0.0
 40
1.0
 40
1.0
 40
1.0
 10
1.911572975798032
 20
4.450796878832785
 30
0.0
 10
1.903547468551655
 20
4.450796878832785
 30
0.0
 10
1.892121381595133
 20
4.447210791876264
 30
0.0
  0
LINE
  5
20C
330
A
100
AcDbEntity
  8
0
  6
solid
 62
     7
100
AcDbLine
 10
1.892121381595133
 20
4.447210791876264
 30
0.0
 11
1.896412396087887
 21
4.487028762890757
 31
0.0
  0
SPLINE
  5
20D
330
A
100
AcDbEntity
  8
0
  6
solid
 62
     7
100
AcDbSpline
210
0.0
220
0.0
230
1.0
 70
     8
 71
     2
 72
     7
 73
     4
 74
     0
 42
0.0000000001
 43
0.0000000001
 40
0.0
 40
0.0
 40
0.0
 40
1.0
 40
2.0
 40
2.0
 40
2.0
 10
1.896412396087887
 20
4.487028762890757
 30
0.0
 10
1.913897613479191
 20
4.485446154195104
 30
0.0
 10
1.931976454058901
 20
4.50307977738351
 30
0.0
 10
1.931976454058901
 20
4.517461226658872
 30
0.0
  0
SPLINE
  5
20E
330
A
100
AcDbEntity
  8
0
  6
solid
 62
     7
100
AcDbSpline
210
0.0
220
0.0
230
1.0
 70
     8
 71
     2
 72
     7
 73
     4
 74
     0
 42
0.0000000001
 43
0.0000000001
 40
0.0
 40
0.0
 40
0.0
 40
1.0
 40
2.0
 40
2.0
 40
2.0
 10
1.931976454058901
 20
4.517461226658872
 30
0.0
 10
1.931976454058901
 20
4.529221226658872
 30
0.0
 10
1.917928917827017
 20
4.54499977738351
 30
0.0
 10
1.906651236667597
 20
4.54499977738351
 30
0.0
  0
SPLINE
  5
20F
330
A
100
AcDbEntity
  8
0
  6
solid
 62
     7
100
AcDbSpline
210
0.0
220
0.0
230
1.0
 70
     8
 71
     2
 72
     7
 73
     4
 74
     0
 42
0.0000000001
 43
0.0000000001
 40
0.0
 40
0.0
 40
0.0
 40
1.0
 40
2.0
 40
2.0
 40
2.0
 10
1.906651236667597
 20
4.54499977738351
 30
0.0
 10
1.894273265653104
 20
4.54499977738351
 30
0.0
 10
1.878778772899481
 20
4.527848473035684
 30
0.0
 10
1.877628627971945
 20
4.512391081731336
 30
0.0
  0
LINE
  5
210
330
A
100
AcDbEntity
  8
0
  6
solid
 62
     7
100
AcDbLine
 10
1.877628627971945
 20
4.512391081731336
 30
0.0
 11
1.830527178696582
 21
4.519674559992205
 31
0.0
  0
SPLINE
  5
211
330
A
100
AcDbEntity
  8
0
  6
solid
 62
     7
100
AcDbSpline
210
0.0
220
0.0
230
1.0
 70
     8
 71
     2
 72
     8
 73
     5
 74
     0
 42
0.0000000001
 43
0.0000000001
 40
0.0
 40
0.0
 40
0.0
 40
1.0
 40
2.0
 40
3.0
 40
3.0
 40
3.0
 10
1.830527178696582
 20
4.519674559992205
 30
0.0
 10
1.834743990290785
 20
4.542823545499452
 30
0.0
 10
1.852934135218321
 20
4.571512241151626
 30
0.0
 10
1.885579932319771
 20
4.588478038253075
 30
0.0
 10
1.90510572942122
 20
4.588478038253075
 30
0.0
  0
SPLINE
  5
212
330
A
100
AcDbEntity
  8
0
  6
solid
 62
     7
100
AcDbSpline
210
0.0
220
0.0
230
1.0
 70
     8
 71
     2
 72
     6
 73
     3
 74
     0
 42
0.0000000001
 43
0.0000000001
 40
0.0
 40
0.0
 40
0.0
 40
1.0
 40
1.0
 40
1.0
 10
1.90510572942122
 20
4.588478038253075
 30
0.0
 10
1.940335874348756
 20
4.588478038253075
 30
0.0
 10
1.961518483044408
 20
4.56467398028206
 30
0.0
  0
SPLINE
  5
213
330
A
100
AcDbEntity
  8
0
  6
solid
 62
     7
100
AcDbSpline
210
0.0
220
0.0
230
1.0
 70
     8
 71
     2
 72
     6
 73
     3
 74
     0
 42
0.0000000001
 43
0.0000000001
 40
0.0
 40
0.0
 40
0.0
 40
1.0
 40
1.0
 40
1.0
 10
1.961518483044408
 20
4.56467398028206
 30
0.0
 10
1.979077903334264
 20
4.546075719412495
 30
0.0
 10
1.979077903334264
 20
4.521789342600901
 30
0.0
  0
SPLINE
  5
214
330
A
100
AcDbEntity
  8
0
  6
solid
 62
     7
100
AcDbSpline
210
0.0
220
0.0
230
1.0
 70
     8
 71
     2
 72
     6
 73
     3
 74
     0
 42
0.0000000001
 43
0.0000000001
 40
0.0
 40
0.0
 40
0.0
 40
1.0
 40
1.0
 40
1.0
 10
1.979077903334264
 20
4.521789342600901
 30
0.0
 10
1.979077903334264
 20
4.488512820861771
 30
0.0
 10
1.943476743913974
 20
4.469135429557423
 30
0.0
  0
SPLINE
  5
215
330
A
100
AcDbEntity
  8
0
  6
solid
 62
     7
100
AcDbSpline
210
0.0
220
0.0
230
1.0
 70
     8
 71
     2
 72
     7
 73
     4
 74
     0
 42
0.0000000001
 43
0.0000000001
 40
0.0
 40
0.0
 40
0.0
 40
1.0
 40
2.0
 40
2.0
 40
2.0
 10
1.943476743913974
 20
4.469135429557423
 30
0.0
 10
1.964733555508177
 20
4.463707023760322
 30
0.0
 10
1.989947468551655
 20
4.433348762890756
 30
0.0
 10
1.989947468551655
 20
4.411461226658873
 30
0.0
  0
SPLINE
  5
216
330
A
100
AcDbEntity
  8
0
  6
solid
 62
     7
100
AcDbSpline
210
0.0
220
0.0
230
1.0
 70
     8
 71
     2
 72
     7
 73
     4
 74
     0
 42
0.0000000001
 43
0.0000000001
 40
0.0
 40
0.0
 40
0.0
 40
1.0
 40
2.0
 40
2.0
 40
2.0
 10
1.989947468551655
 20
4.411461226658873
 30
0.0
 10
1.989947468551655
 20
4.379297748398003
 30
0.0
 10
1.941523120725568
 20
4.334854849847278
 30
0.0
 10
1.907244859856002
 20
4.334854849847278
 30
0.0
  0
SPLINE
  5
217
330
A
100
AcDbEntity
  8
0
  6
solid
 62
     7
100
AcDbSpline
210
0.0
220
0.0
230
1.0
 70
     8
 71
     2
 72
     7
 73
     4
 74
     0
 42
0.0000000001
 43
0.0000000001
 40
0.0
 40
0.0
 40
0.0
 40
1.0
 40
2.0
 40
2.0
 40
2.0
 10
1.907244859856002
 20
4.334854849847278
 30
0.0
 10
1.874190946812524
 20
4.334854849847278
 30
0.0
 10
1.829204280145858
 20
4.375451951296553
 30
0.0
 10
1.826903990290785
 20
4.408394559992205
 30
0.0
  0
LINE
  5
218
330
A
100
AcDbEntity
  8
0
  6
solid
 62
     7
100
AcDbLine
 10
2.030707468551655
 20
4.588478038253075
 30
0.0
 11
2.130611236667597
 21
4.588478038253075
 31
0.0
  0
SPLINE
  5
219
330
A
100
AcDbEntity
  8
0
  6
solid
 62
     7
100
AcDbSpline
210
0.0
220
0.0
230
1.0
 70
     8
 71
     2
 72
     9
 73
     6
 74
     0
 42
0.0000000001
 43
0.0000000001
 40
0.0
 40
0.0
 40
0.0
 40
1.0
 40
2.0
 40
3.0
 40
4.0
 40
4.0
 40
4.0
 10
2.130611236667597
 20
4.588478038253075
 30
0.0
 10
2.161513265653104
 20
4.588478038253075
 30
0.0
 10
2.190832685942959
 20
4.58267861796322
 30
0.0
 10
2.213573555508177
 20
4.567147023760321
 30
0.0
 10
2.229982830870496
 20
4.539645574484959
 30
0.0
 10
2.229982830870496
 20
4.523780067238583
 30
0.0
  0
SPLINE
  5
21A
330
A
100
AcDbEntity
  8
0
  6
solid
 62
     7
100
AcDbSpline
210
0.0
220
0.0
230
1.0
 70
     8
 71
     2
 72
     7
 73
     4
 74
     0
 42
0.0000000001
 43
0.0000000001
 40
0.0
 40
0.0
 40
0.0
 40
1.0
 40
2.0
 40
2.0
 40
2.0
 10
2.229982830870496
 20
4.523780067238583
 30
0.0
 10
2.229982830870496
 20
4.505738328108147
 30
0.0
 10
2.212497613479191
 20
4.474836299122641
 30
0.0
 10
2.197856454058901
 20
4.467404415064669
 30
0.0
  0
SPLINE
  5
21B
330
A
100
AcDbEntity
  8
0
  6
solid
 62
     7
100
AcDbSpline
210
0.0
220
0.0
230
1.0
 70
     8
 71
     2
 72
     7
 73
     4
 74
     0
 42
0.0000000001
 43
0.0000000001
 40
0.0
 40
0.0
 40
0.0
 40
1.0
 40
2.0
 40
2.0
 40
2.0
 10
2.197856454058901
 20
4.467404415064669
 30
0.0
 10
2.217604859856003
 20
4.461889052745829
 30
0.0
 10
2.240852396087887
 20
4.430096588977713
 30
0.0
 10
2.240852396087887
 20
4.408691371586408
 30
0.0
  0
SPLINE
  5
21C
330
A
100
AcDbEntity
  8
0
  6
solid
 62
     7
100
AcDbSpline
210
0.0
220
0.0
230
1.0
 70
     8
 71
     2
 72
     8
 73
     5
 74
     0
 42
0.0000000001
 43
0.0000000001
 40
0.0
 40
0.0
 40
0.0
 40
1.0
 40
2.0
 40
3.0
 40
3.0
 40
3.0
 10
2.240852396087887
 20
4.408691371586408
 30
0.0
 10
2.240852396087887
 20
4.391502965789307
 30
0.0
 10
2.224183410580641
 20
4.360847893325539
 30
0.0
 10
2.197374135218322
 20
4.342249632455974
 30
0.0
 10
2.176673845363249
 20
4.339553980282061
 30
0.0
  0
SPLINE
  5
21D
330
A
100
AcDbEntity
  8
0
  6
solid
 62
     7
100
AcDbSpline
210
0.0
220
0.0
230
1.0
 70
     8
 71
     2
 72
     6
 73
     3
 74
     0
 42
0.0000000001
 43
0.0000000001
 40
0.0
 40
0.0
 40
0.0
 40
1.0
 40
1.0
 40
1.0
 10
2.176673845363249
 20
4.339553980282061
 30
0.0
 10
2.163368338116872
 20
4.338700646948727
 30
0.0
 10
2.115376454058901
 20
4.338478038253075
 30
0.0
  0
LINE
  5
21E
330
A
100
AcDbEntity
  8
0
  6
solid
 62
     7
100
AcDbLine
 10
2.115376454058901
 20
4.338478038253075
 30
0.0
 11
2.030707468551655
 21
4.338478038253075
 31
0.0
  0
LINE
  5
21F
330
A
100
AcDbEntity
  8
0
  6
solid
 62
     7
100
AcDbLine
 10
2.030707468551655
 20
4.588478038253075
 30
0.0
 11
2.030707468551655
 21
4.338478038253075
 31
0.0
  0
LINE
  5
220
330
A
100
AcDbEntity
  8
0
  6
solid
 62
     7
100
AcDbLine
 10
2.077808917827017
 20
4.54499977738351
 30
0.0
 11
2.077808917827017
 21
4.487028762890757
 31
0.0
  0
LINE
  5
221
330
A
100
AcDbEntity
  8
0
  6
solid
 62
     7
100
AcDbLine
 10
2.077808917827017
 20
4.487028762890757
 30
0.0
 11
2.112383990290785
 21
4.487028762890757
 31
0.0
  0
SPLINE
  5
222
330
A
100
AcDbEntity
  8
0
  6
solid
 62
     7
100
AcDbSpline
210
0.0
220
0.0
230
1.0
 70
     8
 71
     2
 72
     6
 73
     3
 74
     0
 42
0.0000000001
 43
0.0000000001
 40
0.0
 40
0.0
 40
0.0
 40
1.0
 40
1.0
 40
1.0
 10
2.112383990290785
 20
4.487028762890757
 30
0.0
 10
2.144473265653104
 20
4.487028762890757
 30
0.0
 10
2.152016454058901
 20
4.487585284629886
 30
0.0
  0
SPLINE
  5
223
330
A
100
AcDbEntity
  8
0
  6
solid
 62
     7
100
AcDbSpline
210
0.0
220
0.0
230
1.0
 70
     8
 71
     2
 72
     7
 73
     4
 74
     0
 42
0.0000000001
 43
0.0000000001
 40
0.0
 40
0.0
 40
0.0
 40
1.0
 40
2.0
 40
2.0
 40
2.0
 10
2.152016454058901
 20
4.487585284629886
 30
0.0
 10
2.166175294638612
 20
4.488587023760321
 30
0.0
 10
2.182881381595133
 20
4.503339487528437
 30
0.0
 10
2.182881381595133
 20
4.516311081731336
 30
0.0
  0
SPLINE
  5
224
330
A
100
AcDbEntity
  8
0
  6
solid
 62
     7
100
AcDbSpline
210
0.0
220
0.0
230
1.0
 70
     8
 71
     2
 72
     7
 73
     4
 74
     0
 42
0.0000000001
 43
0.0000000001
 40
0.0
 40
0.0
 40
0.0
 40
1.0
 40
2.0
 40
2.0
 40
2.0
 10
2.182881381595133
 20
4.516311081731336
 30
0.0
 10
2.182881381595133
 20
4.527662965789307
 30
0.0
 10
2.168870946812524
 20
4.542192820861771
 30
0.0
 10
2.154971816377742
 20
4.543194559992206
 30
0.0
  0
SPLINE
  5
225
330
A
100
AcDbEntity
  8
0
  6
solid
 62
     7
100
AcDbSpline
210
0.0
220
0.0
230
1.0
 70
     8
 71
     2
 72
     6
 73
     3
 74
     0
 42
0.0000000001
 43
0.0000000001
 40
0.0
 40
0.0
 40
0.0
 40
1.0
 40
1.0
 40
1.0
 10
2.154971816377742
 20
4.543194559992206
 30
0.0
 10
2.147168917827017
 20
4.54499977738351
 30
0.0
 10
2.108278483044409
 20
4.54499977738351
 30
0.0
  0
LINE
  5
226
330
A
100
AcDbEntity
  8
0
  6
solid
 62
     7
100
AcDbLine
 10
2.077808917827017
 20
4.54499977738351
 30
0.0
 11
2.108278483044409
 21
4.54499977738351
 31
0.0
  0
LINE
  5
227
330
A
100
AcDbEntity
  8
0
  6
solid
 62
     7
100
AcDbLine
 10
2.077808917827017
 20
4.443550502021191
 30
0.0
 11
2.077808917827017
 21
4.381956299122641
 31
0.0
  0
LINE
  5
228
330
A
100
AcDbEntity
  8
0
  6
solid
 62
     7
100
AcDbLine
 10
2.077808917827017
 20
4.381956299122641
 30
0.0
 11
2.128533555508177
 21
4.381956299122641
 31
0.0
  0
SPLINE
  5
229
330
A
100
AcDbEntity
  8
0
  6
solid
 62
     7
100
AcDbSpline
210
0.0
220
0.0
230
1.0
 70
     8
 71
     2
 72
     6
 73
     3
 74
     0
 42
0.0000000001
 43
0.0000000001
 40
0.0
 40
0.0
 40
0.0
 40
1.0
 40
1.0
 40
1.0
 10
2.128533555508177
 20
4.381956299122641
 30
0.0
 10
2.157964280145858
 20
4.381956299122641
 30
0.0
 10
2.165692975798032
 20
4.382883835354524
 30
0.0
  0
SPLINE
  5
22A
330
A
100
AcDbEntity
  8
0
  6
solid
 62
     7
100
AcDbSpline
210
0.0
220
0.0
230
1.0
 70
     8
 71
     2
 72
     7
 73
     4
 74
     0
 42
0.0000000001
 43
0.0000000001
 40
0.0
 40
0.0
 40
0.0
 40
1.0
 40
2.0
 40
2.0
 40
2.0
 10
2.165692975798032
 20
4.382883835354524
 30
0.0
 10
2.177415874348756
 20
4.384108183180611
 30
0.0
 10
2.193750946812524
 20
4.39867513970235
 30
0.0
 10
2.193750946812524
 20
4.4117209368038
 30
0.0
  0
SPLINE
  5
22B
330
A
100
AcDbEntity
  8
0
  6
solid
 62
     7
100
AcDbSpline
210
0.0
220
0.0
230
1.0
 70
     8
 71
     2
 72
     8
 73
     5
 74
     0
 42
0.0000000001
 43
0.0000000001
 40
0.0
 40
0.0
 40
0.0
 40
1.0
 40
2.0
 40
3.0
 40
3.0
 40
3.0
 10
2.193750946812524
 20
4.4117209368038
 30
0.0
 10
2.193750946812524
 20
4.422256588977713
 30
0.0
 10
2.181001961305278
 20
4.436712241151626
 30
0.0
 10
2.158817613479191
 20
4.443550502021191
 30
0.0
 10
2.121806598986438
 20
4.443550502021191
 30
0.0
  0
LINE
  5
22C
330
A
100
AcDbEntity
  8
0
  6
solid
 62
     7
100
AcDbLine
 10
2.077808917827017
 20
4.443550502021191
 30
0.0
 11
2.121806598986438
 21
4.443550502021191
 31
0.0
  0
VIEWPORT
  5
24A
330
B
100
AcDbEntity
 67
     1
  8
0
  6
Continuous
370
     0
100
AcDbViewport
 10
5.169387968333035
 20
3.968749971919159
 30
0.0
 40
16.99659283974028
 41
8.992999745766949
 68
     1
 69
     1
 12
5.169387968333035
 22
3.968749971919159
 13
0.0
 23
0.0
 14
0.5
 24
0.5
 15
0.5
 25
0.5
 16
0.0
 26
0.0
 36
1.0
 17
0.0
 27
0.0
 37
0.0
 42
50.0
 43
0.0
 44
0.0
 45
8.992999745766949
 50
0.0
 51
0.0
 72
   100
 90
   819232
  1

281
     0
 71
     1
 74
     0
110
0.0
120
0.0
130
0.0
111
1.0
121
0.0
131
0.0
112
0.0
122
1.0
132
0.0
 79
     0
146
0.0
170
     0
  0
VIEWPORT
  5
24D
330
B
100
AcDbEntity
 67
     1
  8
0
  6
Continuous
370
     0
100
AcDbViewport
 10
5.160563146292435
 20
4.004016646334992
 30
0.0
 40
10.53682862339344
 41
8.058433131108373
 68
     2
 69
     2
 12
1.816282578548545
 22
2.07240912689495
 13
0.0
 23
0.0
 14
0.5
 24
0.5
 15
0.5
 25
0.5
 16
0.0
 26
0.0
 36
1.0
 17
0.0
 27
0.0
 37
0.0
 42
50.0
 43
0.0
 44
0.0
 45
6.282418628010824
 50
0.0
 51
0.0
 72
   100
 90
   819232
  1

281
     0
 71
     1
 74
     0
110
0.0
120
0.0
130
0.0
111
1.0
121
0.0
131
0.0
112
0.0
122
1.0
132
0.0
 79
     0
146
0.0
170
     0
  0
ENDSEC
  0
SECTION
  2
OBJECTS
  0
DICTIONARY
  5
19
330
0
100
AcDbDictionary
281
     1
  3
ACAD_COLOR
350
243
  3
ACAD_GROUP
350
1A
  3
ACAD_LAYOUT
350
1E
  3
ACAD_MATERIAL
350
22E
  3
ACAD_MLEADERSTYLE
350
273
  3
ACAD_MLINESTYLE
350
1B
  3
ACAD_PLOTSETTINGS
350
22
  3
ACAD_PLOTSTYLENAME
350
1F
  3
ACAD_SCALELIST
350
251
  3
ACAD_TABLESTYLE
350
244
  3
ACAD_VISUALSTYLE
350
232
  3
ACAD_WIPEOUT_VARS
350
23
  3
ACDB_RECOMPOSE_DATA
350
2A0
  3
AcDbVariableDictionary
350
24E
  0
DICTIONARY
  5
27C
330
14
100
AcDbDictionary
280
     1
281
     1
  3
ADSK_XREC_LAYER_RECONCILED
360
27D
  0
DICTIONARY
  5
27E
330
27
100
AcDbDictionary
280
     1
281
     1
  3
ADSK_XREC_LAYER_RECONCILED
360
27F
  0
DICTIONARY
  5
280
330
1EC
100
AcDbDictionary
280
     1
281
     1
  3
ADSK_XREC_LAYER_RECONCILED
360
281
  0
DICTIONARY
  5
243
102
{ACAD_REACTORS
330
19
102
}
330
19
100
AcDbDictionary
281
     1
  0
DICTIONARY
  5
1A
102
{ACAD_REACTORS
330
19
102
}
330
19
100
AcDbDictionary
281
     1
  0
DICTIONARY
  5
1E
102
{ACAD_REACTORS
330
19
102
}
330
19
100
AcDbDictionary
281
     1
  3
Layout1
350
21
  3
Model
350
20
  0
DICTIONARY
  5
22E
102
{ACAD_REACTORS
330
19
102
}
330
19
100
AcDbDictionary
281
     1
  3
ByBlock
350
230
  3
ByLayer
350
22F
  3
Global
350
231
  0
DICTIONARY
  5
273
102
{ACAD_REACTORS
330
19
102
}
330
19
100
AcDbDictionary
281
     1
  3
Standard
350
274
  0
DICTIONARY
  5
1B
102
{ACAD_REACTORS
330
19
102
}
330
19
100
AcDbDictionary
281
     1
  3
Standard
350
1C
  0
DICTIONARY
  5
22
102
{ACAD_REACTORS
330
19
102
}
330
19
100
AcDbDictionary
281
     1
  0
ACDBDICTIONARYWDFLT
  5
1F
102
{ACAD_REACTORS
330
19
102
}
330
19
100
AcDbDictionary
281
     1
  3
Normal
350
1D
100
AcDbDictionaryWithDefault
340
1D
  0
DICTIONARY
  5
251
102
{ACAD_REACTORS
330
19
102
}
330
19
100
AcDbDictionary
281
     1
  3
A0
350
252
  3
A1
350
253
  3
A2
350
254
  3
A3
350
255
  3
A4
350
256
  3
A5
350
257
  3
A6
350
258
  3
A7
350
259
  3
A8
350
25A
  3
A9
350
25B
  3
B0
350
25C
  3
B1
350
25D
  3
B2
350
25E
  3
B3
350
25F
  3
B4
350
260
  3
B5
350
261
  3
B6
350
262
  3
B7
350
263
  3
B8
350
264
  3
B9
350
265
  3
C0
350
266
  3
C1
350
267
  3
C2
350
268
  3
C3
350
269
  3
C4
350
26A
  3
C5
350
26B
  3
C6
350
26C
  3
C7
350
26D
  3
C8
350
26E
  3
C9
350
26F
  3
D0
350
270
  3
D1
350
271
  3
D2
350
272
  0
DICTIONARY
  5
244
102
{ACAD_REACTORS
330
19
102
}
330
19
100
AcDbDictionary
281
     1
  3
Standard
350
245
  0
DICTIONARY
  5
232
102
{ACAD_REACTORS
330
19
102
}
330
19
100
AcDbDictionary
281
     1
  3
2dWireframe
350
238
  3
3D Hidden
350
23A
  3
3dWireframe
350
239
  3
Basic
350
237
  3
Brighten
350
23E
  3
ColorChange
350
242
  3
Conceptual
350
23B
  3
Dim
350
23D
  3
Facepattern
350
241
  3
Flat
350
233
  3
FlatWithEdges
350
234
  3
Gouraud
350
235
  3
GouraudWithEdges
350
236
  3
Linepattern
350
240
  3
Realistic
350
23C
  3
Thicken
350
23F
  0
WIPEOUTVARIABLES
  5
23
330
19
100
AcDbWipeoutVariables
 70
     1
  0
XRECORD
  5
2A0
102
{ACAD_REACTORS
330
19
102
}
330
19
100
AcDbXrecord
280
     1
 90
        1
330
245
  0
DICTIONARY
  5
24E
102
{ACAD_REACTORS
330
19
102
}
330
19
100
AcDbDictionary
281
     1
  3
CANNOSCALE
350
29D
  3
CMLEADERSTYLE
350
29C
  3
CTABLESTYLE
350
24F
  0
XRECORD
  5
27D
102
{ACAD_REACTORS
330
27C
102
}
330
27C
100
AcDbXrecord
280
     1
290
     1
  0
XRECORD
  5
27F
102
{ACAD_REACTORS
330
27E
102
}
330
27E
100
AcDbXrecord
280
     1
290
     1
  0
XRECORD
  5
281
102
{ACAD_REACTORS
330
280
102
}
330
280
100
AcDbXrecord
280
     1
290
     1
  0
LAYOUT
  5
21
102
{ACAD_REACTORS
330
1E
102
}
330
1E
100
AcDbPlotSettings
  1

  2
Foxit PDF Printer
  4
Letter
  6

 40
3.174999952316284
 41
3.174999952316284
 42
3.17498779296875
 43
3.175003051757812
 44
279.3999938964844
 45
215.8999938964844
 46
31.47715384821894
 47
24.12875752349356
 48
0.0
 49
0.0
140
0.0
141
0.0
142
1.0
143
1.0
 70
     4
 72
     0
 73
     0
 74
     1
  7

 75
    16
147
1.0
 76
     1
 77
     2
 78
   300
148
-26.25461124795212
149
-20.16000981431432
100
AcDbLayout
  1
Layout1
 70
     0
 71
     1
 10
-0.3306119115190196
 20
-0.2812499079328949
 11
10.66938784818509
 21
8.218749851771214
 12
0.0
 22
0.0
 32
0.0
 14
-0.1078511654042842
 24
-0.0251999192191939
 34
-0.0015258207003583
 15
10.42897745798915
 25
8.033233211889179
 35
0.0000000349246037
146
0.0
 13
0.0
 23
0.0
 33
0.0
 16
1.0
 26
0.0
 36
0.0
 17
0.0
 27
1.0
 37
0.0
 76
     0
330
B
331
24A
1001
ACAD_PSEXT
1000
Foxit PDF Printer
1000
Foxit PDF Printer Driver
1000
FOXIT_PDF
1000

1070
     0
  0
LAYOUT
  5
20
102
{ACAD_REACTORS
330
1E
102
}
330
1E
100
AcDbPlotSettings
  1

  2

  4

  6

 40
0.0
 41
0.0
 42
0.0
 43
0.0
 44
0.0
 45
0.0
 46
0.0
 47
0.0
 48
0.0
 49
0.0
140
0.0
141
0.0
142
1.0
143
1.0
 70
  1024
 72
     0
 73
     0
 74
     0
  7

 75
     0
147
1.0
 76
     0
 77
     2
 78
   300
148
0.0
149
0.0
100
AcDbLayout
  1
Model
 70
     0
 71
     0
 10
0.0
 20
0.0
 11
0.0
 21
0.0
 12
0.0
 22
0.0
 32
0.0
 14
0.0
 24
0.0
 34
0.0
 15
0.0
 25
0.0
 35
0.0
146
0.0
 13
0.0
 23
0.0
 33
0.0
 16
0.0
 26
0.0
 36
0.0
 17
0.0
 27
0.0
 37
0.0
 76
     0
330
A
  0
MATERIAL
  5
230
102
{ACAD_XDICTIONARY
360
2A3
102
}
102
{ACAD_REACTORS
330
22E
102
}
330
22E
100
AcDbMaterial
  1
ByBlock
 73
     1
 78
     1
172
     1
176
     1
270
     1
274
     1
  0
MATERIAL
  5
22F
102
{ACAD_XDICTIONARY
360
2A1
102
}
102
{ACAD_REACTORS
330
22E
102
}
330
22E
100
AcDbMaterial
  1
ByLayer
 73
     1
 78
     1
172
     1
176
     1
270
     1
274
     1
  0
MATERIAL
  5
231
102
{ACAD_XDICTIONARY
360
2A5
102
}
102
{ACAD_REACTORS
330
22E
102
}
330
22E
100
AcDbMaterial
  1
Global
 73
     1
 78
     1
172
     1
176
     1
270
     1
274
     1
  0
MLEADERSTYLE
  5
274
102
{ACAD_REACTORS
330
273
102
}
330
273
100
AcDbMLeaderStyle
170
     2
171
     1
172
     0
 90
        2
 40
0.0
 41
0.0
173
     1
 91
-1056964608
340
11
 92
       -2
290
     1
 42
0.09
291
     1
 43
0.36
  3
Standard
 44
0.18
300

342
17
174
     1
178
     6
175
     1
176
     0
 93
-1056964608
 45
0.18
292
     0
297
     0
 46
0.18
 94
-1056964608
 47
1.0
 49
1.0
140
1.0
293
     1
141
0.0
294
     1
177
     0
142
1.0
295
     0
296
     0
143
0.125
1001
ACAD_MLEADERVER
1070
     2
  0
MLINESTYLE
  5
1C
102
{ACAD_REACTORS
330
1B
102
}
330
1B
100
AcDbMlineStyle
  2
STANDARD
 70
     0
  3

 62
     0
 51
90.0
 52
90.0
 71
     2
 49
0.5
 62
   256
  6
BYLAYER
 49
-0.5
 62
   256
  6
BYLAYER
  0
ACDBPLACEHOLDER
  5
1D
102
{ACAD_REACTORS
330
1F
102
}
330
1F
  0
SCALE
  5
252
102
{ACAD_REACTORS
330
251
102
}
330
251
100
AcDbScale
 70
     0
300
1:1
140
1.0
141
1.0
290
     1
  0
SCALE
  5
253
102
{ACAD_REACTORS
330
251
102
}
330
251
100
AcDbScale
 70
     0
300
1:2
140
1.0
141
2.0
290
     0
  0
SCALE
  5
254
102
{ACAD_REACTORS
330
251
102
}
330
251
100
AcDbScale
 70
     0
300
1:4
140
1.0
141
4.0
290
     0
  0
SCALE
  5
255
102
{ACAD_REACTORS
330
251
102
}
330
251
100
AcDbScale
 70
     0
300
1:5
140
1.0
141
5.0
290
     0
  0
SCALE
  5
256
102
{ACAD_REACTORS
330
251
102
}
330
251
100
AcDbScale
 70
     0
300
1:8
140
1.0
141
8.0
290
     0
  0
SCALE
  5
257
102
{ACAD_REACTORS
330
251
102
}
330
251
100
AcDbScale
 70
     0
300
1:10
140
1.0
141
10.0
290
     0
  0
SCALE
  5
258
102
{ACAD_REACTORS
330
251
102
}
330
251
100
AcDbScale
 70
     0
300
1:16
140
1.0
141
16.0
290
     0
  0
SCALE
  5
259
102
{ACAD_REACTORS
330
251
102
}
330
251
100
AcDbScale
 70
     0
300
1:20
140
1.0
141
20.0
290
     0
  0
SCALE
  5
25A
102
{ACAD_REACTORS
330
251
102
}
330
251
100
AcDbScale
 70
     0
300
1:30
140
1.0
141
30.0
290
     0
  0
SCALE
  5
25B
102
{ACAD_REACTORS
330
251
102
}
330
251
100
AcDbScale
 70
     0
300
1:40
140
1.0
141
40.0
290
     0
  0
SCALE
  5
25C
102
{ACAD_REACTORS
330
251
102
}
330
251
100
AcDbScale
 70
     0
300
1:50
140
1.0
141
50.0
290
     0
  0
SCALE
  5
25D
102
{ACAD_REACTORS
330
251
102
}
330
251
100
AcDbScale
 70
     0
300
1:100
140
1.0
141
100.0
290
     0
  0
SCALE
  5
25E
102
{ACAD_REACTORS
330
251
102
}
330
251
100
AcDbScale
 70
     0
300
2:1
140
2.0
141
1.0
290
     0
  0
SCALE
  5
25F
102
{ACAD_REACTORS
330
251
102
}
330
251
100
AcDbScale
 70
     0
300
4:1
140
4.0
141
1.0
290
     0
  0
SCALE
  5
260
102
{ACAD_REACTORS
330
251
102
}
330
251
100
AcDbScale
 70
     0
300
8:1
140
8.0
141
1.0
290
     0
  0
SCALE
  5
261
102
{ACAD_REACTORS
330
251
102
}
330
251
100
AcDbScale
 70
     0
300
10:1
140
10.0
141
1.0
290
     0
  0
SCALE
  5
262
102
{ACAD_REACTORS
330
251
102
}
330
251
100
AcDbScale
 70
     0
300
100:1
140
100.0
141
1.0
290
     0
  0
SCALE
  5
263
102
{ACAD_REACTORS
330
251
102
}
330
251
100
AcDbScale
 70
     0
300
1/128" = 1'-0"
140
0.0078125
141
12.0
290
     0
  0
SCALE
  5
264
102
{ACAD_REACTORS
330
251
102
}
330
251
100
AcDbScale
 70
     0
300
1/64" = 1'-0"
140
0.015625
141
12.0
290
     0
  0
SCALE
  5
265
102
{ACAD_REACTORS
330
251
102
}
330
251
100
AcDbScale
 70
     0
300
1/32" = 1'-0"
140
0.03125
141
12.0
290
     0
  0
SCALE
  5
266
102
{ACAD_REACTORS
330
251
102
}
330
251
100
AcDbScale
 70
     0
300
1/16" = 1'-0"
140
0.0625
141
12.0
290
     0
  0
SCALE
  5
267
102
{ACAD_REACTORS
330
251
102
}
330
251
100
AcDbScale
 70
     0
300
3/32" = 1'-0"
140
0.09375
141
12.0
290
     0
  0
SCALE
  5
268
102
{ACAD_REACTORS
330
251
102
}
330
251
100
AcDbScale
 70
     0
300
1/8" = 1'-0"
140
0.125
141
12.0
290
     0
  0
SCALE
  5
269
102
{ACAD_REACTORS
330
251
102
}
330
251
100
AcDbScale
 70
     0
300
3/16" = 1'-0"
140
0.1875
141
12.0
290
     0
  0
SCALE
  5
26A
102
{ACAD_REACTORS
330
251
102
}
330
251
100
AcDbScale
 70
     0
300
1/4" = 1'-0"
140
0.25
141
12.0
290
     0
  0
SCALE
  5
26B
102
{ACAD_REACTORS
330
251
102
}
330
251
100
AcDbScale
 70
     0
300
3/8" = 1'-0"
140
0.375
141
12.0
290
     0
  0
SCALE
  5
26C
102
{ACAD_REACTORS
330
251
102
}
330
251
100
AcDbScale
 70
     0
300
1/2" = 1'-0"
140
0.5
141
12.0
290
     0
  0
SCALE
  5
26D
102
{ACAD_REACTORS
330
251
102
}
330
251
100
AcDbScale
 70
     0
300
3/4" = 1'-0"
140
0.75
141
12.0
290
     0
  0
SCALE
  5
26E
102
{ACAD_REACTORS
330
251
102
}
330
251
100
AcDbScale
 70
     0
300
1" = 1'-0"
140
1.0
141
12.0
290
     0
  0
SCALE
  5
26F
102
{ACAD_REACTORS
330
251
102
}
330
251
100
AcDbScale
 70
     0
300
1-1/2" = 1'-0"
140
1.5
141
12.0
290
     0
  0
SCALE
  5
270
102
{ACAD_REACTORS
330
251
102
}
330
251
100
AcDbScale
 70
     0
300
3" = 1'-0"
140
3.0
141
12.0
290
     0
  0
SCALE
  5
271
102
{ACAD_REACTORS
330
251
102
}
330
251
100
AcDbScale
 70
     0
300
6" = 1'-0"
140
6.0
141
12.0
290
     0
  0
SCALE
  5
272
102
{ACAD_REACTORS
330
251
102
}
330
251
100
AcDbScale
 70
     0
300
1'-0" = 1'-0"
140
12.0
141
12.0
290
     0
  0
TABLESTYLE
  5
245
102
{ACAD_XDICTIONARY
360
29E
102
}
102
{ACAD_REACTORS
330
244
102
}
330
244
100
AcDbTableStyle
  3
Standard
 70
     0
 71
     0
 40
0.06
 41
0.06
280
     0
281
     0
  7
Standard
140
0.18
170
     2
 62
     0
 63
     7
283
     0
274
    -2
284
     1
 64
     0
275
    -2
285
     1
 65
     0
276
    -2
286
     1
 66
     0
277
    -2
287
     1
 67
     0
278
    -2
288
     1
 68
     0
279
    -2
289
     1
 69
     0
  7
Standard
140
0.25
170
     5
 62
     0
 63
     7
283
     0
274
    -2
284
     1
 64
     0
275
    -2
285
     1
 65
     0
276
    -2
286
     1
 66
     0
277
    -2
287
     1
 67
     0
278
    -2
288
     1
 68
     0
279
    -2
289
     1
 69
     0
  7
Standard
140
0.18
170
     5
 62
     0
 63
     7
283
     0
274
    -2
284
     1
 64
     0
275
    -2
285
     1
 65
     0
276
    -2
286
     1
 66
     0
277
    -2
287
     1
 67
     0
278
    -2
288
     1
 68
     0
279
    -2
289
     1
 69
     0
  0
VISUALSTYLE
  5
238
102
{ACAD_REACTORS
330
232
102
}
330
232
100
AcDbVisualStyle
  2
2dWireframe
 70
     4
 71
     0
 72
     2
 73
     0
 90
        0
 40
-0.6
 41
-30.0
 62
     5
 63
     7
421
 16777215
 74
     1
 91
        4
 64
     7
 65
   257
 75
     1
175
     1
 42
1.0
 92
        0
 66
   257
 43
1.0
 76
     1
 77
     6
 78
     2
 67
     7
 79
     5
170
     0
171
     0
290
     0
174
     0
 93
        1
 44
0.0
173
     0
291
     0
 45
0.0
1001
ACAD
1000
AcDbSavedByObjectVersion
1070
     0
  0
VISUALSTYLE
  5
23A
102
{ACAD_REACTORS
330
232
102
}
330
232
100
AcDbVisualStyle
  2
3D Hidden
 70
     6
 71
     1
 72
     2
 73
     2
 90
        0
 40
-0.6
 41
-30.0
 62
     5
 63
     7
421
 16777215
 74
     2
 91
        2
 64
     7
 65
   257
 75
     2
175
     1
 42
40.0
 92
        0
 66
   257
 43
1.0
 76
     1
 77
     6
 78
     2
 67
     7
 79
     3
170
     0
171
     0
290
     0
174
     0
 93
        1
 44
0.0
173
     0
291
     0
 45
0.0
1001
ACAD
1000
AcDbSavedByObjectVersion
1070
     0
  0
VISUALSTYLE
  5
239
102
{ACAD_REACTORS
330
232
102
}
330
232
100
AcDbVisualStyle
  2
3dWireframe
 70
     5
 71
     0
 72
     2
 73
     0
 90
        0
 40
-0.6
 41
-30.0
 62
     5
 63
     7
421
 16777215
 74
     1
 91
        4
 64
     7
 65
   257
 75
     1
175
     1
 42
1.0
 92
        0
 66
   257
 43
1.0
 76
     1
 77
     6
 78
     2
 67
     7
 79
     5
170
     0
171
     0
290
     0
174
     0
 93
        1
 44
0.0
173
     0
291
     0
 45
0.0
1001
ACAD
1000
AcDbSavedByObjectVersion
1070
     0
  0
VISUALSTYLE
  5
237
102
{ACAD_REACTORS
330
232
102
}
330
232
100
AcDbVisualStyle
  2
Basic
 70
     7
 71
     1
 72
     0
 73
     1
 90
        0
 40
-0.6
 41
-30.0
 62
     5
 63
     7
421
 16777215
 74
     0
 91
        4
 64
     7
 65
   257
 75
     1
175
     1
 42
1.0
 92
        8
 66
     7
 43
1.0
 76
     1
 77
     6
 78
     2
 67
     7
 79
     5
170
     0
171
     0
290
     0
174
     0
 93
        1
 44
0.0
173
     0
291
     1
 45
0.0
1001
ACAD
1000
AcDbSavedByObjectVersion
1070
     0
  0
VISUALSTYLE
  5
23E
102
{ACAD_REACTORS
330
232
102
}
330
232
100
AcDbVisualStyle
  2
Brighten
 70
    12
 71
     2
 72
     2
 73
     0
 90
        0
 40
-0.6
 41
-30.0
 62
     5
 63
     7
421
 16777215
 74
     1
 91
        4
 64
     7
 65
   257
 75
     1
175
     1
 42
1.0
 92
        8
 66
     7
 43
1.0
 76
     1
 77
     6
 78
     2
 67
     7
 79
     5
170
     0
171
     0
290
     0
174
     0
 93
        1
 44
50.0
173
     0
291
     1
 45
0.0
1001
ACAD
1000
AcDbSavedByObjectVersion
1070
     0
  0
VISUALSTYLE
  5
242
102
{ACAD_REACTORS
330
232
102
}
330
232
100
AcDbVisualStyle
  2
ColorChange
 70
    16
 71
     2
 72
     2
 73
     3
 90
        0
 40
-0.6
 41
-30.0
 62
     5
 63
     8
421
  8421504
 74
     1
 91
        4
 64
     7
 65
   257
 75
     1
175
     1
 42
1.0
 92
        8
 66
     8
424
  8421504
 43
1.0
 76
     1
 77
     6
 78
     2
 67
     7
 79
     5
170
     0
171
     0
290
     0
174
     0
 93
        1
 44
0.0
173
     0
291
     1
 45
0.0
1001
ACAD
1000
AcDbSavedByObjectVersion
1070
     0
  0
VISUALSTYLE
  5
23B
102
{ACAD_REACTORS
330
232
102
}
330
232
100
AcDbVisualStyle
  2
Conceptual
 70
     9
 71
     3
 72
     2
 73
     0
 90
        0
 40
-0.6
 41
-30.0
 62
     5
 63
     7
421
 16777215
 74
     2
 91
        2
 64
     7
 65
   257
 75
     1
175
     1
 42
40.0
 92
        8
 66
     7
 43
1.0
 76
     1
 77
     6
 78
     2
 67
     7
 79
     3
170
     0
171
     0
290
     0
174
     0
 93
        1
 44
0.0
173
     0
291
     0
 45
0.0
1001
ACAD
1000
AcDbSavedByObjectVersion
1070
     0
  0
VISUALSTYLE
  5
23D
102
{ACAD_REACTORS
330
232
102
}
330
232
100
AcDbVisualStyle
  2
Dim
 70
    11
 71
     2
 72
     2
 73
     0
 90
        0
 40
-0.6
 41
-30.0
 62
     5
 63
     7
421
 16777215
 74
     1
 91
        4
 64
     7
 65
   257
 75
     1
175
     1
 42
1.0
 92
        8
 66
     7
 43
1.0
 76
     1
 77
     6
 78
     2
 67
     7
 79
     5
170
     0
171
     0
290
     0
174
     0
 93
        1
 44
-50.0
173
     0
291
     1
 45
0.0
1001
ACAD
1000
AcDbSavedByObjectVersion
1070
     0
  0
VISUALSTYLE
  5
241
102
{ACAD_REACTORS
330
232
102
}
330
232
100
AcDbVisualStyle
  2
Facepattern
 70
    15
 71
     2
 72
     2
 73
     0
 90
        0
 40
-0.6
 41
-30.0
 62
     5
 63
     7
421
 16777215
 74
     1
 91
        4
 64
     7
 65
   257
 75
     1
175
     1
 42
1.0
 92
        8
 66
     7
 43
1.0
 76
     1
 77
     6
 78
     2
 67
     7
 79
     5
170
     0
171
     0
290
     0
174
     0
 93
        1
 44
0.0
173
     0
291
     1
 45
0.0
1001
ACAD
1000
AcDbSavedByObjectVersion
1070
     0
  0
VISUALSTYLE
  5
233
102
{ACAD_REACTORS
330
232
102
}
330
232
100
AcDbVisualStyle
  2
Flat
 70
     0
 71
     2
 72
     1
 73
     1
 90
        2
 40
-0.6
 41
30.0
 62
     5
 63
     7
421
 16777215
 74
     0
 91
        4
 64
     7
 65
   257
 75
     1
175
     1
 42
1.0
 92
        8
 66
     7
 43
1.0
 76
     1
 77
     6
 78
     2
 67
     7
 79
     5
170
     0
171
     0
290
     0
174
     0
 93
       13
 44
0.0
173
     0
291
     1
 45
0.0
1001
ACAD
1000
AcDbSavedByObjectVersion
1070
     0
  0
VISUALSTYLE
  5
234
102
{ACAD_REACTORS
330
232
102
}
330
232
100
AcDbVisualStyle
  2
FlatWithEdges
 70
     1
 71
     2
 72
     1
 73
     1
 90
        2
 40
-0.6
 41
30.0
 62
     5
 63
     7
421
 16777215
 74
     1
 91
        4
 64
     7
 65
   257
 75
     1
175
     1
 42
1.0
 92
        0
 66
   257
 43
1.0
 76
     1
 77
     6
 78
     2
 67
     7
 79
     5
170
     0
171
     0
290
     0
174
     0
 93
       13
 44
0.0
173
     0
291
     1
 45
0.0
1001
ACAD
1000
AcDbSavedByObjectVersion
1070
     0
  0
VISUALSTYLE
  5
235
102
{ACAD_REACTORS
330
232
102
}
330
232
100
AcDbVisualStyle
  2
Gouraud
 70
     2
 71
     2
 72
     2
 73
     1
 90
        2
 40
-0.6
 41
30.0
 62
     5
 63
     7
421
 16777215
 74
     0
 91
        4
 64
     7
 65
   257
 75
     1
175
     1
 42
1.0
 92
        0
 66
     7
 43
1.0
 76
     1
 77
     6
 78
     2
 67
     7
 79
     5
170
     0
171
     0
290
     0
174
     0
 93
       13
 44
0.0
173
     0
291
     1
 45
0.0
1001
ACAD
1000
AcDbSavedByObjectVersion
1070
     0
  0
VISUALSTYLE
  5
236
102
{ACAD_REACTORS
330
232
102
}
330
232
100
AcDbVisualStyle
  2
GouraudWithEdges
 70
     3
 71
     2
 72
     2
 73
     1
 90
        2
 40
-0.6
 41
30.0
 62
     5
 63
     7
421
 16777215
 74
     1
 91
        4
 64
     7
 65
   257
 75
     1
175
     1
 42
1.0
 92
        0
 66
   257
 43
1.0
 76
     1
 77
     6
 78
     2
 67
     7
 79
     5
170
     0
171
     0
290
     0
174
     0
 93
       13
 44
0.0
173
     0
291
     1
 45
0.0
1001
ACAD
1000
AcDbSavedByObjectVersion
1070
     0
  0
VISUALSTYLE
  5
240
102
{ACAD_REACTORS
330
232
102
}
330
232
100
AcDbVisualStyle
  2
Linepattern
 70
    14
 71
     2
 72
     2
 73
     0
 90
        0
 40
-0.6
 41
-30.0
 62
     5
 63
     7
421
 16777215
 74
     1
 91
        4
 64
     7
 65
   257
 75
     7
175
     7
 42
1.0
 92
        8
 66
     7
 43
1.0
 76
     1
 77
     6
 78
     2
 67
     7
 79
     5
170
     0
171
     0
290
     0
174
     0
 93
        1
 44
0.0
173
     0
291
     1
 45
0.0
1001
ACAD
1000
AcDbSavedByObjectVersion
1070
     0
  0
VISUALSTYLE
  5
23C
102
{ACAD_REACTORS
330
232
102
}
330
232
100
AcDbVisualStyle
  2
Realistic
 70
     8
 71
     2
 72
     2
 73
     0
 90
        0
 40
-0.6
 41
-30.0
 62
     5
 63
     7
421
 16777215
 74
     1
 91
        0
 64
     7
 65
   257
 75
     1
175
     1
 42
1.0
 92
        8
 66
     8
424
  7895160
 43
1.0
 76
     1
 77
     6
 78
     2
 67
     7
 79
     5
170
     0
171
     0
290
     0
174
     0
 93
       13
 44
0.0
173
     0
291
     0
 45
0.0
1001
ACAD
1000
AcDbSavedByObjectVersion
1070
     0
  0
VISUALSTYLE
  5
23F
102
{ACAD_REACTORS
330
232
102
}
330
232
100
AcDbVisualStyle
  2
Thicken
 70
    13
 71
     2
 72
     2
 73
     0
 90
        0
 40
-0.6
 41
-30.0
 62
     5
 63
     7
421
 16777215
 74
     1
 91
        4
 64
     7
 65
   257
 75
     1
175
     1
 42
1.0
 92
       12
 66
     7
 43
1.0
 76
     1
 77
     6
 78
     2
 67
     7
 79
     5
170
     0
171
     0
290
     0
174
     0
 93
        1
 44
0.0
173
     0
291
     1
 45
0.0
1001
ACAD
1000
AcDbSavedByObjectVersion
1070
     0
  0
DICTIONARYVAR
  5
29D
102
{ACAD_REACTORS
330
24E
102
}
330
24E
100
DictionaryVariables
280
     0
  1
1:1
  0
DICTIONARYVAR
  5
29C
102
{ACAD_REACTORS
330
24E
102
}
330
24E
100
DictionaryVariables
280
     0
  1
STANDARD
  0
DICTIONARYVAR
  5
24F
102
{ACAD_REACTORS
330
24E
102
}
330
24E
100
DictionaryVariables
280
     0
  1
STANDARD
  0
DICTIONARY
  5
2A3
330
230
100
AcDbDictionary
280
     1
281
     1
  3
ACAD_XREC_ROUNDTRIP
360
2A4
  0
DICTIONARY
  5
2A1
330
22F
100
AcDbDictionary
280
     1
281
     1
  3
ACAD_XREC_ROUNDTRIP
360
2A2
  0
DICTIONARY
  5
2A5
330
231
100
AcDbDictionary
280
     1
281
     1
  3
ACAD_XREC_ROUNDTRIP
360
2A6
  0
DICTIONARY
  5
29E
330
245
100
AcDbDictionary
280
     1
281
     1
  3
ACAD_ROUNDTRIP_2008_TABLESTYLE_CELLSTYLEMAP
360
29F
  3
ACAD_XREC_ROUNDTRIP
360
2A7
  0
XRECORD
  5
2A4
102
{ACAD_REACTORS
330
2A3
102
}
330
2A3
100
AcDbXrecord
280
     1
102
MATERIAL
148
0.0
149
0.0
149
0.0
 93
        0
 94
       63
282
     0
 72
     1
 77
     1
171
     1
175
     1
179
     1
273
     0
  0
XRECORD
  5
2A2
102
{ACAD_REACTORS
330
2A1
102
}
330
2A1
100
AcDbXrecord
280
     1
102
MATERIAL
148
0.0
149
0.0
149
0.0
 93
        0
 94
       63
282
     0
 72
     1
 77
     1
171
     1
175
     1
179
     1
273
     0
  0
XRECORD
  5
2A6
102
{ACAD_REACTORS
330
2A5
102
}
330
2A5
100
AcDbXrecord
280
     1
102
MATERIAL
148
0.0
149
0.0
149
0.0
 93
        0
 94
       63
282
     0
 72
     1
 77
     1
171
     1
175
     1
179
     1
273
     0
  0
CELLSTYLEMAP
  5
29F
102
{ACAD_REACTORS
330
29E
102
}
330
29E
100
AcDbCellStyleMap
 90
        3
300
CELLSTYLE
  1
TABLEFORMAT_BEGIN
 90
        5
170
     1
 91
        0
 92
    32768
 62
   257
 93
        1
300
CONTENTFORMAT
  1
CONTENTFORMAT_BEGIN
 90
        0
 91
        0
 92
      512
 93
        0
300

 40
0.0
140
1.0
 94
        5
 62
     0
340
17
144
0.25
309
CONTENTFORMAT_END
171
     0
 94
        6
 95
        1
302
GRIDFORMAT
  1
GRIDFORMAT_BEGIN
 90
        0
 91
        1
 62
     0
 92
       -2
340
0
 93
        0
 40
0.045
309
GRIDFORMAT_END
 95
        2
302
GRIDFORMAT
  1
GRIDFORMAT_BEGIN
 90
        0
 91
        1
 62
     0
 92
       -2
340
0
 93
        0
 40
0.045
309
GRIDFORMAT_END
 95
        4
302
GRIDFORMAT
  1
GRIDFORMAT_BEGIN
 90
        0
 91
        1
 62
     0
 92
       -2
340
0
 93
        0
 40
0.045
309
GRIDFORMAT_END
 95
        8
302
GRIDFORMAT
  1
GRIDFORMAT_BEGIN
 90
        0
 91
        1
 62
     0
 92
       -2
340
0
 93
        0
 40
0.045
309
GRIDFORMAT_END
 95
       16
302
GRIDFORMAT
  1
GRIDFORMAT_BEGIN
 90
        0
 91
        1
 62
     0
 92
       -2
340
0
 93
        0
 40
0.045
309
GRIDFORMAT_END
 95
       32
302
GRIDFORMAT
  1
GRIDFORMAT_BEGIN
 90
        0
 91
        1
 62
     0
 92
       -2
340
0
 93
        0
 40
0.045
309
GRIDFORMAT_END
309
TABLEFORMAT_END
  1
CELLSTYLE_BEGIN
 90
        1
 91
        1
300
_TITLE
309
CELLSTYLE_END
300
CELLSTYLE
  1
TABLEFORMAT_BEGIN
 90
        5
170
     1
 91
        0
 92
        0
 62
   257
 93
        1
300
CONTENTFORMAT
  1
CONTENTFORMAT_BEGIN
 90
        0
 91
        0
 92
      512
 93
        0
300

 40
0.0
140
1.0
 94
        5
 62
     0
340
17
144
0.18
309
CONTENTFORMAT_END
171
     0
 94
        6
 95
        1
302
GRIDFORMAT
  1
GRIDFORMAT_BEGIN
 90
        0
 91
        1
 62
     0
 92
       -2
340
0
 93
        0
 40
0.045
309
GRIDFORMAT_END
 95
        2
302
GRIDFORMAT
  1
GRIDFORMAT_BEGIN
 90
        0
 91
        1
 62
     0
 92
       -2
340
0
 93
        0
 40
0.045
309
GRIDFORMAT_END
 95
        4
302
GRIDFORMAT
  1
GRIDFORMAT_BEGIN
 90
        0
 91
        1
 62
     0
 92
       -2
340
0
 93
        0
 40
0.045
309
GRIDFORMAT_END
 95
        8
302
GRIDFORMAT
  1
GRIDFORMAT_BEGIN
 90
        0
 91
        1
 62
     0
 92
       -2
340
0
 93
        0
 40
0.045
309
GRIDFORMAT_END
 95
       16
302
GRIDFORMAT
  1
GRIDFORMAT_BEGIN
 90
        0
 91
        1
 62
     0
 92
       -2
340
0
 93
        0
 40
0.045
309
GRIDFORMAT_END
 95
       32
302
GRIDFORMAT
  1
GRIDFORMAT_BEGIN
 90
        0
 91
        1
 62
     0
 92
       -2
340
0
 93
        0
 40
0.045
309
GRIDFORMAT_END
309
TABLEFORMAT_END
  1
CELLSTYLE_BEGIN
 90
        2
 91
        1
300
_HEADER
309
CELLSTYLE_END
300
CELLSTYLE
  1
TABLEFORMAT_BEGIN
 90
        5
170
     1
 91
        0
 92
        0
 62
   257
 93
        1
300
CONTENTFORMAT
  1
CONTENTFORMAT_BEGIN
 90
        0
 91
        0
 92
      512
 93
        0
300

 40
0.0
140
1.0
 94
        2
 62
     0
340
17
144
0.18
309
CONTENTFORMAT_END
171
     0
 94
        6
 95
        1
302
GRIDFORMAT
  1
GRIDFORMAT_BEGIN
 90
        0
 91
        1
 62
     0
 92
       -2
340
0
 93
        0
 40
0.045
309
GRIDFORMAT_END
 95
        2
302
GRIDFORMAT
  1
GRIDFORMAT_BEGIN
 90
        0
 91
        1
 62
     0
 92
       -2
340
0
 93
        0
 40
0.045
309
GRIDFORMAT_END
 95
        4
302
GRIDFORMAT
  1
GRIDFORMAT_BEGIN
 90
        0
 91
        1
 62
     0
 92
       -2
340
0
 93
        0
 40
0.045
309
GRIDFORMAT_END
 95
        8
302
GRIDFORMAT
  1
GRIDFORMAT_BEGIN
 90
        0
 91
        1
 62
     0
 92
       -2
340
0
 93
        0
 40
0.045
309
GRIDFORMAT_END
 95
       16
302
GRIDFORMAT
  1
GRIDFORMAT_BEGIN
 90
        0
 91
        1
 62
     0
 92
       -2
340
0
 93
        0
 40
0.045
309
GRIDFORMAT_END
 95
       32
302
GRIDFORMAT
  1
GRIDFORMAT_BEGIN
 90
        0
 91
        1
 62
     0
 92
       -2
340
0
 93
        0
 40
0.045
309
GRIDFORMAT_END
309
TABLEFORMAT_END
  1
CELLSTYLE_BEGIN
 90
        3
 91
        2
300
_DATA
309
CELLSTYLE_END
  0
XRECORD
  5
2A7
102
{ACAD_REACTORS
330
29E
102
}
330
29E
100
AcDbXrecord
280
     1
102
ACAD_ROUNDTRIP_PRE2007_TABLESTYLE
 90
      512
 91
        0
  1

 92
      512
 93
        0
  2

 94
      512
 95
        0
  3

  0
ENDSEC
  0
EOF
