  0
SECTION
  2
HEADER
  9
$ACADVER
  1
AC1018
  9
$ACADMAINTVER
 70
   104
  9
$DWGCODEPAGE
  3
ANSI_1252
  9
$LASTSAVEDBY
  1
EARL
  9
$INSBASE
 10
0.0
 20
0.0
 30
0.0
  9
$EXTMIN
 10
-0.0000000000000006
 20
-0.8190339212164122
 30
0.0
  9
$EXTMAX
 10
14.51673577678946
 20
5.625
 30
0.0
  9
$LIMMIN
 10
0.0
 20
0.0
  9
$LIMMAX
 10
0.0
 20
0.0
  9
$ORTHOMODE
 70
     0
  9
$REGENMODE
 70
     1
  9
$FILLMODE
 70
     1
  9
$QTEXTMODE
 70
     0
  9
$MIRRTEXT
 70
     1
  9
$LTSCALE
 40
1.0
  9
$ATTMODE
 70
     1
  9
$TEXTSIZE
 40
0.0
  9
$TRACEWID
 40
0.05
  9
$TEXTSTYLE
  7
Standard
  9
$CLAYER
  8
0
  9
$CELTYPE
  6
Continuous
  9
$CECOLOR
 62
   256
  9
$CELTSCALE
 40
1.0
  9
$DISPSILH
 70
     0
  9
$DIMSCALE
 40
1.0
  9
$DIMASZ
 40
0.18
  9
$DIMEXO
 40
0.0625
  9
$DIMDLI
 40
0.38
  9
$DIMRND
 40
0.0
  9
$DIMDLE
 40
0.0
  9
$DIMEXE
 40
0.18
  9
$DIMTP
 40
0.0
  9
$DIMTM
 40
0.0
  9
$DIMTXT
 40
0.18
  9
$DIMCEN
 40
0.09
  9
$DIMTSZ
 40
0.0
  9
$DIMTOL
 70
     0
  9
$DIMLIM
 70
     0
  9
$DIMTIH
 70
     1
  9
$DIMTOH
 70
     1
  9
$DIMSE1
 70
     0
  9
$DIMSE2
 70
     0
  9
$DIMTAD
 70
     0
  9
$DIMZIN
 70
     0
  9
$DIMBLK
  1

  9
$DIMASO
 70
     1
  9
$DIMSHO
 70
     1
  9
$DIMPOST
  1

  9
$DIMAPOST
  1

  9
$DIMALT
 70
     0
  9
$DIMALTD
 70
     2
  9
$DIMALTF
 40
25.4
  9
$DIMLFAC
 40
1.0
  9
$DIMTOFL
 70
     0
  9
$DIMTVP
 40
0.0
  9
$DIMTIX
 70
     0
  9
$DIMSOXD
 70
     0
  9
$DIMSAH
 70
     0
  9
$DIMBLK1
  1

  9
$DIMBLK2
  1

  9
$DIMSTYLE
  2
Standard
  9
$DIMCLRD
 70
     0
  9
$DIMCLRE
 70
     0
  9
$DIMCLRT
 70
     0
  9
$DIMTFAC
 40
1.0
  9
$DIMGAP
 40
0.09
  9
$DIMJUST
 70
     0
  9
$DIMSD1
 70
     0
  9
$DIMSD2
 70
     0
  9
$DIMTOLJ
 70
     1
  9
$DIMTZIN
 70
     0
  9
$DIMALTZ
 70
     0
  9
$DIMALTTZ
 70
     0
  9
$DIMUPT
 70
     0
  9
$DIMDEC
 70
     4
  9
$DIMTDEC
 70
     4
  9
$DIMALTU
 70
     2
  9
$DIMALTTD
 70
     2
  9
$DIMTXSTY
  7
Standard
  9
$DIMAUNIT
 70
     0
  9
$DIMADEC
 70
     0
  9
$DIMALTRND
 40
0.0
  9
$DIMAZIN
 70
     0
  9
$DIMDSEP
 70
    46
  9
$DIMATFIT
 70
     0
  9
$DIMFRAC
 70
     0
  9
$DIMLDRBLK
  1

  9
$DIMLUNIT
 70
     2
  9
$DIMLWD
 70
    -2
  9
$DIMLWE
 70
    -2
  9
$DIMTMOVE
 70
     0
  9
$LUNITS
 70
     2
  9
$LUPREC
 70
     4
  9
$SKETCHINC
 40
0.1
  9
$FILLETRAD
 40
0.0
  9
$AUNITS
 70
     0
  9
$AUPREC
 70
     0
  9
$MENU
  1
acad
  9
$ELEVATION
 40
0.0
  9
$PELEVATION
 40
0.0
  9
$THICKNESS
 40
0.0
  9
$LIMCHECK
 70
     0
  9
$CHAMFERA
 40
0.0
  9
$CHAMFERB
 40
0.0
  9
$CHAMFERC
 40
0.0
  9
$CHAMFERD
 40
0.0
  9
$SKPOLY
 70
     0
  9
$TDCREATE
 40
2455006.786805556
  9
$TDUCREATE
 40
2455006.953472222
  9
$TDUPDATE
 40
2455105.510179028
  9
$TDUUPDATE
 40
2455105.676845695
  9
$TDINDWG
 40
0.0008895833
  9
$TDUSRTIMER
 40
0.0008895833
  9
$USRTIMER
 70
     1
  9
$ANGBASE
 50
0.0
  9
$ANGDIR
 70
     0
  9
$PDMODE
 70
     0
  9
$PDSIZE
 40
0.0
  9
$PLINEWID
 40
0.0
  9
$SPLFRAME
 70
     0
  9
$SPLINETYPE
 70
     6
  9
$SPLINESEGS
 70
     8
  9
$HANDSEED
  5
2AB
  9
$SURFTAB1
 70
     6
  9
$SURFTAB2
 70
     6
  9
$SURFTYPE
 70
     6
  9
$SURFU
 70
     6
  9
$SURFV
 70
     6
  9
$UCSBASE
  2

  9
$UCSNAME
  2

  9
$UCSORG
 10
0.0
 20
0.0
 30
0.0
  9
$UCSXDIR
 10
1.0
 20
0.0
 30
0.0
  9
$UCSYDIR
 10
0.0
 20
1.0
 30
0.0
  9
$UCSORTHOREF
  2

  9
$UCSORTHOVIEW
 70
     0
  9
$UCSORGTOP
 10
0.0
 20
0.0
 30
0.0
  9
$UCSORGBOTTOM
 10
0.0
 20
0.0
 30
0.0
  9
$UCSORGLEFT
 10
0.0
 20
0.0
 30
0.0
  9
$UCSORGRIGHT
 10
0.0
 20
0.0
 30
0.0
  9
$UCSORGFRONT
 10
0.0
 20
0.0
 30
0.0
  9
$UCSORGBACK
 10
0.0
 20
0.0
 30
0.0
  9
$PUCSBASE
  2

  9
$PUCSNAME
  2

  9
$PUCSORG
 10
0.0
 20
0.0
 30
0.0
  9
$PUCSXDIR
 10
1.0
 20
0.0
 30
0.0
  9
$PUCSYDIR
 10
0.0
 20
1.0
 30
0.0
  9
$PUCSORTHOREF
  2

  9
$PUCSORTHOVIEW
 70
     0
  9
$PUCSORGTOP
 10
0.0
 20
0.0
 30
0.0
  9
$PUCSORGBOTTOM
 10
0.0
 20
0.0
 30
0.0
  9
$PUCSORGLEFT
 10
0.0
 20
0.0
 30
0.0
  9
$PUCSORGRIGHT
 10
0.0
 20
0.0
 30
0.0
  9
$PUCSORGFRONT
 10
0.0
 20
0.0
 30
0.0
  9
$PUCSORGBACK
 10
0.0
 20
0.0
 30
0.0
  9
$USERI1
 70
     0
  9
$USERI2
 70
     0
  9
$USERI3
 70
     0
  9
$USERI4
 70
     0
  9
$USERI5
 70
     0
  9
$USERR1
 40
0.0
  9
$USERR2
 40
0.0
  9
$USERR3
 40
0.0
  9
$USERR4
 40
0.0
  9
$USERR5
 40
0.0
  9
$WORLDVIEW
 70
     1
  9
$SHADEDGE
 70
     3
  9
$SHADEDIF
 70
    70
  9
$TILEMODE
 70
     0
  9
$MAXACTVP
 70
    16
  9
$PINSBASE
 10
0.0
 20
0.0
 30
0.0
  9
$PLIMCHECK
 70
     0
  9
$PEXTMIN
 10
-0.1078511654042842
 20
-0.0428332590943619
 30
-0.0015258207003583
  9
$PEXTMAX
 10
10.41132784741821
 20
8.033233211889179
 30
0.0000000349246037
  9
$PLIMMIN
 10
-0.3306119115190196
 20
-0.2812499079328949
  9
$PLIMMAX
 10
10.66938784818509
 20
8.218749851771214
  9
$UNITMODE
 70
     0
  9
$VISRETAIN
 70
     0
  9
$PLINEGEN
 70
     1
  9
$PSLTSCALE
 70
     0
  9
$TREEDEPTH
 70
  3020
  9
$CMLSTYLE
  2
Standard
  9
$CMLJUST
 70
     0
  9
$CMLSCALE
 40
1.0
  9
$PROXYGRAPHICS
 70
     0
  9
$MEASUREMENT
 70
     0
  9
$CELWEIGHT
370
     0
  9
$ENDCAPS
280
     0
  9
$JOINSTYLE
280
     0
  9
$LWDISPLAY
290
     0
  9
$INSUNITS
 70
     0
  9
$HYPERLINKBASE
  1

  9
$STYLESHEET
  1

  9
$XEDIT
290
     1
  9
$CEPSNTYPE
380
     0
  9
$PSTYLEMODE
290
     1
  9
$FINGERPRINTGUID
  2

  9
$VERSIONGUID
  2
{BB6FFE66-9300-4188-B1D9-9FF1BD9C6263}
  9
$EXTNAMES
290
     1
  9
$PSVPSCALE
 40
0.0
  9
$OLESTARTUP
290
     0
  9
$SORTENTS
280
   127
  9
$INDEXCTL
280
     0
  9
$HIDETEXT
280
     0
  9
$XCLIPFRAME
290
     0
  9
$HALOGAP
280
     0
  9
$OBSCOLOR
 70
   257
  9
$OBSLTYPE
280
     0
  9
$INTERSECTIONDISPLAY
280
     0
  9
$INTERSECTIONCOLOR
 70
   257
  9
$DIMASSOC
280
     1
  9
$PROJECTNAME
  1

  0
ENDSEC
  0
SECTION
  2
CLASSES
  0
CLASS
  1
IMAGE
  2
AcDbRasterImage
  3
ISM
 90
     2175
 91
        0
280
     0
281
     1
  0
CLASS
  1
DICTIONARYVAR
  2
AcDbDictionaryVar
  3
ObjectDBX Classes
 90
        0
 91
        5
280
     0
281
     0
  0
CLASS
  1
RASTERVARIABLES
  2
AcDbRasterVariables
  3
ISM
 90
        0
 91
        0
280
     0
281
     0
  0
CLASS
  1
IMAGEDEF
  2
AcDbRasterImageDef
  3
ISM
 90
        0
 91
        0
280
     0
281
     0
  0
CLASS
  1
IMAGEDEF_REACTOR
  2
AcDbRasterImageDefReactor
  3
ISM
 90
        1
 91
        0
280
     0
281
     0
  0
CLASS
  1
IDBUFFER
  2
AcDbIdBuffer
  3
ObjectDBX Classes
 90
        0
 91
        0
280
     0
281
     0
  0
CLASS
  1
SPATIAL_FILTER
  2
AcDbSpatialFilter
  3
ObjectDBX Classes
 90
        0
 91
        0
280
     0
281
     0
  0
CLASS
  1
SORTENTSTABLE
  2
AcDbSortentsTable
  3
ObjectDBX Classes
 90
        0
 91
        0
280
     0
281
     0
  0
CLASS
  1
LAYER_INDEX
  2
AcDbLayerIndex
  3
ObjectDBX Classes
 90
        0
 91
        0
280
     0
281
     0
  0
CLASS
  1
SPATIAL_INDEX
  2
AcDbSpatialIndex
  3
ObjectDBX Classes
 90
        0
 91
        0
280
     0
281
     0
  0
CLASS
  1
OBJECT_PTR
  2
CAseDLPNTableRecord
  3
"ASE-LPNTableRecord"
 90
        1
 91
        0
280
     0
281
     0
  0
CLASS
  1
PLOTSETTINGS
  2
AcDbPlotSettings
  3
ObjectDBX Classes
 90
        0
 91
        0
280
     0
281
     0
  0
CLASS
  1
ACDBDICTIONARYWDFLT
  2
AcDbDictionaryWithDefault
  3
ObjectDBX Classes
 90
        0
 91
        1
280
     0
281
     0
  0
CLASS
  1
WIPEOUT
  2
AcDbWipeout
  3
"WipeOut|Product Desc: Object Enabler for WipeOut entity                        |Company: Autodesk, Inc.                        |WEB Address: www.autodesk.com"
 90
     2175
 91
        0
280
     0
281
     1
  0
CLASS
  1
WIPEOUTVARIABLES
  2
AcDbWipeoutVariables
  3
"WipeOut|Product Desc:     WipeOut Dbx Application|Company:          Autodesk, Inc.|WEB Address:      www.autodesk.com"
 90
        0
 91
        1
280
     0
281
     0
  0
CLASS
  1
RTEXT
  2
RText
  3
RText|AutoCAD Express Tool|expresstools@autodesk.com
 90
        0
 91
        0
280
     0
281
     1
  0
CLASS
  1
ARCALIGNEDTEXT
  2
AcDbArcAlignedText
  3
ATEXT|AutoCAD Express Tool|expresstools@autodesk.com
 90
        0
 91
        0
280
     0
281
     1
  0
CLASS
  1
MATERIAL
  2
AcDbMaterial
  3
ObjectDBX Classes
 90
     1153
 91
        3
280
     0
281
     0
  0
CLASS
  1
VISUALSTYLE
  2
AcDbVisualStyle
  3
ObjectDBX Classes
 90
     4095
 91
       16
280
     0
281
     0
  0
CLASS
  1
TABLESTYLE
  2
AcDbTableStyle
  3
ObjectDBX Classes
 90
     4095
 91
        1
280
     0
281
     0
  0
CLASS
  1
SCALE
  2
AcDbScale
  3
ObjectDBX Classes
 90
     1153
 91
       33
280
     0
281
     0
  0
CLASS
  1
MLEADERSTYLE
  2
AcDbMLeaderStyle
  3
ACDB_MLEADERSTYLE_CLASS
 90
     4095
 91
        1
280
     0
281
     0
  0
CLASS
  1
CELLSTYLEMAP
  2
AcDbCellStyleMap
  3
ObjectDBX Classes
 90
     1152
 91
        2
280
     0
281
     0
  0
ENDSEC
  0
SECTION
  2
TABLES
  0
TABLE
  2
VPORT
  5
7
330
0
100
AcDbSymbolTable
 70
     1
  0
VPORT
  5
15
330
7
100
AcDbSymbolTableRecord
100
AcDbViewportTableRecord
  2
*ACTIVE
 70
     0
 10
0.0
 20
0.0
 11
1.0
 21
1.0
 12
12.11780667605996
 22
4.579183999999999
 13
0.0
 23
0.0
 14
1.0
 24
1.0
 15
0.0
 25
0.0
 16
0.0
 26
0.0
 36
1.0
 17
0.0
 27
0.0
 37
0.0
 40
9.158369
 41
1.895442359249329
 42
50.0
 43
0.0
 44
0.0
 50
0.0
 51
0.0
 71
     0
 72
   100
 73
     1
 74
     1
 75
     0
 76
     0
 77
     0
 78
     0
281
     0
 65
     0
110
0.0
120
0.0
130
0.0
111
1.0
121
0.0
131
0.0
112
0.0
122
1.0
132
0.0
 79
     0
146
0.0
  0
ENDTAB
  0
TABLE
  2
LTYPE
  5
4
330
0
100
AcDbSymbolTable
 70
     4
  0
LTYPE
  5
11
330
4
100
AcDbSymbolTableRecord
100
AcDbLinetypeTableRecord
  2
ByBlock
 70
     0
  3

 72
    65
 73
     0
 40
0.0
  0
LTYPE
  5
12
330
4
100
AcDbSymbolTableRecord
100
AcDbLinetypeTableRecord
  2
ByLayer
 70
     0
  3

 72
    65
 73
     0
 40
0.0
  0
LTYPE
  5
13
330
4
100
AcDbSymbolTableRecord
100
AcDbLinetypeTableRecord
  2
Continuous
 70
     0
  3
Solid line
 72
    65
 73
     0
 40
0.0
  0
LTYPE
  5
24
330
4
100
AcDbSymbolTableRecord
100
AcDbLinetypeTableRecord
  2
solid
 70
     0
  3

 72
    65
 73
     0
 40
0.0
  0
LTYPE
  5
25
330
4
100
AcDbSymbolTableRecord
100
AcDbLinetypeTableRecord
  2
dashed
 70
     0
  3

 72
    65
 73
     0
 40
0.0
  0
LTYPE
  5
26
330
4
100
AcDbSymbolTableRecord
100
AcDbLinetypeTableRecord
  2
center
 70
     0
  3

 72
    65
 73
     0
 40
0.0
  0
ENDTAB
  0
TABLE
  2
LAYER
  5
2
330
0
100
AcDbSymbolTable
 70
     3
  0
LAYER
  5
14
102
{ACAD_XDICTIONARY
360
27F
102
}
330
2
100
AcDbSymbolTableRecord
100
AcDbLayerTableRecord
  2
0
 70
     0
 62
     7
  6
Continuous
370
    -3
390
1D
  0
LAYER
  5
27
102
{ACAD_XDICTIONARY
360
281
102
}
330
2
100
AcDbSymbolTableRecord
100
AcDbLayerTableRecord
  2
1
 70
     0
 62
     1
  6
solid
370
    -3
390
1D
  0
LAYER
  5
1FF
102
{ACAD_XDICTIONARY
360
283
102
}
330
2
100
AcDbSymbolTableRecord
100
AcDbLayerTableRecord
  2
0
 70
     0
 62
     1
  6
solid
370
    -3
390
1D
  0
ENDTAB
  0
TABLE
  2
STYLE
  5
3
330
0
100
AcDbSymbolTable
 70
     2
  0
STYLE
  5
17
330
3
100
AcDbSymbolTableRecord
100
AcDbTextStyleTableRecord
  2
Standard
 70
     0
 40
0.0
 41
1.0
 50
0.0
 71
     0
 42
0.0
  3
txt
  4

  0
ENDTAB
  0
TABLE
  2
VIEW
  5
5
330
0
100
AcDbSymbolTable
 70
     0
  0
ENDTAB
  0
TABLE
  2
UCS
  5
6
330
0
100
AcDbSymbolTable
 70
     0
  0
ENDTAB
  0
TABLE
  2
APPID
  5
8
330
0
100
AcDbSymbolTable
 70
     3
  0
APPID
  5
16
330
8
100
AcDbSymbolTableRecord
100
AcDbRegAppTableRecord
  2
ACAD
 70
     0
  0
APPID
  5
24E
330
8
100
AcDbSymbolTableRecord
100
AcDbRegAppTableRecord
  2
ACAD_PSEXT
 70
     0
  0
APPID
  5
278
330
8
100
AcDbSymbolTableRecord
100
AcDbRegAppTableRecord
  2
ACAD_MLEADERVER
 70
     0
  0
ENDTAB
  0
TABLE
  2
DIMSTYLE
  5
9
330
0
100
AcDbSymbolTable
 70
     2
100
AcDbDimStyleTable
 71
     1
340
18
  0
DIMSTYLE
105
18
102
{ACAD_REACTORS
330
3C
102
}
330
9
100
AcDbSymbolTableRecord
100
AcDbDimStyleTableRecord
  2
Standard
 70
     0
289
     0
340
17
  0
ENDTAB
  0
TABLE
  2
BLOCK_RECORD
  5
1
330
0
100
AcDbSymbolTable
 70
     2
  0
BLOCK_RECORD
  5
A
330
1
100
AcDbSymbolTableRecord
100
AcDbBlockTableRecord
  2
*MODEL_SPACE
340
20
  0
BLOCK_RECORD
  5
B
330
1
100
AcDbSymbolTableRecord
100
AcDbBlockTableRecord
  2
*PAPER_SPACE
340
21
  0
BLOCK_RECORD
  5
32
330
1
100
AcDbSymbolTableRecord
100
AcDbBlockTableRecord
  2
*D0
340
0
  0
ENDTAB
  0
ENDSEC
  0
SECTION
  2
BLOCKS
  0
BLOCK
  5
D
330
A
100
AcDbEntity
  8
0
100
AcDbBlockBegin
  2
*MODEL_SPACE
 70
     0
 10
0.0
 20
0.0
 30
0.0
  3
*MODEL_SPACE
  1

  0
ENDBLK
  5
E
330
A
100
AcDbEntity
  8
0
100
AcDbBlockEnd
  0
BLOCK
  5
F
330
B
100
AcDbEntity
 67
     1
  8
0
100
AcDbBlockBegin
  2
*PAPER_SPACE
 70
     0
 10
0.0
 20
0.0
 30
0.0
  3
*PAPER_SPACE
  1

  0
ENDBLK
  5
10
330
B
100
AcDbEntity
 67
     1
  8
0
100
AcDbBlockEnd
  0
BLOCK
  5
33
330
32
100
AcDbEntity
  8
1
  6
solid
 62
     7
100
AcDbBlockBegin
  2
*D0
 70
     0
 10
0.0
 20
0.0
 30
0.0
  3
*D0
  1

  0
LINE
  5
34
330
32
100
AcDbEntity
  8
1
  6
solid
 62
     7
100
AcDbLine
 10
12.87845039367676
 20
0.0
 30
0.0
 11
13.82923577678946
 21
0.0
 31
0.0
  0
LINE
  5
35
330
32
100
AcDbEntity
  8
1
  6
solid
 62
     7
100
AcDbLine
 10
12.87845039367676
 20
5.624999999999999
 30
0.0
 11
13.82923577678946
 21
5.624999999999998
 31
0.0
  0
LINE
  5
36
330
32
100
AcDbEntity
  8
1
  6
solid
 62
     7
100
AcDbLine
 10
13.64173577678946
 20
0.0
 30
0.0
 11
13.64173577678946
 21
2.332882211538459
 31
0.0
  0
LINE
  5
37
330
32
100
AcDbEntity
  8
1
  6
solid
 62
     7
100
AcDbLine
 10
13.64173577678946
 20
5.624999999999998
 30
0.0
 11
13.64173577678946
 21
3.292117788461537
 31
0.0
  0
MTEXT
  5
38
330
32
100
AcDbEntity
  8
1
  6
solid
 62
     7
100
AcDbMText
 10
13.64173577678946
 20
2.812499999999998
 30
0.0
 40
0.375
 41
0.0
 71
     5
 72
     1
  1
{\H0.375000;5 5/8}
 73
     1
 44
1.0
  0
SOLID
  5
39
330
32
100
AcDbEntity
  8
1
  6
solid
 62
     7
100
AcDbTrace
 10
13.57929827678946
 20
0.3750000000000004
 30
0.0
 11
13.70417327678946
 21
0.3749999999999996
 31
0.0
 12
13.64173577678946
 22
0.0
 32
0.0
 13
13.64173577678946
 23
0.0
 33
0.0
  0
SOLID
  5
3A
330
32
100
AcDbEntity
  8
1
  6
solid
 62
     7
100
AcDbTrace
 10
13.70417327678946
 20
5.249999999999998
 30
0.0
 11
13.57929827678946
 21
5.249999999999998
 31
0.0
 12
13.64173577678946
 22
5.624999999999998
 32
0.0
 13
13.64173577678946
 23
5.624999999999998
 33
0.0
  0
ENDBLK
  5
3B
330
32
100
AcDbEntity
  8
1
  6
solid
 62
     7
100
AcDbBlockEnd
  0
ENDSEC
  0
SECTION
  2
ENTITIES
  0
ARC
  5
28
330
A
100
AcDbEntity
  8
1
  6
solid
 62
     7
100
AcDbCircle
 10
6.25172472000122
 20
3.232727329860805
 30
0.0
 40
3.232727315108786
100
AcDbArc
 50
222.2694037891243
 51
317.7305962108755
  0
LINE
  5
29
330
A
100
AcDbEntity
  8
1
  6
solid
 62
     7
100
AcDbLine
 10
3.859537601470947
 20
1.058338522911071
 30
0.0
 11
3.125862316188189
 21
0.2473839920989129
 31
0.0
  0
LINE
  5
2A
330
A
100
AcDbEntity
  8
1
  6
solid
 62
     7
100
AcDbLine
 10
2.392187118530273
 20
1.058338522911071
 30
0.0
 11
3.12586240381303
 21
0.2473839920989129
 31
0.0
  0
LINE
  5
2B
330
A
100
AcDbEntity
  8
1
  6
solid
 62
     7
100
AcDbLine
 10
10.11126232147216
 20
1.058338522911071
 30
0.0
 11
9.37758703618941
 21
0.2473839920989129
 31
0.0
  0
LINE
  5
2C
330
A
100
AcDbEntity
  8
1
  6
solid
 62
     7
100
AcDbLine
 10
8.643911838531494
 20
1.058338522911071
 30
0.0
 11
9.377587123814251
 21
0.2473839920989129
 31
0.0
  0
ARC
  5
2D
330
A
100
AcDbEntity
  8
1
  6
solid
 62
     7
100
AcDbCircle
 10
0.0
 20
3.232727329860805
 30
0.0
 40
3.232727315108786
100
AcDbArc
 50
269.9999999999999
 51
317.7305962108755
  0
ARC
  5
2E
330
A
100
AcDbEntity
  8
1
  6
solid
 62
     7
100
AcDbCircle
 10
12.5034499168396
 20
3.232727329860805
 30
0.0
 40
3.232727315108786
100
AcDbArc
 50
222.2694037891243
 51
270.0000084513025
  0
LINE
  5
2F
330
A
100
AcDbEntity
  8
1
  6
solid
 62
     7
100
AcDbLine
 10
0.0
 20
0.0
 30
0.0
 11
0.0
 21
5.625
 31
0.0
  0
LINE
  5
30
330
A
100
AcDbEntity
  8
1
  6
solid
 62
     7
100
AcDbLine
 10
12.50345039367676
 20
0.0
 30
0.0
 11
12.50345039367676
 21
5.625
 31
0.0
  0
LINE
  5
31
330
A
100
AcDbEntity
  8
1
  6
solid
 62
     7
100
AcDbLine
 10
0.0
 20
5.625
 30
0.0
 11
12.50345039367676
 21
5.625
 31
0.0
  0
DIMENSION
  5
3C
330
A
100
AcDbEntity
  8
1
  6
solid
 62
     7
100
AcDbDimension
  2
*D0
 10
13.64173577678946
 20
2.812499999999998
 30
0.0
 11
13.64173577678946
 21
2.812499999999998
 31
0.0
 70
    33
 71
     5
 42
5.625
  3
Standard
100
AcDbAlignedDimension
 13
12.50345039367676
 23
5.625
 33
0.0
 14
12.50345039367676
 24
0.0
 34
0.0
1001
ACAD
1000
DSTYLE
1002
{
1070
    41
1040
0.375
1070
    42
1040
0.375
1070
    44
1040
0.1875
1070
    47
1040
0.0005
1070
    48
1040
0.0005
1070
    75
1070
     1
1070
    76
1070
     1
1070
   140
1040
0.375
1070
   146
1040
0.1666666666666666
1070
   270
1070
     5
1070
   271
1070
     3
1070
   272
1070
     3
1070
   277
1070
     5
1002
}
  0
LINE
  5
3D
330
A
100
AcDbEntity
  8
1
  6
solid
 62
     7
100
AcDbLine
 10
3.593060911489357
 20
-0.8190339212164122
 30
0.0
 11
3.593060911489357
 21
-0.754130075062566
 31
0.0
  0
LINE
  5
3E
330
A
100
AcDbEntity
  8
1
  6
solid
 62
     7
100
AcDbLine
 10
3.593060911489357
 20
-0.754130075062566
 30
0.0
 11
3.646982480116808
 21
-0.754130075062566
 31
0.0
  0
LINE
  5
3F
330
A
100
AcDbEntity
  8
1
  6
solid
 62
     7
100
AcDbLine
 10
3.646982480116808
 20
-0.754130075062566
 30
0.0
 11
3.646982480116808
 21
-0.3839377673702583
 31
0.0
  0
LINE
  5
40
330
A
100
AcDbEntity
  8
1
  6
solid
 62
     7
100
AcDbLine
 10
3.646982480116808
 20
-0.3839377673702583
 30
0.0
 11
3.590119735018769
 21
-0.3839377673702583
 31
0.0
  0
LINE
  5
41
330
A
100
AcDbEntity
  8
1
  6
solid
 62
     7
100
AcDbLine
 10
3.590119735018769
 20
-0.3839377673702583
 30
0.0
 11
3.590119735018769
 21
-0.3190339212164122
 31
0.0
  0
LINE
  5
42
330
A
100
AcDbEntity
  8
1
  6
solid
 62
     7
100
AcDbLine
 10
3.590119735018769
 20
-0.3190339212164122
 30
0.0
 11
3.717570715410925
 21
-0.3190339212164122
 31
0.0
  0
LINE
  5
43
330
A
100
AcDbEntity
  8
1
  6
solid
 62
     7
100
AcDbLine
 10
3.717570715410925
 20
-0.3190339212164122
 30
0.0
 11
3.717570715410925
 21
-0.754130075062566
 31
0.0
  0
LINE
  5
44
330
A
100
AcDbEntity
  8
1
  6
solid
 62
     7
100
AcDbLine
 10
3.717570715410925
 20
-0.754130075062566
 30
0.0
 11
3.777374636979553
 21
-0.754130075062566
 31
0.0
  0
LINE
  5
45
330
A
100
AcDbEntity
  8
1
  6
solid
 62
     7
100
AcDbLine
 10
3.777374636979553
 20
-0.754130075062566
 30
0.0
 11
3.777374636979553
 21
-0.8190339212164122
 31
0.0
  0
LINE
  5
46
330
A
100
AcDbEntity
  8
1
  6
solid
 62
     7
100
AcDbLine
 10
3.777374636979553
 20
-0.8190339212164122
 30
0.0
 11
3.593060911489357
 21
-0.8190339212164122
 31
0.0
  0
LINE
  5
47
330
A
100
AcDbEntity
  8
1
  6
solid
 62
     7
100
AcDbLine
 10
4.108747185999161
 20
-0.3190339212164122
 30
0.0
 11
3.896982480116808
 21
-0.8190339212164122
 31
0.0
  0
LINE
  5
48
330
A
100
AcDbEntity
  8
1
  6
solid
 62
     7
100
AcDbLine
 10
3.896982480116808
 20
-0.8190339212164122
 30
0.0
 11
3.858747185999161
 21
-0.8190339212164122
 31
0.0
  0
LINE
  5
49
330
A
100
AcDbEntity
  8
1
  6
solid
 62
     7
100
AcDbLine
 10
3.858747185999161
 20
-0.8190339212164122
 30
0.0
 11
4.070511891881514
 21
-0.3190339212164122
 31
0.0
  0
LINE
  5
4A
330
A
100
AcDbEntity
  8
1
  6
solid
 62
     7
100
AcDbLine
 10
4.070511891881514
 20
-0.3190339212164122
 30
0.0
 11
4.108747185999161
 21
-0.3190339212164122
 31
0.0
  0
LINE
  5
4B
330
A
100
AcDbEntity
  8
1
  6
solid
 62
     7
100
AcDbLine
 10
4.271492284038377
 20
-0.8190339212164122
 30
0.0
 11
4.271492284038377
 21
-0.754130075062566
 31
0.0
  0
LINE
  5
4C
330
A
100
AcDbEntity
  8
1
  6
solid
 62
     7
100
AcDbLine
 10
4.271492284038377
 20
-0.754130075062566
 30
0.0
 11
4.313649146783474
 21
-0.754130075062566
 31
0.0
  0
LINE
  5
4D
330
A
100
AcDbEntity
  8
1
  6
solid
 62
     7
100
AcDbLine
 10
4.313649146783474
 20
-0.754130075062566
 30
0.0
 11
4.313649146783474
 21
-0.6964377673702584
 31
0.0
  0
LINE
  5
4E
330
A
100
AcDbEntity
  8
1
  6
solid
 62
     7
100
AcDbLine
 10
4.313649146783474
 20
-0.6964377673702584
 30
0.0
 11
4.15874718599916
 21
-0.6964377673702584
 31
0.0
  0
LINE
  5
4F
330
A
100
AcDbEntity
  8
1
  6
solid
 62
     7
100
AcDbLine
 10
4.15874718599916
 20
-0.6964377673702584
 30
0.0
 11
4.15874718599916
 21
-0.6339377673702584
 31
0.0
  0
LINE
  5
50
330
A
100
AcDbEntity
  8
1
  6
solid
 62
     7
100
AcDbLine
 10
4.15874718599916
 20
-0.6339377673702584
 30
0.0
 11
4.313649146783474
 21
-0.3190339212164122
 31
0.0
  0
LINE
  5
51
330
A
100
AcDbEntity
  8
1
  6
solid
 62
     7
100
AcDbLine
 10
4.313649146783474
 20
-0.3190339212164122
 30
0.0
 11
4.364629538940337
 21
-0.3190339212164122
 31
0.0
  0
LINE
  5
52
330
A
100
AcDbEntity
  8
1
  6
solid
 62
     7
100
AcDbLine
 10
4.364629538940337
 20
-0.3190339212164122
 30
0.0
 11
4.364629538940337
 21
-0.6315339212164122
 31
0.0
  0
LINE
  5
53
330
A
100
AcDbEntity
  8
1
  6
solid
 62
     7
100
AcDbLine
 10
4.364629538940337
 20
-0.6315339212164122
 30
0.0
 11
4.40874718599916
 21
-0.6315339212164122
 31
0.0
  0
LINE
  5
54
330
A
100
AcDbEntity
  8
1
  6
solid
 62
     7
100
AcDbLine
 10
4.40874718599916
 20
-0.6315339212164122
 30
0.0
 11
4.40874718599916
 21
-0.6964377673702584
 31
0.0
  0
LINE
  5
55
330
A
100
AcDbEntity
  8
1
  6
solid
 62
     7
100
AcDbLine
 10
4.40874718599916
 20
-0.6964377673702584
 30
0.0
 11
4.364629538940337
 21
-0.6964377673702584
 31
0.0
  0
LINE
  5
56
330
A
100
AcDbEntity
  8
1
  6
solid
 62
     7
100
AcDbLine
 10
4.364629538940337
 20
-0.6964377673702584
 30
0.0
 11
4.364629538940337
 21
-0.754130075062566
 31
0.0
  0
LINE
  5
57
330
A
100
AcDbEntity
  8
1
  6
solid
 62
     7
100
AcDbLine
 10
4.364629538940337
 20
-0.754130075062566
 30
0.0
 11
4.40874718599916
 21
-0.754130075062566
 31
0.0
  0
LINE
  5
58
330
A
100
AcDbEntity
  8
1
  6
solid
 62
     7
100
AcDbLine
 10
4.40874718599916
 20
-0.754130075062566
 30
0.0
 11
4.40874718599916
 21
-0.8190339212164122
 31
0.0
  0
LINE
  5
59
330
A
100
AcDbEntity
  8
1
  6
solid
 62
     7
100
AcDbLine
 10
4.40874718599916
 20
-0.8190339212164122
 30
0.0
 11
4.271492284038377
 21
-0.8190339212164122
 31
0.0
  0
LINE
  5
5A
330
A
100
AcDbEntity
  8
1
  6
solid
 62
     7
100
AcDbLine
 10
4.212668754626612
 20
-0.6315339212164122
 30
0.0
 11
4.313649146783474
 21
-0.424803151985643
 31
0.0
  0
LINE
  5
5B
330
A
100
AcDbEntity
  8
1
  6
solid
 62
     7
100
AcDbLine
 10
4.313649146783474
 20
-0.424803151985643
 30
0.0
 11
4.313649146783474
 21
-0.6315339212164122
 31
0.0
  0
LINE
  5
5C
330
A
100
AcDbEntity
  8
1
  6
solid
 62
     7
100
AcDbLine
 10
4.313649146783474
 20
-0.6315339212164122
 30
0.0
 11
4.212668754626612
 21
-0.6315339212164122
 31
0.0
  0
LINE
  5
5D
330
A
100
AcDbEntity
  8
1
  6
solid
 62
     7
100
AcDbLine
 10
4.762668754626612
 20
-0.3190339212164122
 30
0.0
 11
4.762668754626612
 21
-0.3839377673702583
 31
0.0
  0
LINE
  5
5E
330
A
100
AcDbEntity
  8
1
  6
solid
 62
     7
100
AcDbLine
 10
4.762668754626612
 20
-0.3839377673702583
 30
0.0
 11
4.797962872273671
 21
-0.3839377673702583
 31
0.0
  0
LINE
  5
5F
330
A
100
AcDbEntity
  8
1
  6
solid
 62
     7
100
AcDbLine
 10
4.797962872273671
 20
-0.3839377673702583
 30
0.0
 11
4.863649146783474
 21
-0.56422622890872
 31
0.0
  0
LINE
  5
60
330
A
100
AcDbEntity
  8
1
  6
solid
 62
     7
100
AcDbLine
 10
4.863649146783474
 20
-0.56422622890872
 30
0.0
 11
4.791100127175631
 21
-0.754130075062566
 31
0.0
  0
LINE
  5
61
330
A
100
AcDbEntity
  8
1
  6
solid
 62
     7
100
AcDbLine
 10
4.791100127175631
 20
-0.754130075062566
 30
0.0
 11
4.758747185999161
 21
-0.754130075062566
 31
0.0
  0
LINE
  5
62
330
A
100
AcDbEntity
  8
1
  6
solid
 62
     7
100
AcDbLine
 10
4.758747185999161
 20
-0.754130075062566
 30
0.0
 11
4.758747185999161
 21
-0.8190339212164122
 31
0.0
  0
LINE
  5
63
330
A
100
AcDbEntity
  8
1
  6
solid
 62
     7
100
AcDbLine
 10
4.758747185999161
 20
-0.8190339212164122
 30
0.0
 11
4.863649146783474
 21
-0.8190339212164122
 31
0.0
  0
LINE
  5
64
330
A
100
AcDbEntity
  8
1
  6
solid
 62
     7
100
AcDbLine
 10
4.863649146783474
 20
-0.8190339212164122
 30
0.0
 11
4.863649146783474
 21
-0.754130075062566
 31
0.0
  0
LINE
  5
65
330
A
100
AcDbEntity
  8
1
  6
solid
 62
     7
100
AcDbLine
 10
4.863649146783474
 20
-0.754130075062566
 30
0.0
 11
4.836198166391318
 21
-0.754130075062566
 31
0.0
  0
LINE
  5
66
330
A
100
AcDbEntity
  8
1
  6
solid
 62
     7
100
AcDbLine
 10
4.836198166391318
 20
-0.754130075062566
 30
0.0
 11
4.884237382077592
 21
-0.6219185366010276
 31
0.0
  0
LINE
  5
67
330
A
100
AcDbEntity
  8
1
  6
solid
 62
     7
100
AcDbLine
 10
4.884237382077592
 20
-0.6219185366010276
 30
0.0
 11
4.931296205607004
 21
-0.754130075062566
 31
0.0
  0
LINE
  5
68
330
A
100
AcDbEntity
  8
1
  6
solid
 62
     7
100
AcDbLine
 10
4.931296205607004
 20
-0.754130075062566
 30
0.0
 11
4.905806009528572
 21
-0.754130075062566
 31
0.0
  0
LINE
  5
69
330
A
100
AcDbEntity
  8
1
  6
solid
 62
     7
100
AcDbLine
 10
4.905806009528572
 20
-0.754130075062566
 30
0.0
 11
4.905806009528572
 21
-0.8190339212164122
 31
0.0
  0
LINE
  5
6A
330
A
100
AcDbEntity
  8
1
  6
solid
 62
     7
100
AcDbLine
 10
4.905806009528572
 20
-0.8190339212164122
 30
0.0
 11
5.008747185999161
 21
-0.8190339212164122
 31
0.0
  0
LINE
  5
6B
330
A
100
AcDbEntity
  8
1
  6
solid
 62
     7
100
AcDbLine
 10
5.008747185999161
 20
-0.8190339212164122
 30
0.0
 11
5.008747185999161
 21
-0.754130075062566
 31
0.0
  0
LINE
  5
6C
330
A
100
AcDbEntity
  8
1
  6
solid
 62
     7
100
AcDbLine
 10
5.008747185999161
 20
-0.754130075062566
 30
0.0
 11
4.97639424482269
 21
-0.754130075062566
 31
0.0
  0
LINE
  5
6D
330
A
100
AcDbEntity
  8
1
  6
solid
 62
     7
100
AcDbLine
 10
4.97639424482269
 20
-0.754130075062566
 30
0.0
 11
4.905806009528572
 21
-0.56422622890872
 31
0.0
  0
LINE
  5
6E
330
A
100
AcDbEntity
  8
1
  6
solid
 62
     7
100
AcDbLine
 10
4.905806009528572
 20
-0.56422622890872
 30
0.0
 11
4.96953149972465
 21
-0.3839377673702583
 31
0.0
  0
LINE
  5
6F
330
A
100
AcDbEntity
  8
1
  6
solid
 62
     7
100
AcDbLine
 10
4.96953149972465
 20
-0.3839377673702583
 30
0.0
 11
5.00482561737171
 21
-0.3839377673702583
 31
0.0
  0
LINE
  5
70
330
A
100
AcDbEntity
  8
1
  6
solid
 62
     7
100
AcDbLine
 10
5.00482561737171
 20
-0.3839377673702583
 30
0.0
 11
5.00482561737171
 21
-0.3190339212164122
 31
0.0
  0
LINE
  5
71
330
A
100
AcDbEntity
  8
1
  6
solid
 62
     7
100
AcDbLine
 10
5.00482561737171
 20
-0.3190339212164122
 30
0.0
 11
4.899923656587396
 21
-0.3190339212164122
 31
0.0
  0
LINE
  5
72
330
A
100
AcDbEntity
  8
1
  6
solid
 62
     7
100
AcDbLine
 10
4.899923656587396
 20
-0.3190339212164122
 30
0.0
 11
4.899923656587396
 21
-0.3839377673702583
 31
0.0
  0
LINE
  5
73
330
A
100
AcDbEntity
  8
1
  6
solid
 62
     7
100
AcDbLine
 10
4.899923656587396
 20
-0.3839377673702583
 30
0.0
 11
4.92639424482269
 21
-0.3839377673702583
 31
0.0
  0
LINE
  5
74
330
A
100
AcDbEntity
  8
1
  6
solid
 62
     7
100
AcDbLine
 10
4.92639424482269
 20
-0.3839377673702583
 30
0.0
 11
4.884237382077592
 21
-0.50172622890872
 31
0.0
  0
LINE
  5
75
330
A
100
AcDbEntity
  8
1
  6
solid
 62
     7
100
AcDbLine
 10
4.884237382077592
 20
-0.50172622890872
 30
0.0
 11
4.841100127175631
 21
-0.3839377673702583
 31
0.0
  0
LINE
  5
76
330
A
100
AcDbEntity
  8
1
  6
solid
 62
     7
100
AcDbLine
 10
4.841100127175631
 20
-0.3839377673702583
 30
0.0
 11
4.867570715410925
 21
-0.3839377673702583
 31
0.0
  0
LINE
  5
77
330
A
100
AcDbEntity
  8
1
  6
solid
 62
     7
100
AcDbLine
 10
4.867570715410925
 20
-0.3839377673702583
 30
0.0
 11
4.867570715410925
 21
-0.3190339212164122
 31
0.0
  0
LINE
  5
78
330
A
100
AcDbEntity
  8
1
  6
solid
 62
     7
100
AcDbLine
 10
4.867570715410925
 20
-0.3190339212164122
 30
0.0
 11
4.762668754626612
 21
-0.3190339212164122
 31
0.0
  0
LINE
  5
79
330
A
100
AcDbEntity
  8
1
  6
solid
 62
     7
100
AcDbLine
 10
5.358747185999161
 20
-0.6796108442933353
 30
0.0
 11
5.366590323254063
 21
-0.7132646904471814
 31
0.0
  0
LINE
  5
7A
330
A
100
AcDbEntity
  8
1
  6
solid
 62
     7
100
AcDbLine
 10
5.366590323254063
 20
-0.7132646904471814
 30
0.0
 11
5.379335421293278
 21
-0.7421108442933353
 31
0.0
  0
LINE
  5
7B
330
A
100
AcDbEntity
  8
1
  6
solid
 62
     7
100
AcDbLine
 10
5.379335421293278
 20
-0.7421108442933353
 30
0.0
 11
5.39404130364622
 21
-0.7661493058317968
 31
0.0
  0
LINE
  5
7C
330
A
100
AcDbEntity
  8
1
  6
solid
 62
     7
100
AcDbLine
 10
5.39404130364622
 20
-0.7661493058317968
 30
0.0
 11
5.409727578156024
 21
-0.7877839212164122
 31
0.0
  0
LINE
  5
7D
330
A
100
AcDbEntity
  8
1
  6
solid
 62
     7
100
AcDbLine
 10
5.409727578156024
 20
-0.7877839212164122
 30
0.0
 11
5.429335421293279
 21
-0.802206998139489
 31
0.0
  0
LINE
  5
7E
330
A
100
AcDbEntity
  8
1
  6
solid
 62
     7
100
AcDbLine
 10
5.429335421293279
 20
-0.802206998139489
 30
0.0
 11
5.451884440901121
 21
-0.8118223827548737
 31
0.0
  0
LINE
  5
7F
330
A
100
AcDbEntity
  8
1
  6
solid
 62
     7
100
AcDbLine
 10
5.451884440901121
 20
-0.8118223827548737
 30
0.0
 11
5.477374636979553
 21
-0.8190339212164122
 31
0.0
  0
LINE
  5
80
330
A
100
AcDbEntity
  8
1
  6
solid
 62
     7
100
AcDbLine
 10
5.477374636979553
 20
-0.8190339212164122
 30
0.0
 11
5.493060911489357
 21
-0.8190339212164122
 31
0.0
  0
LINE
  5
81
330
A
100
AcDbEntity
  8
1
  6
solid
 62
     7
100
AcDbLine
 10
5.493060911489357
 20
-0.8190339212164122
 30
0.0
 11
5.525413852665828
 21
-0.8094185366010275
 31
0.0
  0
LINE
  5
82
330
A
100
AcDbEntity
  8
1
  6
solid
 62
     7
100
AcDbLine
 10
5.525413852665828
 20
-0.8094185366010275
 30
0.0
 11
5.550904048744259
 21
-0.7901877673702584
 31
0.0
  0
LINE
  5
83
330
A
100
AcDbEntity
  8
1
  6
solid
 62
     7
100
AcDbLine
 10
5.550904048744259
 20
-0.7901877673702584
 30
0.0
 11
5.570511891881514
 21
-0.768553151985643
 31
0.0
  0
LINE
  5
84
330
A
100
AcDbEntity
  8
1
  6
solid
 62
     7
100
AcDbLine
 10
5.570511891881514
 20
-0.768553151985643
 30
0.0
 11
5.588158950705043
 21
-0.7421108442933353
 31
0.0
  0
LINE
  5
85
330
A
100
AcDbEntity
  8
1
  6
solid
 62
     7
100
AcDbLine
 10
5.588158950705043
 20
-0.7421108442933353
 30
0.0
 11
5.600904048744259
 21
-0.706053151985643
 31
0.0
  0
LINE
  5
86
330
A
100
AcDbEntity
  8
1
  6
solid
 62
     7
100
AcDbLine
 10
5.600904048744259
 20
-0.706053151985643
 30
0.0
 11
5.605806009528572
 21
-0.6772069981394891
 31
0.0
  0
LINE
  5
87
330
A
100
AcDbEntity
  8
1
  6
solid
 62
     7
100
AcDbLine
 10
5.605806009528572
 20
-0.6772069981394891
 30
0.0
 11
5.608747185999161
 21
-0.6531685366010276
 31
0.0
  0
LINE
  5
88
330
A
100
AcDbEntity
  8
1
  6
solid
 62
     7
100
AcDbLine
 10
5.608747185999161
 20
-0.6531685366010276
 30
0.0
 11
5.608747185999161
 21
-0.62672622890872
 31
0.0
  0
LINE
  5
89
330
A
100
AcDbEntity
  8
1
  6
solid
 62
     7
100
AcDbLine
 10
5.608747185999161
 20
-0.62672622890872
 30
0.0
 11
5.603845225214847
 21
-0.5858608442933353
 31
0.0
  0
LINE
  5
8A
330
A
100
AcDbEntity
  8
1
  6
solid
 62
     7
100
AcDbLine
 10
5.603845225214847
 20
-0.5858608442933353
 30
0.0
 11
5.591100127175631
 21
-0.549803151985643
 31
0.0
  0
LINE
  5
8B
330
A
100
AcDbEntity
  8
1
  6
solid
 62
     7
100
AcDbLine
 10
5.591100127175631
 20
-0.549803151985643
 30
0.0
 11
5.581296205607004
 21
-0.5281685366010276
 31
0.0
  0
LINE
  5
8C
330
A
100
AcDbEntity
  8
1
  6
solid
 62
     7
100
AcDbLine
 10
5.581296205607004
 20
-0.5281685366010276
 30
0.0
 11
5.5656099310972
 21
-0.5065339212164122
 31
0.0
  0
LINE
  5
8D
330
A
100
AcDbEntity
  8
1
  6
solid
 62
     7
100
AcDbLine
 10
5.5656099310972
 20
-0.5065339212164122
 30
0.0
 11
5.547962872273671
 21
-0.4897069981394891
 31
0.0
  0
LINE
  5
8E
330
A
100
AcDbEntity
  8
1
  6
solid
 62
     7
100
AcDbLine
 10
5.547962872273671
 20
-0.4897069981394891
 30
0.0
 11
5.530315813450141
 21
-0.4752839212164122
 31
0.0
  0
LINE
  5
8F
330
A
100
AcDbEntity
  8
1
  6
solid
 62
     7
100
AcDbLine
 10
5.530315813450141
 20
-0.4752839212164122
 30
0.0
 11
5.512668754626612
 21
-0.4680723827548737
 31
0.0
  0
LINE
  5
90
330
A
100
AcDbEntity
  8
1
  6
solid
 62
     7
100
AcDbLine
 10
5.512668754626612
 20
-0.4680723827548737
 30
0.0
 11
5.487178558548181
 21
-0.4632646904471815
 31
0.0
  0
LINE
  5
91
330
A
100
AcDbEntity
  8
1
  6
solid
 62
     7
100
AcDbLine
 10
5.487178558548181
 20
-0.4632646904471815
 30
0.0
 11
5.47247267619524
 21
-0.4632646904471815
 31
0.0
  0
LINE
  5
92
330
A
100
AcDbEntity
  8
1
  6
solid
 62
     7
100
AcDbLine
 10
5.47247267619524
 20
-0.4632646904471815
 30
0.0
 11
5.451884440901121
 21
-0.4680723827548737
 31
0.0
  0
LINE
  5
93
330
A
100
AcDbEntity
  8
1
  6
solid
 62
     7
100
AcDbLine
 10
5.451884440901121
 20
-0.4680723827548737
 30
0.0
 11
5.434237382077592
 21
-0.4752839212164122
 31
0.0
  0
LINE
  5
94
330
A
100
AcDbEntity
  8
1
  6
solid
 62
     7
100
AcDbLine
 10
5.434237382077592
 20
-0.4752839212164122
 30
0.0
 11
5.424433460508964
 21
-0.4824954596779507
 31
0.0
  0
LINE
  5
95
330
A
100
AcDbEntity
  8
1
  6
solid
 62
     7
100
AcDbLine
 10
5.424433460508964
 20
-0.4824954596779507
 30
0.0
 11
5.442080519332494
 21
-0.3791300750625659
 31
0.0
  0
LINE
  5
96
330
A
100
AcDbEntity
  8
1
  6
solid
 62
     7
100
AcDbLine
 10
5.442080519332494
 20
-0.3791300750625659
 30
0.0
 11
5.5656099310972
 21
-0.3791300750625659
 31
0.0
  0
LINE
  5
97
330
A
100
AcDbEntity
  8
1
  6
solid
 62
     7
100
AcDbLine
 10
5.5656099310972
 20
-0.3791300750625659
 30
0.0
 11
5.5656099310972
 21
-0.3190339212164122
 31
0.0
  0
LINE
  5
98
330
A
100
AcDbEntity
  8
1
  6
solid
 62
     7
100
AcDbLine
 10
5.5656099310972
 20
-0.3190339212164122
 30
0.0
 11
5.409727578156024
 21
-0.3190339212164122
 31
0.0
  0
LINE
  5
99
330
A
100
AcDbEntity
  8
1
  6
solid
 62
     7
100
AcDbLine
 10
5.409727578156024
 20
-0.3190339212164122
 30
0.0
 11
5.358747185999161
 21
-0.6002839212164122
 31
0.0
  0
LINE
  5
9A
330
A
100
AcDbEntity
  8
1
  6
solid
 62
     7
100
AcDbLine
 10
5.358747185999161
 20
-0.6002839212164122
 30
0.0
 11
5.401884440901122
 21
-0.612303151985643
 31
0.0
  0
LINE
  5
9B
330
A
100
AcDbEntity
  8
1
  6
solid
 62
     7
100
AcDbLine
 10
5.401884440901122
 20
-0.612303151985643
 30
0.0
 11
5.406786401685435
 21
-0.5930723827548736
 31
0.0
  0
LINE
  5
9C
330
A
100
AcDbEntity
  8
1
  6
solid
 62
     7
100
AcDbLine
 10
5.406786401685435
 20
-0.5930723827548736
 30
0.0
 11
5.414629538940337
 21
-0.5738416135241044
 31
0.0
  0
LINE
  5
9D
330
A
100
AcDbEntity
  8
1
  6
solid
 62
     7
100
AcDbLine
 10
5.414629538940337
 20
-0.5738416135241044
 30
0.0
 11
5.424433460508964
 21
-0.5570146904471814
 31
0.0
  0
LINE
  5
9E
330
A
100
AcDbEntity
  8
1
  6
solid
 62
     7
100
AcDbLine
 10
5.424433460508964
 20
-0.5570146904471814
 30
0.0
 11
5.437178558548181
 21
-0.5425916135241044
 31
0.0
  0
LINE
  5
9F
330
A
100
AcDbEntity
  8
1
  6
solid
 62
     7
100
AcDbLine
 10
5.437178558548181
 20
-0.5425916135241044
 30
0.0
 11
5.451884440901121
 21
-0.53297622890872
 31
0.0
  0
LINE
  5
A0
330
A
100
AcDbEntity
  8
1
  6
solid
 62
     7
100
AcDbLine
 10
5.451884440901121
 20
-0.53297622890872
 30
0.0
 11
5.469531499724651
 21
-0.5257646904471814
 31
0.0
  0
LINE
  5
A1
330
A
100
AcDbEntity
  8
1
  6
solid
 62
     7
100
AcDbLine
 10
5.469531499724651
 20
-0.5257646904471814
 30
0.0
 11
5.487178558548181
 21
-0.5257646904471814
 31
0.0
  0
LINE
  5
A2
330
A
100
AcDbEntity
  8
1
  6
solid
 62
     7
100
AcDbLine
 10
5.487178558548181
 20
-0.5257646904471814
 30
0.0
 11
5.507766793842298
 21
-0.5281685366010276
 31
0.0
  0
LINE
  5
A3
330
A
100
AcDbEntity
  8
1
  6
solid
 62
     7
100
AcDbLine
 10
5.507766793842298
 20
-0.5281685366010276
 30
0.0
 11
5.522472676195239
 21
-0.5377839212164122
 31
0.0
  0
LINE
  5
A4
330
A
100
AcDbEntity
  8
1
  6
solid
 62
     7
100
AcDbLine
 10
5.522472676195239
 20
-0.5377839212164122
 30
0.0
 11
5.535217774234455
 21
-0.549803151985643
 31
0.0
  0
LINE
  5
A5
330
A
100
AcDbEntity
  8
1
  6
solid
 62
     7
100
AcDbLine
 10
5.535217774234455
 20
-0.549803151985643
 30
0.0
 11
5.547962872273671
 21
-0.566630075062566
 31
0.0
  0
LINE
  5
A6
330
A
100
AcDbEntity
  8
1
  6
solid
 62
     7
100
AcDbLine
 10
5.547962872273671
 20
-0.566630075062566
 30
0.0
 11
5.557766793842298
 21
-0.5882646904471814
 31
0.0
  0
LINE
  5
A7
330
A
100
AcDbEntity
  8
1
  6
solid
 62
     7
100
AcDbLine
 10
5.557766793842298
 20
-0.5882646904471814
 30
0.0
 11
5.563649146783474
 21
-0.6098993058317968
 31
0.0
  0
LINE
  5
A8
330
A
100
AcDbEntity
  8
1
  6
solid
 62
     7
100
AcDbLine
 10
5.563649146783474
 20
-0.6098993058317968
 30
0.0
 11
5.5656099310972
 21
-0.6315339212164122
 31
0.0
  0
LINE
  5
A9
330
A
100
AcDbEntity
  8
1
  6
solid
 62
     7
100
AcDbLine
 10
5.5656099310972
 20
-0.6315339212164122
 30
0.0
 11
5.5656099310972
 21
-0.6483608442933353
 31
0.0
  0
LINE
  5
AA
330
A
100
AcDbEntity
  8
1
  6
solid
 62
     7
100
AcDbLine
 10
5.5656099310972
 20
-0.6483608442933353
 30
0.0
 11
5.560707970312886
 21
-0.6772069981394891
 31
0.0
  0
LINE
  5
AB
330
A
100
AcDbEntity
  8
1
  6
solid
 62
     7
100
AcDbLine
 10
5.560707970312886
 20
-0.6772069981394891
 30
0.0
 11
5.552864833057984
 21
-0.7012454596779506
 31
0.0
  0
LINE
  5
AC
330
A
100
AcDbEntity
  8
1
  6
solid
 62
     7
100
AcDbLine
 10
5.552864833057984
 20
-0.7012454596779506
 30
0.0
 11
5.540119735018769
 21
-0.722880075062566
 31
0.0
  0
LINE
  5
AD
330
A
100
AcDbEntity
  8
1
  6
solid
 62
     7
100
AcDbLine
 10
5.540119735018769
 20
-0.722880075062566
 30
0.0
 11
5.528355029136416
 21
-0.737303151985643
 31
0.0
  0
LINE
  5
AE
330
A
100
AcDbEntity
  8
1
  6
solid
 62
     7
100
AcDbLine
 10
5.528355029136416
 20
-0.737303151985643
 30
0.0
 11
5.512668754626612
 21
-0.7469185366010276
 31
0.0
  0
LINE
  5
AF
330
A
100
AcDbEntity
  8
1
  6
solid
 62
     7
100
AcDbLine
 10
5.512668754626612
 20
-0.7469185366010276
 30
0.0
 11
5.495021695803083
 21
-0.754130075062566
 31
0.0
  0
LINE
  5
B0
330
A
100
AcDbEntity
  8
1
  6
solid
 62
     7
100
AcDbLine
 10
5.495021695803083
 20
-0.754130075062566
 30
0.0
 11
5.477374636979553
 21
-0.754130075062566
 31
0.0
  0
LINE
  5
B1
330
A
100
AcDbEntity
  8
1
  6
solid
 62
     7
100
AcDbLine
 10
5.477374636979553
 20
-0.754130075062566
 30
0.0
 11
5.456786401685436
 21
-0.75172622890872
 31
0.0
  0
LINE
  5
B2
330
A
100
AcDbEntity
  8
1
  6
solid
 62
     7
100
AcDbLine
 10
5.456786401685436
 20
-0.75172622890872
 30
0.0
 11
5.437178558548181
 21
-0.737303151985643
 31
0.0
  0
LINE
  5
B3
330
A
100
AcDbEntity
  8
1
  6
solid
 62
     7
100
AcDbLine
 10
5.437178558548181
 20
-0.737303151985643
 30
0.0
 11
5.424433460508964
 21
-0.722880075062566
 31
0.0
  0
LINE
  5
B4
330
A
100
AcDbEntity
  8
1
  6
solid
 62
     7
100
AcDbLine
 10
5.424433460508964
 20
-0.722880075062566
 30
0.0
 11
5.41168836246975
 21
-0.7012454596779506
 31
0.0
  0
LINE
  5
B5
330
A
100
AcDbEntity
  8
1
  6
solid
 62
     7
100
AcDbLine
 10
5.41168836246975
 20
-0.7012454596779506
 30
0.0
 11
5.403845225214848
 21
-0.6796108442933353
 31
0.0
  0
LINE
  5
B6
330
A
100
AcDbEntity
  8
1
  6
solid
 62
     7
100
AcDbLine
 10
5.403845225214848
 20
-0.6796108442933353
 30
0.0
 11
5.358747185999161
 21
-0.6796108442933353
 31
0.0
  0
LINE
  5
B7
330
A
100
AcDbEntity
  8
1
  6
solid
 62
     7
100
AcDbLine
 10
5.65874718599916
 20
-0.7084569981394891
 30
0.0
 11
5.90874718599916
 21
-0.7084569981394891
 31
0.0
  0
LINE
  5
B8
330
A
100
AcDbEntity
  8
1
  6
solid
 62
     7
100
AcDbLine
 10
5.90874718599916
 20
-0.7084569981394891
 30
0.0
 11
5.90874718599916
 21
-0.6026877673702584
 31
0.0
  0
LINE
  5
B9
330
A
100
AcDbEntity
  8
1
  6
solid
 62
     7
100
AcDbLine
 10
5.90874718599916
 20
-0.6026877673702584
 30
0.0
 11
5.65874718599916
 21
-0.6026877673702584
 31
0.0
  0
LINE
  5
BA
330
A
100
AcDbEntity
  8
1
  6
solid
 62
     7
100
AcDbLine
 10
5.65874718599916
 20
-0.6026877673702584
 30
0.0
 11
5.65874718599916
 21
-0.7084569981394891
 31
0.0
  0
LINE
  5
BB
330
A
100
AcDbEntity
  8
1
  6
solid
 62
     7
100
AcDbLine
 10
5.958747185999161
 20
-0.6796108442933353
 30
0.0
 11
5.966590323254063
 21
-0.7132646904471814
 31
0.0
  0
LINE
  5
BC
330
A
100
AcDbEntity
  8
1
  6
solid
 62
     7
100
AcDbLine
 10
5.966590323254063
 20
-0.7132646904471814
 30
0.0
 11
5.979335421293278
 21
-0.7421108442933353
 31
0.0
  0
LINE
  5
BD
330
A
100
AcDbEntity
  8
1
  6
solid
 62
     7
100
AcDbLine
 10
5.979335421293278
 20
-0.7421108442933353
 30
0.0
 11
5.99404130364622
 21
-0.7661493058317968
 31
0.0
  0
LINE
  5
BE
330
A
100
AcDbEntity
  8
1
  6
solid
 62
     7
100
AcDbLine
 10
5.99404130364622
 20
-0.7661493058317968
 30
0.0
 11
6.009727578156024
 21
-0.7877839212164122
 31
0.0
  0
LINE
  5
BF
330
A
100
AcDbEntity
  8
1
  6
solid
 62
     7
100
AcDbLine
 10
6.009727578156024
 20
-0.7877839212164122
 30
0.0
 11
6.029335421293279
 21
-0.802206998139489
 31
0.0
  0
LINE
  5
C0
330
A
100
AcDbEntity
  8
1
  6
solid
 62
     7
100
AcDbLine
 10
6.029335421293279
 20
-0.802206998139489
 30
0.0
 11
6.051884440901122
 21
-0.8118223827548737
 31
0.0
  0
LINE
  5
C1
330
A
100
AcDbEntity
  8
1
  6
solid
 62
     7
100
AcDbLine
 10
6.051884440901122
 20
-0.8118223827548737
 30
0.0
 11
6.077374636979553
 21
-0.8190339212164122
 31
0.0
  0
LINE
  5
C2
330
A
100
AcDbEntity
  8
1
  6
solid
 62
     7
100
AcDbLine
 10
6.077374636979553
 20
-0.8190339212164122
 30
0.0
 11
6.093060911489357
 21
-0.8190339212164122
 31
0.0
  0
LINE
  5
C3
330
A
100
AcDbEntity
  8
1
  6
solid
 62
     7
100
AcDbLine
 10
6.093060911489357
 20
-0.8190339212164122
 30
0.0
 11
6.125413852665827
 21
-0.8094185366010275
 31
0.0
  0
LINE
  5
C4
330
A
100
AcDbEntity
  8
1
  6
solid
 62
     7
100
AcDbLine
 10
6.125413852665827
 20
-0.8094185366010275
 30
0.0
 11
6.150904048744259
 21
-0.7901877673702584
 31
0.0
  0
LINE
  5
C5
330
A
100
AcDbEntity
  8
1
  6
solid
 62
     7
100
AcDbLine
 10
6.150904048744259
 20
-0.7901877673702584
 30
0.0
 11
6.170511891881513
 21
-0.768553151985643
 31
0.0
  0
LINE
  5
C6
330
A
100
AcDbEntity
  8
1
  6
solid
 62
     7
100
AcDbLine
 10
6.170511891881513
 20
-0.768553151985643
 30
0.0
 11
6.188158950705043
 21
-0.7421108442933353
 31
0.0
  0
LINE
  5
C7
330
A
100
AcDbEntity
  8
1
  6
solid
 62
     7
100
AcDbLine
 10
6.188158950705043
 20
-0.7421108442933353
 30
0.0
 11
6.200904048744259
 21
-0.706053151985643
 31
0.0
  0
LINE
  5
C8
330
A
100
AcDbEntity
  8
1
  6
solid
 62
     7
100
AcDbLine
 10
6.200904048744259
 20
-0.706053151985643
 30
0.0
 11
6.205806009528572
 21
-0.6772069981394891
 31
0.0
  0
LINE
  5
C9
330
A
100
AcDbEntity
  8
1
  6
solid
 62
     7
100
AcDbLine
 10
6.205806009528572
 20
-0.6772069981394891
 30
0.0
 11
6.208747185999161
 21
-0.6531685366010276
 31
0.0
  0
LINE
  5
CA
330
A
100
AcDbEntity
  8
1
  6
solid
 62
     7
100
AcDbLine
 10
6.208747185999161
 20
-0.6531685366010276
 30
0.0
 11
6.208747185999161
 21
-0.62672622890872
 31
0.0
  0
LINE
  5
CB
330
A
100
AcDbEntity
  8
1
  6
solid
 62
     7
100
AcDbLine
 10
6.208747185999161
 20
-0.62672622890872
 30
0.0
 11
6.203845225214847
 21
-0.5858608442933353
 31
0.0
  0
LINE
  5
CC
330
A
100
AcDbEntity
  8
1
  6
solid
 62
     7
100
AcDbLine
 10
6.203845225214847
 20
-0.5858608442933353
 30
0.0
 11
6.191100127175632
 21
-0.549803151985643
 31
0.0
  0
LINE
  5
CD
330
A
100
AcDbEntity
  8
1
  6
solid
 62
     7
100
AcDbLine
 10
6.191100127175632
 20
-0.549803151985643
 30
0.0
 11
6.181296205607004
 21
-0.5281685366010276
 31
0.0
  0
LINE
  5
CE
330
A
100
AcDbEntity
  8
1
  6
solid
 62
     7
100
AcDbLine
 10
6.181296205607004
 20
-0.5281685366010276
 30
0.0
 11
6.165609931097201
 21
-0.5065339212164122
 31
0.0
  0
LINE
  5
CF
330
A
100
AcDbEntity
  8
1
  6
solid
 62
     7
100
AcDbLine
 10
6.165609931097201
 20
-0.5065339212164122
 30
0.0
 11
6.14796287227367
 21
-0.4897069981394891
 31
0.0
  0
LINE
  5
D0
330
A
100
AcDbEntity
  8
1
  6
solid
 62
     7
100
AcDbLine
 10
6.14796287227367
 20
-0.4897069981394891
 30
0.0
 11
6.130315813450141
 21
-0.4752839212164122
 31
0.0
  0
LINE
  5
D1
330
A
100
AcDbEntity
  8
1
  6
solid
 62
     7
100
AcDbLine
 10
6.130315813450141
 20
-0.4752839212164122
 30
0.0
 11
6.112668754626612
 21
-0.4680723827548737
 31
0.0
  0
LINE
  5
D2
330
A
100
AcDbEntity
  8
1
  6
solid
 62
     7
100
AcDbLine
 10
6.112668754626612
 20
-0.4680723827548737
 30
0.0
 11
6.08717855854818
 21
-0.4632646904471815
 31
0.0
  0
LINE
  5
D3
330
A
100
AcDbEntity
  8
1
  6
solid
 62
     7
100
AcDbLine
 10
6.08717855854818
 20
-0.4632646904471815
 30
0.0
 11
6.072472676195239
 21
-0.4632646904471815
 31
0.0
  0
LINE
  5
D4
330
A
100
AcDbEntity
  8
1
  6
solid
 62
     7
100
AcDbLine
 10
6.072472676195239
 20
-0.4632646904471815
 30
0.0
 11
6.051884440901122
 21
-0.4680723827548737
 31
0.0
  0
LINE
  5
D5
330
A
100
AcDbEntity
  8
1
  6
solid
 62
     7
100
AcDbLine
 10
6.051884440901122
 20
-0.4680723827548737
 30
0.0
 11
6.034237382077592
 21
-0.4752839212164122
 31
0.0
  0
LINE
  5
D6
330
A
100
AcDbEntity
  8
1
  6
solid
 62
     7
100
AcDbLine
 10
6.034237382077592
 20
-0.4752839212164122
 30
0.0
 11
6.024433460508965
 21
-0.4824954596779507
 31
0.0
  0
LINE
  5
D7
330
A
100
AcDbEntity
  8
1
  6
solid
 62
     7
100
AcDbLine
 10
6.024433460508965
 20
-0.4824954596779507
 30
0.0
 11
6.042080519332494
 21
-0.3791300750625659
 31
0.0
  0
LINE
  5
D8
330
A
100
AcDbEntity
  8
1
  6
solid
 62
     7
100
AcDbLine
 10
6.042080519332494
 20
-0.3791300750625659
 30
0.0
 11
6.165609931097201
 21
-0.3791300750625659
 31
0.0
  0
LINE
  5
D9
330
A
100
AcDbEntity
  8
1
  6
solid
 62
     7
100
AcDbLine
 10
6.165609931097201
 20
-0.3791300750625659
 30
0.0
 11
6.165609931097201
 21
-0.3190339212164122
 31
0.0
  0
LINE
  5
DA
330
A
100
AcDbEntity
  8
1
  6
solid
 62
     7
100
AcDbLine
 10
6.165609931097201
 20
-0.3190339212164122
 30
0.0
 11
6.009727578156024
 21
-0.3190339212164122
 31
0.0
  0
LINE
  5
DB
330
A
100
AcDbEntity
  8
1
  6
solid
 62
     7
100
AcDbLine
 10
6.009727578156024
 20
-0.3190339212164122
 30
0.0
 11
5.958747185999161
 21
-0.6002839212164122
 31
0.0
  0
LINE
  5
DC
330
A
100
AcDbEntity
  8
1
  6
solid
 62
     7
100
AcDbLine
 10
5.958747185999161
 20
-0.6002839212164122
 30
0.0
 11
6.001884440901122
 21
-0.612303151985643
 31
0.0
  0
LINE
  5
DD
330
A
100
AcDbEntity
  8
1
  6
solid
 62
     7
100
AcDbLine
 10
6.001884440901122
 20
-0.612303151985643
 30
0.0
 11
6.006786401685435
 21
-0.5930723827548736
 31
0.0
  0
LINE
  5
DE
330
A
100
AcDbEntity
  8
1
  6
solid
 62
     7
100
AcDbLine
 10
6.006786401685435
 20
-0.5930723827548736
 30
0.0
 11
6.014629538940337
 21
-0.5738416135241044
 31
0.0
  0
LINE
  5
DF
330
A
100
AcDbEntity
  8
1
  6
solid
 62
     7
100
AcDbLine
 10
6.014629538940337
 20
-0.5738416135241044
 30
0.0
 11
6.024433460508965
 21
-0.5570146904471814
 31
0.0
  0
LINE
  5
E0
330
A
100
AcDbEntity
  8
1
  6
solid
 62
     7
100
AcDbLine
 10
6.024433460508965
 20
-0.5570146904471814
 30
0.0
 11
6.03717855854818
 21
-0.5425916135241044
 31
0.0
  0
LINE
  5
E1
330
A
100
AcDbEntity
  8
1
  6
solid
 62
     7
100
AcDbLine
 10
6.03717855854818
 20
-0.5425916135241044
 30
0.0
 11
6.051884440901122
 21
-0.53297622890872
 31
0.0
  0
LINE
  5
E2
330
A
100
AcDbEntity
  8
1
  6
solid
 62
     7
100
AcDbLine
 10
6.051884440901122
 20
-0.53297622890872
 30
0.0
 11
6.069531499724651
 21
-0.5257646904471814
 31
0.0
  0
LINE
  5
E3
330
A
100
AcDbEntity
  8
1
  6
solid
 62
     7
100
AcDbLine
 10
6.069531499724651
 20
-0.5257646904471814
 30
0.0
 11
6.08717855854818
 21
-0.5257646904471814
 31
0.0
  0
LINE
  5
E4
330
A
100
AcDbEntity
  8
1
  6
solid
 62
     7
100
AcDbLine
 10
6.08717855854818
 20
-0.5257646904471814
 30
0.0
 11
6.107766793842298
 21
-0.5281685366010276
 31
0.0
  0
LINE
  5
E5
330
A
100
AcDbEntity
  8
1
  6
solid
 62
     7
100
AcDbLine
 10
6.107766793842298
 20
-0.5281685366010276
 30
0.0
 11
6.122472676195239
 21
-0.5377839212164122
 31
0.0
  0
LINE
  5
E6
330
A
100
AcDbEntity
  8
1
  6
solid
 62
     7
100
AcDbLine
 10
6.122472676195239
 20
-0.5377839212164122
 30
0.0
 11
6.135217774234455
 21
-0.549803151985643
 31
0.0
  0
LINE
  5
E7
330
A
100
AcDbEntity
  8
1
  6
solid
 62
     7
100
AcDbLine
 10
6.135217774234455
 20
-0.549803151985643
 30
0.0
 11
6.14796287227367
 21
-0.566630075062566
 31
0.0
  0
LINE
  5
E8
330
A
100
AcDbEntity
  8
1
  6
solid
 62
     7
100
AcDbLine
 10
6.14796287227367
 20
-0.566630075062566
 30
0.0
 11
6.157766793842299
 21
-0.5882646904471814
 31
0.0
  0
LINE
  5
E9
330
A
100
AcDbEntity
  8
1
  6
solid
 62
     7
100
AcDbLine
 10
6.157766793842299
 20
-0.5882646904471814
 30
0.0
 11
6.163649146783475
 21
-0.6098993058317968
 31
0.0
  0
LINE
  5
EA
330
A
100
AcDbEntity
  8
1
  6
solid
 62
     7
100
AcDbLine
 10
6.163649146783475
 20
-0.6098993058317968
 30
0.0
 11
6.165609931097201
 21
-0.6315339212164122
 31
0.0
  0
LINE
  5
EB
330
A
100
AcDbEntity
  8
1
  6
solid
 62
     7
100
AcDbLine
 10
6.165609931097201
 20
-0.6315339212164122
 30
0.0
 11
6.165609931097201
 21
-0.6483608442933353
 31
0.0
  0
LINE
  5
EC
330
A
100
AcDbEntity
  8
1
  6
solid
 62
     7
100
AcDbLine
 10
6.165609931097201
 20
-0.6483608442933353
 30
0.0
 11
6.160707970312886
 21
-0.6772069981394891
 31
0.0
  0
LINE
  5
ED
330
A
100
AcDbEntity
  8
1
  6
solid
 62
     7
100
AcDbLine
 10
6.160707970312886
 20
-0.6772069981394891
 30
0.0
 11
6.152864833057984
 21
-0.7012454596779506
 31
0.0
  0
LINE
  5
EE
330
A
100
AcDbEntity
  8
1
  6
solid
 62
     7
100
AcDbLine
 10
6.152864833057984
 20
-0.7012454596779506
 30
0.0
 11
6.140119735018768
 21
-0.722880075062566
 31
0.0
  0
LINE
  5
EF
330
A
100
AcDbEntity
  8
1
  6
solid
 62
     7
100
AcDbLine
 10
6.140119735018768
 20
-0.722880075062566
 30
0.0
 11
6.128355029136415
 21
-0.737303151985643
 31
0.0
  0
LINE
  5
F0
330
A
100
AcDbEntity
  8
1
  6
solid
 62
     7
100
AcDbLine
 10
6.128355029136415
 20
-0.737303151985643
 30
0.0
 11
6.112668754626612
 21
-0.7469185366010276
 31
0.0
  0
LINE
  5
F1
330
A
100
AcDbEntity
  8
1
  6
solid
 62
     7
100
AcDbLine
 10
6.112668754626612
 20
-0.7469185366010276
 30
0.0
 11
6.095021695803082
 21
-0.754130075062566
 31
0.0
  0
LINE
  5
F2
330
A
100
AcDbEntity
  8
1
  6
solid
 62
     7
100
AcDbLine
 10
6.095021695803082
 20
-0.754130075062566
 30
0.0
 11
6.077374636979553
 21
-0.754130075062566
 31
0.0
  0
LINE
  5
F3
330
A
100
AcDbEntity
  8
1
  6
solid
 62
     7
100
AcDbLine
 10
6.077374636979553
 20
-0.754130075062566
 30
0.0
 11
6.056786401685435
 21
-0.75172622890872
 31
0.0
  0
LINE
  5
F4
330
A
100
AcDbEntity
  8
1
  6
solid
 62
     7
100
AcDbLine
 10
6.056786401685435
 20
-0.75172622890872
 30
0.0
 11
6.03717855854818
 21
-0.737303151985643
 31
0.0
  0
LINE
  5
F5
330
A
100
AcDbEntity
  8
1
  6
solid
 62
     7
100
AcDbLine
 10
6.03717855854818
 20
-0.737303151985643
 30
0.0
 11
6.024433460508965
 21
-0.722880075062566
 31
0.0
  0
LINE
  5
F6
330
A
100
AcDbEntity
  8
1
  6
solid
 62
     7
100
AcDbLine
 10
6.024433460508965
 20
-0.722880075062566
 30
0.0
 11
6.011688362469749
 21
-0.7012454596779506
 31
0.0
  0
LINE
  5
F7
330
A
100
AcDbEntity
  8
1
  6
solid
 62
     7
100
AcDbLine
 10
6.011688362469749
 20
-0.7012454596779506
 30
0.0
 11
6.003845225214847
 21
-0.6796108442933353
 31
0.0
  0
LINE
  5
F8
330
A
100
AcDbEntity
  8
1
  6
solid
 62
     7
100
AcDbLine
 10
6.003845225214847
 20
-0.6796108442933353
 30
0.0
 11
5.958747185999161
 21
-0.6796108442933353
 31
0.0
  0
LINE
  5
F9
330
A
100
AcDbEntity
  8
1
  6
solid
 62
     7
100
AcDbLine
 10
6.50874718599916
 20
-0.3190339212164122
 30
0.0
 11
6.296982480116808
 21
-0.8190339212164122
 31
0.0
  0
LINE
  5
FA
330
A
100
AcDbEntity
  8
1
  6
solid
 62
     7
100
AcDbLine
 10
6.296982480116808
 20
-0.8190339212164122
 30
0.0
 11
6.25874718599916
 21
-0.8190339212164122
 31
0.0
  0
LINE
  5
FB
330
A
100
AcDbEntity
  8
1
  6
solid
 62
     7
100
AcDbLine
 10
6.25874718599916
 20
-0.8190339212164122
 30
0.0
 11
6.470511891881514
 21
-0.3190339212164122
 31
0.0
  0
LINE
  5
FC
330
A
100
AcDbEntity
  8
1
  6
solid
 62
     7
100
AcDbLine
 10
6.470511891881514
 20
-0.3190339212164122
 30
0.0
 11
6.50874718599916
 21
-0.3190339212164122
 31
0.0
  0
LINE
  5
FD
330
A
100
AcDbEntity
  8
1
  6
solid
 62
     7
100
AcDbLine
 10
6.618551107567787
 20
-0.5233608442933353
 30
0.0
 11
6.604825617371709
 21
-0.5377839212164122
 31
0.0
  0
LINE
  5
FE
330
A
100
AcDbEntity
  8
1
  6
solid
 62
     7
100
AcDbLine
 10
6.604825617371709
 20
-0.5377839212164122
 30
0.0
 11
6.59110012717563
 21
-0.5546108442933353
 31
0.0
  0
LINE
  5
FF
330
A
100
AcDbEntity
  8
1
  6
solid
 62
     7
100
AcDbLine
 10
6.59110012717563
 20
-0.5546108442933353
 30
0.0
 11
6.580315813450141
 21
-0.5714377673702584
 31
0.0
  0
LINE
  5
100
330
A
100
AcDbEntity
  8
1
  6
solid
 62
     7
100
AcDbLine
 10
6.580315813450141
 20
-0.5714377673702584
 30
0.0
 11
6.572472676195239
 21
-0.5906685366010276
 31
0.0
  0
LINE
  5
101
330
A
100
AcDbEntity
  8
1
  6
solid
 62
     7
100
AcDbLine
 10
6.572472676195239
 20
-0.5906685366010276
 30
0.0
 11
6.566590323254063
 21
-0.6074954596779506
 31
0.0
  0
LINE
  5
102
330
A
100
AcDbEntity
  8
1
  6
solid
 62
     7
100
AcDbLine
 10
6.566590323254063
 20
-0.6074954596779506
 30
0.0
 11
6.561688362469748
 21
-0.6315339212164122
 31
0.0
  0
LINE
  5
103
330
A
100
AcDbEntity
  8
1
  6
solid
 62
     7
100
AcDbLine
 10
6.561688362469748
 20
-0.6315339212164122
 30
0.0
 11
6.558747185999161
 21
-0.6483608442933353
 31
0.0
  0
LINE
  5
104
330
A
100
AcDbEntity
  8
1
  6
solid
 62
     7
100
AcDbLine
 10
6.558747185999161
 20
-0.6483608442933353
 30
0.0
 11
6.558747185999161
 21
-0.660380075062566
 31
0.0
  0
LINE
  5
105
330
A
100
AcDbEntity
  8
1
  6
solid
 62
     7
100
AcDbLine
 10
6.558747185999161
 20
-0.660380075062566
 30
0.0
 11
6.561688362469748
 21
-0.6796108442933353
 31
0.0
  0
LINE
  5
106
330
A
100
AcDbEntity
  8
1
  6
solid
 62
     7
100
AcDbLine
 10
6.561688362469748
 20
-0.6796108442933353
 30
0.0
 11
6.564629538940337
 21
-0.7012454596779506
 31
0.0
  0
LINE
  5
107
330
A
100
AcDbEntity
  8
1
  6
solid
 62
     7
100
AcDbLine
 10
6.564629538940337
 20
-0.7012454596779506
 30
0.0
 11
6.56953149972465
 21
-0.722880075062566
 31
0.0
  0
LINE
  5
108
330
A
100
AcDbEntity
  8
1
  6
solid
 62
     7
100
AcDbLine
 10
6.56953149972465
 20
-0.722880075062566
 30
0.0
 11
6.580315813450141
 21
-0.7493223827548738
 31
0.0
  0
LINE
  5
109
330
A
100
AcDbEntity
  8
1
  6
solid
 62
     7
100
AcDbLine
 10
6.580315813450141
 20
-0.7493223827548738
 30
0.0
 11
6.596982480116807
 21
-0.7709569981394891
 31
0.0
  0
LINE
  5
10A
330
A
100
AcDbEntity
  8
1
  6
solid
 62
     7
100
AcDbLine
 10
6.596982480116807
 20
-0.7709569981394891
 30
0.0
 11
6.610707970312885
 21
-0.7877839212164122
 31
0.0
  0
LINE
  5
10B
330
A
100
AcDbEntity
  8
1
  6
solid
 62
     7
100
AcDbLine
 10
6.610707970312885
 20
-0.7877839212164122
 30
0.0
 11
6.635217774234455
 21
-0.8046108442933352
 31
0.0
  0
LINE
  5
10C
330
A
100
AcDbEntity
  8
1
  6
solid
 62
     7
100
AcDbLine
 10
6.635217774234455
 20
-0.8046108442933352
 30
0.0
 11
6.659727578156023
 21
-0.816630075062566
 31
0.0
  0
LINE
  5
10D
330
A
100
AcDbEntity
  8
1
  6
solid
 62
     7
100
AcDbLine
 10
6.659727578156023
 20
-0.816630075062566
 30
0.0
 11
6.678355029136415
 21
-0.8190339212164122
 31
0.0
  0
LINE
  5
10E
330
A
100
AcDbEntity
  8
1
  6
solid
 62
     7
100
AcDbLine
 10
6.678355029136415
 20
-0.8190339212164122
 30
0.0
 11
6.699923656587396
 21
-0.8190339212164122
 31
0.0
  0
LINE
  5
10F
330
A
100
AcDbEntity
  8
1
  6
solid
 62
     7
100
AcDbLine
 10
6.699923656587396
 20
-0.8190339212164122
 30
0.0
 11
6.721492284038376
 21
-0.8118223827548737
 31
0.0
  0
LINE
  5
110
330
A
100
AcDbEntity
  8
1
  6
solid
 62
     7
100
AcDbLine
 10
6.721492284038376
 20
-0.8118223827548737
 30
0.0
 11
6.746002087959944
 21
-0.7949954596779506
 31
0.0
  0
LINE
  5
111
330
A
100
AcDbEntity
  8
1
  6
solid
 62
     7
100
AcDbLine
 10
6.746002087959944
 20
-0.7949954596779506
 30
0.0
 11
6.770511891881513
 21
-0.7733608442933353
 31
0.0
  0
LINE
  5
112
330
A
100
AcDbEntity
  8
1
  6
solid
 62
     7
100
AcDbLine
 10
6.770511891881513
 20
-0.7733608442933353
 30
0.0
 11
6.78717855854818
 21
-0.7469185366010276
 31
0.0
  0
LINE
  5
113
330
A
100
AcDbEntity
  8
1
  6
solid
 62
     7
100
AcDbLine
 10
6.78717855854818
 20
-0.7469185366010276
 30
0.0
 11
6.79796287227367
 21
-0.7180723827548738
 31
0.0
  0
LINE
  5
114
330
A
100
AcDbEntity
  8
1
  6
solid
 62
     7
100
AcDbLine
 10
6.79796287227367
 20
-0.7180723827548738
 30
0.0
 11
6.802864833057984
 21
-0.7036493058317968
 31
0.0
  0
LINE
  5
115
330
A
100
AcDbEntity
  8
1
  6
solid
 62
     7
100
AcDbLine
 10
6.802864833057984
 20
-0.7036493058317968
 30
0.0
 11
6.808747185999161
 21
-0.6723993058317968
 31
0.0
  0
LINE
  5
116
330
A
100
AcDbEntity
  8
1
  6
solid
 62
     7
100
AcDbLine
 10
6.808747185999161
 20
-0.6723993058317968
 30
0.0
 11
6.808747185999161
 21
-0.6459569981394891
 31
0.0
  0
LINE
  5
117
330
A
100
AcDbEntity
  8
1
  6
solid
 62
     7
100
AcDbLine
 10
6.808747185999161
 20
-0.6459569981394891
 30
0.0
 11
6.802864833057984
 21
-0.6147069981394892
 31
0.0
  0
LINE
  5
118
330
A
100
AcDbEntity
  8
1
  6
solid
 62
     7
100
AcDbLine
 10
6.802864833057984
 20
-0.6147069981394892
 30
0.0
 11
6.795021695803082
 21
-0.5906685366010276
 31
0.0
  0
LINE
  5
119
330
A
100
AcDbEntity
  8
1
  6
solid
 62
     7
100
AcDbLine
 10
6.795021695803082
 20
-0.5906685366010276
 30
0.0
 11
6.784237382077591
 21
-0.5618223827548738
 31
0.0
  0
LINE
  5
11A
330
A
100
AcDbEntity
  8
1
  6
solid
 62
     7
100
AcDbLine
 10
6.784237382077591
 20
-0.5618223827548738
 30
0.0
 11
6.770511891881513
 21
-0.5449954596779506
 31
0.0
  0
LINE
  5
11B
330
A
100
AcDbEntity
  8
1
  6
solid
 62
     7
100
AcDbLine
 10
6.770511891881513
 20
-0.5449954596779506
 30
0.0
 11
6.756786401685435
 21
-0.5305723827548736
 31
0.0
  0
LINE
  5
11C
330
A
100
AcDbEntity
  8
1
  6
solid
 62
     7
100
AcDbLine
 10
6.756786401685435
 20
-0.5305723827548736
 30
0.0
 11
6.748943264430533
 21
-0.5233608442933353
 31
0.0
  0
LINE
  5
11D
330
A
100
AcDbEntity
  8
1
  6
solid
 62
     7
100
AcDbLine
 10
6.748943264430533
 20
-0.5233608442933353
 30
0.0
 11
6.762668754626611
 21
-0.5065339212164122
 31
0.0
  0
LINE
  5
11E
330
A
100
AcDbEntity
  8
1
  6
solid
 62
     7
100
AcDbLine
 10
6.762668754626611
 20
-0.5065339212164122
 30
0.0
 11
6.770511891881513
 21
-0.4897069981394891
 31
0.0
  0
LINE
  5
11F
330
A
100
AcDbEntity
  8
1
  6
solid
 62
     7
100
AcDbLine
 10
6.770511891881513
 20
-0.4897069981394891
 30
0.0
 11
6.776394244822689
 21
-0.472880075062566
 31
0.0
  0
LINE
  5
120
330
A
100
AcDbEntity
  8
1
  6
solid
 62
     7
100
AcDbLine
 10
6.776394244822689
 20
-0.472880075062566
 30
0.0
 11
6.779335421293279
 21
-0.4464377673702584
 31
0.0
  0
LINE
  5
121
330
A
100
AcDbEntity
  8
1
  6
solid
 62
     7
100
AcDbLine
 10
6.779335421293279
 20
-0.4464377673702584
 30
0.0
 11
6.779335421293279
 21
-0.4272069981394891
 31
0.0
  0
LINE
  5
122
330
A
100
AcDbEntity
  8
1
  6
solid
 62
     7
100
AcDbLine
 10
6.779335421293279
 20
-0.4272069981394891
 30
0.0
 11
6.776394244822689
 21
-0.410380075062566
 31
0.0
  0
LINE
  5
123
330
A
100
AcDbEntity
  8
1
  6
solid
 62
     7
100
AcDbLine
 10
6.776394244822689
 20
-0.410380075062566
 30
0.0
 11
6.770511891881513
 21
-0.3911493058317967
 31
0.0
  0
LINE
  5
124
330
A
100
AcDbEntity
  8
1
  6
solid
 62
     7
100
AcDbLine
 10
6.770511891881513
 20
-0.3911493058317967
 30
0.0
 11
6.762668754626611
 21
-0.3719185366010275
 31
0.0
  0
LINE
  5
125
330
A
100
AcDbEntity
  8
1
  6
solid
 62
     7
100
AcDbLine
 10
6.762668754626611
 20
-0.3719185366010275
 30
0.0
 11
6.754825617371709
 21
-0.3574954596779506
 31
0.0
  0
LINE
  5
126
330
A
100
AcDbEntity
  8
1
  6
solid
 62
     7
100
AcDbLine
 10
6.754825617371709
 20
-0.3574954596779506
 30
0.0
 11
6.741100127175631
 21
-0.3430723827548737
 31
0.0
  0
LINE
  5
127
330
A
100
AcDbEntity
  8
1
  6
solid
 62
     7
100
AcDbLine
 10
6.741100127175631
 20
-0.3430723827548737
 30
0.0
 11
6.730315813450141
 21
-0.3334569981394891
 31
0.0
  0
LINE
  5
128
330
A
100
AcDbEntity
  8
1
  6
solid
 62
     7
100
AcDbLine
 10
6.730315813450141
 20
-0.3334569981394891
 30
0.0
 11
6.716590323254062
 21
-0.3262454596779506
 31
0.0
  0
LINE
  5
129
330
A
100
AcDbEntity
  8
1
  6
solid
 62
     7
100
AcDbLine
 10
6.716590323254062
 20
-0.3262454596779506
 30
0.0
 11
6.696982480116807
 21
-0.3190339212164122
 31
0.0
  0
LINE
  5
12A
330
A
100
AcDbEntity
  8
1
  6
solid
 62
     7
100
AcDbLine
 10
6.696982480116807
 20
-0.3190339212164122
 30
0.0
 11
6.675413852665827
 21
-0.3190339212164122
 31
0.0
  0
LINE
  5
12B
330
A
100
AcDbEntity
  8
1
  6
solid
 62
     7
100
AcDbLine
 10
6.675413852665827
 20
-0.3190339212164122
 30
0.0
 11
6.650904048744259
 21
-0.3262454596779506
 31
0.0
  0
LINE
  5
12C
330
A
100
AcDbEntity
  8
1
  6
solid
 62
     7
100
AcDbLine
 10
6.650904048744259
 20
-0.3262454596779506
 30
0.0
 11
6.629335421293278
 21
-0.3406685366010275
 31
0.0
  0
LINE
  5
12D
330
A
100
AcDbEntity
  8
1
  6
solid
 62
     7
100
AcDbLine
 10
6.629335421293278
 20
-0.3406685366010275
 30
0.0
 11
6.6156099310972
 21
-0.3526877673702583
 31
0.0
  0
LINE
  5
12E
330
A
100
AcDbEntity
  8
1
  6
solid
 62
     7
100
AcDbLine
 10
6.6156099310972
 20
-0.3526877673702583
 30
0.0
 11
6.604825617371709
 21
-0.3719185366010275
 31
0.0
  0
LINE
  5
12F
330
A
100
AcDbEntity
  8
1
  6
solid
 62
     7
100
AcDbLine
 10
6.604825617371709
 20
-0.3719185366010275
 30
0.0
 11
6.596982480116807
 21
-0.3911493058317967
 31
0.0
  0
LINE
  5
130
330
A
100
AcDbEntity
  8
1
  6
solid
 62
     7
100
AcDbLine
 10
6.596982480116807
 20
-0.3911493058317967
 30
0.0
 11
6.59110012717563
 21
-0.4127839212164122
 31
0.0
  0
LINE
  5
131
330
A
100
AcDbEntity
  8
1
  6
solid
 62
     7
100
AcDbLine
 10
6.59110012717563
 20
-0.4127839212164122
 30
0.0
 11
6.588158950705043
 21
-0.4272069981394891
 31
0.0
  0
LINE
  5
132
330
A
100
AcDbEntity
  8
1
  6
solid
 62
     7
100
AcDbLine
 10
6.588158950705043
 20
-0.4272069981394891
 30
0.0
 11
6.588158950705043
 21
-0.4440339212164122
 31
0.0
  0
LINE
  5
133
330
A
100
AcDbEntity
  8
1
  6
solid
 62
     7
100
AcDbLine
 10
6.588158950705043
 20
-0.4440339212164122
 30
0.0
 11
6.59110012717563
 21
-0.4656685366010275
 31
0.0
  0
LINE
  5
134
330
A
100
AcDbEntity
  8
1
  6
solid
 62
     7
100
AcDbLine
 10
6.59110012717563
 20
-0.4656685366010275
 30
0.0
 11
6.596982480116807
 21
-0.4897069981394891
 31
0.0
  0
LINE
  5
135
330
A
100
AcDbEntity
  8
1
  6
solid
 62
     7
100
AcDbLine
 10
6.596982480116807
 20
-0.4897069981394891
 30
0.0
 11
6.604825617371709
 21
-0.5065339212164122
 31
0.0
  0
LINE
  5
136
330
A
100
AcDbEntity
  8
1
  6
solid
 62
     7
100
AcDbLine
 10
6.604825617371709
 20
-0.5065339212164122
 30
0.0
 11
6.612668754626611
 21
-0.5161493058317968
 31
0.0
  0
LINE
  5
137
330
A
100
AcDbEntity
  8
1
  6
solid
 62
     7
100
AcDbLine
 10
6.612668754626611
 20
-0.5161493058317968
 30
0.0
 11
6.618551107567787
 21
-0.5233608442933353
 31
0.0
  0
LINE
  5
138
330
A
100
AcDbEntity
  8
1
  6
solid
 62
     7
100
AcDbLine
 10
6.696982480116807
 20
-0.7565339212164122
 30
0.0
 11
6.716590323254062
 21
-0.7493223827548738
 31
0.0
  0
LINE
  5
139
330
A
100
AcDbEntity
  8
1
  6
solid
 62
     7
100
AcDbLine
 10
6.716590323254062
 20
-0.7493223827548738
 30
0.0
 11
6.730315813450141
 21
-0.7397069981394891
 31
0.0
  0
LINE
  5
13A
330
A
100
AcDbEntity
  8
1
  6
solid
 62
     7
100
AcDbLine
 10
6.730315813450141
 20
-0.7397069981394891
 30
0.0
 11
6.743060911489356
 21
-0.7252839212164122
 31
0.0
  0
LINE
  5
13B
330
A
100
AcDbEntity
  8
1
  6
solid
 62
     7
100
AcDbLine
 10
6.743060911489356
 20
-0.7252839212164122
 30
0.0
 11
6.754825617371709
 21
-0.7036493058317968
 31
0.0
  0
LINE
  5
13C
330
A
100
AcDbEntity
  8
1
  6
solid
 62
     7
100
AcDbLine
 10
6.754825617371709
 20
-0.7036493058317968
 30
0.0
 11
6.759727578156024
 21
-0.6844185366010276
 31
0.0
  0
LINE
  5
13D
330
A
100
AcDbEntity
  8
1
  6
solid
 62
     7
100
AcDbLine
 10
6.759727578156024
 20
-0.6844185366010276
 30
0.0
 11
6.762668754626611
 21
-0.6627839212164122
 31
0.0
  0
LINE
  5
13E
330
A
100
AcDbEntity
  8
1
  6
solid
 62
     7
100
AcDbLine
 10
6.762668754626611
 20
-0.6627839212164122
 30
0.0
 11
6.762668754626611
 21
-0.6483608442933353
 31
0.0
  0
LINE
  5
13F
330
A
100
AcDbEntity
  8
1
  6
solid
 62
     7
100
AcDbLine
 10
6.762668754626611
 20
-0.6483608442933353
 30
0.0
 11
6.754825617371709
 21
-0.6171108442933353
 31
0.0
  0
LINE
  5
140
330
A
100
AcDbEntity
  8
1
  6
solid
 62
     7
100
AcDbLine
 10
6.754825617371709
 20
-0.6171108442933353
 30
0.0
 11
6.746002087959944
 21
-0.6002839212164122
 31
0.0
  0
LINE
  5
141
330
A
100
AcDbEntity
  8
1
  6
solid
 62
     7
100
AcDbLine
 10
6.746002087959944
 20
-0.6002839212164122
 30
0.0
 11
6.735217774234454
 21
-0.5858608442933353
 31
0.0
  0
LINE
  5
142
330
A
100
AcDbEntity
  8
1
  6
solid
 62
     7
100
AcDbLine
 10
6.735217774234454
 20
-0.5858608442933353
 30
0.0
 11
6.721492284038376
 21
-0.5714377673702584
 31
0.0
  0
LINE
  5
143
330
A
100
AcDbEntity
  8
1
  6
solid
 62
     7
100
AcDbLine
 10
6.721492284038376
 20
-0.5714377673702584
 30
0.0
 11
6.710707970312886
 21
-0.566630075062566
 31
0.0
  0
LINE
  5
144
330
A
100
AcDbEntity
  8
1
  6
solid
 62
     7
100
AcDbLine
 10
6.710707970312886
 20
-0.566630075062566
 30
0.0
 11
6.695021695803082
 21
-0.5618223827548738
 31
0.0
  0
LINE
  5
145
330
A
100
AcDbEntity
  8
1
  6
solid
 62
     7
100
AcDbLine
 10
6.695021695803082
 20
-0.5618223827548738
 30
0.0
 11
6.675413852665827
 21
-0.5618223827548738
 31
0.0
  0
LINE
  5
146
330
A
100
AcDbEntity
  8
1
  6
solid
 62
     7
100
AcDbLine
 10
6.675413852665827
 20
-0.5618223827548738
 30
0.0
 11
6.653845225214847
 21
-0.5690339212164122
 31
0.0
  0
LINE
  5
147
330
A
100
AcDbEntity
  8
1
  6
solid
 62
     7
100
AcDbLine
 10
6.653845225214847
 20
-0.5690339212164122
 30
0.0
 11
6.640119735018768
 21
-0.5786493058317968
 31
0.0
  0
LINE
  5
148
330
A
100
AcDbEntity
  8
1
  6
solid
 62
     7
100
AcDbLine
 10
6.640119735018768
 20
-0.5786493058317968
 30
0.0
 11
6.62639424482269
 21
-0.5930723827548736
 31
0.0
  0
LINE
  5
149
330
A
100
AcDbEntity
  8
1
  6
solid
 62
     7
100
AcDbLine
 10
6.62639424482269
 20
-0.5930723827548736
 30
0.0
 11
6.6156099310972
 21
-0.6147069981394892
 31
0.0
  0
LINE
  5
14A
330
A
100
AcDbEntity
  8
1
  6
solid
 62
     7
100
AcDbLine
 10
6.6156099310972
 20
-0.6147069981394892
 30
0.0
 11
6.610707970312885
 21
-0.6315339212164122
 31
0.0
  0
LINE
  5
14B
330
A
100
AcDbEntity
  8
1
  6
solid
 62
     7
100
AcDbLine
 10
6.610707970312885
 20
-0.6315339212164122
 30
0.0
 11
6.607766793842298
 21
-0.6483608442933353
 31
0.0
  0
LINE
  5
14C
330
A
100
AcDbEntity
  8
1
  6
solid
 62
     7
100
AcDbLine
 10
6.607766793842298
 20
-0.6483608442933353
 30
0.0
 11
6.607766793842298
 21
-0.6699954596779506
 31
0.0
  0
LINE
  5
14D
330
A
100
AcDbEntity
  8
1
  6
solid
 62
     7
100
AcDbLine
 10
6.607766793842298
 20
-0.6699954596779506
 30
0.0
 11
6.610707970312885
 21
-0.691630075062566
 31
0.0
  0
LINE
  5
14E
330
A
100
AcDbEntity
  8
1
  6
solid
 62
     7
100
AcDbLine
 10
6.610707970312885
 20
-0.691630075062566
 30
0.0
 11
6.618551107567787
 21
-0.7156685366010276
 31
0.0
  0
LINE
  5
14F
330
A
100
AcDbEntity
  8
1
  6
solid
 62
     7
100
AcDbLine
 10
6.618551107567787
 20
-0.7156685366010276
 30
0.0
 11
6.632276597763866
 21
-0.7324954596779506
 31
0.0
  0
LINE
  5
150
330
A
100
AcDbEntity
  8
1
  6
solid
 62
     7
100
AcDbLine
 10
6.632276597763866
 20
-0.7324954596779506
 30
0.0
 11
6.646002087959945
 21
-0.7469185366010276
 31
0.0
  0
LINE
  5
151
330
A
100
AcDbEntity
  8
1
  6
solid
 62
     7
100
AcDbLine
 10
6.646002087959945
 20
-0.7469185366010276
 30
0.0
 11
6.664629538940337
 21
-0.7565339212164122
 31
0.0
  0
LINE
  5
152
330
A
100
AcDbEntity
  8
1
  6
solid
 62
     7
100
AcDbLine
 10
6.664629538940337
 20
-0.7565339212164122
 30
0.0
 11
6.696982480116807
 21
-0.7565339212164122
 31
0.0
  0
LINE
  5
153
330
A
100
AcDbEntity
  8
1
  6
solid
 62
     7
100
AcDbLine
 10
6.692080519332494
 20
-0.4993223827548738
 30
0.0
 11
6.702864833057984
 21
-0.4969185366010275
 31
0.0
  0
LINE
  5
154
330
A
100
AcDbEntity
  8
1
  6
solid
 62
     7
100
AcDbLine
 10
6.702864833057984
 20
-0.4969185366010275
 30
0.0
 11
6.716590323254062
 21
-0.4848993058317969
 31
0.0
  0
LINE
  5
155
330
A
100
AcDbEntity
  8
1
  6
solid
 62
     7
100
AcDbLine
 10
6.716590323254062
 20
-0.4848993058317969
 30
0.0
 11
6.724433460508964
 21
-0.472880075062566
 31
0.0
  0
LINE
  5
156
330
A
100
AcDbEntity
  8
1
  6
solid
 62
     7
100
AcDbLine
 10
6.724433460508964
 20
-0.472880075062566
 30
0.0
 11
6.730315813450141
 21
-0.4584569981394891
 31
0.0
  0
LINE
  5
157
330
A
100
AcDbEntity
  8
1
  6
solid
 62
     7
100
AcDbLine
 10
6.730315813450141
 20
-0.4584569981394891
 30
0.0
 11
6.732276597763866
 21
-0.4440339212164122
 31
0.0
  0
LINE
  5
158
330
A
100
AcDbEntity
  8
1
  6
solid
 62
     7
100
AcDbLine
 10
6.732276597763866
 20
-0.4440339212164122
 30
0.0
 11
6.732276597763866
 21
-0.4344185366010275
 31
0.0
  0
LINE
  5
159
330
A
100
AcDbEntity
  8
1
  6
solid
 62
     7
100
AcDbLine
 10
6.732276597763866
 20
-0.4344185366010275
 30
0.0
 11
6.727374636979552
 21
-0.4127839212164122
 31
0.0
  0
LINE
  5
15A
330
A
100
AcDbEntity
  8
1
  6
solid
 62
     7
100
AcDbLine
 10
6.727374636979552
 20
-0.4127839212164122
 30
0.0
 11
6.71953149972465
 21
-0.3983608442933352
 31
0.0
  0
LINE
  5
15B
330
A
100
AcDbEntity
  8
1
  6
solid
 62
     7
100
AcDbLine
 10
6.71953149972465
 20
-0.3983608442933352
 30
0.0
 11
6.710707970312886
 21
-0.3887454596779506
 31
0.0
  0
LINE
  5
15C
330
A
100
AcDbEntity
  8
1
  6
solid
 62
     7
100
AcDbLine
 10
6.710707970312886
 20
-0.3887454596779506
 30
0.0
 11
6.699923656587396
 21
-0.3815339212164121
 31
0.0
  0
LINE
  5
15D
330
A
100
AcDbEntity
  8
1
  6
solid
 62
     7
100
AcDbLine
 10
6.699923656587396
 20
-0.3815339212164121
 30
0.0
 11
6.689139342861905
 21
-0.3791300750625659
 31
0.0
  0
LINE
  5
15E
330
A
100
AcDbEntity
  8
1
  6
solid
 62
     7
100
AcDbLine
 10
6.689139342861905
 20
-0.3791300750625659
 30
0.0
 11
6.681296205607003
 21
-0.3791300750625659
 31
0.0
  0
LINE
  5
15F
330
A
100
AcDbEntity
  8
1
  6
solid
 62
     7
100
AcDbLine
 10
6.681296205607003
 20
-0.3791300750625659
 30
0.0
 11
6.667570715410925
 21
-0.3815339212164121
 31
0.0
  0
LINE
  5
160
330
A
100
AcDbEntity
  8
1
  6
solid
 62
     7
100
AcDbLine
 10
6.667570715410925
 20
-0.3815339212164121
 30
0.0
 11
6.656786401685435
 21
-0.3887454596779506
 31
0.0
  0
LINE
  5
161
330
A
100
AcDbEntity
  8
1
  6
solid
 62
     7
100
AcDbLine
 10
6.656786401685435
 20
-0.3887454596779506
 30
0.0
 11
6.64796287227367
 21
-0.3983608442933352
 31
0.0
  0
LINE
  5
162
330
A
100
AcDbEntity
  8
1
  6
solid
 62
     7
100
AcDbLine
 10
6.64796287227367
 20
-0.3983608442933352
 30
0.0
 11
6.640119735018768
 21
-0.4127839212164122
 31
0.0
  0
LINE
  5
163
330
A
100
AcDbEntity
  8
1
  6
solid
 62
     7
100
AcDbLine
 10
6.640119735018768
 20
-0.4127839212164122
 30
0.0
 11
6.63717855854818
 21
-0.4272069981394891
 31
0.0
  0
LINE
  5
164
330
A
100
AcDbEntity
  8
1
  6
solid
 62
     7
100
AcDbLine
 10
6.63717855854818
 20
-0.4272069981394891
 30
0.0
 11
6.635217774234455
 21
-0.4368223827548737
 31
0.0
  0
LINE
  5
165
330
A
100
AcDbEntity
  8
1
  6
solid
 62
     7
100
AcDbLine
 10
6.635217774234455
 20
-0.4368223827548737
 30
0.0
 11
6.635217774234455
 21
-0.4440339212164122
 31
0.0
  0
LINE
  5
166
330
A
100
AcDbEntity
  8
1
  6
solid
 62
     7
100
AcDbLine
 10
6.635217774234455
 20
-0.4440339212164122
 30
0.0
 11
6.640119735018768
 21
-0.4656685366010275
 31
0.0
  0
LINE
  5
167
330
A
100
AcDbEntity
  8
1
  6
solid
 62
     7
100
AcDbLine
 10
6.640119735018768
 20
-0.4656685366010275
 30
0.0
 11
6.646002087959945
 21
-0.4752839212164122
 31
0.0
  0
LINE
  5
168
330
A
100
AcDbEntity
  8
1
  6
solid
 62
     7
100
AcDbLine
 10
6.646002087959945
 20
-0.4752839212164122
 30
0.0
 11
6.653845225214847
 21
-0.4897069981394891
 31
0.0
  0
LINE
  5
169
330
A
100
AcDbEntity
  8
1
  6
solid
 62
     7
100
AcDbLine
 10
6.653845225214847
 20
-0.4897069981394891
 30
0.0
 11
6.664629538940337
 21
-0.4969185366010275
 31
0.0
  0
LINE
  5
16A
330
A
100
AcDbEntity
  8
1
  6
solid
 62
     7
100
AcDbLine
 10
6.664629538940337
 20
-0.4969185366010275
 30
0.0
 11
6.678355029136415
 21
-0.4993223827548738
 31
0.0
  0
LINE
  5
16B
330
A
100
AcDbEntity
  8
1
  6
solid
 62
     7
100
AcDbLine
 10
6.678355029136415
 20
-0.4993223827548738
 30
0.0
 11
6.692080519332494
 21
-0.4993223827548738
 31
0.0
  0
LINE
  5
16C
330
A
100
AcDbEntity
  8
1
  6
solid
 62
     7
100
AcDbLine
 10
7.162668754626611
 20
-0.3190339212164122
 30
0.0
 11
7.162668754626611
 21
-0.3839377673702583
 31
0.0
  0
LINE
  5
16D
330
A
100
AcDbEntity
  8
1
  6
solid
 62
     7
100
AcDbLine
 10
7.162668754626611
 20
-0.3839377673702583
 30
0.0
 11
7.19796287227367
 21
-0.3839377673702583
 31
0.0
  0
LINE
  5
16E
330
A
100
AcDbEntity
  8
1
  6
solid
 62
     7
100
AcDbLine
 10
7.19796287227367
 20
-0.3839377673702583
 30
0.0
 11
7.263649146783474
 21
-0.56422622890872
 31
0.0
  0
LINE
  5
16F
330
A
100
AcDbEntity
  8
1
  6
solid
 62
     7
100
AcDbLine
 10
7.263649146783474
 20
-0.56422622890872
 30
0.0
 11
7.19110012717563
 21
-0.754130075062566
 31
0.0
  0
LINE
  5
170
330
A
100
AcDbEntity
  8
1
  6
solid
 62
     7
100
AcDbLine
 10
7.19110012717563
 20
-0.754130075062566
 30
0.0
 11
7.15874718599916
 21
-0.754130075062566
 31
0.0
  0
LINE
  5
171
330
A
100
AcDbEntity
  8
1
  6
solid
 62
     7
100
AcDbLine
 10
7.15874718599916
 20
-0.754130075062566
 30
0.0
 11
7.15874718599916
 21
-0.8190339212164122
 31
0.0
  0
LINE
  5
172
330
A
100
AcDbEntity
  8
1
  6
solid
 62
     7
100
AcDbLine
 10
7.15874718599916
 20
-0.8190339212164122
 30
0.0
 11
7.263649146783474
 21
-0.8190339212164122
 31
0.0
  0
LINE
  5
173
330
A
100
AcDbEntity
  8
1
  6
solid
 62
     7
100
AcDbLine
 10
7.263649146783474
 20
-0.8190339212164122
 30
0.0
 11
7.263649146783474
 21
-0.754130075062566
 31
0.0
  0
LINE
  5
174
330
A
100
AcDbEntity
  8
1
  6
solid
 62
     7
100
AcDbLine
 10
7.263649146783474
 20
-0.754130075062566
 30
0.0
 11
7.236198166391317
 21
-0.754130075062566
 31
0.0
  0
LINE
  5
175
330
A
100
AcDbEntity
  8
1
  6
solid
 62
     7
100
AcDbLine
 10
7.236198166391317
 20
-0.754130075062566
 30
0.0
 11
7.284237382077591
 21
-0.6219185366010276
 31
0.0
  0
LINE
  5
176
330
A
100
AcDbEntity
  8
1
  6
solid
 62
     7
100
AcDbLine
 10
7.284237382077591
 20
-0.6219185366010276
 30
0.0
 11
7.331296205607003
 21
-0.754130075062566
 31
0.0
  0
LINE
  5
177
330
A
100
AcDbEntity
  8
1
  6
solid
 62
     7
100
AcDbLine
 10
7.331296205607003
 20
-0.754130075062566
 30
0.0
 11
7.305806009528572
 21
-0.754130075062566
 31
0.0
  0
LINE
  5
178
330
A
100
AcDbEntity
  8
1
  6
solid
 62
     7
100
AcDbLine
 10
7.305806009528572
 20
-0.754130075062566
 30
0.0
 11
7.305806009528572
 21
-0.8190339212164122
 31
0.0
  0
LINE
  5
179
330
A
100
AcDbEntity
  8
1
  6
solid
 62
     7
100
AcDbLine
 10
7.305806009528572
 20
-0.8190339212164122
 30
0.0
 11
7.40874718599916
 21
-0.8190339212164122
 31
0.0
  0
LINE
  5
17A
330
A
100
AcDbEntity
  8
1
  6
solid
 62
     7
100
AcDbLine
 10
7.40874718599916
 20
-0.8190339212164122
 30
0.0
 11
7.40874718599916
 21
-0.754130075062566
 31
0.0
  0
LINE
  5
17B
330
A
100
AcDbEntity
  8
1
  6
solid
 62
     7
100
AcDbLine
 10
7.40874718599916
 20
-0.754130075062566
 30
0.0
 11
7.376394244822689
 21
-0.754130075062566
 31
0.0
  0
LINE
  5
17C
330
A
100
AcDbEntity
  8
1
  6
solid
 62
     7
100
AcDbLine
 10
7.376394244822689
 20
-0.754130075062566
 30
0.0
 11
7.305806009528572
 21
-0.56422622890872
 31
0.0
  0
LINE
  5
17D
330
A
100
AcDbEntity
  8
1
  6
solid
 62
     7
100
AcDbLine
 10
7.305806009528572
 20
-0.56422622890872
 30
0.0
 11
7.369531499724651
 21
-0.3839377673702583
 31
0.0
  0
LINE
  5
17E
330
A
100
AcDbEntity
  8
1
  6
solid
 62
     7
100
AcDbLine
 10
7.369531499724651
 20
-0.3839377673702583
 30
0.0
 11
7.404825617371709
 21
-0.3839377673702583
 31
0.0
  0
LINE
  5
17F
330
A
100
AcDbEntity
  8
1
  6
solid
 62
     7
100
AcDbLine
 10
7.404825617371709
 20
-0.3839377673702583
 30
0.0
 11
7.404825617371709
 21
-0.3190339212164122
 31
0.0
  0
LINE
  5
180
330
A
100
AcDbEntity
  8
1
  6
solid
 62
     7
100
AcDbLine
 10
7.404825617371709
 20
-0.3190339212164122
 30
0.0
 11
7.299923656587395
 21
-0.3190339212164122
 31
0.0
  0
LINE
  5
181
330
A
100
AcDbEntity
  8
1
  6
solid
 62
     7
100
AcDbLine
 10
7.299923656587395
 20
-0.3190339212164122
 30
0.0
 11
7.299923656587395
 21
-0.3839377673702583
 31
0.0
  0
LINE
  5
182
330
A
100
AcDbEntity
  8
1
  6
solid
 62
     7
100
AcDbLine
 10
7.299923656587395
 20
-0.3839377673702583
 30
0.0
 11
7.326394244822689
 21
-0.3839377673702583
 31
0.0
  0
LINE
  5
183
330
A
100
AcDbEntity
  8
1
  6
solid
 62
     7
100
AcDbLine
 10
7.326394244822689
 20
-0.3839377673702583
 30
0.0
 11
7.284237382077591
 21
-0.50172622890872
 31
0.0
  0
LINE
  5
184
330
A
100
AcDbEntity
  8
1
  6
solid
 62
     7
100
AcDbLine
 10
7.284237382077591
 20
-0.50172622890872
 30
0.0
 11
7.241100127175631
 21
-0.3839377673702583
 31
0.0
  0
LINE
  5
185
330
A
100
AcDbEntity
  8
1
  6
solid
 62
     7
100
AcDbLine
 10
7.241100127175631
 20
-0.3839377673702583
 30
0.0
 11
7.267570715410925
 21
-0.3839377673702583
 31
0.0
  0
LINE
  5
186
330
A
100
AcDbEntity
  8
1
  6
solid
 62
     7
100
AcDbLine
 10
7.267570715410925
 20
-0.3839377673702583
 30
0.0
 11
7.267570715410925
 21
-0.3190339212164122
 31
0.0
  0
LINE
  5
187
330
A
100
AcDbEntity
  8
1
  6
solid
 62
     7
100
AcDbLine
 10
7.267570715410925
 20
-0.3190339212164122
 30
0.0
 11
7.162668754626611
 21
-0.3190339212164122
 31
0.0
  0
LINE
  5
188
330
A
100
AcDbEntity
  8
1
  6
solid
 62
     7
100
AcDbLine
 10
7.818551107567787
 20
-0.5233608442933353
 30
0.0
 11
7.804825617371709
 21
-0.5377839212164122
 31
0.0
  0
LINE
  5
189
330
A
100
AcDbEntity
  8
1
  6
solid
 62
     7
100
AcDbLine
 10
7.804825617371709
 20
-0.5377839212164122
 30
0.0
 11
7.791100127175631
 21
-0.5546108442933353
 31
0.0
  0
LINE
  5
18A
330
A
100
AcDbEntity
  8
1
  6
solid
 62
     7
100
AcDbLine
 10
7.791100127175631
 20
-0.5546108442933353
 30
0.0
 11
7.78031581345014
 21
-0.5714377673702584
 31
0.0
  0
LINE
  5
18B
330
A
100
AcDbEntity
  8
1
  6
solid
 62
     7
100
AcDbLine
 10
7.78031581345014
 20
-0.5714377673702584
 30
0.0
 11
7.772472676195238
 21
-0.5906685366010276
 31
0.0
  0
LINE
  5
18C
330
A
100
AcDbEntity
  8
1
  6
solid
 62
     7
100
AcDbLine
 10
7.772472676195238
 20
-0.5906685366010276
 30
0.0
 11
7.766590323254062
 21
-0.6074954596779506
 31
0.0
  0
LINE
  5
18D
330
A
100
AcDbEntity
  8
1
  6
solid
 62
     7
100
AcDbLine
 10
7.766590323254062
 20
-0.6074954596779506
 30
0.0
 11
7.761688362469748
 21
-0.6315339212164122
 31
0.0
  0
LINE
  5
18E
330
A
100
AcDbEntity
  8
1
  6
solid
 62
     7
100
AcDbLine
 10
7.761688362469748
 20
-0.6315339212164122
 30
0.0
 11
7.75874718599916
 21
-0.6483608442933353
 31
0.0
  0
LINE
  5
18F
330
A
100
AcDbEntity
  8
1
  6
solid
 62
     7
100
AcDbLine
 10
7.75874718599916
 20
-0.6483608442933353
 30
0.0
 11
7.75874718599916
 21
-0.660380075062566
 31
0.0
  0
LINE
  5
190
330
A
100
AcDbEntity
  8
1
  6
solid
 62
     7
100
AcDbLine
 10
7.75874718599916
 20
-0.660380075062566
 30
0.0
 11
7.761688362469748
 21
-0.6796108442933353
 31
0.0
  0
LINE
  5
191
330
A
100
AcDbEntity
  8
1
  6
solid
 62
     7
100
AcDbLine
 10
7.761688362469748
 20
-0.6796108442933353
 30
0.0
 11
7.764629538940337
 21
-0.7012454596779506
 31
0.0
  0
LINE
  5
192
330
A
100
AcDbEntity
  8
1
  6
solid
 62
     7
100
AcDbLine
 10
7.764629538940337
 20
-0.7012454596779506
 30
0.0
 11
7.76953149972465
 21
-0.722880075062566
 31
0.0
  0
LINE
  5
193
330
A
100
AcDbEntity
  8
1
  6
solid
 62
     7
100
AcDbLine
 10
7.76953149972465
 20
-0.722880075062566
 30
0.0
 11
7.78031581345014
 21
-0.7493223827548738
 31
0.0
  0
LINE
  5
194
330
A
100
AcDbEntity
  8
1
  6
solid
 62
     7
100
AcDbLine
 10
7.78031581345014
 20
-0.7493223827548738
 30
0.0
 11
7.796982480116807
 21
-0.7709569981394891
 31
0.0
  0
LINE
  5
195
330
A
100
AcDbEntity
  8
1
  6
solid
 62
     7
100
AcDbLine
 10
7.796982480116807
 20
-0.7709569981394891
 30
0.0
 11
7.810707970312885
 21
-0.7877839212164122
 31
0.0
  0
LINE
  5
196
330
A
100
AcDbEntity
  8
1
  6
solid
 62
     7
100
AcDbLine
 10
7.810707970312885
 20
-0.7877839212164122
 30
0.0
 11
7.835217774234454
 21
-0.8046108442933352
 31
0.0
  0
LINE
  5
197
330
A
100
AcDbEntity
  8
1
  6
solid
 62
     7
100
AcDbLine
 10
7.835217774234454
 20
-0.8046108442933352
 30
0.0
 11
7.859727578156022
 21
-0.816630075062566
 31
0.0
  0
LINE
  5
198
330
A
100
AcDbEntity
  8
1
  6
solid
 62
     7
100
AcDbLine
 10
7.859727578156022
 20
-0.816630075062566
 30
0.0
 11
7.878355029136415
 21
-0.8190339212164122
 31
0.0
  0
LINE
  5
199
330
A
100
AcDbEntity
  8
1
  6
solid
 62
     7
100
AcDbLine
 10
7.878355029136415
 20
-0.8190339212164122
 30
0.0
 11
7.899923656587396
 21
-0.8190339212164122
 31
0.0
  0
LINE
  5
19A
330
A
100
AcDbEntity
  8
1
  6
solid
 62
     7
100
AcDbLine
 10
7.899923656587396
 20
-0.8190339212164122
 30
0.0
 11
7.921492284038376
 21
-0.8118223827548737
 31
0.0
  0
LINE
  5
19B
330
A
100
AcDbEntity
  8
1
  6
solid
 62
     7
100
AcDbLine
 10
7.921492284038376
 20
-0.8118223827548737
 30
0.0
 11
7.946002087959945
 21
-0.7949954596779506
 31
0.0
  0
LINE
  5
19C
330
A
100
AcDbEntity
  8
1
  6
solid
 62
     7
100
AcDbLine
 10
7.946002087959945
 20
-0.7949954596779506
 30
0.0
 11
7.970511891881513
 21
-0.7733608442933353
 31
0.0
  0
LINE
  5
19D
330
A
100
AcDbEntity
  8
1
  6
solid
 62
     7
100
AcDbLine
 10
7.970511891881513
 20
-0.7733608442933353
 30
0.0
 11
7.98717855854818
 21
-0.7469185366010276
 31
0.0
  0
LINE
  5
19E
330
A
100
AcDbEntity
  8
1
  6
solid
 62
     7
100
AcDbLine
 10
7.98717855854818
 20
-0.7469185366010276
 30
0.0
 11
7.99796287227367
 21
-0.7180723827548738
 31
0.0
  0
LINE
  5
19F
330
A
100
AcDbEntity
  8
1
  6
solid
 62
     7
100
AcDbLine
 10
7.99796287227367
 20
-0.7180723827548738
 30
0.0
 11
8.002864833057984
 21
-0.7036493058317968
 31
0.0
  0
LINE
  5
1A0
330
A
100
AcDbEntity
  8
1
  6
solid
 62
     7
100
AcDbLine
 10
8.002864833057984
 20
-0.7036493058317968
 30
0.0
 11
8.00874718599916
 21
-0.6723993058317968
 31
0.0
  0
LINE
  5
1A1
330
A
100
AcDbEntity
  8
1
  6
solid
 62
     7
100
AcDbLine
 10
8.00874718599916
 20
-0.6723993058317968
 30
0.0
 11
8.00874718599916
 21
-0.6459569981394891
 31
0.0
  0
LINE
  5
1A2
330
A
100
AcDbEntity
  8
1
  6
solid
 62
     7
100
AcDbLine
 10
8.00874718599916
 20
-0.6459569981394891
 30
0.0
 11
8.002864833057984
 21
-0.6147069981394892
 31
0.0
  0
LINE
  5
1A3
330
A
100
AcDbEntity
  8
1
  6
solid
 62
     7
100
AcDbLine
 10
8.002864833057984
 20
-0.6147069981394892
 30
0.0
 11
7.995021695803082
 21
-0.5906685366010276
 31
0.0
  0
LINE
  5
1A4
330
A
100
AcDbEntity
  8
1
  6
solid
 62
     7
100
AcDbLine
 10
7.995021695803082
 20
-0.5906685366010276
 30
0.0
 11
7.984237382077592
 21
-0.5618223827548738
 31
0.0
  0
LINE
  5
1A5
330
A
100
AcDbEntity
  8
1
  6
solid
 62
     7
100
AcDbLine
 10
7.984237382077592
 20
-0.5618223827548738
 30
0.0
 11
7.970511891881513
 21
-0.5449954596779506
 31
0.0
  0
LINE
  5
1A6
330
A
100
AcDbEntity
  8
1
  6
solid
 62
     7
100
AcDbLine
 10
7.970511891881513
 20
-0.5449954596779506
 30
0.0
 11
7.956786401685435
 21
-0.5305723827548736
 31
0.0
  0
LINE
  5
1A7
330
A
100
AcDbEntity
  8
1
  6
solid
 62
     7
100
AcDbLine
 10
7.956786401685435
 20
-0.5305723827548736
 30
0.0
 11
7.948943264430533
 21
-0.5233608442933353
 31
0.0
  0
LINE
  5
1A8
330
A
100
AcDbEntity
  8
1
  6
solid
 62
     7
100
AcDbLine
 10
7.948943264430533
 20
-0.5233608442933353
 30
0.0
 11
7.962668754626611
 21
-0.5065339212164122
 31
0.0
  0
LINE
  5
1A9
330
A
100
AcDbEntity
  8
1
  6
solid
 62
     7
100
AcDbLine
 10
7.962668754626611
 20
-0.5065339212164122
 30
0.0
 11
7.970511891881513
 21
-0.4897069981394891
 31
0.0
  0
LINE
  5
1AA
330
A
100
AcDbEntity
  8
1
  6
solid
 62
     7
100
AcDbLine
 10
7.970511891881513
 20
-0.4897069981394891
 30
0.0
 11
7.97639424482269
 21
-0.472880075062566
 31
0.0
  0
LINE
  5
1AB
330
A
100
AcDbEntity
  8
1
  6
solid
 62
     7
100
AcDbLine
 10
7.97639424482269
 20
-0.472880075062566
 30
0.0
 11
7.979335421293278
 21
-0.4464377673702584
 31
0.0
  0
LINE
  5
1AC
330
A
100
AcDbEntity
  8
1
  6
solid
 62
     7
100
AcDbLine
 10
7.979335421293278
 20
-0.4464377673702584
 30
0.0
 11
7.979335421293278
 21
-0.4272069981394891
 31
0.0
  0
LINE
  5
1AD
330
A
100
AcDbEntity
  8
1
  6
solid
 62
     7
100
AcDbLine
 10
7.979335421293278
 20
-0.4272069981394891
 30
0.0
 11
7.97639424482269
 21
-0.410380075062566
 31
0.0
  0
LINE
  5
1AE
330
A
100
AcDbEntity
  8
1
  6
solid
 62
     7
100
AcDbLine
 10
7.97639424482269
 20
-0.410380075062566
 30
0.0
 11
7.970511891881513
 21
-0.3911493058317967
 31
0.0
  0
LINE
  5
1AF
330
A
100
AcDbEntity
  8
1
  6
solid
 62
     7
100
AcDbLine
 10
7.970511891881513
 20
-0.3911493058317967
 30
0.0
 11
7.962668754626611
 21
-0.3719185366010275
 31
0.0
  0
LINE
  5
1B0
330
A
100
AcDbEntity
  8
1
  6
solid
 62
     7
100
AcDbLine
 10
7.962668754626611
 20
-0.3719185366010275
 30
0.0
 11
7.954825617371709
 21
-0.3574954596779506
 31
0.0
  0
LINE
  5
1B1
330
A
100
AcDbEntity
  8
1
  6
solid
 62
     7
100
AcDbLine
 10
7.954825617371709
 20
-0.3574954596779506
 30
0.0
 11
7.941100127175631
 21
-0.3430723827548737
 31
0.0
  0
LINE
  5
1B2
330
A
100
AcDbEntity
  8
1
  6
solid
 62
     7
100
AcDbLine
 10
7.941100127175631
 20
-0.3430723827548737
 30
0.0
 11
7.930315813450141
 21
-0.3334569981394891
 31
0.0
  0
LINE
  5
1B3
330
A
100
AcDbEntity
  8
1
  6
solid
 62
     7
100
AcDbLine
 10
7.930315813450141
 20
-0.3334569981394891
 30
0.0
 11
7.916590323254062
 21
-0.3262454596779506
 31
0.0
  0
LINE
  5
1B4
330
A
100
AcDbEntity
  8
1
  6
solid
 62
     7
100
AcDbLine
 10
7.916590323254062
 20
-0.3262454596779506
 30
0.0
 11
7.896982480116808
 21
-0.3190339212164122
 31
0.0
  0
LINE
  5
1B5
330
A
100
AcDbEntity
  8
1
  6
solid
 62
     7
100
AcDbLine
 10
7.896982480116808
 20
-0.3190339212164122
 30
0.0
 11
7.875413852665826
 21
-0.3190339212164122
 31
0.0
  0
LINE
  5
1B6
330
A
100
AcDbEntity
  8
1
  6
solid
 62
     7
100
AcDbLine
 10
7.875413852665826
 20
-0.3190339212164122
 30
0.0
 11
7.850904048744258
 21
-0.3262454596779506
 31
0.0
  0
LINE
  5
1B7
330
A
100
AcDbEntity
  8
1
  6
solid
 62
     7
100
AcDbLine
 10
7.850904048744258
 20
-0.3262454596779506
 30
0.0
 11
7.829335421293277
 21
-0.3406685366010275
 31
0.0
  0
LINE
  5
1B8
330
A
100
AcDbEntity
  8
1
  6
solid
 62
     7
100
AcDbLine
 10
7.829335421293277
 20
-0.3406685366010275
 30
0.0
 11
7.815609931097199
 21
-0.3526877673702583
 31
0.0
  0
LINE
  5
1B9
330
A
100
AcDbEntity
  8
1
  6
solid
 62
     7
100
AcDbLine
 10
7.815609931097199
 20
-0.3526877673702583
 30
0.0
 11
7.804825617371709
 21
-0.3719185366010275
 31
0.0
  0
LINE
  5
1BA
330
A
100
AcDbEntity
  8
1
  6
solid
 62
     7
100
AcDbLine
 10
7.804825617371709
 20
-0.3719185366010275
 30
0.0
 11
7.796982480116807
 21
-0.3911493058317967
 31
0.0
  0
LINE
  5
1BB
330
A
100
AcDbEntity
  8
1
  6
solid
 62
     7
100
AcDbLine
 10
7.796982480116807
 20
-0.3911493058317967
 30
0.0
 11
7.791100127175631
 21
-0.4127839212164122
 31
0.0
  0
LINE
  5
1BC
330
A
100
AcDbEntity
  8
1
  6
solid
 62
     7
100
AcDbLine
 10
7.791100127175631
 20
-0.4127839212164122
 30
0.0
 11
7.788158950705042
 21
-0.4272069981394891
 31
0.0
  0
LINE
  5
1BD
330
A
100
AcDbEntity
  8
1
  6
solid
 62
     7
100
AcDbLine
 10
7.788158950705042
 20
-0.4272069981394891
 30
0.0
 11
7.788158950705042
 21
-0.4440339212164122
 31
0.0
  0
LINE
  5
1BE
330
A
100
AcDbEntity
  8
1
  6
solid
 62
     7
100
AcDbLine
 10
7.788158950705042
 20
-0.4440339212164122
 30
0.0
 11
7.791100127175631
 21
-0.4656685366010275
 31
0.0
  0
LINE
  5
1BF
330
A
100
AcDbEntity
  8
1
  6
solid
 62
     7
100
AcDbLine
 10
7.791100127175631
 20
-0.4656685366010275
 30
0.0
 11
7.796982480116807
 21
-0.4897069981394891
 31
0.0
  0
LINE
  5
1C0
330
A
100
AcDbEntity
  8
1
  6
solid
 62
     7
100
AcDbLine
 10
7.796982480116807
 20
-0.4897069981394891
 30
0.0
 11
7.804825617371709
 21
-0.5065339212164122
 31
0.0
  0
LINE
  5
1C1
330
A
100
AcDbEntity
  8
1
  6
solid
 62
     7
100
AcDbLine
 10
7.804825617371709
 20
-0.5065339212164122
 30
0.0
 11
7.812668754626611
 21
-0.5161493058317968
 31
0.0
  0
LINE
  5
1C2
330
A
100
AcDbEntity
  8
1
  6
solid
 62
     7
100
AcDbLine
 10
7.812668754626611
 20
-0.5161493058317968
 30
0.0
 11
7.818551107567787
 21
-0.5233608442933353
 31
0.0
  0
LINE
  5
1C3
330
A
100
AcDbEntity
  8
1
  6
solid
 62
     7
100
AcDbLine
 10
7.896982480116808
 20
-0.7565339212164122
 30
0.0
 11
7.916590323254062
 21
-0.7493223827548738
 31
0.0
  0
LINE
  5
1C4
330
A
100
AcDbEntity
  8
1
  6
solid
 62
     7
100
AcDbLine
 10
7.916590323254062
 20
-0.7493223827548738
 30
0.0
 11
7.930315813450141
 21
-0.7397069981394891
 31
0.0
  0
LINE
  5
1C5
330
A
100
AcDbEntity
  8
1
  6
solid
 62
     7
100
AcDbLine
 10
7.930315813450141
 20
-0.7397069981394891
 30
0.0
 11
7.943060911489356
 21
-0.7252839212164122
 31
0.0
  0
LINE
  5
1C6
330
A
100
AcDbEntity
  8
1
  6
solid
 62
     7
100
AcDbLine
 10
7.943060911489356
 20
-0.7252839212164122
 30
0.0
 11
7.954825617371709
 21
-0.7036493058317968
 31
0.0
  0
LINE
  5
1C7
330
A
100
AcDbEntity
  8
1
  6
solid
 62
     7
100
AcDbLine
 10
7.954825617371709
 20
-0.7036493058317968
 30
0.0
 11
7.959727578156023
 21
-0.6844185366010276
 31
0.0
  0
LINE
  5
1C8
330
A
100
AcDbEntity
  8
1
  6
solid
 62
     7
100
AcDbLine
 10
7.959727578156023
 20
-0.6844185366010276
 30
0.0
 11
7.962668754626611
 21
-0.6627839212164122
 31
0.0
  0
LINE
  5
1C9
330
A
100
AcDbEntity
  8
1
  6
solid
 62
     7
100
AcDbLine
 10
7.962668754626611
 20
-0.6627839212164122
 30
0.0
 11
7.962668754626611
 21
-0.6483608442933353
 31
0.0
  0
LINE
  5
1CA
330
A
100
AcDbEntity
  8
1
  6
solid
 62
     7
100
AcDbLine
 10
7.962668754626611
 20
-0.6483608442933353
 30
0.0
 11
7.954825617371709
 21
-0.6171108442933353
 31
0.0
  0
LINE
  5
1CB
330
A
100
AcDbEntity
  8
1
  6
solid
 62
     7
100
AcDbLine
 10
7.954825617371709
 20
-0.6171108442933353
 30
0.0
 11
7.946002087959945
 21
-0.6002839212164122
 31
0.0
  0
LINE
  5
1CC
330
A
100
AcDbEntity
  8
1
  6
solid
 62
     7
100
AcDbLine
 10
7.946002087959945
 20
-0.6002839212164122
 30
0.0
 11
7.935217774234454
 21
-0.5858608442933353
 31
0.0
  0
LINE
  5
1CD
330
A
100
AcDbEntity
  8
1
  6
solid
 62
     7
100
AcDbLine
 10
7.935217774234454
 20
-0.5858608442933353
 30
0.0
 11
7.921492284038376
 21
-0.5714377673702584
 31
0.0
  0
LINE
  5
1CE
330
A
100
AcDbEntity
  8
1
  6
solid
 62
     7
100
AcDbLine
 10
7.921492284038376
 20
-0.5714377673702584
 30
0.0
 11
7.910707970312886
 21
-0.566630075062566
 31
0.0
  0
LINE
  5
1CF
330
A
100
AcDbEntity
  8
1
  6
solid
 62
     7
100
AcDbLine
 10
7.910707970312886
 20
-0.566630075062566
 30
0.0
 11
7.895021695803082
 21
-0.5618223827548738
 31
0.0
  0
LINE
  5
1D0
330
A
100
AcDbEntity
  8
1
  6
solid
 62
     7
100
AcDbLine
 10
7.895021695803082
 20
-0.5618223827548738
 30
0.0
 11
7.875413852665826
 21
-0.5618223827548738
 31
0.0
  0
LINE
  5
1D1
330
A
100
AcDbEntity
  8
1
  6
solid
 62
     7
100
AcDbLine
 10
7.875413852665826
 20
-0.5618223827548738
 30
0.0
 11
7.853845225214846
 21
-0.5690339212164122
 31
0.0
  0
LINE
  5
1D2
330
A
100
AcDbEntity
  8
1
  6
solid
 62
     7
100
AcDbLine
 10
7.853845225214846
 20
-0.5690339212164122
 30
0.0
 11
7.840119735018768
 21
-0.5786493058317968
 31
0.0
  0
LINE
  5
1D3
330
A
100
AcDbEntity
  8
1
  6
solid
 62
     7
100
AcDbLine
 10
7.840119735018768
 20
-0.5786493058317968
 30
0.0
 11
7.826394244822689
 21
-0.5930723827548736
 31
0.0
  0
LINE
  5
1D4
330
A
100
AcDbEntity
  8
1
  6
solid
 62
     7
100
AcDbLine
 10
7.826394244822689
 20
-0.5930723827548736
 30
0.0
 11
7.815609931097199
 21
-0.6147069981394892
 31
0.0
  0
LINE
  5
1D5
330
A
100
AcDbEntity
  8
1
  6
solid
 62
     7
100
AcDbLine
 10
7.815609931097199
 20
-0.6147069981394892
 30
0.0
 11
7.810707970312885
 21
-0.6315339212164122
 31
0.0
  0
LINE
  5
1D6
330
A
100
AcDbEntity
  8
1
  6
solid
 62
     7
100
AcDbLine
 10
7.810707970312885
 20
-0.6315339212164122
 30
0.0
 11
7.807766793842297
 21
-0.6483608442933353
 31
0.0
  0
LINE
  5
1D7
330
A
100
AcDbEntity
  8
1
  6
solid
 62
     7
100
AcDbLine
 10
7.807766793842297
 20
-0.6483608442933353
 30
0.0
 11
7.807766793842297
 21
-0.6699954596779506
 31
0.0
  0
LINE
  5
1D8
330
A
100
AcDbEntity
  8
1
  6
solid
 62
     7
100
AcDbLine
 10
7.807766793842297
 20
-0.6699954596779506
 30
0.0
 11
7.810707970312885
 21
-0.691630075062566
 31
0.0
  0
LINE
  5
1D9
330
A
100
AcDbEntity
  8
1
  6
solid
 62
     7
100
AcDbLine
 10
7.810707970312885
 20
-0.691630075062566
 30
0.0
 11
7.818551107567787
 21
-0.7156685366010276
 31
0.0
  0
LINE
  5
1DA
330
A
100
AcDbEntity
  8
1
  6
solid
 62
     7
100
AcDbLine
 10
7.818551107567787
 20
-0.7156685366010276
 30
0.0
 11
7.832276597763866
 21
-0.7324954596779506
 31
0.0
  0
LINE
  5
1DB
330
A
100
AcDbEntity
  8
1
  6
solid
 62
     7
100
AcDbLine
 10
7.832276597763866
 20
-0.7324954596779506
 30
0.0
 11
7.846002087959944
 21
-0.7469185366010276
 31
0.0
  0
LINE
  5
1DC
330
A
100
AcDbEntity
  8
1
  6
solid
 62
     7
100
AcDbLine
 10
7.846002087959944
 20
-0.7469185366010276
 30
0.0
 11
7.864629538940336
 21
-0.7565339212164122
 31
0.0
  0
LINE
  5
1DD
330
A
100
AcDbEntity
  8
1
  6
solid
 62
     7
100
AcDbLine
 10
7.864629538940336
 20
-0.7565339212164122
 30
0.0
 11
7.896982480116808
 21
-0.7565339212164122
 31
0.0
  0
LINE
  5
1DE
330
A
100
AcDbEntity
  8
1
  6
solid
 62
     7
100
AcDbLine
 10
7.892080519332494
 20
-0.4993223827548738
 30
0.0
 11
7.902864833057984
 21
-0.4969185366010275
 31
0.0
  0
LINE
  5
1DF
330
A
100
AcDbEntity
  8
1
  6
solid
 62
     7
100
AcDbLine
 10
7.902864833057984
 20
-0.4969185366010275
 30
0.0
 11
7.916590323254062
 21
-0.4848993058317969
 31
0.0
  0
LINE
  5
1E0
330
A
100
AcDbEntity
  8
1
  6
solid
 62
     7
100
AcDbLine
 10
7.916590323254062
 20
-0.4848993058317969
 30
0.0
 11
7.924433460508964
 21
-0.472880075062566
 31
0.0
  0
LINE
  5
1E1
330
A
100
AcDbEntity
  8
1
  6
solid
 62
     7
100
AcDbLine
 10
7.924433460508964
 20
-0.472880075062566
 30
0.0
 11
7.930315813450141
 21
-0.4584569981394891
 31
0.0
  0
LINE
  5
1E2
330
A
100
AcDbEntity
  8
1
  6
solid
 62
     7
100
AcDbLine
 10
7.930315813450141
 20
-0.4584569981394891
 30
0.0
 11
7.932276597763866
 21
-0.4440339212164122
 31
0.0
  0
LINE
  5
1E3
330
A
100
AcDbEntity
  8
1
  6
solid
 62
     7
100
AcDbLine
 10
7.932276597763866
 20
-0.4440339212164122
 30
0.0
 11
7.932276597763866
 21
-0.4344185366010275
 31
0.0
  0
LINE
  5
1E4
330
A
100
AcDbEntity
  8
1
  6
solid
 62
     7
100
AcDbLine
 10
7.932276597763866
 20
-0.4344185366010275
 30
0.0
 11
7.927374636979553
 21
-0.4127839212164122
 31
0.0
  0
LINE
  5
1E5
330
A
100
AcDbEntity
  8
1
  6
solid
 62
     7
100
AcDbLine
 10
7.927374636979553
 20
-0.4127839212164122
 30
0.0
 11
7.919531499724651
 21
-0.3983608442933352
 31
0.0
  0
LINE
  5
1E6
330
A
100
AcDbEntity
  8
1
  6
solid
 62
     7
100
AcDbLine
 10
7.919531499724651
 20
-0.3983608442933352
 30
0.0
 11
7.910707970312886
 21
-0.3887454596779506
 31
0.0
  0
LINE
  5
1E7
330
A
100
AcDbEntity
  8
1
  6
solid
 62
     7
100
AcDbLine
 10
7.910707970312886
 20
-0.3887454596779506
 30
0.0
 11
7.899923656587396
 21
-0.3815339212164121
 31
0.0
  0
LINE
  5
1E8
330
A
100
AcDbEntity
  8
1
  6
solid
 62
     7
100
AcDbLine
 10
7.899923656587396
 20
-0.3815339212164121
 30
0.0
 11
7.889139342861906
 21
-0.3791300750625659
 31
0.0
  0
LINE
  5
1E9
330
A
100
AcDbEntity
  8
1
  6
solid
 62
     7
100
AcDbLine
 10
7.889139342861906
 20
-0.3791300750625659
 30
0.0
 11
7.881296205607003
 21
-0.3791300750625659
 31
0.0
  0
LINE
  5
1EA
330
A
100
AcDbEntity
  8
1
  6
solid
 62
     7
100
AcDbLine
 10
7.881296205607003
 20
-0.3791300750625659
 30
0.0
 11
7.867570715410924
 21
-0.3815339212164121
 31
0.0
  0
LINE
  5
1EB
330
A
100
AcDbEntity
  8
1
  6
solid
 62
     7
100
AcDbLine
 10
7.867570715410924
 20
-0.3815339212164121
 30
0.0
 11
7.856786401685434
 21
-0.3887454596779506
 31
0.0
  0
LINE
  5
1EC
330
A
100
AcDbEntity
  8
1
  6
solid
 62
     7
100
AcDbLine
 10
7.856786401685434
 20
-0.3887454596779506
 30
0.0
 11
7.84796287227367
 21
-0.3983608442933352
 31
0.0
  0
LINE
  5
1ED
330
A
100
AcDbEntity
  8
1
  6
solid
 62
     7
100
AcDbLine
 10
7.84796287227367
 20
-0.3983608442933352
 30
0.0
 11
7.840119735018768
 21
-0.4127839212164122
 31
0.0
  0
LINE
  5
1EE
330
A
100
AcDbEntity
  8
1
  6
solid
 62
     7
100
AcDbLine
 10
7.840119735018768
 20
-0.4127839212164122
 30
0.0
 11
7.837178558548179
 21
-0.4272069981394891
 31
0.0
  0
LINE
  5
1EF
330
A
100
AcDbEntity
  8
1
  6
solid
 62
     7
100
AcDbLine
 10
7.837178558548179
 20
-0.4272069981394891
 30
0.0
 11
7.835217774234454
 21
-0.4368223827548737
 31
0.0
  0
LINE
  5
1F0
330
A
100
AcDbEntity
  8
1
  6
solid
 62
     7
100
AcDbLine
 10
7.835217774234454
 20
-0.4368223827548737
 30
0.0
 11
7.835217774234454
 21
-0.4440339212164122
 31
0.0
  0
LINE
  5
1F1
330
A
100
AcDbEntity
  8
1
  6
solid
 62
     7
100
AcDbLine
 10
7.835217774234454
 20
-0.4440339212164122
 30
0.0
 11
7.840119735018768
 21
-0.4656685366010275
 31
0.0
  0
LINE
  5
1F2
330
A
100
AcDbEntity
  8
1
  6
solid
 62
     7
100
AcDbLine
 10
7.840119735018768
 20
-0.4656685366010275
 30
0.0
 11
7.846002087959944
 21
-0.4752839212164122
 31
0.0
  0
LINE
  5
1F3
330
A
100
AcDbEntity
  8
1
  6
solid
 62
     7
100
AcDbLine
 10
7.846002087959944
 20
-0.4752839212164122
 30
0.0
 11
7.853845225214846
 21
-0.4897069981394891
 31
0.0
  0
LINE
  5
1F4
330
A
100
AcDbEntity
  8
1
  6
solid
 62
     7
100
AcDbLine
 10
7.853845225214846
 20
-0.4897069981394891
 30
0.0
 11
7.864629538940336
 21
-0.4969185366010275
 31
0.0
  0
LINE
  5
1F5
330
A
100
AcDbEntity
  8
1
  6
solid
 62
     7
100
AcDbLine
 10
7.864629538940336
 20
-0.4969185366010275
 30
0.0
 11
7.878355029136415
 21
-0.4993223827548738
 31
0.0
  0
LINE
  5
1F6
330
A
100
AcDbEntity
  8
1
  6
solid
 62
     7
100
AcDbLine
 10
7.878355029136415
 20
-0.4993223827548738
 30
0.0
 11
7.892080519332494
 21
-0.4993223827548738
 31
0.0
  0
LINE
  5
1F7
330
A
100
AcDbEntity
  8
1
  6
solid
 62
     7
100
AcDbLine
 10
8.146002087959944
 20
-0.3190339212164122
 30
0.0
 11
8.146002087959944
 21
-0.3911493058317967
 31
0.0
  0
LINE
  5
1F8
330
A
100
AcDbEntity
  8
1
  6
solid
 62
     7
100
AcDbLine
 10
8.146002087959944
 20
-0.3911493058317967
 30
0.0
 11
8.15874718599916
 21
-0.3911493058317967
 31
0.0
  0
LINE
  5
1F9
330
A
100
AcDbEntity
  8
1
  6
solid
 62
     7
100
AcDbLine
 10
8.15874718599916
 20
-0.3911493058317967
 30
0.0
 11
8.15874718599916
 21
-0.4680723827548737
 31
0.0
  0
LINE
  5
1FA
330
A
100
AcDbEntity
  8
1
  6
solid
 62
     7
100
AcDbLine
 10
8.15874718599916
 20
-0.4680723827548737
 30
0.0
 11
8.208747185999161
 21
-0.4680723827548737
 31
0.0
  0
LINE
  5
1FB
330
A
100
AcDbEntity
  8
1
  6
solid
 62
     7
100
AcDbLine
 10
8.208747185999161
 20
-0.4680723827548737
 30
0.0
 11
8.208747185999161
 21
-0.3911493058317967
 31
0.0
  0
LINE
  5
1FC
330
A
100
AcDbEntity
  8
1
  6
solid
 62
     7
100
AcDbLine
 10
8.208747185999161
 20
-0.3911493058317967
 30
0.0
 11
8.221492284038376
 21
-0.3911493058317967
 31
0.0
  0
LINE
  5
1FD
330
A
100
AcDbEntity
  8
1
  6
solid
 62
     7
100
AcDbLine
 10
8.221492284038376
 20
-0.3911493058317967
 30
0.0
 11
8.221492284038376
 21
-0.3190339212164122
 31
0.0
  0
LINE
  5
1FE
330
A
100
AcDbEntity
  8
1
  6
solid
 62
     7
100
AcDbLine
 10
8.221492284038376
 20
-0.3190339212164122
 30
0.0
 11
8.146002087959944
 21
-0.3190339212164122
 31
0.0
  0
LINE
  5
200
330
A
100
AcDbEntity
  8
0
  6
solid
 62
     7
100
AcDbLine
 10
5.353891659698272
 20
2.814397012781316
 30
0.0
 11
5.353891659698272
 21
3.064397012781316
 31
0.0
  0
LINE
  5
201
330
A
100
AcDbEntity
  8
0
  6
solid
 62
     7
100
AcDbLine
 10
5.353891659698272
 20
3.064397012781316
 30
0.0
 11
5.400993108973635
 21
3.064397012781316
 31
0.0
  0
LINE
  5
202
330
A
100
AcDbEntity
  8
0
  6
solid
 62
     7
100
AcDbLine
 10
5.400993108973635
 20
3.064397012781316
 30
0.0
 11
5.400993108973635
 21
2.857875273650882
 31
0.0
  0
LINE
  5
203
330
A
100
AcDbEntity
  8
0
  6
solid
 62
     7
100
AcDbLine
 10
5.400993108973635
 20
2.857875273650882
 30
0.0
 11
5.53142789158233
 21
2.857875273650882
 31
0.0
  0
LINE
  5
204
330
A
100
AcDbEntity
  8
0
  6
solid
 62
     7
100
AcDbLine
 10
5.53142789158233
 20
2.857875273650882
 30
0.0
 11
5.53142789158233
 21
2.814397012781316
 31
0.0
  0
LINE
  5
205
330
A
100
AcDbEntity
  8
0
  6
solid
 62
     7
100
AcDbLine
 10
5.353891659698272
 20
2.814397012781316
 30
0.0
 11
5.53142789158233
 21
2.814397012781316
 31
0.0
  0
LINE
  5
206
330
A
100
AcDbEntity
  8
0
  6
solid
 62
     7
100
AcDbLine
 10
5.689033543756243
 20
2.814397012781316
 30
0.0
 11
5.641932094480881
 21
2.814397012781316
 31
0.0
  0
LINE
  5
207
330
A
100
AcDbEntity
  8
0
  6
solid
 62
     7
100
AcDbLine
 10
5.641932094480881
 20
2.814397012781316
 30
0.0
 11
5.641932094480881
 21
2.993973824375519
 31
0.0
  0
SPLINE
  5
208
330
A
100
AcDbEntity
  8
0
  6
solid
 62
     7
100
AcDbSpline
210
0.0
220
0.0
230
1.0
 70
     8
 71
     2
 72
     6
 73
     3
 74
     0
 42
0.0000000001
 43
0.0000000001
 40
0.0
 40
0.0
 40
0.0
 40
1.0
 40
1.0
 40
1.0
 10
5.641932094480881
 20
2.993973824375519
 30
0.0
 10
5.614801659698272
 20
2.967795273650882
 30
0.0
 10
5.58033789158233
 20
2.955701360607403
 30
0.0
  0
LINE
  5
209
330
A
100
AcDbEntity
  8
0
  6
solid
 62
     7
100
AcDbLine
 10
5.58033789158233
 20
2.955701360607403
 30
0.0
 11
5.58033789158233
 21
3.002802809882766
 31
0.0
  0
SPLINE
  5
20A
330
A
100
AcDbEntity
  8
0
  6
solid
 62
     7
100
AcDbSpline
210
0.0
220
0.0
230
1.0
 70
     8
 71
     2
 72
     7
 73
     4
 74
     0
 42
0.0000000001
 43
0.0000000001
 40
0.0
 40
0.0
 40
0.0
 40
1.0
 40
2.0
 40
2.0
 40
2.0
 10
5.58033789158233
 20
3.002802809882766
 30
0.0
 10
5.598750645205519
 20
3.007984259158128
 30
0.0
 10
5.642266007524359
 20
3.041075273650882
 30
0.0
 10
5.650068906075084
 20
3.064397012781316
 30
0.0
  0
LINE
  5
20B
330
A
100
AcDbEntity
  8
0
  6
solid
 62
     7
100
AcDbLine
 10
5.650068906075084
 20
3.064397012781316
 30
0.0
 11
5.689033543756243
 21
3.064397012781316
 31
0.0
  0
LINE
  5
20C
330
A
100
AcDbEntity
  8
0
  6
solid
 62
     7
100
AcDbLine
 10
5.689033543756243
 20
2.814397012781316
 30
0.0
 11
5.689033543756243
 21
3.064397012781316
 31
0.0
  0
LINE
  5
20D
330
A
100
AcDbEntity
  8
0
  6
solid
 62
     7
100
AcDbLine
 10
5.850262384335954
 20
2.814397012781316
 30
0.0
 11
5.803160935060591
 21
2.814397012781316
 31
0.0
  0
LINE
  5
20E
330
A
100
AcDbEntity
  8
0
  6
solid
 62
     7
100
AcDbLine
 10
5.803160935060591
 20
2.814397012781316
 30
0.0
 11
5.803160935060591
 21
2.993973824375519
 31
0.0
  0
SPLINE
  5
20F
330
A
100
AcDbEntity
  8
0
  6
solid
 62
     7
100
AcDbSpline
210
0.0
220
0.0
230
1.0
 70
     8
 71
     2
 72
     6
 73
     3
 74
     0
 42
0.0000000001
 43
0.0000000001
 40
0.0
 40
0.0
 40
0.0
 40
1.0
 40
1.0
 40
1.0
 10
5.803160935060591
 20
2.993973824375519
 30
0.0
 10
5.776030500277983
 20
2.967795273650882
 30
0.0
 10
5.74156673216204
 20
2.955701360607403
 30
0.0
  0
LINE
  5
210
330
A
100
AcDbEntity
  8
0
  6
solid
 62
     7
100
AcDbLine
 10
5.74156673216204
 20
2.955701360607403
 30
0.0
 11
5.74156673216204
 21
3.002802809882766
 31
0.0
  0
SPLINE
  5
211
330
A
100
AcDbEntity
  8
0
  6
solid
 62
     7
100
AcDbSpline
210
0.0
220
0.0
230
1.0
 70
     8
 71
     2
 72
     7
 73
     4
 74
     0
 42
0.0000000001
 43
0.0000000001
 40
0.0
 40
0.0
 40
0.0
 40
1.0
 40
2.0
 40
2.0
 40
2.0
 10
5.74156673216204
 20
3.002802809882766
 30
0.0
 10
5.759979485785229
 20
3.007984259158128
 30
0.0
 10
5.803494848104069
 20
3.041075273650882
 30
0.0
 10
5.811297746654794
 20
3.064397012781316
 30
0.0
  0
LINE
  5
212
330
A
100
AcDbEntity
  8
0
  6
solid
 62
     7
100
AcDbLine
 10
5.811297746654794
 20
3.064397012781316
 30
0.0
 11
5.850262384335954
 21
3.064397012781316
 31
0.0
  0
LINE
  5
213
330
A
100
AcDbEntity
  8
0
  6
solid
 62
     7
100
AcDbLine
 10
5.850262384335954
 20
2.814397012781316
 30
0.0
 11
5.850262384335954
 21
3.064397012781316
 31
0.0
  0
LINE
  5
214
330
A
100
AcDbEntity
  8
0
  6
solid
 62
     7
100
AcDbLine
 10
5.906418761147548
 20
2.884313534520447
 30
0.0
 11
5.95352021042291
 21
2.890483969303056
 31
0.0
  0
SPLINE
  5
215
330
A
100
AcDbEntity
  8
0
  6
solid
 62
     7
100
AcDbSpline
210
0.0
220
0.0
230
1.0
 70
     8
 71
     2
 72
     7
 73
     4
 74
     0
 42
0.0000000001
 43
0.0000000001
 40
0.0
 40
0.0
 40
0.0
 40
1.0
 40
2.0
 40
2.0
 40
2.0
 10
5.95352021042291
 20
2.890483969303056
 30
0.0
 10
5.954930065495373
 20
2.872701940317548
 30
0.0
 10
5.97360252926349
 20
2.854252085245084
 30
0.0
 10
5.987427456799721
 20
2.854252085245084
 30
0.0
  0
SPLINE
  5
216
330
A
100
AcDbEntity
  8
0
  6
solid
 62
     7
100
AcDbSpline
210
0.0
220
0.0
230
1.0
 70
     8
 71
     2
 72
     7
 73
     4
 74
     0
 42
0.0000000001
 43
0.0000000001
 40
0.0
 40
0.0
 40
0.0
 40
1.0
 40
2.0
 40
2.0
 40
2.0
 10
5.987427456799721
 20
2.854252085245084
 30
0.0
 10
6.001883108973634
 20
2.854252085245084
 30
0.0
 10
6.022360790133054
 20
2.873703679447983
 30
0.0
 10
6.022360790133054
 20
2.891188896839287
 30
0.0
  0
SPLINE
  5
217
330
A
100
AcDbEntity
  8
0
  6
solid
 62
     7
100
AcDbSpline
210
0.0
220
0.0
230
1.0
 70
     8
 71
     2
 72
     7
 73
     4
 74
     0
 42
0.0000000001
 43
0.0000000001
 40
0.0
 40
0.0
 40
0.0
 40
1.0
 40
2.0
 40
2.0
 40
2.0
 10
6.022360790133054
 20
2.891188896839287
 30
0.0
 10
6.022360790133054
 20
2.906794693940737
 30
0.0
 10
6.004467456799721
 20
2.926715853361026
 30
0.0
 10
5.991087746654794
 20
2.926715853361026
 30
0.0
  0
SPLINE
  5
218
330
A
100
AcDbEntity
  8
0
  6
solid
 62
     7
100
AcDbSpline
210
0.0
220
0.0
230
1.0
 70
     8
 71
     2
 72
     6
 73
     3
 74
     0
 42
0.0000000001
 43
0.0000000001
 40
0.0
 40
0.0
 40
0.0
 40
1.0
 40
1.0
 40
1.0
 10
5.991087746654794
 20
2.926715853361026
 30
0.0
 10
5.983062239408417
 20
2.926715853361026
 30
0.0
 10
5.971636152451895
 20
2.923129766404505
 30
0.0
  0
LINE
  5
219
330
A
100
AcDbEntity
  8
0
  6
solid
 62
     7
100
AcDbLine
 10
5.971636152451895
 20
2.923129766404505
 30
0.0
 11
5.975927166944649
 21
2.962947737418998
 31
0.0
  0
SPLINE
  5
21A
330
A
100
AcDbEntity
  8
0
  6
solid
 62
     7
100
AcDbSpline
210
0.0
220
0.0
230
1.0
 70
     8
 71
     2
 72
     7
 73
     4
 74
     0
 42
0.0000000001
 43
0.0000000001
 40
0.0
 40
0.0
 40
0.0
 40
1.0
 40
2.0
 40
2.0
 40
2.0
 10
5.975927166944649
 20
2.962947737418998
 30
0.0
 10
5.993412384335953
 20
2.961365128723345
 30
0.0
 10
6.011491224915664
 20
2.978998751911751
 30
0.0
 10
6.011491224915664
 20
2.993380201187114
 30
0.0
  0
SPLINE
  5
21B
330
A
100
AcDbEntity
  8
0
  6
solid
 62
     7
100
AcDbSpline
210
0.0
220
0.0
230
1.0
 70
     8
 71
     2
 72
     7
 73
     4
 74
     0
 42
0.0000000001
 43
0.0000000001
 40
0.0
 40
0.0
 40
0.0
 40
1.0
 40
2.0
 40
2.0
 40
2.0
 10
6.011491224915664
 20
2.993380201187114
 30
0.0
 10
6.011491224915664
 20
3.005140201187114
 30
0.0
 10
5.997443688683779
 20
3.020918751911751
 30
0.0
 10
5.986166007524359
 20
3.020918751911751
 30
0.0
  0
SPLINE
  5
21C
330
A
100
AcDbEntity
  8
0
  6
solid
 62
     7
100
AcDbSpline
210
0.0
220
0.0
230
1.0
 70
     8
 71
     2
 72
     7
 73
     4
 74
     0
 42
0.0000000001
 43
0.0000000001
 40
0.0
 40
0.0
 40
0.0
 40
1.0
 40
2.0
 40
2.0
 40
2.0
 10
5.986166007524359
 20
3.020918751911751
 30
0.0
 10
5.973788036509867
 20
3.020918751911751
 30
0.0
 10
5.958293543756243
 20
3.003767447563925
 30
0.0
 10
5.957143398828707
 20
2.988310056259577
 30
0.0
  0
LINE
  5
21D
330
A
100
AcDbEntity
  8
0
  6
solid
 62
     7
100
AcDbLine
 10
5.957143398828707
 20
2.988310056259577
 30
0.0
 11
5.910041949553344
 21
2.995593534520447
 31
0.0
  0
SPLINE
  5
21E
330
A
100
AcDbEntity
  8
0
  6
solid
 62
     7
100
AcDbSpline
210
0.0
220
0.0
230
1.0
 70
     8
 71
     2
 72
     8
 73
     5
 74
     0
 42
0.0000000001
 43
0.0000000001
 40
0.0
 40
0.0
 40
0.0
 40
1.0
 40
2.0
 40
3.0
 40
3.0
 40
3.0
 10
5.910041949553344
 20
2.995593534520447
 30
0.0
 10
5.914258761147547
 20
3.018742520027693
 30
0.0
 10
5.932448906075084
 20
3.047431215679867
 30
0.0
 10
5.965094703176533
 20
3.064397012781316
 30
0.0
 10
5.984620500277983
 20
3.064397012781316
 30
0.0
  0
SPLINE
  5
21F
330
A
100
AcDbEntity
  8
0
  6
solid
 62
     7
100
AcDbSpline
210
0.0
220
0.0
230
1.0
 70
     8
 71
     2
 72
     6
 73
     3
 74
     0
 42
0.0000000001
 43
0.0000000001
 40
0.0
 40
0.0
 40
0.0
 40
1.0
 40
1.0
 40
1.0
 10
5.984620500277983
 20
3.064397012781316
 30
0.0
 10
6.019850645205519
 20
3.064397012781316
 30
0.0
 10
6.04103325390117
 20
3.040592954810302
 30
0.0
  0
SPLINE
  5
220
330
A
100
AcDbEntity
  8
0
  6
solid
 62
     7
100
AcDbSpline
210
0.0
220
0.0
230
1.0
 70
     8
 71
     2
 72
     6
 73
     3
 74
     0
 42
0.0000000001
 43
0.0000000001
 40
0.0
 40
0.0
 40
0.0
 40
1.0
 40
1.0
 40
1.0
 10
6.04103325390117
 20
3.040592954810302
 30
0.0
 10
6.058592674191026
 20
3.021994693940737
 30
0.0
 10
6.058592674191026
 20
2.997708317129143
 30
0.0
  0
SPLINE
  5
221
330
A
100
AcDbEntity
  8
0
  6
solid
 62
     7
100
AcDbSpline
210
0.0
220
0.0
230
1.0
 70
     8
 71
     2
 72
     6
 73
     3
 74
     0
 42
0.0000000001
 43
0.0000000001
 40
0.0
 40
0.0
 40
0.0
 40
1.0
 40
1.0
 40
1.0
 10
6.058592674191026
 20
2.997708317129143
 30
0.0
 10
6.058592674191026
 20
2.964431795390012
 30
0.0
 10
6.022991514770736
 20
2.945054404085664
 30
0.0
  0
SPLINE
  5
222
330
A
100
AcDbEntity
  8
0
  6
solid
 62
     7
100
AcDbSpline
210
0.0
220
0.0
230
1.0
 70
     8
 71
     2
 72
     7
 73
     4
 74
     0
 42
0.0000000001
 43
0.0000000001
 40
0.0
 40
0.0
 40
0.0
 40
1.0
 40
2.0
 40
2.0
 40
2.0
 10
6.022991514770736
 20
2.945054404085664
 30
0.0
 10
6.044248326364939
 20
2.939625998288563
 30
0.0
 10
6.069462239408417
 20
2.909267737418998
 30
0.0
 10
6.069462239408417
 20
2.887380201187113
 30
0.0
  0
SPLINE
  5
223
330
A
100
AcDbEntity
  8
0
  6
solid
 62
     7
100
AcDbSpline
210
0.0
220
0.0
230
1.0
 70
     8
 71
     2
 72
     7
 73
     4
 74
     0
 42
0.0000000001
 43
0.0000000001
 40
0.0
 40
0.0
 40
0.0
 40
1.0
 40
2.0
 40
2.0
 40
2.0
 10
6.069462239408417
 20
2.887380201187113
 30
0.0
 10
6.069462239408417
 20
2.855216722926244
 30
0.0
 10
6.02103789158233
 20
2.81077382437552
 30
0.0
 10
5.986759630712765
 20
2.81077382437552
 30
0.0
  0
SPLINE
  5
224
330
A
100
AcDbEntity
  8
0
  6
solid
 62
     7
100
AcDbSpline
210
0.0
220
0.0
230
1.0
 70
     8
 71
     2
 72
     7
 73
     4
 74
     0
 42
0.0000000001
 43
0.0000000001
 40
0.0
 40
0.0
 40
0.0
 40
1.0
 40
2.0
 40
2.0
 40
2.0
 10
5.986759630712765
 20
2.81077382437552
 30
0.0
 10
5.953705717669286
 20
2.81077382437552
 30
0.0
 10
5.90871905100262
 20
2.851370925824795
 30
0.0
 10
5.906418761147548
 20
2.884313534520447
 30
0.0
  0
LINE
  5
225
330
A
100
AcDbEntity
  8
0
  6
solid
 62
     7
100
AcDbLine
 10
6.361125862596823
 20
2.814397012781316
 30
0.0
 11
6.310883543756243
 21
2.814397012781316
 31
0.0
  0
LINE
  5
226
330
A
100
AcDbEntity
  8
0
  6
solid
 62
     7
100
AcDbLine
 10
6.310883543756243
 20
2.814397012781316
 30
0.0
 11
6.288996007524359
 21
2.87236802727407
 31
0.0
  0
LINE
  5
227
330
A
100
AcDbEntity
  8
0
  6
solid
 62
     7
100
AcDbLine
 10
6.288996007524359
 20
2.87236802727407
 30
0.0
 11
6.189364703176533
 21
2.87236802727407
 31
0.0
  0
LINE
  5
228
330
A
100
AcDbEntity
  8
0
  6
solid
 62
     7
100
AcDbLine
 10
6.189364703176533
 20
2.87236802727407
 30
0.0
 11
6.167514268393924
 21
2.814397012781316
 31
0.0
  0
LINE
  5
229
330
A
100
AcDbEntity
  8
0
  6
solid
 62
     7
100
AcDbLine
 10
6.167514268393924
 20
2.814397012781316
 30
0.0
 11
6.118372239408417
 21
2.814397012781316
 31
0.0
  0
LINE
  5
22A
330
A
100
AcDbEntity
  8
0
  6
solid
 62
     7
100
AcDbLine
 10
6.118372239408417
 20
2.814397012781316
 30
0.0
 11
6.216532239408417
 21
3.064397012781316
 31
0.0
  0
LINE
  5
22B
330
A
100
AcDbEntity
  8
0
  6
solid
 62
     7
100
AcDbLine
 10
6.216532239408417
 20
3.064397012781316
 30
0.0
 11
6.261531659698272
 21
3.064397012781316
 31
0.0
  0
LINE
  5
22C
330
A
100
AcDbEntity
  8
0
  6
solid
 62
     7
100
AcDbLine
 10
6.361125862596823
 20
2.814397012781316
 30
0.0
 11
6.261531659698272
 21
3.064397012781316
 31
0.0
  0
LINE
  5
22D
330
A
100
AcDbEntity
  8
0
  6
solid
 62
     7
100
AcDbLine
 10
6.271956007524359
 20
2.915846288143635
 30
0.0
 11
6.239124703176533
 21
3.002802809882766
 31
0.0
  0
LINE
  5
22E
330
A
100
AcDbEntity
  8
0
  6
solid
 62
     7
100
AcDbLine
 10
6.239124703176533
 20
3.002802809882766
 30
0.0
 11
6.206330500277982
 21
2.915846288143635
 31
0.0
  0
LINE
  5
22F
330
A
100
AcDbEntity
  8
0
  6
solid
 62
     7
100
AcDbLine
 10
6.271956007524359
 20
2.915846288143635
 30
0.0
 11
6.206330500277982
 21
2.915846288143635
 31
0.0
  0
VIEWPORT
  5
24D
330
B
100
AcDbEntity
 67
     1
  8
0
  6
Continuous
370
     0
100
AcDbViewport
 10
5.169387968333035
 20
3.968749971919159
 30
0.0
 40
16.99659283974028
 41
8.992999745766949
 68
     1
 69
     1
 12
5.169387968333035
 22
3.968749971919159
 13
0.0
 23
0.0
 14
0.5
 24
0.5
 15
0.5
 25
0.5
 16
0.0
 26
0.0
 36
1.0
 17
0.0
 27
0.0
 37
0.0
 42
50.0
 43
0.0
 44
0.0
 45
8.992999745766949
 50
0.0
 51
0.0
 72
   100
 90
   819232
  1

281
     0
 71
     1
 74
     0
110
0.0
120
0.0
130
0.0
111
1.0
121
0.0
131
0.0
112
0.0
122
1.0
132
0.0
 79
     0
146
0.0
170
     0
  0
VIEWPORT
  5
250
330
B
100
AcDbEntity
 67
     1
  8
0
  6
Continuous
370
     0
100
AcDbViewport
 10
5.151738341006964
 20
3.995199976397408
 30
0.0
 40
10.5191790128225
 41
8.076066470983541
 68
     2
 69
     2
 12
7.226869140939552
 22
2.45022057896437
 13
0.0
 23
0.0
 14
0.5
 24
0.5
 15
0.5
 25
0.5
 16
0.0
 26
0.0
 36
1.0
 17
0.0
 27
0.0
 37
0.0
 42
50.0
 43
0.0
 44
0.0
 45
14.42327652546461
 50
0.0
 51
0.0
 72
   100
 90
   819232
  1

281
     0
 71
     1
 74
     0
110
0.0
120
0.0
130
0.0
111
1.0
121
0.0
131
0.0
112
0.0
122
1.0
132
0.0
 79
     0
146
0.0
170
     0
  0
ENDSEC
  0
SECTION
  2
OBJECTS
  0
DICTIONARY
  5
19
330
0
100
AcDbDictionary
281
     1
  3
ACAD_COLOR
350
246
  3
ACAD_GROUP
350
1A
  3
ACAD_LAYOUT
350
1E
  3
ACAD_MATERIAL
350
231
  3
ACAD_MLEADERSTYLE
350
276
  3
ACAD_MLINESTYLE
350
1B
  3
ACAD_PLOTSETTINGS
350
22
  3
ACAD_PLOTSTYLENAME
350
1F
  3
ACAD_SCALELIST
350
254
  3
ACAD_TABLESTYLE
350
247
  3
ACAD_VISUALSTYLE
350
235
  3
ACAD_WIPEOUT_VARS
350
23
  3
ACDB_RECOMPOSE_DATA
350
2A3
  3
AcDbVariableDictionary
350
251
  0
DICTIONARY
  5
27F
330
14
100
AcDbDictionary
280
     1
281
     1
  3
ADSK_XREC_LAYER_RECONCILED
360
280
  0
DICTIONARY
  5
281
330
27
100
AcDbDictionary
280
     1
281
     1
  3
ADSK_XREC_LAYER_RECONCILED
360
282
  0
DICTIONARY
  5
283
330
1FF
100
AcDbDictionary
280
     1
281
     1
  3
ADSK_XREC_LAYER_RECONCILED
360
284
  0
DICTIONARY
  5
246
102
{ACAD_REACTORS
330
19
102
}
330
19
100
AcDbDictionary
281
     1
  0
DICTIONARY
  5
1A
102
{ACAD_REACTORS
330
19
102
}
330
19
100
AcDbDictionary
281
     1
  0
DICTIONARY
  5
1E
102
{ACAD_REACTORS
330
19
102
}
330
19
100
AcDbDictionary
281
     1
  3
Layout1
350
21
  3
Model
350
20
  0
DICTIONARY
  5
231
102
{ACAD_REACTORS
330
19
102
}
330
19
100
AcDbDictionary
281
     1
  3
ByBlock
350
233
  3
ByLayer
350
232
  3
Global
350
234
  0
DICTIONARY
  5
276
102
{ACAD_REACTORS
330
19
102
}
330
19
100
AcDbDictionary
281
     1
  3
Standard
350
277
  0
DICTIONARY
  5
1B
102
{ACAD_REACTORS
330
19
102
}
330
19
100
AcDbDictionary
281
     1
  3
Standard
350
1C
  0
DICTIONARY
  5
22
102
{ACAD_REACTORS
330
19
102
}
330
19
100
AcDbDictionary
281
     1
  0
ACDBDICTIONARYWDFLT
  5
1F
102
{ACAD_REACTORS
330
19
102
}
330
19
100
AcDbDictionary
281
     1
  3
Normal
350
1D
100
AcDbDictionaryWithDefault
340
1D
  0
DICTIONARY
  5
254
102
{ACAD_REACTORS
330
19
102
}
330
19
100
AcDbDictionary
281
     1
  3
A0
350
255
  3
A1
350
256
  3
A2
350
257
  3
A3
350
258
  3
A4
350
259
  3
A5
350
25A
  3
A6
350
25B
  3
A7
350
25C
  3
A8
350
25D
  3
A9
350
25E
  3
B0
350
25F
  3
B1
350
260
  3
B2
350
261
  3
B3
350
262
  3
B4
350
263
  3
B5
350
264
  3
B6
350
265
  3
B7
350
266
  3
B8
350
267
  3
B9
350
268
  3
C0
350
269
  3
C1
350
26A
  3
C2
350
26B
  3
C3
350
26C
  3
C4
350
26D
  3
C5
350
26E
  3
C6
350
26F
  3
C7
350
270
  3
C8
350
271
  3
C9
350
272
  3
D0
350
273
  3
D1
350
274
  3
D2
350
275
  0
DICTIONARY
  5
247
102
{ACAD_REACTORS
330
19
102
}
330
19
100
AcDbDictionary
281
     1
  3
Standard
350
248
  0
DICTIONARY
  5
235
102
{ACAD_REACTORS
330
19
102
}
330
19
100
AcDbDictionary
281
     1
  3
2dWireframe
350
23B
  3
3D Hidden
350
23D
  3
3dWireframe
350
23C
  3
Basic
350
23A
  3
Brighten
350
241
  3
ColorChange
350
245
  3
Conceptual
350
23E
  3
Dim
350
240
  3
Facepattern
350
244
  3
Flat
350
236
  3
FlatWithEdges
350
237
  3
Gouraud
350
238
  3
GouraudWithEdges
350
239
  3
Linepattern
350
243
  3
Realistic
350
23F
  3
Thicken
350
242
  0
WIPEOUTVARIABLES
  5
23
330
19
100
AcDbWipeoutVariables
 70
     1
  0
XRECORD
  5
2A3
102
{ACAD_REACTORS
330
19
102
}
330
19
100
AcDbXrecord
280
     1
 90
        1
330
248
  0
DICTIONARY
  5
251
102
{ACAD_REACTORS
330
19
102
}
330
19
100
AcDbDictionary
281
     1
  3
CANNOSCALE
350
2A0
  3
CMLEADERSTYLE
350
29F
  3
CTABLESTYLE
350
252
  0
XRECORD
  5
280
102
{ACAD_REACTORS
330
27F
102
}
330
27F
100
AcDbXrecord
280
     1
290
     1
  0
XRECORD
  5
282
102
{ACAD_REACTORS
330
281
102
}
330
281
100
AcDbXrecord
280
     1
290
     1
  0
XRECORD
  5
284
102
{ACAD_REACTORS
330
283
102
}
330
283
100
AcDbXrecord
280
     1
290
     1
  0
LAYOUT
  5
21
102
{ACAD_REACTORS
330
1E
102
}
330
1E
100
AcDbPlotSettings
  1

  2
Foxit PDF Printer
  4
Letter
  6

 40
3.174999952316284
 41
3.174999952316284
 42
3.17498779296875
 43
3.175003051757812
 44
279.3999938964844
 45
215.8999938964844
 46
31.47715384821894
 47
24.12875752349356
 48
0.0
 49
0.0
140
0.0
141
0.0
142
1.0
143
1.0
 70
     4
 72
     0
 73
     0
 74
     1
  7

 75
    16
147
1.0
 76
     1
 77
     2
 78
   300
148
-26.25461124795212
149
-20.16000981431432
100
AcDbLayout
  1
Layout1
 70
     0
 71
     1
 10
-0.3306119115190196
 20
-0.2812499079328949
 11
10.66938784818509
 21
8.218749851771214
 12
0.0
 22
0.0
 32
0.0
 14
-0.1078511654042842
 24
-0.0428332590943619
 34
-0.0015258207003583
 15
10.41132784741821
 25
8.033233211889179
 35
0.0000000349246037
146
0.0
 13
0.0
 23
0.0
 33
0.0
 16
1.0
 26
0.0
 36
0.0
 17
0.0
 27
1.0
 37
0.0
 76
     0
330
B
331
24D
1001
ACAD_PSEXT
1000
Foxit PDF Printer
1000
Foxit PDF Printer Driver
1000
FOXIT_PDF
1000

1070
     0
  0
LAYOUT
  5
20
102
{ACAD_REACTORS
330
1E
102
}
330
1E
100
AcDbPlotSettings
  1

  2

  4

  6

 40
0.0
 41
0.0
 42
0.0
 43
0.0
 44
0.0
 45
0.0
 46
0.0
 47
0.0
 48
0.0
 49
0.0
140
0.0
141
0.0
142
1.0
143
1.0
 70
  1024
 72
     0
 73
     0
 74
     0
  7

 75
     0
147
1.0
 76
     0
 77
     2
 78
   300
148
0.0
149
0.0
100
AcDbLayout
  1
Model
 70
     0
 71
     0
 10
0.0
 20
0.0
 11
0.0
 21
0.0
 12
0.0
 22
0.0
 32
0.0
 14
0.0
 24
0.0
 34
0.0
 15
0.0
 25
0.0
 35
0.0
146
0.0
 13
0.0
 23
0.0
 33
0.0
 16
0.0
 26
0.0
 36
0.0
 17
0.0
 27
0.0
 37
0.0
 76
     0
330
A
  0
MATERIAL
  5
233
102
{ACAD_XDICTIONARY
360
2A6
102
}
102
{ACAD_REACTORS
330
231
102
}
330
231
100
AcDbMaterial
  1
ByBlock
 73
     1
 78
     1
172
     1
176
     1
270
     1
274
     1
  0
MATERIAL
  5
232
102
{ACAD_XDICTIONARY
360
2A4
102
}
102
{ACAD_REACTORS
330
231
102
}
330
231
100
AcDbMaterial
  1
ByLayer
 73
     1
 78
     1
172
     1
176
     1
270
     1
274
     1
  0
MATERIAL
  5
234
102
{ACAD_XDICTIONARY
360
2A8
102
}
102
{ACAD_REACTORS
330
231
102
}
330
231
100
AcDbMaterial
  1
Global
 73
     1
 78
     1
172
     1
176
     1
270
     1
274
     1
  0
MLEADERSTYLE
  5
277
102
{ACAD_REACTORS
330
276
102
}
330
276
100
AcDbMLeaderStyle
170
     2
171
     1
172
     0
 90
        2
 40
0.0
 41
0.0
173
     1
 91
-1056964608
340
11
 92
       -2
290
     1
 42
0.09
291
     1
 43
0.36
  3
Standard
 44
0.18
300

342
17
174
     1
178
     6
175
     1
176
     0
 93
-1056964608
 45
0.18
292
     0
297
     0
 46
0.18
 94
-1056964608
 47
1.0
 49
1.0
140
1.0
293
     1
141
0.0
294
     1
177
     0
142
1.0
295
     0
296
     0
143
0.125
1001
ACAD_MLEADERVER
1070
     2
  0
MLINESTYLE
  5
1C
102
{ACAD_REACTORS
330
1B
102
}
330
1B
100
AcDbMlineStyle
  2
STANDARD
 70
     0
  3

 62
     0
 51
90.0
 52
90.0
 71
     2
 49
0.5
 62
   256
  6
BYLAYER
 49
-0.5
 62
   256
  6
BYLAYER
  0
ACDBPLACEHOLDER
  5
1D
102
{ACAD_REACTORS
330
1F
102
}
330
1F
  0
SCALE
  5
255
102
{ACAD_REACTORS
330
254
102
}
330
254
100
AcDbScale
 70
     0
300
1:1
140
1.0
141
1.0
290
     1
  0
SCALE
  5
256
102
{ACAD_REACTORS
330
254
102
}
330
254
100
AcDbScale
 70
     0
300
1:2
140
1.0
141
2.0
290
     0
  0
SCALE
  5
257
102
{ACAD_REACTORS
330
254
102
}
330
254
100
AcDbScale
 70
     0
300
1:4
140
1.0
141
4.0
290
     0
  0
SCALE
  5
258
102
{ACAD_REACTORS
330
254
102
}
330
254
100
AcDbScale
 70
     0
300
1:5
140
1.0
141
5.0
290
     0
  0
SCALE
  5
259
102
{ACAD_REACTORS
330
254
102
}
330
254
100
AcDbScale
 70
     0
300
1:8
140
1.0
141
8.0
290
     0
  0
SCALE
  5
25A
102
{ACAD_REACTORS
330
254
102
}
330
254
100
AcDbScale
 70
     0
300
1:10
140
1.0
141
10.0
290
     0
  0
SCALE
  5
25B
102
{ACAD_REACTORS
330
254
102
}
330
254
100
AcDbScale
 70
     0
300
1:16
140
1.0
141
16.0
290
     0
  0
SCALE
  5
25C
102
{ACAD_REACTORS
330
254
102
}
330
254
100
AcDbScale
 70
     0
300
1:20
140
1.0
141
20.0
290
     0
  0
SCALE
  5
25D
102
{ACAD_REACTORS
330
254
102
}
330
254
100
AcDbScale
 70
     0
300
1:30
140
1.0
141
30.0
290
     0
  0
SCALE
  5
25E
102
{ACAD_REACTORS
330
254
102
}
330
254
100
AcDbScale
 70
     0
300
1:40
140
1.0
141
40.0
290
     0
  0
SCALE
  5
25F
102
{ACAD_REACTORS
330
254
102
}
330
254
100
AcDbScale
 70
     0
300
1:50
140
1.0
141
50.0
290
     0
  0
SCALE
  5
260
102
{ACAD_REACTORS
330
254
102
}
330
254
100
AcDbScale
 70
     0
300
1:100
140
1.0
141
100.0
290
     0
  0
SCALE
  5
261
102
{ACAD_REACTORS
330
254
102
}
330
254
100
AcDbScale
 70
     0
300
2:1
140
2.0
141
1.0
290
     0
  0
SCALE
  5
262
102
{ACAD_REACTORS
330
254
102
}
330
254
100
AcDbScale
 70
     0
300
4:1
140
4.0
141
1.0
290
     0
  0
SCALE
  5
263
102
{ACAD_REACTORS
330
254
102
}
330
254
100
AcDbScale
 70
     0
300
8:1
140
8.0
141
1.0
290
     0
  0
SCALE
  5
264
102
{ACAD_REACTORS
330
254
102
}
330
254
100
AcDbScale
 70
     0
300
10:1
140
10.0
141
1.0
290
     0
  0
SCALE
  5
265
102
{ACAD_REACTORS
330
254
102
}
330
254
100
AcDbScale
 70
     0
300
100:1
140
100.0
141
1.0
290
     0
  0
SCALE
  5
266
102
{ACAD_REACTORS
330
254
102
}
330
254
100
AcDbScale
 70
     0
300
1/128" = 1'-0"
140
0.0078125
141
12.0
290
     0
  0
SCALE
  5
267
102
{ACAD_REACTORS
330
254
102
}
330
254
100
AcDbScale
 70
     0
300
1/64" = 1'-0"
140
0.015625
141
12.0
290
     0
  0
SCALE
  5
268
102
{ACAD_REACTORS
330
254
102
}
330
254
100
AcDbScale
 70
     0
300
1/32" = 1'-0"
140
0.03125
141
12.0
290
     0
  0
SCALE
  5
269
102
{ACAD_REACTORS
330
254
102
}
330
254
100
AcDbScale
 70
     0
300
1/16" = 1'-0"
140
0.0625
141
12.0
290
     0
  0
SCALE
  5
26A
102
{ACAD_REACTORS
330
254
102
}
330
254
100
AcDbScale
 70
     0
300
3/32" = 1'-0"
140
0.09375
141
12.0
290
     0
  0
SCALE
  5
26B
102
{ACAD_REACTORS
330
254
102
}
330
254
100
AcDbScale
 70
     0
300
1/8" = 1'-0"
140
0.125
141
12.0
290
     0
  0
SCALE
  5
26C
102
{ACAD_REACTORS
330
254
102
}
330
254
100
AcDbScale
 70
     0
300
3/16" = 1'-0"
140
0.1875
141
12.0
290
     0
  0
SCALE
  5
26D
102
{ACAD_REACTORS
330
254
102
}
330
254
100
AcDbScale
 70
     0
300
1/4" = 1'-0"
140
0.25
141
12.0
290
     0
  0
SCALE
  5
26E
102
{ACAD_REACTORS
330
254
102
}
330
254
100
AcDbScale
 70
     0
300
3/8" = 1'-0"
140
0.375
141
12.0
290
     0
  0
SCALE
  5
26F
102
{ACAD_REACTORS
330
254
102
}
330
254
100
AcDbScale
 70
     0
300
1/2" = 1'-0"
140
0.5
141
12.0
290
     0
  0
SCALE
  5
270
102
{ACAD_REACTORS
330
254
102
}
330
254
100
AcDbScale
 70
     0
300
3/4" = 1'-0"
140
0.75
141
12.0
290
     0
  0
SCALE
  5
271
102
{ACAD_REACTORS
330
254
102
}
330
254
100
AcDbScale
 70
     0
300
1" = 1'-0"
140
1.0
141
12.0
290
     0
  0
SCALE
  5
272
102
{ACAD_REACTORS
330
254
102
}
330
254
100
AcDbScale
 70
     0
300
1-1/2" = 1'-0"
140
1.5
141
12.0
290
     0
  0
SCALE
  5
273
102
{ACAD_REACTORS
330
254
102
}
330
254
100
AcDbScale
 70
     0
300
3" = 1'-0"
140
3.0
141
12.0
290
     0
  0
SCALE
  5
274
102
{ACAD_REACTORS
330
254
102
}
330
254
100
AcDbScale
 70
     0
300
6" = 1'-0"
140
6.0
141
12.0
290
     0
  0
SCALE
  5
275
102
{ACAD_REACTORS
330
254
102
}
330
254
100
AcDbScale
 70
     0
300
1'-0" = 1'-0"
140
12.0
141
12.0
290
     0
  0
TABLESTYLE
  5
248
102
{ACAD_XDICTIONARY
360
2A1
102
}
102
{ACAD_REACTORS
330
247
102
}
330
247
100
AcDbTableStyle
  3
Standard
 70
     0
 71
     0
 40
0.06
 41
0.06
280
     0
281
     0
  7
Standard
140
0.18
170
     2
 62
     0
 63
     7
283
     0
274
    -2
284
     1
 64
     0
275
    -2
285
     1
 65
     0
276
    -2
286
     1
 66
     0
277
    -2
287
     1
 67
     0
278
    -2
288
     1
 68
     0
279
    -2
289
     1
 69
     0
  7
Standard
140
0.25
170
     5
 62
     0
 63
     7
283
     0
274
    -2
284
     1
 64
     0
275
    -2
285
     1
 65
     0
276
    -2
286
     1
 66
     0
277
    -2
287
     1
 67
     0
278
    -2
288
     1
 68
     0
279
    -2
289
     1
 69
     0
  7
Standard
140
0.18
170
     5
 62
     0
 63
     7
283
     0
274
    -2
284
     1
 64
     0
275
    -2
285
     1
 65
     0
276
    -2
286
     1
 66
     0
277
    -2
287
     1
 67
     0
278
    -2
288
     1
 68
     0
279
    -2
289
     1
 69
     0
  0
VISUALSTYLE
  5
23B
102
{ACAD_REACTORS
330
235
102
}
330
235
100
AcDbVisualStyle
  2
2dWireframe
 70
     4
 71
     0
 72
     2
 73
     0
 90
        0
 40
-0.6
 41
-30.0
 62
     5
 63
     7
421
 16777215
 74
     1
 91
        4
 64
     7
 65
   257
 75
     1
175
     1
 42
1.0
 92
        0
 66
   257
 43
1.0
 76
     1
 77
     6
 78
     2
 67
     7
 79
     5
170
     0
171
     0
290
     0
174
     0
 93
        1
 44
0.0
173
     0
291
     0
 45
0.0
1001
ACAD
1000
AcDbSavedByObjectVersion
1070
     0
  0
VISUALSTYLE
  5
23D
102
{ACAD_REACTORS
330
235
102
}
330
235
100
AcDbVisualStyle
  2
3D Hidden
 70
     6
 71
     1
 72
     2
 73
     2
 90
        0
 40
-0.6
 41
-30.0
 62
     5
 63
     7
421
 16777215
 74
     2
 91
        2
 64
     7
 65
   257
 75
     2
175
     1
 42
40.0
 92
        0
 66
   257
 43
1.0
 76
     1
 77
     6
 78
     2
 67
     7
 79
     3
170
     0
171
     0
290
     0
174
     0
 93
        1
 44
0.0
173
     0
291
     0
 45
0.0
1001
ACAD
1000
AcDbSavedByObjectVersion
1070
     0
  0
VISUALSTYLE
  5
23C
102
{ACAD_REACTORS
330
235
102
}
330
235
100
AcDbVisualStyle
  2
3dWireframe
 70
     5
 71
     0
 72
     2
 73
     0
 90
        0
 40
-0.6
 41
-30.0
 62
     5
 63
     7
421
 16777215
 74
     1
 91
        4
 64
     7
 65
   257
 75
     1
175
     1
 42
1.0
 92
        0
 66
   257
 43
1.0
 76
     1
 77
     6
 78
     2
 67
     7
 79
     5
170
     0
171
     0
290
     0
174
     0
 93
        1
 44
0.0
173
     0
291
     0
 45
0.0
1001
ACAD
1000
AcDbSavedByObjectVersion
1070
     0
  0
VISUALSTYLE
  5
23A
102
{ACAD_REACTORS
330
235
102
}
330
235
100
AcDbVisualStyle
  2
Basic
 70
     7
 71
     1
 72
     0
 73
     1
 90
        0
 40
-0.6
 41
-30.0
 62
     5
 63
     7
421
 16777215
 74
     0
 91
        4
 64
     7
 65
   257
 75
     1
175
     1
 42
1.0
 92
        8
 66
     7
 43
1.0
 76
     1
 77
     6
 78
     2
 67
     7
 79
     5
170
     0
171
     0
290
     0
174
     0
 93
        1
 44
0.0
173
     0
291
     1
 45
0.0
1001
ACAD
1000
AcDbSavedByObjectVersion
1070
     0
  0
VISUALSTYLE
  5
241
102
{ACAD_REACTORS
330
235
102
}
330
235
100
AcDbVisualStyle
  2
Brighten
 70
    12
 71
     2
 72
     2
 73
     0
 90
        0
 40
-0.6
 41
-30.0
 62
     5
 63
     7
421
 16777215
 74
     1
 91
        4
 64
     7
 65
   257
 75
     1
175
     1
 42
1.0
 92
        8
 66
     7
 43
1.0
 76
     1
 77
     6
 78
     2
 67
     7
 79
     5
170
     0
171
     0
290
     0
174
     0
 93
        1
 44
50.0
173
     0
291
     1
 45
0.0
1001
ACAD
1000
AcDbSavedByObjectVersion
1070
     0
  0
VISUALSTYLE
  5
245
102
{ACAD_REACTORS
330
235
102
}
330
235
100
AcDbVisualStyle
  2
ColorChange
 70
    16
 71
     2
 72
     2
 73
     3
 90
        0
 40
-0.6
 41
-30.0
 62
     5
 63
     8
421
  8421504
 74
     1
 91
        4
 64
     7
 65
   257
 75
     1
175
     1
 42
1.0
 92
        8
 66
     8
424
  8421504
 43
1.0
 76
     1
 77
     6
 78
     2
 67
     7
 79
     5
170
     0
171
     0
290
     0
174
     0
 93
        1
 44
0.0
173
     0
291
     1
 45
0.0
1001
ACAD
1000
AcDbSavedByObjectVersion
1070
     0
  0
VISUALSTYLE
  5
23E
102
{ACAD_REACTORS
330
235
102
}
330
235
100
AcDbVisualStyle
  2
Conceptual
 70
     9
 71
     3
 72
     2
 73
     0
 90
        0
 40
-0.6
 41
-30.0
 62
     5
 63
     7
421
 16777215
 74
     2
 91
        2
 64
     7
 65
   257
 75
     1
175
     1
 42
40.0
 92
        8
 66
     7
 43
1.0
 76
     1
 77
     6
 78
     2
 67
     7
 79
     3
170
     0
171
     0
290
     0
174
     0
 93
        1
 44
0.0
173
     0
291
     0
 45
0.0
1001
ACAD
1000
AcDbSavedByObjectVersion
1070
     0
  0
VISUALSTYLE
  5
240
102
{ACAD_REACTORS
330
235
102
}
330
235
100
AcDbVisualStyle
  2
Dim
 70
    11
 71
     2
 72
     2
 73
     0
 90
        0
 40
-0.6
 41
-30.0
 62
     5
 63
     7
421
 16777215
 74
     1
 91
        4
 64
     7
 65
   257
 75
     1
175
     1
 42
1.0
 92
        8
 66
     7
 43
1.0
 76
     1
 77
     6
 78
     2
 67
     7
 79
     5
170
     0
171
     0
290
     0
174
     0
 93
        1
 44
-50.0
173
     0
291
     1
 45
0.0
1001
ACAD
1000
AcDbSavedByObjectVersion
1070
     0
  0
VISUALSTYLE
  5
244
102
{ACAD_REACTORS
330
235
102
}
330
235
100
AcDbVisualStyle
  2
Facepattern
 70
    15
 71
     2
 72
     2
 73
     0
 90
        0
 40
-0.6
 41
-30.0
 62
     5
 63
     7
421
 16777215
 74
     1
 91
        4
 64
     7
 65
   257
 75
     1
175
     1
 42
1.0
 92
        8
 66
     7
 43
1.0
 76
     1
 77
     6
 78
     2
 67
     7
 79
     5
170
     0
171
     0
290
     0
174
     0
 93
        1
 44
0.0
173
     0
291
     1
 45
0.0
1001
ACAD
1000
AcDbSavedByObjectVersion
1070
     0
  0
VISUALSTYLE
  5
236
102
{ACAD_REACTORS
330
235
102
}
330
235
100
AcDbVisualStyle
  2
Flat
 70
     0
 71
     2
 72
     1
 73
     1
 90
        2
 40
-0.6
 41
30.0
 62
     5
 63
     7
421
 16777215
 74
     0
 91
        4
 64
     7
 65
   257
 75
     1
175
     1
 42
1.0
 92
        8
 66
     7
 43
1.0
 76
     1
 77
     6
 78
     2
 67
     7
 79
     5
170
     0
171
     0
290
     0
174
     0
 93
       13
 44
0.0
173
     0
291
     1
 45
0.0
1001
ACAD
1000
AcDbSavedByObjectVersion
1070
     0
  0
VISUALSTYLE
  5
237
102
{ACAD_REACTORS
330
235
102
}
330
235
100
AcDbVisualStyle
  2
FlatWithEdges
 70
     1
 71
     2
 72
     1
 73
     1
 90
        2
 40
-0.6
 41
30.0
 62
     5
 63
     7
421
 16777215
 74
     1
 91
        4
 64
     7
 65
   257
 75
     1
175
     1
 42
1.0
 92
        0
 66
   257
 43
1.0
 76
     1
 77
     6
 78
     2
 67
     7
 79
     5
170
     0
171
     0
290
     0
174
     0
 93
       13
 44
0.0
173
     0
291
     1
 45
0.0
1001
ACAD
1000
AcDbSavedByObjectVersion
1070
     0
  0
VISUALSTYLE
  5
238
102
{ACAD_REACTORS
330
235
102
}
330
235
100
AcDbVisualStyle
  2
Gouraud
 70
     2
 71
     2
 72
     2
 73
     1
 90
        2
 40
-0.6
 41
30.0
 62
     5
 63
     7
421
 16777215
 74
     0
 91
        4
 64
     7
 65
   257
 75
     1
175
     1
 42
1.0
 92
        0
 66
     7
 43
1.0
 76
     1
 77
     6
 78
     2
 67
     7
 79
     5
170
     0
171
     0
290
     0
174
     0
 93
       13
 44
0.0
173
     0
291
     1
 45
0.0
1001
ACAD
1000
AcDbSavedByObjectVersion
1070
     0
  0
VISUALSTYLE
  5
239
102
{ACAD_REACTORS
330
235
102
}
330
235
100
AcDbVisualStyle
  2
GouraudWithEdges
 70
     3
 71
     2
 72
     2
 73
     1
 90
        2
 40
-0.6
 41
30.0
 62
     5
 63
     7
421
 16777215
 74
     1
 91
        4
 64
     7
 65
   257
 75
     1
175
     1
 42
1.0
 92
        0
 66
   257
 43
1.0
 76
     1
 77
     6
 78
     2
 67
     7
 79
     5
170
     0
171
     0
290
     0
174
     0
 93
       13
 44
0.0
173
     0
291
     1
 45
0.0
1001
ACAD
1000
AcDbSavedByObjectVersion
1070
     0
  0
VISUALSTYLE
  5
243
102
{ACAD_REACTORS
330
235
102
}
330
235
100
AcDbVisualStyle
  2
Linepattern
 70
    14
 71
     2
 72
     2
 73
     0
 90
        0
 40
-0.6
 41
-30.0
 62
     5
 63
     7
421
 16777215
 74
     1
 91
        4
 64
     7
 65
   257
 75
     7
175
     7
 42
1.0
 92
        8
 66
     7
 43
1.0
 76
     1
 77
     6
 78
     2
 67
     7
 79
     5
170
     0
171
     0
290
     0
174
     0
 93
        1
 44
0.0
173
     0
291
     1
 45
0.0
1001
ACAD
1000
AcDbSavedByObjectVersion
1070
     0
  0
VISUALSTYLE
  5
23F
102
{ACAD_REACTORS
330
235
102
}
330
235
100
AcDbVisualStyle
  2
Realistic
 70
     8
 71
     2
 72
     2
 73
     0
 90
        0
 40
-0.6
 41
-30.0
 62
     5
 63
     7
421
 16777215
 74
     1
 91
        0
 64
     7
 65
   257
 75
     1
175
     1
 42
1.0
 92
        8
 66
     8
424
  7895160
 43
1.0
 76
     1
 77
     6
 78
     2
 67
     7
 79
     5
170
     0
171
     0
290
     0
174
     0
 93
       13
 44
0.0
173
     0
291
     0
 45
0.0
1001
ACAD
1000
AcDbSavedByObjectVersion
1070
     0
  0
VISUALSTYLE
  5
242
102
{ACAD_REACTORS
330
235
102
}
330
235
100
AcDbVisualStyle
  2
Thicken
 70
    13
 71
     2
 72
     2
 73
     0
 90
        0
 40
-0.6
 41
-30.0
 62
     5
 63
     7
421
 16777215
 74
     1
 91
        4
 64
     7
 65
   257
 75
     1
175
     1
 42
1.0
 92
       12
 66
     7
 43
1.0
 76
     1
 77
     6
 78
     2
 67
     7
 79
     5
170
     0
171
     0
290
     0
174
     0
 93
        1
 44
0.0
173
     0
291
     1
 45
0.0
1001
ACAD
1000
AcDbSavedByObjectVersion
1070
     0
  0
DICTIONARYVAR
  5
2A0
102
{ACAD_REACTORS
330
251
102
}
330
251
100
DictionaryVariables
280
     0
  1
1:1
  0
DICTIONARYVAR
  5
29F
102
{ACAD_REACTORS
330
251
102
}
330
251
100
DictionaryVariables
280
     0
  1
STANDARD
  0
DICTIONARYVAR
  5
252
102
{ACAD_REACTORS
330
251
102
}
330
251
100
DictionaryVariables
280
     0
  1
STANDARD
  0
DICTIONARY
  5
2A6
330
233
100
AcDbDictionary
280
     1
281
     1
  3
ACAD_XREC_ROUNDTRIP
360
2A7
  0
DICTIONARY
  5
2A4
330
232
100
AcDbDictionary
280
     1
281
     1
  3
ACAD_XREC_ROUNDTRIP
360
2A5
  0
DICTIONARY
  5
2A8
330
234
100
AcDbDictionary
280
     1
281
     1
  3
ACAD_XREC_ROUNDTRIP
360
2A9
  0
DICTIONARY
  5
2A1
330
248
100
AcDbDictionary
280
     1
281
     1
  3
ACAD_ROUNDTRIP_2008_TABLESTYLE_CELLSTYLEMAP
360
2A2
  3
ACAD_XREC_ROUNDTRIP
360
2AA
  0
XRECORD
  5
2A7
102
{ACAD_REACTORS
330
2A6
102
}
330
2A6
100
AcDbXrecord
280
     1
102
MATERIAL
148
0.0
149
0.0
149
0.0
 93
        0
 94
       63
282
     0
 72
     1
 77
     1
171
     1
175
     1
179
     1
273
     0
  0
XRECORD
  5
2A5
102
{ACAD_REACTORS
330
2A4
102
}
330
2A4
100
AcDbXrecord
280
     1
102
MATERIAL
148
0.0
149
0.0
149
0.0
 93
        0
 94
       63
282
     0
 72
     1
 77
     1
171
     1
175
     1
179
     1
273
     0
  0
XRECORD
  5
2A9
102
{ACAD_REACTORS
330
2A8
102
}
330
2A8
100
AcDbXrecord
280
     1
102
MATERIAL
148
0.0
149
0.0
149
0.0
 93
        0
 94
       63
282
     0
 72
     1
 77
     1
171
     1
175
     1
179
     1
273
     0
  0
CELLSTYLEMAP
  5
2A2
102
{ACAD_REACTORS
330
2A1
102
}
330
2A1
100
AcDbCellStyleMap
 90
        3
300
CELLSTYLE
  1
TABLEFORMAT_BEGIN
 90
        5
170
     1
 91
        0
 92
    32768
 62
   257
 93
        1
300
CONTENTFORMAT
  1
CONTENTFORMAT_BEGIN
 90
        0
 91
        0
 92
      512
 93
        0
300

 40
0.0
140
1.0
 94
        5
 62
     0
340
17
144
0.25
309
CONTENTFORMAT_END
171
     0
 94
        6
 95
        1
302
GRIDFORMAT
  1
GRIDFORMAT_BEGIN
 90
        0
 91
        1
 62
     0
 92
       -2
340
0
 93
        0
 40
0.045
309
GRIDFORMAT_END
 95
        2
302
GRIDFORMAT
  1
GRIDFORMAT_BEGIN
 90
        0
 91
        1
 62
     0
 92
       -2
340
0
 93
        0
 40
0.045
309
GRIDFORMAT_END
 95
        4
302
GRIDFORMAT
  1
GRIDFORMAT_BEGIN
 90
        0
 91
        1
 62
     0
 92
       -2
340
0
 93
        0
 40
0.045
309
GRIDFORMAT_END
 95
        8
302
GRIDFORMAT
  1
GRIDFORMAT_BEGIN
 90
        0
 91
        1
 62
     0
 92
       -2
340
0
 93
        0
 40
0.045
309
GRIDFORMAT_END
 95
       16
302
GRIDFORMAT
  1
GRIDFORMAT_BEGIN
 90
        0
 91
        1
 62
     0
 92
       -2
340
0
 93
        0
 40
0.045
309
GRIDFORMAT_END
 95
       32
302
GRIDFORMAT
  1
GRIDFORMAT_BEGIN
 90
        0
 91
        1
 62
     0
 92
       -2
340
0
 93
        0
 40
0.045
309
GRIDFORMAT_END
309
TABLEFORMAT_END
  1
CELLSTYLE_BEGIN
 90
        1
 91
        1
300
_TITLE
309
CELLSTYLE_END
300
CELLSTYLE
  1
TABLEFORMAT_BEGIN
 90
        5
170
     1
 91
        0
 92
        0
 62
   257
 93
        1
300
CONTENTFORMAT
  1
CONTENTFORMAT_BEGIN
 90
        0
 91
        0
 92
      512
 93
        0
300

 40
0.0
140
1.0
 94
        5
 62
     0
340
17
144
0.18
309
CONTENTFORMAT_END
171
     0
 94
        6
 95
        1
302
GRIDFORMAT
  1
GRIDFORMAT_BEGIN
 90
        0
 91
        1
 62
     0
 92
       -2
340
0
 93
        0
 40
0.045
309
GRIDFORMAT_END
 95
        2
302
GRIDFORMAT
  1
GRIDFORMAT_BEGIN
 90
        0
 91
        1
 62
     0
 92
       -2
340
0
 93
        0
 40
0.045
309
GRIDFORMAT_END
 95
        4
302
GRIDFORMAT
  1
GRIDFORMAT_BEGIN
 90
        0
 91
        1
 62
     0
 92
       -2
340
0
 93
        0
 40
0.045
309
GRIDFORMAT_END
 95
        8
302
GRIDFORMAT
  1
GRIDFORMAT_BEGIN
 90
        0
 91
        1
 62
     0
 92
       -2
340
0
 93
        0
 40
0.045
309
GRIDFORMAT_END
 95
       16
302
GRIDFORMAT
  1
GRIDFORMAT_BEGIN
 90
        0
 91
        1
 62
     0
 92
       -2
340
0
 93
        0
 40
0.045
309
GRIDFORMAT_END
 95
       32
302
GRIDFORMAT
  1
GRIDFORMAT_BEGIN
 90
        0
 91
        1
 62
     0
 92
       -2
340
0
 93
        0
 40
0.045
309
GRIDFORMAT_END
309
TABLEFORMAT_END
  1
CELLSTYLE_BEGIN
 90
        2
 91
        1
300
_HEADER
309
CELLSTYLE_END
300
CELLSTYLE
  1
TABLEFORMAT_BEGIN
 90
        5
170
     1
 91
        0
 92
        0
 62
   257
 93
        1
300
CONTENTFORMAT
  1
CONTENTFORMAT_BEGIN
 90
        0
 91
        0
 92
      512
 93
        0
300

 40
0.0
140
1.0
 94
        2
 62
     0
340
17
144
0.18
309
CONTENTFORMAT_END
171
     0
 94
        6
 95
        1
302
GRIDFORMAT
  1
GRIDFORMAT_BEGIN
 90
        0
 91
        1
 62
     0
 92
       -2
340
0
 93
        0
 40
0.045
309
GRIDFORMAT_END
 95
        2
302
GRIDFORMAT
  1
GRIDFORMAT_BEGIN
 90
        0
 91
        1
 62
     0
 92
       -2
340
0
 93
        0
 40
0.045
309
GRIDFORMAT_END
 95
        4
302
GRIDFORMAT
  1
GRIDFORMAT_BEGIN
 90
        0
 91
        1
 62
     0
 92
       -2
340
0
 93
        0
 40
0.045
309
GRIDFORMAT_END
 95
        8
302
GRIDFORMAT
  1
GRIDFORMAT_BEGIN
 90
        0
 91
        1
 62
     0
 92
       -2
340
0
 93
        0
 40
0.045
309
GRIDFORMAT_END
 95
       16
302
GRIDFORMAT
  1
GRIDFORMAT_BEGIN
 90
        0
 91
        1
 62
     0
 92
       -2
340
0
 93
        0
 40
0.045
309
GRIDFORMAT_END
 95
       32
302
GRIDFORMAT
  1
GRIDFORMAT_BEGIN
 90
        0
 91
        1
 62
     0
 92
       -2
340
0
 93
        0
 40
0.045
309
GRIDFORMAT_END
309
TABLEFORMAT_END
  1
CELLSTYLE_BEGIN
 90
        3
 91
        2
300
_DATA
309
CELLSTYLE_END
  0
XRECORD
  5
2AA
102
{ACAD_REACTORS
330
2A1
102
}
330
2A1
100
AcDbXrecord
280
     1
102
ACAD_ROUNDTRIP_PRE2007_TABLESTYLE
 90
      512
 91
        0
  1

 92
      512
 93
        0
  2

 94
      512
 95
        0
  3

  0
ENDSEC
  0
EOF
