  0
SECTION
  2
HEADER
  9
$ACADVER
  1
AC1021
  9
$ACADMAINTVER
 70
    50
  9
$DWGCODEPAGE
  3
ANSI_1252
  9
$LASTSAVEDBY
  1
EARL
  9
$INSBASE
 10
0.0
 20
0.0
 30
0.0
  9
$EXTMIN
 10
-0.0000000000000042
 20
-0.9827520800077591
 30
0.0
  9
$EXTMAX
 10
15.76780847611264
 20
5.625
 30
0.0
  9
$LIMMIN
 10
0.0
 20
0.0
  9
$LIMMAX
 10
0.0
 20
0.0
  9
$ORTHOMODE
 70
     0
  9
$REGENMODE
 70
     1
  9
$FILLMODE
 70
     1
  9
$QTEXTMODE
 70
     0
  9
$MIRRTEXT
 70
     1
  9
$LTSCALE
 40
1.0
  9
$ATTMODE
 70
     1
  9
$TEXTSIZE
 40
0.0
  9
$TRACEWID
 40
0.05
  9
$TEXTSTYLE
  7
Standard
  9
$CLAYER
  8
0
  9
$CELTYPE
  6
Continuous
  9
$CECOLOR
 62
   256
  9
$CELTSCALE
 40
1.0
  9
$DISPSILH
 70
     0
  9
$DIMSCALE
 40
1.0
  9
$DIMASZ
 40
0.18
  9
$DIMEXO
 40
0.0625
  9
$DIMDLI
 40
0.38
  9
$DIMRND
 40
0.0
  9
$DIMDLE
 40
0.0
  9
$DIMEXE
 40
0.18
  9
$DIMTP
 40
0.0
  9
$DIMTM
 40
0.0
  9
$DIMTXT
 40
0.18
  9
$DIMCEN
 40
0.09
  9
$DIMTSZ
 40
0.0
  9
$DIMTOL
 70
     0
  9
$DIMLIM
 70
     0
  9
$DIMTIH
 70
     1
  9
$DIMTOH
 70
     1
  9
$DIMSE1
 70
     0
  9
$DIMSE2
 70
     0
  9
$DIMTAD
 70
     0
  9
$DIMZIN
 70
     0
  9
$DIMBLK
  1

  9
$DIMASO
 70
     1
  9
$DIMSHO
 70
     1
  9
$DIMPOST
  1

  9
$DIMAPOST
  1

  9
$DIMALT
 70
     0
  9
$DIMALTD
 70
     2
  9
$DIMALTF
 40
25.4
  9
$DIMLFAC
 40
1.0
  9
$DIMTOFL
 70
     0
  9
$DIMTVP
 40
0.0
  9
$DIMTIX
 70
     0
  9
$DIMSOXD
 70
     0
  9
$DIMSAH
 70
     0
  9
$DIMBLK1
  1

  9
$DIMBLK2
  1

  9
$DIMSTYLE
  2
Standard
  9
$DIMCLRD
 70
     0
  9
$DIMCLRE
 70
     0
  9
$DIMCLRT
 70
     0
  9
$DIMTFAC
 40
1.0
  9
$DIMGAP
 40
0.09
  9
$DIMJUST
 70
     0
  9
$DIMSD1
 70
     0
  9
$DIMSD2
 70
     0
  9
$DIMTOLJ
 70
     1
  9
$DIMTZIN
 70
     0
  9
$DIMALTZ
 70
     0
  9
$DIMALTTZ
 70
     0
  9
$DIMUPT
 70
     0
  9
$DIMDEC
 70
     4
  9
$DIMTDEC
 70
     4
  9
$DIMALTU
 70
     2
  9
$DIMALTTD
 70
     2
  9
$DIMTXSTY
  7
Standard
  9
$DIMAUNIT
 70
     0
  9
$DIMADEC
 70
     0
  9
$DIMALTRND
 40
0.0
  9
$DIMAZIN
 70
     0
  9
$DIMDSEP
 70
    46
  9
$DIMATFIT
 70
     0
  9
$DIMFRAC
 70
     0
  9
$DIMLDRBLK
  1

  9
$DIMLUNIT
 70
     2
  9
$DIMLWD
 70
    -2
  9
$DIMLWE
 70
    -2
  9
$DIMTMOVE
 70
     0
  9
$DIMFXL
 40
1.0
  9
$DIMFXLON
 70
     0
  9
$DIMJOGANG
 40
0.7853981633974483
  9
$DIMTFILL
 70
     0
  9
$DIMTFILLCLR
 70
     0
  9
$DIMARCSYM
 70
     0
  9
$DIMLTYPE
  6

  9
$DIMLTEX1
  6

  9
$DIMLTEX2
  6

  9
$LUNITS
 70
     2
  9
$LUPREC
 70
     4
  9
$SKETCHINC
 40
0.1
  9
$FILLETRAD
 40
0.0
  9
$AUNITS
 70
     0
  9
$AUPREC
 70
     0
  9
$MENU
  1
acad
  9
$ELEVATION
 40
0.0
  9
$PELEVATION
 40
0.0
  9
$THICKNESS
 40
0.0
  9
$LIMCHECK
 70
     0
  9
$CHAMFERA
 40
0.0
  9
$CHAMFERB
 40
0.0
  9
$CHAMFERC
 40
0.0
  9
$CHAMFERD
 40
0.0
  9
$SKPOLY
 70
     0
  9
$TDCREATE
 40
2455006.790601852
  9
$TDUCREATE
 40
2455006.957268519
  9
$TDUPDATE
 40
2455105.509382766
  9
$TDUUPDATE
 40
2455105.676049433
  9
$TDINDWG
 40
0.0004659375
  9
$TDUSRTIMER
 40
0.0004659375
  9
$USRTIMER
 70
     1
  9
$ANGBASE
 50
0.0
  9
$ANGDIR
 70
     0
  9
$PDMODE
 70
     0
  9
$PDSIZE
 40
0.0
  9
$PLINEWID
 40
0.0
  9
$SPLFRAME
 70
     0
  9
$SPLINETYPE
 70
     6
  9
$SPLINESEGS
 70
     8
  9
$HANDSEED
  5
29A
  9
$SURFTAB1
 70
     6
  9
$SURFTAB2
 70
     6
  9
$SURFTYPE
 70
     6
  9
$SURFU
 70
     6
  9
$SURFV
 70
     6
  9
$UCSBASE
  2

  9
$UCSNAME
  2

  9
$UCSORG
 10
0.0
 20
0.0
 30
0.0
  9
$UCSXDIR
 10
1.0
 20
0.0
 30
0.0
  9
$UCSYDIR
 10
0.0
 20
1.0
 30
0.0
  9
$UCSORTHOREF
  2

  9
$UCSORTHOVIEW
 70
     0
  9
$UCSORGTOP
 10
0.0
 20
0.0
 30
0.0
  9
$UCSORGBOTTOM
 10
0.0
 20
0.0
 30
0.0
  9
$UCSORGLEFT
 10
0.0
 20
0.0
 30
0.0
  9
$UCSORGRIGHT
 10
0.0
 20
0.0
 30
0.0
  9
$UCSORGFRONT
 10
0.0
 20
0.0
 30
0.0
  9
$UCSORGBACK
 10
0.0
 20
0.0
 30
0.0
  9
$PUCSBASE
  2

  9
$PUCSNAME
  2

  9
$PUCSORG
 10
0.0
 20
0.0
 30
0.0
  9
$PUCSXDIR
 10
1.0
 20
0.0
 30
0.0
  9
$PUCSYDIR
 10
0.0
 20
1.0
 30
0.0
  9
$PUCSORTHOREF
  2

  9
$PUCSORTHOVIEW
 70
     0
  9
$PUCSORGTOP
 10
0.0
 20
0.0
 30
0.0
  9
$PUCSORGBOTTOM
 10
0.0
 20
0.0
 30
0.0
  9
$PUCSORGLEFT
 10
0.0
 20
0.0
 30
0.0
  9
$PUCSORGRIGHT
 10
0.0
 20
0.0
 30
0.0
  9
$PUCSORGFRONT
 10
0.0
 20
0.0
 30
0.0
  9
$PUCSORGBACK
 10
0.0
 20
0.0
 30
0.0
  9
$USERI1
 70
     0
  9
$USERI2
 70
     0
  9
$USERI3
 70
     0
  9
$USERI4
 70
     0
  9
$USERI5
 70
     0
  9
$USERR1
 40
0.0
  9
$USERR2
 40
0.0
  9
$USERR3
 40
0.0
  9
$USERR4
 40
0.0
  9
$USERR5
 40
0.0
  9
$WORLDVIEW
 70
     1
  9
$SHADEDGE
 70
     3
  9
$SHADEDIF
 70
    70
  9
$TILEMODE
 70
     0
  9
$MAXACTVP
 70
    16
  9
$PINSBASE
 10
0.0
 20
0.0
 30
0.0
  9
$PLIMCHECK
 70
     0
  9
$PEXTMIN
 10
-0.0549022543161684
 20
-0.0075665793440258
 30
-0.0015258207003583
  9
$PEXTMAX
 10
10.39367819715962
 20
8.015599872014011
 30
0.0000000349246037
  9
$PLIMMIN
 10
-0.3306119115190196
 20
-0.2812499079328949
  9
$PLIMMAX
 10
10.66938784818509
 20
8.218749851771214
  9
$UNITMODE
 70
     0
  9
$VISRETAIN
 70
     0
  9
$PLINEGEN
 70
     1
  9
$PSLTSCALE
 70
     0
  9
$TREEDEPTH
 70
  3020
  9
$CMLSTYLE
  2
Standard
  9
$CMLJUST
 70
     0
  9
$CMLSCALE
 40
1.0
  9
$PROXYGRAPHICS
 70
     0
  9
$MEASUREMENT
 70
     0
  9
$CELWEIGHT
370
     0
  9
$ENDCAPS
280
     0
  9
$JOINSTYLE
280
     0
  9
$LWDISPLAY
290
     0
  9
$INSUNITS
 70
     0
  9
$HYPERLINKBASE
  1

  9
$STYLESHEET
  1

  9
$XEDIT
290
     1
  9
$CEPSNTYPE
380
     0
  9
$PSTYLEMODE
290
     1
  9
$FINGERPRINTGUID
  2

  9
$VERSIONGUID
  2
{4B4F91CF-ACBE-4CAA-B454-4C89AE49C2F2}
  9
$EXTNAMES
290
     1
  9
$PSVPSCALE
 40
0.0
  9
$OLESTARTUP
290
     0
  9
$SORTENTS
280
   127
  9
$INDEXCTL
280
     0
  9
$HIDETEXT
280
     0
  9
$XCLIPFRAME
290
     0
  9
$HALOGAP
280
     0
  9
$OBSCOLOR
 70
   257
  9
$OBSLTYPE
280
     0
  9
$INTERSECTIONDISPLAY
280
     0
  9
$INTERSECTIONCOLOR
 70
   257
  9
$DIMASSOC
280
     1
  9
$PROJECTNAME
  1

  9
$CAMERADISPLAY
290
     0
  9
$LENSLENGTH
 40
50.0
  9
$CAMERAHEIGHT
 40
0.0
  9
$STEPSPERSEC
 40
2.0
  9
$STEPSIZE
 40
6.0
  9
$3DDWFPREC
 40
2.0
  9
$PSOLWIDTH
 40
0.25
  9
$PSOLHEIGHT
 40
4.0
  9
$LOFTANG1
 40
1.570796326794896
  9
$LOFTANG2
 40
1.570796326794896
  9
$LOFTMAG1
 40
0.0
  9
$LOFTMAG2
 40
0.0
  9
$LOFTPARAM
 70
     7
  9
$LOFTNORMALS
280
     1
  9
$LATITUDE
 40
37.795
  9
$LONGITUDE
 40
-122.394
  9
$NORTHDIRECTION
 40
0.0
  9
$TIMEZONE
 70
 -8000
  9
$LIGHTGLYPHDISPLAY
280
     1
  9
$TILEMODELIGHTSYNCH
280
     1
  9
$CMATERIAL
347
224
  9
$SOLIDHIST
280
     1
  9
$SHOWHIST
280
     1
  9
$DWFFRAME
280
     2
  9
$DGNFRAME
280
     0
  9
$REALWORLDSCALE
290
     1
  9
$INTERFERECOLOR
 62
     1
  9
$INTERFEREOBJVS
345
231
  9
$INTERFEREVPVS
346
22E
  9
$CSHADOW
280
     0
  9
$SHADOWPLANELOCATION
 40
0.0
  0
ENDSEC
  0
SECTION
  2
CLASSES
  0
CLASS
  1
IMAGE
  2
AcDbRasterImage
  3
ISM
 90
     2175
 91
        0
280
     0
281
     1
  0
CLASS
  1
DICTIONARYVAR
  2
AcDbDictionaryVar
  3
ObjectDBX Classes
 90
        0
 91
        9
280
     0
281
     0
  0
CLASS
  1
RASTERVARIABLES
  2
AcDbRasterVariables
  3
ISM
 90
        0
 91
        0
280
     0
281
     0
  0
CLASS
  1
IMAGEDEF
  2
AcDbRasterImageDef
  3
ISM
 90
        0
 91
        0
280
     0
281
     0
  0
CLASS
  1
IMAGEDEF_REACTOR
  2
AcDbRasterImageDefReactor
  3
ISM
 90
        1
 91
        0
280
     0
281
     0
  0
CLASS
  1
IDBUFFER
  2
AcDbIdBuffer
  3
ObjectDBX Classes
 90
        0
 91
        0
280
     0
281
     0
  0
CLASS
  1
SPATIAL_FILTER
  2
AcDbSpatialFilter
  3
ObjectDBX Classes
 90
        0
 91
        0
280
     0
281
     0
  0
CLASS
  1
SORTENTSTABLE
  2
AcDbSortentsTable
  3
ObjectDBX Classes
 90
        0
 91
        0
280
     0
281
     0
  0
CLASS
  1
LAYER_INDEX
  2
AcDbLayerIndex
  3
ObjectDBX Classes
 90
        0
 91
        0
280
     0
281
     0
  0
CLASS
  1
SPATIAL_INDEX
  2
AcDbSpatialIndex
  3
ObjectDBX Classes
 90
        0
 91
        0
280
     0
281
     0
  0
CLASS
  1
OBJECT_PTR
  2
CAseDLPNTableRecord
  3
"ASE-LPNTableRecord"
 90
        1
 91
        0
280
     0
281
     0
  0
CLASS
  1
PLOTSETTINGS
  2
AcDbPlotSettings
  3
ObjectDBX Classes
 90
        0
 91
        0
280
     0
281
     0
  0
CLASS
  1
ACDBDICTIONARYWDFLT
  2
AcDbDictionaryWithDefault
  3
ObjectDBX Classes
 90
        0
 91
        1
280
     0
281
     0
  0
CLASS
  1
WIPEOUT
  2
AcDbWipeout
  3
"WipeOut|Product Desc: Object Enabler for WipeOut entity                        |Company: Autodesk, Inc.                        |WEB Address: www.autodesk.com"
 90
     2175
 91
        0
280
     0
281
     1
  0
CLASS
  1
WIPEOUTVARIABLES
  2
AcDbWipeoutVariables
  3
"WipeOut|Product Desc:     WipeOut Dbx Application|Company:          Autodesk, Inc.|WEB Address:      www.autodesk.com"
 90
        0
 91
        1
280
     0
281
     0
  0
CLASS
  1
RTEXT
  2
RText
  3
RText|AutoCAD Express Tool|expresstools@autodesk.com
 90
        0
 91
        0
280
     0
281
     1
  0
CLASS
  1
ARCALIGNEDTEXT
  2
AcDbArcAlignedText
  3
ATEXT|AutoCAD Express Tool|expresstools@autodesk.com
 90
        0
 91
        0
280
     0
281
     1
  0
CLASS
  1
MATERIAL
  2
AcDbMaterial
  3
ObjectDBX Classes
 90
     1153
 91
        3
280
     0
281
     0
  0
CLASS
  1
VISUALSTYLE
  2
AcDbVisualStyle
  3
ObjectDBX Classes
 90
     4095
 91
       16
280
     0
281
     0
  0
CLASS
  1
TABLESTYLE
  2
AcDbTableStyle
  3
ObjectDBX Classes
 90
     4095
 91
        1
280
     0
281
     0
  0
CLASS
  1
SCALE
  2
AcDbScale
  3
ObjectDBX Classes
 90
     1153
 91
       33
280
     0
281
     0
  0
CLASS
  1
MLEADERSTYLE
  2
AcDbMLeaderStyle
  3
ACDB_MLEADERSTYLE_CLASS
 90
     4095
 91
        1
280
     0
281
     0
  0
CLASS
  1
CELLSTYLEMAP
  2
AcDbCellStyleMap
  3
ObjectDBX Classes
 90
     1152
 91
        2
280
     0
281
     0
  0
ENDSEC
  0
SECTION
  2
TABLES
  0
TABLE
  2
VPORT
  5
7
330
0
100
AcDbSymbolTable
 70
     1
  0
VPORT
  5
15
330
7
100
AcDbSymbolTableRecord
100
AcDbViewportTableRecord
  2
*ACTIVE
 70
     0
 10
0.0
 20
0.0
 11
1.0
 21
1.0
 12
12.11780667605996
 22
4.579183999999999
 13
0.0
 23
0.0
 14
1.0
 24
1.0
 15
0.0
 25
0.0
 16
0.0
 26
0.0
 36
1.0
 17
0.0
 27
0.0
 37
0.0
 40
9.158369
 41
1.895442359249329
 42
50.0
 43
0.0
 44
0.0
 50
0.0
 51
0.0
 71
     0
 72
   100
 73
     1
 74
     1
 75
     0
 76
     0
 77
     0
 78
     0
281
     0
 65
     0
110
0.0
120
0.0
130
0.0
111
1.0
121
0.0
131
0.0
112
0.0
122
1.0
132
0.0
 79
     0
146
0.0
348
22D
 60
     3
 61
     5
292
     1
282
     1
141
0.0
142
0.0
 63
   250
421
  3355443
  0
ENDTAB
  0
TABLE
  2
LTYPE
  5
4
330
0
100
AcDbSymbolTable
 70
     4
  0
LTYPE
  5
11
330
4
100
AcDbSymbolTableRecord
100
AcDbLinetypeTableRecord
  2
ByBlock
 70
     0
  3

 72
    65
 73
     0
 40
0.0
  0
LTYPE
  5
12
330
4
100
AcDbSymbolTableRecord
100
AcDbLinetypeTableRecord
  2
ByLayer
 70
     0
  3

 72
    65
 73
     0
 40
0.0
  0
LTYPE
  5
13
330
4
100
AcDbSymbolTableRecord
100
AcDbLinetypeTableRecord
  2
Continuous
 70
     0
  3
Solid line
 72
    65
 73
     0
 40
0.0
  0
LTYPE
  5
24
330
4
100
AcDbSymbolTableRecord
100
AcDbLinetypeTableRecord
  2
solid
 70
     0
  3

 72
    65
 73
     0
 40
0.0
  0
LTYPE
  5
25
330
4
100
AcDbSymbolTableRecord
100
AcDbLinetypeTableRecord
  2
dashed
 70
     0
  3

 72
    65
 73
     0
 40
0.0
  0
LTYPE
  5
26
330
4
100
AcDbSymbolTableRecord
100
AcDbLinetypeTableRecord
  2
center
 70
     0
  3

 72
    65
 73
     0
 40
0.0
  0
ENDTAB
  0
TABLE
  2
LAYER
  5
2
330
0
100
AcDbSymbolTable
 70
     3
  0
LAYER
  5
14
102
{ACAD_XDICTIONARY
360
271
102
}
330
2
100
AcDbSymbolTableRecord
100
AcDbLayerTableRecord
  2
0
 70
     0
 62
     7
  6
Continuous
370
    -3
390
1D
347
226
  0
LAYER
  5
27
102
{ACAD_XDICTIONARY
360
273
102
}
330
2
100
AcDbSymbolTableRecord
100
AcDbLayerTableRecord
  2
1
 70
     0
 62
     1
  6
solid
370
    -3
390
1D
347
226
  0
LAYER
  5
1FC
102
{ACAD_XDICTIONARY
360
275
102
}
330
2
100
AcDbSymbolTableRecord
100
AcDbLayerTableRecord
  2
0
 70
     0
 62
     1
  6
solid
370
    -3
390
1D
347
226
  0
ENDTAB
  0
TABLE
  2
STYLE
  5
3
330
0
100
AcDbSymbolTable
 70
     2
  0
STYLE
  5
17
330
3
100
AcDbSymbolTableRecord
100
AcDbTextStyleTableRecord
  2
Standard
 70
     0
 40
0.0
 41
1.0
 50
0.0
 71
     0
 42
0.0
  3
txt
  4

  0
ENDTAB
  0
TABLE
  2
VIEW
  5
5
330
0
100
AcDbSymbolTable
 70
     0
  0
ENDTAB
  0
TABLE
  2
UCS
  5
6
330
0
100
AcDbSymbolTable
 70
     0
  0
ENDTAB
  0
TABLE
  2
APPID
  5
8
330
0
100
AcDbSymbolTable
 70
     3
  0
APPID
  5
16
330
8
100
AcDbSymbolTableRecord
100
AcDbRegAppTableRecord
  2
ACAD
 70
     0
  0
APPID
  5
240
330
8
100
AcDbSymbolTableRecord
100
AcDbRegAppTableRecord
  2
ACAD_PSEXT
 70
     0
  0
APPID
  5
26A
330
8
100
AcDbSymbolTableRecord
100
AcDbRegAppTableRecord
  2
ACAD_MLEADERVER
 70
     0
  0
ENDTAB
  0
TABLE
  2
DIMSTYLE
  5
9
330
0
100
AcDbSymbolTable
 70
     2
100
AcDbDimStyleTable
 71
     1
340
18
  0
DIMSTYLE
105
18
102
{ACAD_REACTORS
330
39
102
}
330
9
100
AcDbSymbolTableRecord
100
AcDbDimStyleTableRecord
  2
Standard
 70
     0
289
     0
340
17
  0
ENDTAB
  0
TABLE
  2
BLOCK_RECORD
  5
1
330
0
100
AcDbSymbolTable
 70
     2
  0
BLOCK_RECORD
  5
A
330
1
100
AcDbSymbolTableRecord
100
AcDbBlockTableRecord
  2
*MODEL_SPACE
340
20
 70
     0
280
     1
281
     0
  0
BLOCK_RECORD
  5
B
330
1
100
AcDbSymbolTableRecord
100
AcDbBlockTableRecord
  2
*PAPER_SPACE
340
21
 70
     0
280
     1
281
     0
  0
BLOCK_RECORD
  5
2F
330
1
100
AcDbSymbolTableRecord
100
AcDbBlockTableRecord
  2
*D0
340
0
 70
     0
280
     1
281
     0
  0
ENDTAB
  0
ENDSEC
  0
SECTION
  2
BLOCKS
  0
BLOCK
  5
D
330
A
100
AcDbEntity
  8
0
100
AcDbBlockBegin
  2
*MODEL_SPACE
 70
     0
 10
0.0
 20
0.0
 30
0.0
  3
*MODEL_SPACE
  1

  0
ENDBLK
  5
E
330
A
100
AcDbEntity
  8
0
100
AcDbBlockEnd
  0
BLOCK
  5
F
330
B
100
AcDbEntity
 67
     1
  8
0
100
AcDbBlockBegin
  2
*PAPER_SPACE
 70
     0
 10
0.0
 20
0.0
 30
0.0
  3
*PAPER_SPACE
  1

  0
ENDBLK
  5
10
330
B
100
AcDbEntity
 67
     1
  8
0
100
AcDbBlockEnd
  0
BLOCK
  5
30
330
2F
100
AcDbEntity
  8
1
  6
solid
 62
     7
100
AcDbBlockBegin
  2
*D0
 70
     0
 10
0.0
 20
0.0
 30
0.0
  3
*D0
  1

  0
LINE
  5
31
330
2F
100
AcDbEntity
  8
1
  6
solid
 62
     7
100
AcDbLine
 10
14.11284923553466
 20
0.0
 30
0.0
 11
15.08030847611264
 21
0.0
 31
0.0
  0
LINE
  5
32
330
2F
100
AcDbEntity
  8
1
  6
solid
 62
     7
100
AcDbLine
 10
14.11284923553466
 20
5.625
 30
0.0
 11
15.08030847611264
 21
5.624999999999999
 31
0.0
  0
LINE
  5
33
330
2F
100
AcDbEntity
  8
1
  6
solid
 62
     7
100
AcDbLine
 10
14.89280847611264
 20
0.0
 30
0.0
 11
14.89280847611264
 21
2.33288221153846
 31
0.0
  0
LINE
  5
34
330
2F
100
AcDbEntity
  8
1
  6
solid
 62
     7
100
AcDbLine
 10
14.89280847611264
 20
5.624999999999999
 30
0.0
 11
14.89280847611264
 21
3.292117788461538
 31
0.0
  0
MTEXT
  5
35
330
2F
100
AcDbEntity
  8
1
  6
solid
 62
     7
100
AcDbMText
 10
14.89280847611264
 20
2.812499999999999
 30
0.0
 40
0.375
 41
0.0
 46
0.0
 71
     5
 72
     1
  1
{\H0.375000;5 5/8}
 73
     1
 44
1.0
  0
SOLID
  5
36
330
2F
100
AcDbEntity
  8
1
  6
solid
 62
     7
100
AcDbTrace
 10
14.83037097611264
 20
0.3750000000000004
 30
0.0
 11
14.95524597611264
 21
0.3749999999999996
 31
0.0
 12
14.89280847611264
 22
0.0
 32
0.0
 13
14.89280847611264
 23
0.0
 33
0.0
  0
SOLID
  5
37
330
2F
100
AcDbEntity
  8
1
  6
solid
 62
     7
100
AcDbTrace
 10
14.95524597611264
 20
5.249999999999999
 30
0.0
 11
14.83037097611264
 21
5.249999999999999
 31
0.0
 12
14.89280847611264
 22
5.624999999999999
 32
0.0
 13
14.89280847611264
 23
5.624999999999999
 33
0.0
  0
ENDBLK
  5
38
330
2F
100
AcDbEntity
  8
1
  6
solid
 62
     7
100
AcDbBlockEnd
  0
ENDSEC
  0
SECTION
  2
ENTITIES
  0
ARC
  5
28
330
A
100
AcDbEntity
  8
1
  6
solid
 62
     7
100
AcDbCircle
 10
13.73784911632538
 20
3.047167287570029
 30
0.0
 40
3.047167256060104
100
AcDbArc
 50
221.2882031697277
 51
270.0000022414881
  0
ARC
  5
29
330
A
100
AcDbEntity
  8
1
  6
solid
 62
     7
100
AcDbCircle
 10
9.158566117286682
 20
3.047167287570029
 30
0.0
 40
3.047167256060104
100
AcDbArc
 50
221.2882031697277
 51
318.7117968302721
  0
ARC
  5
2A
330
A
100
AcDbEntity
  8
1
  6
solid
 62
     7
100
AcDbCircle
 10
4.579283118247985
 20
3.047167287570029
 30
0.0
 40
3.047167256060104
100
AcDbArc
 50
221.2882031697277
 51
318.7117968302721
  0
ARC
  5
2B
330
A
100
AcDbEntity
  8
1
  6
solid
 62
     7
100
AcDbCircle
 10
0.0000001192092896
 20
3.047167287570029
 30
0.0
 40
3.047167256060104
100
AcDbArc
 50
269.9999977585118
 51
318.7117968302721
  0
LINE
  5
2C
330
A
100
AcDbEntity
  8
1
  6
solid
 62
     7
100
AcDbLine
 10
13.73784923553467
 20
0.0
 30
0.0
 11
13.73784923553467
 21
5.625
 31
0.0
  0
LINE
  5
2D
330
A
100
AcDbEntity
  8
1
  6
solid
 62
     7
100
AcDbLine
 10
0.0
 20
0.0
 30
0.0
 11
0.0
 21
5.625
 31
0.0
  0
LINE
  5
2E
330
A
100
AcDbEntity
  8
1
  6
solid
 62
     7
100
AcDbLine
 10
0.0
 20
5.625
 30
0.0
 11
13.73784923553467
 21
5.625
 31
0.0
  0
DIMENSION
  5
39
330
A
100
AcDbEntity
  8
1
  6
solid
 62
     7
100
AcDbDimension
  2
*D0
 10
14.89280847611264
 20
2.812499999999999
 30
0.0
 11
14.89280847611264
 21
2.812499999999999
 31
0.0
 70
    33
 71
     5
 42
5.625
 73
     0
 74
     0
 75
     0
  3
Standard
100
AcDbAlignedDimension
 13
13.73784923553467
 23
5.625
 33
0.0
 14
13.73784923553467
 24
0.0
 34
0.0
1001
ACAD
1000
DSTYLE
1002
{
1070
    41
1040
0.375
1070
    42
1040
0.375
1070
    44
1040
0.1875
1070
    47
1040
0.0005
1070
    48
1040
0.0005
1070
    75
1070
     1
1070
    76
1070
     1
1070
   140
1040
0.375
1070
   146
1040
0.1666666666666666
1070
   270
1070
     5
1070
   271
1070
     3
1070
   272
1070
     3
1070
   277
1070
     5
1002
}
  0
LINE
  5
3A
330
A
100
AcDbEntity
  8
1
  6
solid
 62
     7
100
AcDbLine
 10
5.365172846161315
 20
-0.9827520800077591
 30
0.0
 11
5.365172846161315
 21
-0.9178482338539129
 31
0.0
  0
LINE
  5
3B
330
A
100
AcDbEntity
  8
1
  6
solid
 62
     7
100
AcDbLine
 10
5.365172846161315
 20
-0.9178482338539129
 30
0.0
 11
5.419094414788766
 21
-0.9178482338539129
 31
0.0
  0
LINE
  5
3C
330
A
100
AcDbEntity
  8
1
  6
solid
 62
     7
100
AcDbLine
 10
5.419094414788766
 20
-0.9178482338539129
 30
0.0
 11
5.419094414788766
 21
-0.5476559261616054
 31
0.0
  0
LINE
  5
3D
330
A
100
AcDbEntity
  8
1
  6
solid
 62
     7
100
AcDbLine
 10
5.419094414788766
 20
-0.5476559261616054
 30
0.0
 11
5.362231669690727
 21
-0.5476559261616054
 31
0.0
  0
LINE
  5
3E
330
A
100
AcDbEntity
  8
1
  6
solid
 62
     7
100
AcDbLine
 10
5.362231669690727
 20
-0.5476559261616054
 30
0.0
 11
5.362231669690727
 21
-0.4827520800077592
 31
0.0
  0
LINE
  5
3F
330
A
100
AcDbEntity
  8
1
  6
solid
 62
     7
100
AcDbLine
 10
5.362231669690727
 20
-0.4827520800077592
 30
0.0
 11
5.489682650082884
 21
-0.4827520800077592
 31
0.0
  0
LINE
  5
40
330
A
100
AcDbEntity
  8
1
  6
solid
 62
     7
100
AcDbLine
 10
5.489682650082884
 20
-0.4827520800077592
 30
0.0
 11
5.489682650082884
 21
-0.9178482338539129
 31
0.0
  0
LINE
  5
41
330
A
100
AcDbEntity
  8
1
  6
solid
 62
     7
100
AcDbLine
 10
5.489682650082884
 20
-0.9178482338539129
 30
0.0
 11
5.549486571651511
 21
-0.9178482338539129
 31
0.0
  0
LINE
  5
42
330
A
100
AcDbEntity
  8
1
  6
solid
 62
     7
100
AcDbLine
 10
5.549486571651511
 20
-0.9178482338539129
 30
0.0
 11
5.549486571651511
 21
-0.9827520800077591
 31
0.0
  0
LINE
  5
43
330
A
100
AcDbEntity
  8
1
  6
solid
 62
     7
100
AcDbLine
 10
5.549486571651511
 20
-0.9827520800077591
 30
0.0
 11
5.365172846161315
 21
-0.9827520800077591
 31
0.0
  0
LINE
  5
44
330
A
100
AcDbEntity
  8
1
  6
solid
 62
     7
100
AcDbLine
 10
5.880859120671119
 20
-0.4827520800077592
 30
0.0
 11
5.669094414788766
 21
-0.9827520800077591
 31
0.0
  0
LINE
  5
45
330
A
100
AcDbEntity
  8
1
  6
solid
 62
     7
100
AcDbLine
 10
5.669094414788766
 20
-0.9827520800077591
 30
0.0
 11
5.630859120671119
 21
-0.9827520800077591
 31
0.0
  0
LINE
  5
46
330
A
100
AcDbEntity
  8
1
  6
solid
 62
     7
100
AcDbLine
 10
5.630859120671119
 20
-0.9827520800077591
 30
0.0
 11
5.842623826553472
 21
-0.4827520800077592
 31
0.0
  0
LINE
  5
47
330
A
100
AcDbEntity
  8
1
  6
solid
 62
     7
100
AcDbLine
 10
5.842623826553472
 20
-0.4827520800077592
 30
0.0
 11
5.880859120671119
 21
-0.4827520800077592
 31
0.0
  0
LINE
  5
48
330
A
100
AcDbEntity
  8
1
  6
solid
 62
     7
100
AcDbLine
 10
6.043604218710335
 20
-0.9827520800077591
 30
0.0
 11
6.043604218710335
 21
-0.9178482338539129
 31
0.0
  0
LINE
  5
49
330
A
100
AcDbEntity
  8
1
  6
solid
 62
     7
100
AcDbLine
 10
6.043604218710335
 20
-0.9178482338539129
 30
0.0
 11
6.085761081455433
 21
-0.9178482338539129
 31
0.0
  0
LINE
  5
4A
330
A
100
AcDbEntity
  8
1
  6
solid
 62
     7
100
AcDbLine
 10
6.085761081455433
 20
-0.9178482338539129
 30
0.0
 11
6.085761081455433
 21
-0.8601559261616053
 31
0.0
  0
LINE
  5
4B
330
A
100
AcDbEntity
  8
1
  6
solid
 62
     7
100
AcDbLine
 10
6.085761081455433
 20
-0.8601559261616053
 30
0.0
 11
5.930859120671119
 21
-0.8601559261616053
 31
0.0
  0
LINE
  5
4C
330
A
100
AcDbEntity
  8
1
  6
solid
 62
     7
100
AcDbLine
 10
5.930859120671119
 20
-0.8601559261616053
 30
0.0
 11
5.930859120671119
 21
-0.7976559261616054
 31
0.0
  0
LINE
  5
4D
330
A
100
AcDbEntity
  8
1
  6
solid
 62
     7
100
AcDbLine
 10
5.930859120671119
 20
-0.7976559261616054
 30
0.0
 11
6.085761081455433
 21
-0.4827520800077592
 31
0.0
  0
LINE
  5
4E
330
A
100
AcDbEntity
  8
1
  6
solid
 62
     7
100
AcDbLine
 10
6.085761081455433
 20
-0.4827520800077592
 30
0.0
 11
6.136741473612295
 21
-0.4827520800077592
 31
0.0
  0
LINE
  5
4F
330
A
100
AcDbEntity
  8
1
  6
solid
 62
     7
100
AcDbLine
 10
6.136741473612295
 20
-0.4827520800077592
 30
0.0
 11
6.136741473612295
 21
-0.7952520800077592
 31
0.0
  0
LINE
  5
50
330
A
100
AcDbEntity
  8
1
  6
solid
 62
     7
100
AcDbLine
 10
6.136741473612295
 20
-0.7952520800077592
 30
0.0
 11
6.180859120671119
 21
-0.7952520800077592
 31
0.0
  0
LINE
  5
51
330
A
100
AcDbEntity
  8
1
  6
solid
 62
     7
100
AcDbLine
 10
6.180859120671119
 20
-0.7952520800077592
 30
0.0
 11
6.180859120671119
 21
-0.8601559261616053
 31
0.0
  0
LINE
  5
52
330
A
100
AcDbEntity
  8
1
  6
solid
 62
     7
100
AcDbLine
 10
6.180859120671119
 20
-0.8601559261616053
 30
0.0
 11
6.136741473612295
 21
-0.8601559261616053
 31
0.0
  0
LINE
  5
53
330
A
100
AcDbEntity
  8
1
  6
solid
 62
     7
100
AcDbLine
 10
6.136741473612295
 20
-0.8601559261616053
 30
0.0
 11
6.136741473612295
 21
-0.9178482338539129
 31
0.0
  0
LINE
  5
54
330
A
100
AcDbEntity
  8
1
  6
solid
 62
     7
100
AcDbLine
 10
6.136741473612295
 20
-0.9178482338539129
 30
0.0
 11
6.180859120671119
 21
-0.9178482338539129
 31
0.0
  0
LINE
  5
55
330
A
100
AcDbEntity
  8
1
  6
solid
 62
     7
100
AcDbLine
 10
6.180859120671119
 20
-0.9178482338539129
 30
0.0
 11
6.180859120671119
 21
-0.9827520800077591
 31
0.0
  0
LINE
  5
56
330
A
100
AcDbEntity
  8
1
  6
solid
 62
     7
100
AcDbLine
 10
6.180859120671119
 20
-0.9827520800077591
 30
0.0
 11
6.043604218710335
 21
-0.9827520800077591
 31
0.0
  0
LINE
  5
57
330
A
100
AcDbEntity
  8
1
  6
solid
 62
     7
100
AcDbLine
 10
5.98478068929857
 20
-0.7952520800077592
 30
0.0
 11
6.085761081455433
 21
-0.58852131077699
 31
0.0
  0
LINE
  5
58
330
A
100
AcDbEntity
  8
1
  6
solid
 62
     7
100
AcDbLine
 10
6.085761081455433
 20
-0.58852131077699
 30
0.0
 11
6.085761081455433
 21
-0.7952520800077592
 31
0.0
  0
LINE
  5
59
330
A
100
AcDbEntity
  8
1
  6
solid
 62
     7
100
AcDbLine
 10
6.085761081455433
 20
-0.7952520800077592
 30
0.0
 11
5.98478068929857
 21
-0.7952520800077592
 31
0.0
  0
LINE
  5
5A
330
A
100
AcDbEntity
  8
1
  6
solid
 62
     7
100
AcDbLine
 10
6.53478068929857
 20
-0.4827520800077592
 30
0.0
 11
6.53478068929857
 21
-0.5476559261616054
 31
0.0
  0
LINE
  5
5B
330
A
100
AcDbEntity
  8
1
  6
solid
 62
     7
100
AcDbLine
 10
6.53478068929857
 20
-0.5476559261616054
 30
0.0
 11
6.570074806945629
 21
-0.5476559261616054
 31
0.0
  0
LINE
  5
5C
330
A
100
AcDbEntity
  8
1
  6
solid
 62
     7
100
AcDbLine
 10
6.570074806945629
 20
-0.5476559261616054
 30
0.0
 11
6.635761081455433
 21
-0.7279443877000669
 31
0.0
  0
LINE
  5
5D
330
A
100
AcDbEntity
  8
1
  6
solid
 62
     7
100
AcDbLine
 10
6.635761081455433
 20
-0.7279443877000669
 30
0.0
 11
6.56321206184759
 21
-0.9178482338539129
 31
0.0
  0
LINE
  5
5E
330
A
100
AcDbEntity
  8
1
  6
solid
 62
     7
100
AcDbLine
 10
6.56321206184759
 20
-0.9178482338539129
 30
0.0
 11
6.530859120671119
 21
-0.9178482338539129
 31
0.0
  0
LINE
  5
5F
330
A
100
AcDbEntity
  8
1
  6
solid
 62
     7
100
AcDbLine
 10
6.530859120671119
 20
-0.9178482338539129
 30
0.0
 11
6.530859120671119
 21
-0.9827520800077591
 31
0.0
  0
LINE
  5
60
330
A
100
AcDbEntity
  8
1
  6
solid
 62
     7
100
AcDbLine
 10
6.530859120671119
 20
-0.9827520800077591
 30
0.0
 11
6.635761081455433
 21
-0.9827520800077591
 31
0.0
  0
LINE
  5
61
330
A
100
AcDbEntity
  8
1
  6
solid
 62
     7
100
AcDbLine
 10
6.635761081455433
 20
-0.9827520800077591
 30
0.0
 11
6.635761081455433
 21
-0.9178482338539129
 31
0.0
  0
LINE
  5
62
330
A
100
AcDbEntity
  8
1
  6
solid
 62
     7
100
AcDbLine
 10
6.635761081455433
 20
-0.9178482338539129
 30
0.0
 11
6.608310101063276
 21
-0.9178482338539129
 31
0.0
  0
LINE
  5
63
330
A
100
AcDbEntity
  8
1
  6
solid
 62
     7
100
AcDbLine
 10
6.608310101063276
 20
-0.9178482338539129
 30
0.0
 11
6.65634931674955
 21
-0.7856366953923746
 31
0.0
  0
LINE
  5
64
330
A
100
AcDbEntity
  8
1
  6
solid
 62
     7
100
AcDbLine
 10
6.65634931674955
 20
-0.7856366953923746
 30
0.0
 11
6.703408140278963
 21
-0.9178482338539129
 31
0.0
  0
LINE
  5
65
330
A
100
AcDbEntity
  8
1
  6
solid
 62
     7
100
AcDbLine
 10
6.703408140278963
 20
-0.9178482338539129
 30
0.0
 11
6.67791794420053
 21
-0.9178482338539129
 31
0.0
  0
LINE
  5
66
330
A
100
AcDbEntity
  8
1
  6
solid
 62
     7
100
AcDbLine
 10
6.67791794420053
 20
-0.9178482338539129
 30
0.0
 11
6.67791794420053
 21
-0.9827520800077591
 31
0.0
  0
LINE
  5
67
330
A
100
AcDbEntity
  8
1
  6
solid
 62
     7
100
AcDbLine
 10
6.67791794420053
 20
-0.9827520800077591
 30
0.0
 11
6.780859120671119
 21
-0.9827520800077591
 31
0.0
  0
LINE
  5
68
330
A
100
AcDbEntity
  8
1
  6
solid
 62
     7
100
AcDbLine
 10
6.780859120671119
 20
-0.9827520800077591
 30
0.0
 11
6.780859120671119
 21
-0.9178482338539129
 31
0.0
  0
LINE
  5
69
330
A
100
AcDbEntity
  8
1
  6
solid
 62
     7
100
AcDbLine
 10
6.780859120671119
 20
-0.9178482338539129
 30
0.0
 11
6.748506179494649
 21
-0.9178482338539129
 31
0.0
  0
LINE
  5
6A
330
A
100
AcDbEntity
  8
1
  6
solid
 62
     7
100
AcDbLine
 10
6.748506179494649
 20
-0.9178482338539129
 30
0.0
 11
6.67791794420053
 21
-0.7279443877000669
 31
0.0
  0
LINE
  5
6B
330
A
100
AcDbEntity
  8
1
  6
solid
 62
     7
100
AcDbLine
 10
6.67791794420053
 20
-0.7279443877000669
 30
0.0
 11
6.741643434396609
 21
-0.5476559261616054
 31
0.0
  0
LINE
  5
6C
330
A
100
AcDbEntity
  8
1
  6
solid
 62
     7
100
AcDbLine
 10
6.741643434396609
 20
-0.5476559261616054
 30
0.0
 11
6.776937552043668
 21
-0.5476559261616054
 31
0.0
  0
LINE
  5
6D
330
A
100
AcDbEntity
  8
1
  6
solid
 62
     7
100
AcDbLine
 10
6.776937552043668
 20
-0.5476559261616054
 30
0.0
 11
6.776937552043668
 21
-0.4827520800077592
 31
0.0
  0
LINE
  5
6E
330
A
100
AcDbEntity
  8
1
  6
solid
 62
     7
100
AcDbLine
 10
6.776937552043668
 20
-0.4827520800077592
 30
0.0
 11
6.672035591259354
 21
-0.4827520800077592
 31
0.0
  0
LINE
  5
6F
330
A
100
AcDbEntity
  8
1
  6
solid
 62
     7
100
AcDbLine
 10
6.672035591259354
 20
-0.4827520800077592
 30
0.0
 11
6.672035591259354
 21
-0.5476559261616054
 31
0.0
  0
LINE
  5
70
330
A
100
AcDbEntity
  8
1
  6
solid
 62
     7
100
AcDbLine
 10
6.672035591259354
 20
-0.5476559261616054
 30
0.0
 11
6.698506179494648
 21
-0.5476559261616054
 31
0.0
  0
LINE
  5
71
330
A
100
AcDbEntity
  8
1
  6
solid
 62
     7
100
AcDbLine
 10
6.698506179494648
 20
-0.5476559261616054
 30
0.0
 11
6.65634931674955
 21
-0.6654443877000669
 31
0.0
  0
LINE
  5
72
330
A
100
AcDbEntity
  8
1
  6
solid
 62
     7
100
AcDbLine
 10
6.65634931674955
 20
-0.6654443877000669
 30
0.0
 11
6.61321206184759
 21
-0.5476559261616054
 31
0.0
  0
LINE
  5
73
330
A
100
AcDbEntity
  8
1
  6
solid
 62
     7
100
AcDbLine
 10
6.61321206184759
 20
-0.5476559261616054
 30
0.0
 11
6.639682650082884
 21
-0.5476559261616054
 31
0.0
  0
LINE
  5
74
330
A
100
AcDbEntity
  8
1
  6
solid
 62
     7
100
AcDbLine
 10
6.639682650082884
 20
-0.5476559261616054
 30
0.0
 11
6.639682650082884
 21
-0.4827520800077592
 31
0.0
  0
LINE
  5
75
330
A
100
AcDbEntity
  8
1
  6
solid
 62
     7
100
AcDbLine
 10
6.639682650082884
 20
-0.4827520800077592
 30
0.0
 11
6.53478068929857
 21
-0.4827520800077592
 31
0.0
  0
LINE
  5
76
330
A
100
AcDbEntity
  8
1
  6
solid
 62
     7
100
AcDbLine
 10
7.130859120671119
 20
-0.8433290030846823
 30
0.0
 11
7.138702257926021
 21
-0.8769828492385283
 31
0.0
  0
LINE
  5
77
330
A
100
AcDbEntity
  8
1
  6
solid
 62
     7
100
AcDbLine
 10
7.138702257926021
 20
-0.8769828492385283
 30
0.0
 11
7.151447355965236
 21
-0.9058290030846823
 31
0.0
  0
LINE
  5
78
330
A
100
AcDbEntity
  8
1
  6
solid
 62
     7
100
AcDbLine
 10
7.151447355965236
 20
-0.9058290030846823
 30
0.0
 11
7.166153238318178
 21
-0.9298674646231436
 31
0.0
  0
LINE
  5
79
330
A
100
AcDbEntity
  8
1
  6
solid
 62
     7
100
AcDbLine
 10
7.166153238318178
 20
-0.9298674646231436
 30
0.0
 11
7.181839512827982
 21
-0.9515020800077591
 31
0.0
  0
LINE
  5
7A
330
A
100
AcDbEntity
  8
1
  6
solid
 62
     7
100
AcDbLine
 10
7.181839512827982
 20
-0.9515020800077591
 30
0.0
 11
7.201447355965237
 21
-0.9659251569308361
 31
0.0
  0
LINE
  5
7B
330
A
100
AcDbEntity
  8
1
  6
solid
 62
     7
100
AcDbLine
 10
7.201447355965237
 20
-0.9659251569308361
 30
0.0
 11
7.223996375573079
 21
-0.9755405415462206
 31
0.0
  0
LINE
  5
7C
330
A
100
AcDbEntity
  8
1
  6
solid
 62
     7
100
AcDbLine
 10
7.223996375573079
 20
-0.9755405415462206
 30
0.0
 11
7.249486571651512
 21
-0.9827520800077591
 31
0.0
  0
LINE
  5
7D
330
A
100
AcDbEntity
  8
1
  6
solid
 62
     7
100
AcDbLine
 10
7.249486571651512
 20
-0.9827520800077591
 30
0.0
 11
7.265172846161315
 21
-0.9827520800077591
 31
0.0
  0
LINE
  5
7E
330
A
100
AcDbEntity
  8
1
  6
solid
 62
     7
100
AcDbLine
 10
7.265172846161315
 20
-0.9827520800077591
 30
0.0
 11
7.297525787337786
 21
-0.9731366953923746
 31
0.0
  0
LINE
  5
7F
330
A
100
AcDbEntity
  8
1
  6
solid
 62
     7
100
AcDbLine
 10
7.297525787337786
 20
-0.9731366953923746
 30
0.0
 11
7.323015983416217
 21
-0.9539059261616053
 31
0.0
  0
LINE
  5
80
330
A
100
AcDbEntity
  8
1
  6
solid
 62
     7
100
AcDbLine
 10
7.323015983416217
 20
-0.9539059261616053
 30
0.0
 11
7.342623826553472
 21
-0.9322713107769898
 31
0.0
  0
LINE
  5
81
330
A
100
AcDbEntity
  8
1
  6
solid
 62
     7
100
AcDbLine
 10
7.342623826553472
 20
-0.9322713107769898
 30
0.0
 11
7.360270885377001
 21
-0.9058290030846823
 31
0.0
  0
LINE
  5
82
330
A
100
AcDbEntity
  8
1
  6
solid
 62
     7
100
AcDbLine
 10
7.360270885377001
 20
-0.9058290030846823
 30
0.0
 11
7.373015983416217
 21
-0.8697713107769898
 31
0.0
  0
LINE
  5
83
330
A
100
AcDbEntity
  8
1
  6
solid
 62
     7
100
AcDbLine
 10
7.373015983416217
 20
-0.8697713107769898
 30
0.0
 11
7.377917944200531
 21
-0.8409251569308359
 31
0.0
  0
LINE
  5
84
330
A
100
AcDbEntity
  8
1
  6
solid
 62
     7
100
AcDbLine
 10
7.377917944200531
 20
-0.8409251569308359
 30
0.0
 11
7.380859120671119
 21
-0.8168866953923746
 31
0.0
  0
LINE
  5
85
330
A
100
AcDbEntity
  8
1
  6
solid
 62
     7
100
AcDbLine
 10
7.380859120671119
 20
-0.8168866953923746
 30
0.0
 11
7.380859120671119
 21
-0.7904443877000669
 31
0.0
  0
LINE
  5
86
330
A
100
AcDbEntity
  8
1
  6
solid
 62
     7
100
AcDbLine
 10
7.380859120671119
 20
-0.7904443877000669
 30
0.0
 11
7.375957159886805
 21
-0.7495790030846824
 31
0.0
  0
LINE
  5
87
330
A
100
AcDbEntity
  8
1
  6
solid
 62
     7
100
AcDbLine
 10
7.375957159886805
 20
-0.7495790030846824
 30
0.0
 11
7.36321206184759
 21
-0.7135213107769899
 31
0.0
  0
LINE
  5
88
330
A
100
AcDbEntity
  8
1
  6
solid
 62
     7
100
AcDbLine
 10
7.36321206184759
 20
-0.7135213107769899
 30
0.0
 11
7.353408140278962
 21
-0.6918866953923746
 31
0.0
  0
LINE
  5
89
330
A
100
AcDbEntity
  8
1
  6
solid
 62
     7
100
AcDbLine
 10
7.353408140278962
 20
-0.6918866953923746
 30
0.0
 11
7.337721865769158
 21
-0.6702520800077592
 31
0.0
  0
LINE
  5
8A
330
A
100
AcDbEntity
  8
1
  6
solid
 62
     7
100
AcDbLine
 10
7.337721865769158
 20
-0.6702520800077592
 30
0.0
 11
7.320074806945629
 21
-0.653425156930836
 31
0.0
  0
LINE
  5
8B
330
A
100
AcDbEntity
  8
1
  6
solid
 62
     7
100
AcDbLine
 10
7.320074806945629
 20
-0.653425156930836
 30
0.0
 11
7.3024277481221
 21
-0.6390020800077592
 31
0.0
  0
LINE
  5
8C
330
A
100
AcDbEntity
  8
1
  6
solid
 62
     7
100
AcDbLine
 10
7.3024277481221
 20
-0.6390020800077592
 30
0.0
 11
7.28478068929857
 21
-0.6317905415462207
 31
0.0
  0
LINE
  5
8D
330
A
100
AcDbEntity
  8
1
  6
solid
 62
     7
100
AcDbLine
 10
7.28478068929857
 20
-0.6317905415462207
 30
0.0
 11
7.259290493220139
 21
-0.6269828492385284
 31
0.0
  0
LINE
  5
8E
330
A
100
AcDbEntity
  8
1
  6
solid
 62
     7
100
AcDbLine
 10
7.259290493220139
 20
-0.6269828492385284
 30
0.0
 11
7.244584610867198
 21
-0.6269828492385284
 31
0.0
  0
LINE
  5
8F
330
A
100
AcDbEntity
  8
1
  6
solid
 62
     7
100
AcDbLine
 10
7.244584610867198
 20
-0.6269828492385284
 30
0.0
 11
7.223996375573079
 21
-0.6317905415462207
 31
0.0
  0
LINE
  5
90
330
A
100
AcDbEntity
  8
1
  6
solid
 62
     7
100
AcDbLine
 10
7.223996375573079
 20
-0.6317905415462207
 30
0.0
 11
7.20634931674955
 21
-0.6390020800077592
 31
0.0
  0
LINE
  5
91
330
A
100
AcDbEntity
  8
1
  6
solid
 62
     7
100
AcDbLine
 10
7.20634931674955
 20
-0.6390020800077592
 30
0.0
 11
7.196545395180923
 21
-0.6462136184692977
 31
0.0
  0
LINE
  5
92
330
A
100
AcDbEntity
  8
1
  6
solid
 62
     7
100
AcDbLine
 10
7.196545395180923
 20
-0.6462136184692977
 30
0.0
 11
7.214192454004452
 21
-0.5428482338539129
 31
0.0
  0
LINE
  5
93
330
A
100
AcDbEntity
  8
1
  6
solid
 62
     7
100
AcDbLine
 10
7.214192454004452
 20
-0.5428482338539129
 30
0.0
 11
7.337721865769158
 21
-0.5428482338539129
 31
0.0
  0
LINE
  5
94
330
A
100
AcDbEntity
  8
1
  6
solid
 62
     7
100
AcDbLine
 10
7.337721865769158
 20
-0.5428482338539129
 30
0.0
 11
7.337721865769158
 21
-0.4827520800077592
 31
0.0
  0
LINE
  5
95
330
A
100
AcDbEntity
  8
1
  6
solid
 62
     7
100
AcDbLine
 10
7.337721865769158
 20
-0.4827520800077592
 30
0.0
 11
7.181839512827982
 21
-0.4827520800077592
 31
0.0
  0
LINE
  5
96
330
A
100
AcDbEntity
  8
1
  6
solid
 62
     7
100
AcDbLine
 10
7.181839512827982
 20
-0.4827520800077592
 30
0.0
 11
7.130859120671119
 21
-0.7640020800077592
 31
0.0
  0
LINE
  5
97
330
A
100
AcDbEntity
  8
1
  6
solid
 62
     7
100
AcDbLine
 10
7.130859120671119
 20
-0.7640020800077592
 30
0.0
 11
7.17399637557308
 21
-0.7760213107769899
 31
0.0
  0
LINE
  5
98
330
A
100
AcDbEntity
  8
1
  6
solid
 62
     7
100
AcDbLine
 10
7.17399637557308
 20
-0.7760213107769899
 30
0.0
 11
7.178898336357393
 21
-0.7567905415462207
 31
0.0
  0
LINE
  5
99
330
A
100
AcDbEntity
  8
1
  6
solid
 62
     7
100
AcDbLine
 10
7.178898336357393
 20
-0.7567905415462207
 30
0.0
 11
7.186741473612295
 21
-0.7375597723154515
 31
0.0
  0
LINE
  5
9A
330
A
100
AcDbEntity
  8
1
  6
solid
 62
     7
100
AcDbLine
 10
7.186741473612295
 20
-0.7375597723154515
 30
0.0
 11
7.196545395180923
 21
-0.7207328492385284
 31
0.0
  0
LINE
  5
9B
330
A
100
AcDbEntity
  8
1
  6
solid
 62
     7
100
AcDbLine
 10
7.196545395180923
 20
-0.7207328492385284
 30
0.0
 11
7.209290493220139
 21
-0.7063097723154515
 31
0.0
  0
LINE
  5
9C
330
A
100
AcDbEntity
  8
1
  6
solid
 62
     7
100
AcDbLine
 10
7.209290493220139
 20
-0.7063097723154515
 30
0.0
 11
7.223996375573079
 21
-0.6966943877000669
 31
0.0
  0
LINE
  5
9D
330
A
100
AcDbEntity
  8
1
  6
solid
 62
     7
100
AcDbLine
 10
7.223996375573079
 20
-0.6966943877000669
 30
0.0
 11
7.24164343439661
 21
-0.6894828492385284
 31
0.0
  0
LINE
  5
9E
330
A
100
AcDbEntity
  8
1
  6
solid
 62
     7
100
AcDbLine
 10
7.24164343439661
 20
-0.6894828492385284
 30
0.0
 11
7.259290493220139
 21
-0.6894828492385284
 31
0.0
  0
LINE
  5
9F
330
A
100
AcDbEntity
  8
1
  6
solid
 62
     7
100
AcDbLine
 10
7.259290493220139
 20
-0.6894828492385284
 30
0.0
 11
7.279878728514256
 21
-0.6918866953923746
 31
0.0
  0
LINE
  5
A0
330
A
100
AcDbEntity
  8
1
  6
solid
 62
     7
100
AcDbLine
 10
7.279878728514256
 20
-0.6918866953923746
 30
0.0
 11
7.294584610867198
 21
-0.7015020800077592
 31
0.0
  0
LINE
  5
A1
330
A
100
AcDbEntity
  8
1
  6
solid
 62
     7
100
AcDbLine
 10
7.294584610867198
 20
-0.7015020800077592
 30
0.0
 11
7.307329708906413
 21
-0.7135213107769899
 31
0.0
  0
LINE
  5
A2
330
A
100
AcDbEntity
  8
1
  6
solid
 62
     7
100
AcDbLine
 10
7.307329708906413
 20
-0.7135213107769899
 30
0.0
 11
7.320074806945629
 21
-0.730348233853913
 31
0.0
  0
LINE
  5
A3
330
A
100
AcDbEntity
  8
1
  6
solid
 62
     7
100
AcDbLine
 10
7.320074806945629
 20
-0.730348233853913
 30
0.0
 11
7.329878728514256
 21
-0.7519828492385284
 31
0.0
  0
LINE
  5
A4
330
A
100
AcDbEntity
  8
1
  6
solid
 62
     7
100
AcDbLine
 10
7.329878728514256
 20
-0.7519828492385284
 30
0.0
 11
7.335761081455433
 21
-0.7736174646231438
 31
0.0
  0
LINE
  5
A5
330
A
100
AcDbEntity
  8
1
  6
solid
 62
     7
100
AcDbLine
 10
7.335761081455433
 20
-0.7736174646231438
 30
0.0
 11
7.337721865769158
 21
-0.7952520800077592
 31
0.0
  0
LINE
  5
A6
330
A
100
AcDbEntity
  8
1
  6
solid
 62
     7
100
AcDbLine
 10
7.337721865769158
 20
-0.7952520800077592
 30
0.0
 11
7.337721865769158
 21
-0.8120790030846823
 31
0.0
  0
LINE
  5
A7
330
A
100
AcDbEntity
  8
1
  6
solid
 62
     7
100
AcDbLine
 10
7.337721865769158
 20
-0.8120790030846823
 30
0.0
 11
7.332819904984845
 21
-0.8409251569308359
 31
0.0
  0
LINE
  5
A8
330
A
100
AcDbEntity
  8
1
  6
solid
 62
     7
100
AcDbLine
 10
7.332819904984845
 20
-0.8409251569308359
 30
0.0
 11
7.324976767729943
 21
-0.8649636184692976
 31
0.0
  0
LINE
  5
A9
330
A
100
AcDbEntity
  8
1
  6
solid
 62
     7
100
AcDbLine
 10
7.324976767729943
 20
-0.8649636184692976
 30
0.0
 11
7.312231669690727
 21
-0.8865982338539129
 31
0.0
  0
LINE
  5
AA
330
A
100
AcDbEntity
  8
1
  6
solid
 62
     7
100
AcDbLine
 10
7.312231669690727
 20
-0.8865982338539129
 30
0.0
 11
7.300466963808374
 21
-0.9010213107769899
 31
0.0
  0
LINE
  5
AB
330
A
100
AcDbEntity
  8
1
  6
solid
 62
     7
100
AcDbLine
 10
7.300466963808374
 20
-0.9010213107769899
 30
0.0
 11
7.28478068929857
 21
-0.9106366953923746
 31
0.0
  0
LINE
  5
AC
330
A
100
AcDbEntity
  8
1
  6
solid
 62
     7
100
AcDbLine
 10
7.28478068929857
 20
-0.9106366953923746
 30
0.0
 11
7.267133630475041
 21
-0.9178482338539129
 31
0.0
  0
LINE
  5
AD
330
A
100
AcDbEntity
  8
1
  6
solid
 62
     7
100
AcDbLine
 10
7.267133630475041
 20
-0.9178482338539129
 30
0.0
 11
7.249486571651512
 21
-0.9178482338539129
 31
0.0
  0
LINE
  5
AE
330
A
100
AcDbEntity
  8
1
  6
solid
 62
     7
100
AcDbLine
 10
7.249486571651512
 20
-0.9178482338539129
 30
0.0
 11
7.228898336357394
 21
-0.9154443877000668
 31
0.0
  0
LINE
  5
AF
330
A
100
AcDbEntity
  8
1
  6
solid
 62
     7
100
AcDbLine
 10
7.228898336357394
 20
-0.9154443877000668
 30
0.0
 11
7.209290493220139
 21
-0.9010213107769899
 31
0.0
  0
LINE
  5
B0
330
A
100
AcDbEntity
  8
1
  6
solid
 62
     7
100
AcDbLine
 10
7.209290493220139
 20
-0.9010213107769899
 30
0.0
 11
7.196545395180923
 21
-0.8865982338539129
 31
0.0
  0
LINE
  5
B1
330
A
100
AcDbEntity
  8
1
  6
solid
 62
     7
100
AcDbLine
 10
7.196545395180923
 20
-0.8865982338539129
 30
0.0
 11
7.183800297141708
 21
-0.8649636184692976
 31
0.0
  0
LINE
  5
B2
330
A
100
AcDbEntity
  8
1
  6
solid
 62
     7
100
AcDbLine
 10
7.183800297141708
 20
-0.8649636184692976
 30
0.0
 11
7.175957159886806
 21
-0.8433290030846823
 31
0.0
  0
LINE
  5
B3
330
A
100
AcDbEntity
  8
1
  6
solid
 62
     7
100
AcDbLine
 10
7.175957159886806
 20
-0.8433290030846823
 30
0.0
 11
7.130859120671119
 21
-0.8433290030846823
 31
0.0
  0
LINE
  5
B4
330
A
100
AcDbEntity
  8
1
  6
solid
 62
     7
100
AcDbLine
 10
7.430859120671119
 20
-0.8721751569308359
 30
0.0
 11
7.680859120671119
 21
-0.8721751569308359
 31
0.0
  0
LINE
  5
B5
330
A
100
AcDbEntity
  8
1
  6
solid
 62
     7
100
AcDbLine
 10
7.680859120671119
 20
-0.8721751569308359
 30
0.0
 11
7.680859120671119
 21
-0.7664059261616054
 31
0.0
  0
LINE
  5
B6
330
A
100
AcDbEntity
  8
1
  6
solid
 62
     7
100
AcDbLine
 10
7.680859120671119
 20
-0.7664059261616054
 30
0.0
 11
7.430859120671119
 21
-0.7664059261616054
 31
0.0
  0
LINE
  5
B7
330
A
100
AcDbEntity
  8
1
  6
solid
 62
     7
100
AcDbLine
 10
7.430859120671119
 20
-0.7664059261616054
 30
0.0
 11
7.430859120671119
 21
-0.8721751569308359
 31
0.0
  0
LINE
  5
B8
330
A
100
AcDbEntity
  8
1
  6
solid
 62
     7
100
AcDbLine
 10
7.730859120671119
 20
-0.8433290030846823
 30
0.0
 11
7.738702257926021
 21
-0.8769828492385283
 31
0.0
  0
LINE
  5
B9
330
A
100
AcDbEntity
  8
1
  6
solid
 62
     7
100
AcDbLine
 10
7.738702257926021
 20
-0.8769828492385283
 30
0.0
 11
7.751447355965236
 21
-0.9058290030846823
 31
0.0
  0
LINE
  5
BA
330
A
100
AcDbEntity
  8
1
  6
solid
 62
     7
100
AcDbLine
 10
7.751447355965236
 20
-0.9058290030846823
 30
0.0
 11
7.766153238318178
 21
-0.9298674646231436
 31
0.0
  0
LINE
  5
BB
330
A
100
AcDbEntity
  8
1
  6
solid
 62
     7
100
AcDbLine
 10
7.766153238318178
 20
-0.9298674646231436
 30
0.0
 11
7.781839512827982
 21
-0.9515020800077591
 31
0.0
  0
LINE
  5
BC
330
A
100
AcDbEntity
  8
1
  6
solid
 62
     7
100
AcDbLine
 10
7.781839512827982
 20
-0.9515020800077591
 30
0.0
 11
7.801447355965237
 21
-0.9659251569308361
 31
0.0
  0
LINE
  5
BD
330
A
100
AcDbEntity
  8
1
  6
solid
 62
     7
100
AcDbLine
 10
7.801447355965237
 20
-0.9659251569308361
 30
0.0
 11
7.82399637557308
 21
-0.9755405415462206
 31
0.0
  0
LINE
  5
BE
330
A
100
AcDbEntity
  8
1
  6
solid
 62
     7
100
AcDbLine
 10
7.82399637557308
 20
-0.9755405415462206
 30
0.0
 11
7.849486571651511
 21
-0.9827520800077591
 31
0.0
  0
LINE
  5
BF
330
A
100
AcDbEntity
  8
1
  6
solid
 62
     7
100
AcDbLine
 10
7.849486571651511
 20
-0.9827520800077591
 30
0.0
 11
7.865172846161315
 21
-0.9827520800077591
 31
0.0
  0
LINE
  5
C0
330
A
100
AcDbEntity
  8
1
  6
solid
 62
     7
100
AcDbLine
 10
7.865172846161315
 20
-0.9827520800077591
 30
0.0
 11
7.897525787337785
 21
-0.9731366953923746
 31
0.0
  0
LINE
  5
C1
330
A
100
AcDbEntity
  8
1
  6
solid
 62
     7
100
AcDbLine
 10
7.897525787337785
 20
-0.9731366953923746
 30
0.0
 11
7.923015983416217
 21
-0.9539059261616053
 31
0.0
  0
LINE
  5
C2
330
A
100
AcDbEntity
  8
1
  6
solid
 62
     7
100
AcDbLine
 10
7.923015983416217
 20
-0.9539059261616053
 30
0.0
 11
7.942623826553472
 21
-0.9322713107769898
 31
0.0
  0
LINE
  5
C3
330
A
100
AcDbEntity
  8
1
  6
solid
 62
     7
100
AcDbLine
 10
7.942623826553472
 20
-0.9322713107769898
 30
0.0
 11
7.960270885377001
 21
-0.9058290030846823
 31
0.0
  0
LINE
  5
C4
330
A
100
AcDbEntity
  8
1
  6
solid
 62
     7
100
AcDbLine
 10
7.960270885377001
 20
-0.9058290030846823
 30
0.0
 11
7.973015983416217
 21
-0.8697713107769898
 31
0.0
  0
LINE
  5
C5
330
A
100
AcDbEntity
  8
1
  6
solid
 62
     7
100
AcDbLine
 10
7.973015983416217
 20
-0.8697713107769898
 30
0.0
 11
7.97791794420053
 21
-0.8409251569308359
 31
0.0
  0
LINE
  5
C6
330
A
100
AcDbEntity
  8
1
  6
solid
 62
     7
100
AcDbLine
 10
7.97791794420053
 20
-0.8409251569308359
 30
0.0
 11
7.980859120671119
 21
-0.8168866953923746
 31
0.0
  0
LINE
  5
C7
330
A
100
AcDbEntity
  8
1
  6
solid
 62
     7
100
AcDbLine
 10
7.980859120671119
 20
-0.8168866953923746
 30
0.0
 11
7.980859120671119
 21
-0.7904443877000669
 31
0.0
  0
LINE
  5
C8
330
A
100
AcDbEntity
  8
1
  6
solid
 62
     7
100
AcDbLine
 10
7.980859120671119
 20
-0.7904443877000669
 30
0.0
 11
7.975957159886805
 21
-0.7495790030846824
 31
0.0
  0
LINE
  5
C9
330
A
100
AcDbEntity
  8
1
  6
solid
 62
     7
100
AcDbLine
 10
7.975957159886805
 20
-0.7495790030846824
 30
0.0
 11
7.96321206184759
 21
-0.7135213107769899
 31
0.0
  0
LINE
  5
CA
330
A
100
AcDbEntity
  8
1
  6
solid
 62
     7
100
AcDbLine
 10
7.96321206184759
 20
-0.7135213107769899
 30
0.0
 11
7.953408140278963
 21
-0.6918866953923746
 31
0.0
  0
LINE
  5
CB
330
A
100
AcDbEntity
  8
1
  6
solid
 62
     7
100
AcDbLine
 10
7.953408140278963
 20
-0.6918866953923746
 30
0.0
 11
7.937721865769159
 21
-0.6702520800077592
 31
0.0
  0
LINE
  5
CC
330
A
100
AcDbEntity
  8
1
  6
solid
 62
     7
100
AcDbLine
 10
7.937721865769159
 20
-0.6702520800077592
 30
0.0
 11
7.920074806945629
 21
-0.653425156930836
 31
0.0
  0
LINE
  5
CD
330
A
100
AcDbEntity
  8
1
  6
solid
 62
     7
100
AcDbLine
 10
7.920074806945629
 20
-0.653425156930836
 30
0.0
 11
7.902427748122099
 21
-0.6390020800077592
 31
0.0
  0
LINE
  5
CE
330
A
100
AcDbEntity
  8
1
  6
solid
 62
     7
100
AcDbLine
 10
7.902427748122099
 20
-0.6390020800077592
 30
0.0
 11
7.88478068929857
 21
-0.6317905415462207
 31
0.0
  0
LINE
  5
CF
330
A
100
AcDbEntity
  8
1
  6
solid
 62
     7
100
AcDbLine
 10
7.88478068929857
 20
-0.6317905415462207
 30
0.0
 11
7.859290493220139
 21
-0.6269828492385284
 31
0.0
  0
LINE
  5
D0
330
A
100
AcDbEntity
  8
1
  6
solid
 62
     7
100
AcDbLine
 10
7.859290493220139
 20
-0.6269828492385284
 30
0.0
 11
7.844584610867197
 21
-0.6269828492385284
 31
0.0
  0
LINE
  5
D1
330
A
100
AcDbEntity
  8
1
  6
solid
 62
     7
100
AcDbLine
 10
7.844584610867197
 20
-0.6269828492385284
 30
0.0
 11
7.82399637557308
 21
-0.6317905415462207
 31
0.0
  0
LINE
  5
D2
330
A
100
AcDbEntity
  8
1
  6
solid
 62
     7
100
AcDbLine
 10
7.82399637557308
 20
-0.6317905415462207
 30
0.0
 11
7.806349316749551
 21
-0.6390020800077592
 31
0.0
  0
LINE
  5
D3
330
A
100
AcDbEntity
  8
1
  6
solid
 62
     7
100
AcDbLine
 10
7.806349316749551
 20
-0.6390020800077592
 30
0.0
 11
7.796545395180923
 21
-0.6462136184692977
 31
0.0
  0
LINE
  5
D4
330
A
100
AcDbEntity
  8
1
  6
solid
 62
     7
100
AcDbLine
 10
7.796545395180923
 20
-0.6462136184692977
 30
0.0
 11
7.814192454004452
 21
-0.5428482338539129
 31
0.0
  0
LINE
  5
D5
330
A
100
AcDbEntity
  8
1
  6
solid
 62
     7
100
AcDbLine
 10
7.814192454004452
 20
-0.5428482338539129
 30
0.0
 11
7.937721865769159
 21
-0.5428482338539129
 31
0.0
  0
LINE
  5
D6
330
A
100
AcDbEntity
  8
1
  6
solid
 62
     7
100
AcDbLine
 10
7.937721865769159
 20
-0.5428482338539129
 30
0.0
 11
7.937721865769159
 21
-0.4827520800077592
 31
0.0
  0
LINE
  5
D7
330
A
100
AcDbEntity
  8
1
  6
solid
 62
     7
100
AcDbLine
 10
7.937721865769159
 20
-0.4827520800077592
 30
0.0
 11
7.781839512827982
 21
-0.4827520800077592
 31
0.0
  0
LINE
  5
D8
330
A
100
AcDbEntity
  8
1
  6
solid
 62
     7
100
AcDbLine
 10
7.781839512827982
 20
-0.4827520800077592
 30
0.0
 11
7.730859120671119
 21
-0.7640020800077592
 31
0.0
  0
LINE
  5
D9
330
A
100
AcDbEntity
  8
1
  6
solid
 62
     7
100
AcDbLine
 10
7.730859120671119
 20
-0.7640020800077592
 30
0.0
 11
7.77399637557308
 21
-0.7760213107769899
 31
0.0
  0
LINE
  5
DA
330
A
100
AcDbEntity
  8
1
  6
solid
 62
     7
100
AcDbLine
 10
7.77399637557308
 20
-0.7760213107769899
 30
0.0
 11
7.778898336357393
 21
-0.7567905415462207
 31
0.0
  0
LINE
  5
DB
330
A
100
AcDbEntity
  8
1
  6
solid
 62
     7
100
AcDbLine
 10
7.778898336357393
 20
-0.7567905415462207
 30
0.0
 11
7.786741473612295
 21
-0.7375597723154515
 31
0.0
  0
LINE
  5
DC
330
A
100
AcDbEntity
  8
1
  6
solid
 62
     7
100
AcDbLine
 10
7.786741473612295
 20
-0.7375597723154515
 30
0.0
 11
7.796545395180923
 21
-0.7207328492385284
 31
0.0
  0
LINE
  5
DD
330
A
100
AcDbEntity
  8
1
  6
solid
 62
     7
100
AcDbLine
 10
7.796545395180923
 20
-0.7207328492385284
 30
0.0
 11
7.809290493220139
 21
-0.7063097723154515
 31
0.0
  0
LINE
  5
DE
330
A
100
AcDbEntity
  8
1
  6
solid
 62
     7
100
AcDbLine
 10
7.809290493220139
 20
-0.7063097723154515
 30
0.0
 11
7.82399637557308
 21
-0.6966943877000669
 31
0.0
  0
LINE
  5
DF
330
A
100
AcDbEntity
  8
1
  6
solid
 62
     7
100
AcDbLine
 10
7.82399637557308
 20
-0.6966943877000669
 30
0.0
 11
7.841643434396609
 21
-0.6894828492385284
 31
0.0
  0
LINE
  5
E0
330
A
100
AcDbEntity
  8
1
  6
solid
 62
     7
100
AcDbLine
 10
7.841643434396609
 20
-0.6894828492385284
 30
0.0
 11
7.859290493220139
 21
-0.6894828492385284
 31
0.0
  0
LINE
  5
E1
330
A
100
AcDbEntity
  8
1
  6
solid
 62
     7
100
AcDbLine
 10
7.859290493220139
 20
-0.6894828492385284
 30
0.0
 11
7.879878728514256
 21
-0.6918866953923746
 31
0.0
  0
LINE
  5
E2
330
A
100
AcDbEntity
  8
1
  6
solid
 62
     7
100
AcDbLine
 10
7.879878728514256
 20
-0.6918866953923746
 30
0.0
 11
7.894584610867197
 21
-0.7015020800077592
 31
0.0
  0
LINE
  5
E3
330
A
100
AcDbEntity
  8
1
  6
solid
 62
     7
100
AcDbLine
 10
7.894584610867197
 20
-0.7015020800077592
 30
0.0
 11
7.907329708906413
 21
-0.7135213107769899
 31
0.0
  0
LINE
  5
E4
330
A
100
AcDbEntity
  8
1
  6
solid
 62
     7
100
AcDbLine
 10
7.907329708906413
 20
-0.7135213107769899
 30
0.0
 11
7.920074806945629
 21
-0.730348233853913
 31
0.0
  0
LINE
  5
E5
330
A
100
AcDbEntity
  8
1
  6
solid
 62
     7
100
AcDbLine
 10
7.920074806945629
 20
-0.730348233853913
 30
0.0
 11
7.929878728514257
 21
-0.7519828492385284
 31
0.0
  0
LINE
  5
E6
330
A
100
AcDbEntity
  8
1
  6
solid
 62
     7
100
AcDbLine
 10
7.929878728514257
 20
-0.7519828492385284
 30
0.0
 11
7.935761081455433
 21
-0.7736174646231438
 31
0.0
  0
LINE
  5
E7
330
A
100
AcDbEntity
  8
1
  6
solid
 62
     7
100
AcDbLine
 10
7.935761081455433
 20
-0.7736174646231438
 30
0.0
 11
7.937721865769159
 21
-0.7952520800077592
 31
0.0
  0
LINE
  5
E8
330
A
100
AcDbEntity
  8
1
  6
solid
 62
     7
100
AcDbLine
 10
7.937721865769159
 20
-0.7952520800077592
 30
0.0
 11
7.937721865769159
 21
-0.8120790030846823
 31
0.0
  0
LINE
  5
E9
330
A
100
AcDbEntity
  8
1
  6
solid
 62
     7
100
AcDbLine
 10
7.937721865769159
 20
-0.8120790030846823
 30
0.0
 11
7.932819904984844
 21
-0.8409251569308359
 31
0.0
  0
LINE
  5
EA
330
A
100
AcDbEntity
  8
1
  6
solid
 62
     7
100
AcDbLine
 10
7.932819904984844
 20
-0.8409251569308359
 30
0.0
 11
7.924976767729942
 21
-0.8649636184692976
 31
0.0
  0
LINE
  5
EB
330
A
100
AcDbEntity
  8
1
  6
solid
 62
     7
100
AcDbLine
 10
7.924976767729942
 20
-0.8649636184692976
 30
0.0
 11
7.912231669690727
 21
-0.8865982338539129
 31
0.0
  0
LINE
  5
EC
330
A
100
AcDbEntity
  8
1
  6
solid
 62
     7
100
AcDbLine
 10
7.912231669690727
 20
-0.8865982338539129
 30
0.0
 11
7.900466963808374
 21
-0.9010213107769899
 31
0.0
  0
LINE
  5
ED
330
A
100
AcDbEntity
  8
1
  6
solid
 62
     7
100
AcDbLine
 10
7.900466963808374
 20
-0.9010213107769899
 30
0.0
 11
7.88478068929857
 21
-0.9106366953923746
 31
0.0
  0
LINE
  5
EE
330
A
100
AcDbEntity
  8
1
  6
solid
 62
     7
100
AcDbLine
 10
7.88478068929857
 20
-0.9106366953923746
 30
0.0
 11
7.86713363047504
 21
-0.9178482338539129
 31
0.0
  0
LINE
  5
EF
330
A
100
AcDbEntity
  8
1
  6
solid
 62
     7
100
AcDbLine
 10
7.86713363047504
 20
-0.9178482338539129
 30
0.0
 11
7.849486571651511
 21
-0.9178482338539129
 31
0.0
  0
LINE
  5
F0
330
A
100
AcDbEntity
  8
1
  6
solid
 62
     7
100
AcDbLine
 10
7.849486571651511
 20
-0.9178482338539129
 30
0.0
 11
7.828898336357394
 21
-0.9154443877000668
 31
0.0
  0
LINE
  5
F1
330
A
100
AcDbEntity
  8
1
  6
solid
 62
     7
100
AcDbLine
 10
7.828898336357394
 20
-0.9154443877000668
 30
0.0
 11
7.809290493220139
 21
-0.9010213107769899
 31
0.0
  0
LINE
  5
F2
330
A
100
AcDbEntity
  8
1
  6
solid
 62
     7
100
AcDbLine
 10
7.809290493220139
 20
-0.9010213107769899
 30
0.0
 11
7.796545395180923
 21
-0.8865982338539129
 31
0.0
  0
LINE
  5
F3
330
A
100
AcDbEntity
  8
1
  6
solid
 62
     7
100
AcDbLine
 10
7.796545395180923
 20
-0.8865982338539129
 30
0.0
 11
7.783800297141707
 21
-0.8649636184692976
 31
0.0
  0
LINE
  5
F4
330
A
100
AcDbEntity
  8
1
  6
solid
 62
     7
100
AcDbLine
 10
7.783800297141707
 20
-0.8649636184692976
 30
0.0
 11
7.775957159886806
 21
-0.8433290030846823
 31
0.0
  0
LINE
  5
F5
330
A
100
AcDbEntity
  8
1
  6
solid
 62
     7
100
AcDbLine
 10
7.775957159886806
 20
-0.8433290030846823
 30
0.0
 11
7.730859120671119
 21
-0.8433290030846823
 31
0.0
  0
LINE
  5
F6
330
A
100
AcDbEntity
  8
1
  6
solid
 62
     7
100
AcDbLine
 10
8.280859120671118
 20
-0.4827520800077592
 30
0.0
 11
8.069094414788766
 21
-0.9827520800077591
 31
0.0
  0
LINE
  5
F7
330
A
100
AcDbEntity
  8
1
  6
solid
 62
     7
100
AcDbLine
 10
8.069094414788766
 20
-0.9827520800077591
 30
0.0
 11
8.030859120671118
 21
-0.9827520800077591
 31
0.0
  0
LINE
  5
F8
330
A
100
AcDbEntity
  8
1
  6
solid
 62
     7
100
AcDbLine
 10
8.030859120671118
 20
-0.9827520800077591
 30
0.0
 11
8.242623826553472
 21
-0.4827520800077592
 31
0.0
  0
LINE
  5
F9
330
A
100
AcDbEntity
  8
1
  6
solid
 62
     7
100
AcDbLine
 10
8.242623826553472
 20
-0.4827520800077592
 30
0.0
 11
8.280859120671118
 21
-0.4827520800077592
 31
0.0
  0
LINE
  5
FA
330
A
100
AcDbEntity
  8
1
  6
solid
 62
     7
100
AcDbLine
 10
8.390663042239745
 20
-0.6870790030846824
 30
0.0
 11
8.376937552043667
 21
-0.7015020800077592
 31
0.0
  0
LINE
  5
FB
330
A
100
AcDbEntity
  8
1
  6
solid
 62
     7
100
AcDbLine
 10
8.376937552043667
 20
-0.7015020800077592
 30
0.0
 11
8.363212061847589
 21
-0.7183290030846824
 31
0.0
  0
LINE
  5
FC
330
A
100
AcDbEntity
  8
1
  6
solid
 62
     7
100
AcDbLine
 10
8.363212061847589
 20
-0.7183290030846824
 30
0.0
 11
8.352427748122099
 21
-0.7351559261616054
 31
0.0
  0
LINE
  5
FD
330
A
100
AcDbEntity
  8
1
  6
solid
 62
     7
100
AcDbLine
 10
8.352427748122099
 20
-0.7351559261616054
 30
0.0
 11
8.344584610867197
 21
-0.7543866953923746
 31
0.0
  0
LINE
  5
FE
330
A
100
AcDbEntity
  8
1
  6
solid
 62
     7
100
AcDbLine
 10
8.344584610867197
 20
-0.7543866953923746
 30
0.0
 11
8.338702257926021
 21
-0.7712136184692976
 31
0.0
  0
LINE
  5
FF
330
A
100
AcDbEntity
  8
1
  6
solid
 62
     7
100
AcDbLine
 10
8.338702257926021
 20
-0.7712136184692976
 30
0.0
 11
8.333800297141706
 21
-0.7952520800077592
 31
0.0
  0
LINE
  5
100
330
A
100
AcDbEntity
  8
1
  6
solid
 62
     7
100
AcDbLine
 10
8.333800297141706
 20
-0.7952520800077592
 30
0.0
 11
8.330859120671119
 21
-0.8120790030846823
 31
0.0
  0
LINE
  5
101
330
A
100
AcDbEntity
  8
1
  6
solid
 62
     7
100
AcDbLine
 10
8.330859120671119
 20
-0.8120790030846823
 30
0.0
 11
8.330859120671119
 21
-0.8240982338539129
 31
0.0
  0
LINE
  5
102
330
A
100
AcDbEntity
  8
1
  6
solid
 62
     7
100
AcDbLine
 10
8.330859120671119
 20
-0.8240982338539129
 30
0.0
 11
8.333800297141706
 21
-0.8433290030846823
 31
0.0
  0
LINE
  5
103
330
A
100
AcDbEntity
  8
1
  6
solid
 62
     7
100
AcDbLine
 10
8.333800297141706
 20
-0.8433290030846823
 30
0.0
 11
8.336741473612296
 21
-0.8649636184692976
 31
0.0
  0
LINE
  5
104
330
A
100
AcDbEntity
  8
1
  6
solid
 62
     7
100
AcDbLine
 10
8.336741473612296
 20
-0.8649636184692976
 30
0.0
 11
8.341643434396608
 21
-0.8865982338539129
 31
0.0
  0
LINE
  5
105
330
A
100
AcDbEntity
  8
1
  6
solid
 62
     7
100
AcDbLine
 10
8.341643434396608
 20
-0.8865982338539129
 30
0.0
 11
8.352427748122099
 21
-0.9130405415462206
 31
0.0
  0
LINE
  5
106
330
A
100
AcDbEntity
  8
1
  6
solid
 62
     7
100
AcDbLine
 10
8.352427748122099
 20
-0.9130405415462206
 30
0.0
 11
8.369094414788765
 21
-0.9346751569308359
 31
0.0
  0
LINE
  5
107
330
A
100
AcDbEntity
  8
1
  6
solid
 62
     7
100
AcDbLine
 10
8.369094414788765
 20
-0.9346751569308359
 30
0.0
 11
8.382819904984843
 21
-0.9515020800077591
 31
0.0
  0
LINE
  5
108
330
A
100
AcDbEntity
  8
1
  6
solid
 62
     7
100
AcDbLine
 10
8.382819904984843
 20
-0.9515020800077591
 30
0.0
 11
8.407329708906413
 21
-0.9683290030846823
 31
0.0
  0
LINE
  5
109
330
A
100
AcDbEntity
  8
1
  6
solid
 62
     7
100
AcDbLine
 10
8.407329708906413
 20
-0.9683290030846823
 30
0.0
 11
8.431839512827981
 21
-0.9803482338539129
 31
0.0
  0
LINE
  5
10A
330
A
100
AcDbEntity
  8
1
  6
solid
 62
     7
100
AcDbLine
 10
8.431839512827981
 20
-0.9803482338539129
 30
0.0
 11
8.450466963808374
 21
-0.9827520800077591
 31
0.0
  0
LINE
  5
10B
330
A
100
AcDbEntity
  8
1
  6
solid
 62
     7
100
AcDbLine
 10
8.450466963808374
 20
-0.9827520800077591
 30
0.0
 11
8.472035591259354
 21
-0.9827520800077591
 31
0.0
  0
LINE
  5
10C
330
A
100
AcDbEntity
  8
1
  6
solid
 62
     7
100
AcDbLine
 10
8.472035591259354
 20
-0.9827520800077591
 30
0.0
 11
8.493604218710334
 21
-0.9755405415462206
 31
0.0
  0
LINE
  5
10D
330
A
100
AcDbEntity
  8
1
  6
solid
 62
     7
100
AcDbLine
 10
8.493604218710334
 20
-0.9755405415462206
 30
0.0
 11
8.518114022631902
 21
-0.9587136184692976
 31
0.0
  0
LINE
  5
10E
330
A
100
AcDbEntity
  8
1
  6
solid
 62
     7
100
AcDbLine
 10
8.518114022631902
 20
-0.9587136184692976
 30
0.0
 11
8.542623826553471
 21
-0.9370790030846823
 31
0.0
  0
LINE
  5
10F
330
A
100
AcDbEntity
  8
1
  6
solid
 62
     7
100
AcDbLine
 10
8.542623826553471
 20
-0.9370790030846823
 30
0.0
 11
8.559290493220139
 21
-0.9106366953923746
 31
0.0
  0
LINE
  5
110
330
A
100
AcDbEntity
  8
1
  6
solid
 62
     7
100
AcDbLine
 10
8.559290493220139
 20
-0.9106366953923746
 30
0.0
 11
8.570074806945628
 21
-0.8817905415462206
 31
0.0
  0
LINE
  5
111
330
A
100
AcDbEntity
  8
1
  6
solid
 62
     7
100
AcDbLine
 10
8.570074806945628
 20
-0.8817905415462206
 30
0.0
 11
8.574976767729943
 21
-0.8673674646231436
 31
0.0
  0
LINE
  5
112
330
A
100
AcDbEntity
  8
1
  6
solid
 62
     7
100
AcDbLine
 10
8.574976767729943
 20
-0.8673674646231436
 30
0.0
 11
8.580859120671119
 21
-0.8361174646231436
 31
0.0
  0
LINE
  5
113
330
A
100
AcDbEntity
  8
1
  6
solid
 62
     7
100
AcDbLine
 10
8.580859120671119
 20
-0.8361174646231436
 30
0.0
 11
8.580859120671119
 21
-0.8096751569308359
 31
0.0
  0
LINE
  5
114
330
A
100
AcDbEntity
  8
1
  6
solid
 62
     7
100
AcDbLine
 10
8.580859120671119
 20
-0.8096751569308359
 30
0.0
 11
8.574976767729943
 21
-0.7784251569308362
 31
0.0
  0
LINE
  5
115
330
A
100
AcDbEntity
  8
1
  6
solid
 62
     7
100
AcDbLine
 10
8.574976767729943
 20
-0.7784251569308362
 30
0.0
 11
8.567133630475041
 21
-0.7543866953923746
 31
0.0
  0
LINE
  5
116
330
A
100
AcDbEntity
  8
1
  6
solid
 62
     7
100
AcDbLine
 10
8.567133630475041
 20
-0.7543866953923746
 30
0.0
 11
8.55634931674955
 21
-0.7255405415462208
 31
0.0
  0
LINE
  5
117
330
A
100
AcDbEntity
  8
1
  6
solid
 62
     7
100
AcDbLine
 10
8.55634931674955
 20
-0.7255405415462208
 30
0.0
 11
8.542623826553471
 21
-0.7087136184692976
 31
0.0
  0
LINE
  5
118
330
A
100
AcDbEntity
  8
1
  6
solid
 62
     7
100
AcDbLine
 10
8.542623826553471
 20
-0.7087136184692976
 30
0.0
 11
8.528898336357393
 21
-0.6942905415462207
 31
0.0
  0
LINE
  5
119
330
A
100
AcDbEntity
  8
1
  6
solid
 62
     7
100
AcDbLine
 10
8.528898336357393
 20
-0.6942905415462207
 30
0.0
 11
8.521055199102491
 21
-0.6870790030846824
 31
0.0
  0
LINE
  5
11A
330
A
100
AcDbEntity
  8
1
  6
solid
 62
     7
100
AcDbLine
 10
8.521055199102491
 20
-0.6870790030846824
 30
0.0
 11
8.534780689298569
 21
-0.6702520800077592
 31
0.0
  0
LINE
  5
11B
330
A
100
AcDbEntity
  8
1
  6
solid
 62
     7
100
AcDbLine
 10
8.534780689298569
 20
-0.6702520800077592
 30
0.0
 11
8.542623826553471
 21
-0.653425156930836
 31
0.0
  0
LINE
  5
11C
330
A
100
AcDbEntity
  8
1
  6
solid
 62
     7
100
AcDbLine
 10
8.542623826553471
 20
-0.653425156930836
 30
0.0
 11
8.548506179494648
 21
-0.6365982338539129
 31
0.0
  0
LINE
  5
11D
330
A
100
AcDbEntity
  8
1
  6
solid
 62
     7
100
AcDbLine
 10
8.548506179494648
 20
-0.6365982338539129
 30
0.0
 11
8.551447355965237
 21
-0.6101559261616054
 31
0.0
  0
LINE
  5
11E
330
A
100
AcDbEntity
  8
1
  6
solid
 62
     7
100
AcDbLine
 10
8.551447355965237
 20
-0.6101559261616054
 30
0.0
 11
8.551447355965237
 21
-0.590925156930836
 31
0.0
  0
LINE
  5
11F
330
A
100
AcDbEntity
  8
1
  6
solid
 62
     7
100
AcDbLine
 10
8.551447355965237
 20
-0.590925156930836
 30
0.0
 11
8.548506179494648
 21
-0.574098233853913
 31
0.0
  0
LINE
  5
120
330
A
100
AcDbEntity
  8
1
  6
solid
 62
     7
100
AcDbLine
 10
8.548506179494648
 20
-0.574098233853913
 30
0.0
 11
8.542623826553471
 21
-0.5548674646231438
 31
0.0
  0
LINE
  5
121
330
A
100
AcDbEntity
  8
1
  6
solid
 62
     7
100
AcDbLine
 10
8.542623826553471
 20
-0.5548674646231438
 30
0.0
 11
8.534780689298569
 21
-0.5356366953923746
 31
0.0
  0
LINE
  5
122
330
A
100
AcDbEntity
  8
1
  6
solid
 62
     7
100
AcDbLine
 10
8.534780689298569
 20
-0.5356366953923746
 30
0.0
 11
8.526937552043667
 21
-0.5212136184692976
 31
0.0
  0
LINE
  5
123
330
A
100
AcDbEntity
  8
1
  6
solid
 62
     7
100
AcDbLine
 10
8.526937552043667
 20
-0.5212136184692976
 30
0.0
 11
8.513212061847589
 21
-0.5067905415462207
 31
0.0
  0
LINE
  5
124
330
A
100
AcDbEntity
  8
1
  6
solid
 62
     7
100
AcDbLine
 10
8.513212061847589
 20
-0.5067905415462207
 30
0.0
 11
8.502427748122098
 21
-0.4971751569308361
 31
0.0
  0
LINE
  5
125
330
A
100
AcDbEntity
  8
1
  6
solid
 62
     7
100
AcDbLine
 10
8.502427748122098
 20
-0.4971751569308361
 30
0.0
 11
8.488702257926021
 21
-0.4899636184692976
 31
0.0
  0
LINE
  5
126
330
A
100
AcDbEntity
  8
1
  6
solid
 62
     7
100
AcDbLine
 10
8.488702257926021
 20
-0.4899636184692976
 30
0.0
 11
8.469094414788767
 21
-0.4827520800077592
 31
0.0
  0
LINE
  5
127
330
A
100
AcDbEntity
  8
1
  6
solid
 62
     7
100
AcDbLine
 10
8.469094414788767
 20
-0.4827520800077592
 30
0.0
 11
8.447525787337784
 21
-0.4827520800077592
 31
0.0
  0
LINE
  5
128
330
A
100
AcDbEntity
  8
1
  6
solid
 62
     7
100
AcDbLine
 10
8.447525787337784
 20
-0.4827520800077592
 30
0.0
 11
8.423015983416217
 21
-0.4899636184692976
 31
0.0
  0
LINE
  5
129
330
A
100
AcDbEntity
  8
1
  6
solid
 62
     7
100
AcDbLine
 10
8.423015983416217
 20
-0.4899636184692976
 30
0.0
 11
8.401447355965236
 21
-0.5043866953923746
 31
0.0
  0
LINE
  5
12A
330
A
100
AcDbEntity
  8
1
  6
solid
 62
     7
100
AcDbLine
 10
8.401447355965236
 20
-0.5043866953923746
 30
0.0
 11
8.387721865769158
 21
-0.5164059261616054
 31
0.0
  0
LINE
  5
12B
330
A
100
AcDbEntity
  8
1
  6
solid
 62
     7
100
AcDbLine
 10
8.387721865769158
 20
-0.5164059261616054
 30
0.0
 11
8.376937552043667
 21
-0.5356366953923746
 31
0.0
  0
LINE
  5
12C
330
A
100
AcDbEntity
  8
1
  6
solid
 62
     7
100
AcDbLine
 10
8.376937552043667
 20
-0.5356366953923746
 30
0.0
 11
8.369094414788765
 21
-0.5548674646231438
 31
0.0
  0
LINE
  5
12D
330
A
100
AcDbEntity
  8
1
  6
solid
 62
     7
100
AcDbLine
 10
8.369094414788765
 20
-0.5548674646231438
 30
0.0
 11
8.363212061847589
 21
-0.5765020800077592
 31
0.0
  0
LINE
  5
12E
330
A
100
AcDbEntity
  8
1
  6
solid
 62
     7
100
AcDbLine
 10
8.363212061847589
 20
-0.5765020800077592
 30
0.0
 11
8.360270885377001
 21
-0.590925156930836
 31
0.0
  0
LINE
  5
12F
330
A
100
AcDbEntity
  8
1
  6
solid
 62
     7
100
AcDbLine
 10
8.360270885377001
 20
-0.590925156930836
 30
0.0
 11
8.360270885377001
 21
-0.6077520800077592
 31
0.0
  0
LINE
  5
130
330
A
100
AcDbEntity
  8
1
  6
solid
 62
     7
100
AcDbLine
 10
8.360270885377001
 20
-0.6077520800077592
 30
0.0
 11
8.363212061847589
 21
-0.6293866953923746
 31
0.0
  0
LINE
  5
131
330
A
100
AcDbEntity
  8
1
  6
solid
 62
     7
100
AcDbLine
 10
8.363212061847589
 20
-0.6293866953923746
 30
0.0
 11
8.369094414788765
 21
-0.653425156930836
 31
0.0
  0
LINE
  5
132
330
A
100
AcDbEntity
  8
1
  6
solid
 62
     7
100
AcDbLine
 10
8.369094414788765
 20
-0.653425156930836
 30
0.0
 11
8.376937552043667
 21
-0.6702520800077592
 31
0.0
  0
LINE
  5
133
330
A
100
AcDbEntity
  8
1
  6
solid
 62
     7
100
AcDbLine
 10
8.376937552043667
 20
-0.6702520800077592
 30
0.0
 11
8.384780689298569
 21
-0.6798674646231438
 31
0.0
  0
LINE
  5
134
330
A
100
AcDbEntity
  8
1
  6
solid
 62
     7
100
AcDbLine
 10
8.384780689298569
 20
-0.6798674646231438
 30
0.0
 11
8.390663042239745
 21
-0.6870790030846824
 31
0.0
  0
LINE
  5
135
330
A
100
AcDbEntity
  8
1
  6
solid
 62
     7
100
AcDbLine
 10
8.469094414788767
 20
-0.9202520800077591
 30
0.0
 11
8.488702257926021
 21
-0.9130405415462206
 31
0.0
  0
LINE
  5
136
330
A
100
AcDbEntity
  8
1
  6
solid
 62
     7
100
AcDbLine
 10
8.488702257926021
 20
-0.9130405415462206
 30
0.0
 11
8.502427748122098
 21
-0.9034251569308359
 31
0.0
  0
LINE
  5
137
330
A
100
AcDbEntity
  8
1
  6
solid
 62
     7
100
AcDbLine
 10
8.502427748122098
 20
-0.9034251569308359
 30
0.0
 11
8.515172846161314
 21
-0.8890020800077591
 31
0.0
  0
LINE
  5
138
330
A
100
AcDbEntity
  8
1
  6
solid
 62
     7
100
AcDbLine
 10
8.515172846161314
 20
-0.8890020800077591
 30
0.0
 11
8.526937552043667
 21
-0.8673674646231436
 31
0.0
  0
LINE
  5
139
330
A
100
AcDbEntity
  8
1
  6
solid
 62
     7
100
AcDbLine
 10
8.526937552043667
 20
-0.8673674646231436
 30
0.0
 11
8.531839512827982
 21
-0.8481366953923746
 31
0.0
  0
LINE
  5
13A
330
A
100
AcDbEntity
  8
1
  6
solid
 62
     7
100
AcDbLine
 10
8.531839512827982
 20
-0.8481366953923746
 30
0.0
 11
8.534780689298569
 21
-0.8265020800077591
 31
0.0
  0
LINE
  5
13B
330
A
100
AcDbEntity
  8
1
  6
solid
 62
     7
100
AcDbLine
 10
8.534780689298569
 20
-0.8265020800077591
 30
0.0
 11
8.534780689298569
 21
-0.8120790030846823
 31
0.0
  0
LINE
  5
13C
330
A
100
AcDbEntity
  8
1
  6
solid
 62
     7
100
AcDbLine
 10
8.534780689298569
 20
-0.8120790030846823
 30
0.0
 11
8.526937552043667
 21
-0.7808290030846824
 31
0.0
  0
LINE
  5
13D
330
A
100
AcDbEntity
  8
1
  6
solid
 62
     7
100
AcDbLine
 10
8.526937552043667
 20
-0.7808290030846824
 30
0.0
 11
8.518114022631902
 21
-0.7640020800077592
 31
0.0
  0
LINE
  5
13E
330
A
100
AcDbEntity
  8
1
  6
solid
 62
     7
100
AcDbLine
 10
8.518114022631902
 20
-0.7640020800077592
 30
0.0
 11
8.507329708906413
 21
-0.7495790030846824
 31
0.0
  0
LINE
  5
13F
330
A
100
AcDbEntity
  8
1
  6
solid
 62
     7
100
AcDbLine
 10
8.507329708906413
 20
-0.7495790030846824
 30
0.0
 11
8.493604218710334
 21
-0.7351559261616054
 31
0.0
  0
LINE
  5
140
330
A
100
AcDbEntity
  8
1
  6
solid
 62
     7
100
AcDbLine
 10
8.493604218710334
 20
-0.7351559261616054
 30
0.0
 11
8.482819904984843
 21
-0.730348233853913
 31
0.0
  0
LINE
  5
141
330
A
100
AcDbEntity
  8
1
  6
solid
 62
     7
100
AcDbLine
 10
8.482819904984843
 20
-0.730348233853913
 30
0.0
 11
8.467133630475039
 21
-0.7255405415462208
 31
0.0
  0
LINE
  5
142
330
A
100
AcDbEntity
  8
1
  6
solid
 62
     7
100
AcDbLine
 10
8.467133630475039
 20
-0.7255405415462208
 30
0.0
 11
8.447525787337784
 21
-0.7255405415462208
 31
0.0
  0
LINE
  5
143
330
A
100
AcDbEntity
  8
1
  6
solid
 62
     7
100
AcDbLine
 10
8.447525787337784
 20
-0.7255405415462208
 30
0.0
 11
8.425957159886806
 21
-0.7327520800077592
 31
0.0
  0
LINE
  5
144
330
A
100
AcDbEntity
  8
1
  6
solid
 62
     7
100
AcDbLine
 10
8.425957159886806
 20
-0.7327520800077592
 30
0.0
 11
8.412231669690726
 21
-0.7423674646231438
 31
0.0
  0
LINE
  5
145
330
A
100
AcDbEntity
  8
1
  6
solid
 62
     7
100
AcDbLine
 10
8.412231669690726
 20
-0.7423674646231438
 30
0.0
 11
8.398506179494649
 21
-0.7567905415462207
 31
0.0
  0
LINE
  5
146
330
A
100
AcDbEntity
  8
1
  6
solid
 62
     7
100
AcDbLine
 10
8.398506179494649
 20
-0.7567905415462207
 30
0.0
 11
8.387721865769158
 21
-0.7784251569308362
 31
0.0
  0
LINE
  5
147
330
A
100
AcDbEntity
  8
1
  6
solid
 62
     7
100
AcDbLine
 10
8.387721865769158
 20
-0.7784251569308362
 30
0.0
 11
8.382819904984843
 21
-0.7952520800077592
 31
0.0
  0
LINE
  5
148
330
A
100
AcDbEntity
  8
1
  6
solid
 62
     7
100
AcDbLine
 10
8.382819904984843
 20
-0.7952520800077592
 30
0.0
 11
8.379878728514256
 21
-0.8120790030846823
 31
0.0
  0
LINE
  5
149
330
A
100
AcDbEntity
  8
1
  6
solid
 62
     7
100
AcDbLine
 10
8.379878728514256
 20
-0.8120790030846823
 30
0.0
 11
8.379878728514256
 21
-0.8337136184692976
 31
0.0
  0
LINE
  5
14A
330
A
100
AcDbEntity
  8
1
  6
solid
 62
     7
100
AcDbLine
 10
8.379878728514256
 20
-0.8337136184692976
 30
0.0
 11
8.382819904984843
 21
-0.8553482338539129
 31
0.0
  0
LINE
  5
14B
330
A
100
AcDbEntity
  8
1
  6
solid
 62
     7
100
AcDbLine
 10
8.382819904984843
 20
-0.8553482338539129
 30
0.0
 11
8.390663042239745
 21
-0.8793866953923746
 31
0.0
  0
LINE
  5
14C
330
A
100
AcDbEntity
  8
1
  6
solid
 62
     7
100
AcDbLine
 10
8.390663042239745
 20
-0.8793866953923746
 30
0.0
 11
8.404388532435824
 21
-0.8962136184692976
 31
0.0
  0
LINE
  5
14D
330
A
100
AcDbEntity
  8
1
  6
solid
 62
     7
100
AcDbLine
 10
8.404388532435824
 20
-0.8962136184692976
 30
0.0
 11
8.418114022631904
 21
-0.9106366953923746
 31
0.0
  0
LINE
  5
14E
330
A
100
AcDbEntity
  8
1
  6
solid
 62
     7
100
AcDbLine
 10
8.418114022631904
 20
-0.9106366953923746
 30
0.0
 11
8.436741473612295
 21
-0.9202520800077591
 31
0.0
  0
LINE
  5
14F
330
A
100
AcDbEntity
  8
1
  6
solid
 62
     7
100
AcDbLine
 10
8.436741473612295
 20
-0.9202520800077591
 30
0.0
 11
8.469094414788767
 21
-0.9202520800077591
 31
0.0
  0
LINE
  5
150
330
A
100
AcDbEntity
  8
1
  6
solid
 62
     7
100
AcDbLine
 10
8.464192454004452
 20
-0.6630405415462208
 30
0.0
 11
8.474976767729941
 21
-0.6606366953923746
 31
0.0
  0
LINE
  5
151
330
A
100
AcDbEntity
  8
1
  6
solid
 62
     7
100
AcDbLine
 10
8.474976767729941
 20
-0.6606366953923746
 30
0.0
 11
8.488702257926021
 21
-0.6486174646231438
 31
0.0
  0
LINE
  5
152
330
A
100
AcDbEntity
  8
1
  6
solid
 62
     7
100
AcDbLine
 10
8.488702257926021
 20
-0.6486174646231438
 30
0.0
 11
8.496545395180923
 21
-0.6365982338539129
 31
0.0
  0
LINE
  5
153
330
A
100
AcDbEntity
  8
1
  6
solid
 62
     7
100
AcDbLine
 10
8.496545395180923
 20
-0.6365982338539129
 30
0.0
 11
8.502427748122098
 21
-0.622175156930836
 31
0.0
  0
LINE
  5
154
330
A
100
AcDbEntity
  8
1
  6
solid
 62
     7
100
AcDbLine
 10
8.502427748122098
 20
-0.622175156930836
 30
0.0
 11
8.504388532435825
 21
-0.6077520800077592
 31
0.0
  0
LINE
  5
155
330
A
100
AcDbEntity
  8
1
  6
solid
 62
     7
100
AcDbLine
 10
8.504388532435825
 20
-0.6077520800077592
 30
0.0
 11
8.504388532435825
 21
-0.5981366953923746
 31
0.0
  0
LINE
  5
156
330
A
100
AcDbEntity
  8
1
  6
solid
 62
     7
100
AcDbLine
 10
8.504388532435825
 20
-0.5981366953923746
 30
0.0
 11
8.499486571651511
 21
-0.5765020800077592
 31
0.0
  0
LINE
  5
157
330
A
100
AcDbEntity
  8
1
  6
solid
 62
     7
100
AcDbLine
 10
8.499486571651511
 20
-0.5765020800077592
 30
0.0
 11
8.491643434396609
 21
-0.5620790030846824
 31
0.0
  0
LINE
  5
158
330
A
100
AcDbEntity
  8
1
  6
solid
 62
     7
100
AcDbLine
 10
8.491643434396609
 20
-0.5620790030846824
 30
0.0
 11
8.482819904984843
 21
-0.5524636184692976
 31
0.0
  0
LINE
  5
159
330
A
100
AcDbEntity
  8
1
  6
solid
 62
     7
100
AcDbLine
 10
8.482819904984843
 20
-0.5524636184692976
 30
0.0
 11
8.472035591259354
 21
-0.5452520800077592
 31
0.0
  0
LINE
  5
15A
330
A
100
AcDbEntity
  8
1
  6
solid
 62
     7
100
AcDbLine
 10
8.472035591259354
 20
-0.5452520800077592
 30
0.0
 11
8.461251277533865
 21
-0.5428482338539129
 31
0.0
  0
LINE
  5
15B
330
A
100
AcDbEntity
  8
1
  6
solid
 62
     7
100
AcDbLine
 10
8.461251277533865
 20
-0.5428482338539129
 30
0.0
 11
8.453408140278963
 21
-0.5428482338539129
 31
0.0
  0
LINE
  5
15C
330
A
100
AcDbEntity
  8
1
  6
solid
 62
     7
100
AcDbLine
 10
8.453408140278963
 20
-0.5428482338539129
 30
0.0
 11
8.439682650082882
 21
-0.5452520800077592
 31
0.0
  0
LINE
  5
15D
330
A
100
AcDbEntity
  8
1
  6
solid
 62
     7
100
AcDbLine
 10
8.439682650082882
 20
-0.5452520800077592
 30
0.0
 11
8.428898336357393
 21
-0.5524636184692976
 31
0.0
  0
LINE
  5
15E
330
A
100
AcDbEntity
  8
1
  6
solid
 62
     7
100
AcDbLine
 10
8.428898336357393
 20
-0.5524636184692976
 30
0.0
 11
8.420074806945628
 21
-0.5620790030846824
 31
0.0
  0
LINE
  5
15F
330
A
100
AcDbEntity
  8
1
  6
solid
 62
     7
100
AcDbLine
 10
8.420074806945628
 20
-0.5620790030846824
 30
0.0
 11
8.412231669690726
 21
-0.5765020800077592
 31
0.0
  0
LINE
  5
160
330
A
100
AcDbEntity
  8
1
  6
solid
 62
     7
100
AcDbLine
 10
8.412231669690726
 20
-0.5765020800077592
 30
0.0
 11
8.409290493220138
 21
-0.590925156930836
 31
0.0
  0
LINE
  5
161
330
A
100
AcDbEntity
  8
1
  6
solid
 62
     7
100
AcDbLine
 10
8.409290493220138
 20
-0.590925156930836
 30
0.0
 11
8.407329708906413
 21
-0.6005405415462207
 31
0.0
  0
LINE
  5
162
330
A
100
AcDbEntity
  8
1
  6
solid
 62
     7
100
AcDbLine
 10
8.407329708906413
 20
-0.6005405415462207
 30
0.0
 11
8.407329708906413
 21
-0.6077520800077592
 31
0.0
  0
LINE
  5
163
330
A
100
AcDbEntity
  8
1
  6
solid
 62
     7
100
AcDbLine
 10
8.407329708906413
 20
-0.6077520800077592
 30
0.0
 11
8.412231669690726
 21
-0.6293866953923746
 31
0.0
  0
LINE
  5
164
330
A
100
AcDbEntity
  8
1
  6
solid
 62
     7
100
AcDbLine
 10
8.412231669690726
 20
-0.6293866953923746
 30
0.0
 11
8.418114022631904
 21
-0.6390020800077592
 31
0.0
  0
LINE
  5
165
330
A
100
AcDbEntity
  8
1
  6
solid
 62
     7
100
AcDbLine
 10
8.418114022631904
 20
-0.6390020800077592
 30
0.0
 11
8.425957159886806
 21
-0.653425156930836
 31
0.0
  0
LINE
  5
166
330
A
100
AcDbEntity
  8
1
  6
solid
 62
     7
100
AcDbLine
 10
8.425957159886806
 20
-0.653425156930836
 30
0.0
 11
8.436741473612295
 21
-0.6606366953923746
 31
0.0
  0
LINE
  5
167
330
A
100
AcDbEntity
  8
1
  6
solid
 62
     7
100
AcDbLine
 10
8.436741473612295
 20
-0.6606366953923746
 30
0.0
 11
8.450466963808374
 21
-0.6630405415462208
 31
0.0
  0
LINE
  5
168
330
A
100
AcDbEntity
  8
1
  6
solid
 62
     7
100
AcDbLine
 10
8.450466963808374
 20
-0.6630405415462208
 30
0.0
 11
8.464192454004452
 21
-0.6630405415462208
 31
0.0
  0
LINE
  5
169
330
A
100
AcDbEntity
  8
1
  6
solid
 62
     7
100
AcDbLine
 10
8.93478068929857
 20
-0.4827520800077592
 30
0.0
 11
8.93478068929857
 21
-0.5476559261616054
 31
0.0
  0
LINE
  5
16A
330
A
100
AcDbEntity
  8
1
  6
solid
 62
     7
100
AcDbLine
 10
8.93478068929857
 20
-0.5476559261616054
 30
0.0
 11
8.970074806945628
 21
-0.5476559261616054
 31
0.0
  0
LINE
  5
16B
330
A
100
AcDbEntity
  8
1
  6
solid
 62
     7
100
AcDbLine
 10
8.970074806945628
 20
-0.5476559261616054
 30
0.0
 11
9.035761081455433
 21
-0.7279443877000669
 31
0.0
  0
LINE
  5
16C
330
A
100
AcDbEntity
  8
1
  6
solid
 62
     7
100
AcDbLine
 10
9.035761081455433
 20
-0.7279443877000669
 30
0.0
 11
8.963212061847588
 21
-0.9178482338539129
 31
0.0
  0
LINE
  5
16D
330
A
100
AcDbEntity
  8
1
  6
solid
 62
     7
100
AcDbLine
 10
8.963212061847588
 20
-0.9178482338539129
 30
0.0
 11
8.930859120671119
 21
-0.9178482338539129
 31
0.0
  0
LINE
  5
16E
330
A
100
AcDbEntity
  8
1
  6
solid
 62
     7
100
AcDbLine
 10
8.930859120671119
 20
-0.9178482338539129
 30
0.0
 11
8.930859120671119
 21
-0.9827520800077591
 31
0.0
  0
LINE
  5
16F
330
A
100
AcDbEntity
  8
1
  6
solid
 62
     7
100
AcDbLine
 10
8.930859120671119
 20
-0.9827520800077591
 30
0.0
 11
9.035761081455433
 21
-0.9827520800077591
 31
0.0
  0
LINE
  5
170
330
A
100
AcDbEntity
  8
1
  6
solid
 62
     7
100
AcDbLine
 10
9.035761081455433
 20
-0.9827520800077591
 30
0.0
 11
9.035761081455433
 21
-0.9178482338539129
 31
0.0
  0
LINE
  5
171
330
A
100
AcDbEntity
  8
1
  6
solid
 62
     7
100
AcDbLine
 10
9.035761081455433
 20
-0.9178482338539129
 30
0.0
 11
9.008310101063276
 21
-0.9178482338539129
 31
0.0
  0
LINE
  5
172
330
A
100
AcDbEntity
  8
1
  6
solid
 62
     7
100
AcDbLine
 10
9.008310101063276
 20
-0.9178482338539129
 30
0.0
 11
9.05634931674955
 21
-0.7856366953923746
 31
0.0
  0
LINE
  5
173
330
A
100
AcDbEntity
  8
1
  6
solid
 62
     7
100
AcDbLine
 10
9.05634931674955
 20
-0.7856366953923746
 30
0.0
 11
9.103408140278961
 21
-0.9178482338539129
 31
0.0
  0
LINE
  5
174
330
A
100
AcDbEntity
  8
1
  6
solid
 62
     7
100
AcDbLine
 10
9.103408140278961
 20
-0.9178482338539129
 30
0.0
 11
9.07791794420053
 21
-0.9178482338539129
 31
0.0
  0
LINE
  5
175
330
A
100
AcDbEntity
  8
1
  6
solid
 62
     7
100
AcDbLine
 10
9.07791794420053
 20
-0.9178482338539129
 30
0.0
 11
9.07791794420053
 21
-0.9827520800077591
 31
0.0
  0
LINE
  5
176
330
A
100
AcDbEntity
  8
1
  6
solid
 62
     7
100
AcDbLine
 10
9.07791794420053
 20
-0.9827520800077591
 30
0.0
 11
9.180859120671119
 21
-0.9827520800077591
 31
0.0
  0
LINE
  5
177
330
A
100
AcDbEntity
  8
1
  6
solid
 62
     7
100
AcDbLine
 10
9.180859120671119
 20
-0.9827520800077591
 30
0.0
 11
9.180859120671119
 21
-0.9178482338539129
 31
0.0
  0
LINE
  5
178
330
A
100
AcDbEntity
  8
1
  6
solid
 62
     7
100
AcDbLine
 10
9.180859120671119
 20
-0.9178482338539129
 30
0.0
 11
9.148506179494647
 21
-0.9178482338539129
 31
0.0
  0
LINE
  5
179
330
A
100
AcDbEntity
  8
1
  6
solid
 62
     7
100
AcDbLine
 10
9.148506179494647
 20
-0.9178482338539129
 30
0.0
 11
9.07791794420053
 21
-0.7279443877000669
 31
0.0
  0
LINE
  5
17A
330
A
100
AcDbEntity
  8
1
  6
solid
 62
     7
100
AcDbLine
 10
9.07791794420053
 20
-0.7279443877000669
 30
0.0
 11
9.141643434396609
 21
-0.5476559261616054
 31
0.0
  0
LINE
  5
17B
330
A
100
AcDbEntity
  8
1
  6
solid
 62
     7
100
AcDbLine
 10
9.141643434396609
 20
-0.5476559261616054
 30
0.0
 11
9.176937552043668
 21
-0.5476559261616054
 31
0.0
  0
LINE
  5
17C
330
A
100
AcDbEntity
  8
1
  6
solid
 62
     7
100
AcDbLine
 10
9.176937552043668
 20
-0.5476559261616054
 30
0.0
 11
9.176937552043668
 21
-0.4827520800077592
 31
0.0
  0
LINE
  5
17D
330
A
100
AcDbEntity
  8
1
  6
solid
 62
     7
100
AcDbLine
 10
9.176937552043668
 20
-0.4827520800077592
 30
0.0
 11
9.072035591259353
 21
-0.4827520800077592
 31
0.0
  0
LINE
  5
17E
330
A
100
AcDbEntity
  8
1
  6
solid
 62
     7
100
AcDbLine
 10
9.072035591259353
 20
-0.4827520800077592
 30
0.0
 11
9.072035591259353
 21
-0.5476559261616054
 31
0.0
  0
LINE
  5
17F
330
A
100
AcDbEntity
  8
1
  6
solid
 62
     7
100
AcDbLine
 10
9.072035591259353
 20
-0.5476559261616054
 30
0.0
 11
9.098506179494648
 21
-0.5476559261616054
 31
0.0
  0
LINE
  5
180
330
A
100
AcDbEntity
  8
1
  6
solid
 62
     7
100
AcDbLine
 10
9.098506179494648
 20
-0.5476559261616054
 30
0.0
 11
9.05634931674955
 21
-0.6654443877000669
 31
0.0
  0
LINE
  5
181
330
A
100
AcDbEntity
  8
1
  6
solid
 62
     7
100
AcDbLine
 10
9.05634931674955
 20
-0.6654443877000669
 30
0.0
 11
9.013212061847589
 21
-0.5476559261616054
 31
0.0
  0
LINE
  5
182
330
A
100
AcDbEntity
  8
1
  6
solid
 62
     7
100
AcDbLine
 10
9.013212061847589
 20
-0.5476559261616054
 30
0.0
 11
9.039682650082884
 21
-0.5476559261616054
 31
0.0
  0
LINE
  5
183
330
A
100
AcDbEntity
  8
1
  6
solid
 62
     7
100
AcDbLine
 10
9.039682650082884
 20
-0.5476559261616054
 30
0.0
 11
9.039682650082884
 21
-0.4827520800077592
 31
0.0
  0
LINE
  5
184
330
A
100
AcDbEntity
  8
1
  6
solid
 62
     7
100
AcDbLine
 10
9.039682650082884
 20
-0.4827520800077592
 30
0.0
 11
8.93478068929857
 21
-0.4827520800077592
 31
0.0
  0
LINE
  5
185
330
A
100
AcDbEntity
  8
1
  6
solid
 62
     7
100
AcDbLine
 10
9.590663042239746
 20
-0.6870790030846824
 30
0.0
 11
9.576937552043666
 21
-0.7015020800077592
 31
0.0
  0
LINE
  5
186
330
A
100
AcDbEntity
  8
1
  6
solid
 62
     7
100
AcDbLine
 10
9.576937552043666
 20
-0.7015020800077592
 30
0.0
 11
9.56321206184759
 21
-0.7183290030846824
 31
0.0
  0
LINE
  5
187
330
A
100
AcDbEntity
  8
1
  6
solid
 62
     7
100
AcDbLine
 10
9.56321206184759
 20
-0.7183290030846824
 30
0.0
 11
9.552427748122099
 21
-0.7351559261616054
 31
0.0
  0
LINE
  5
188
330
A
100
AcDbEntity
  8
1
  6
solid
 62
     7
100
AcDbLine
 10
9.552427748122099
 20
-0.7351559261616054
 30
0.0
 11
9.544584610867197
 21
-0.7543866953923746
 31
0.0
  0
LINE
  5
189
330
A
100
AcDbEntity
  8
1
  6
solid
 62
     7
100
AcDbLine
 10
9.544584610867197
 20
-0.7543866953923746
 30
0.0
 11
9.53870225792602
 21
-0.7712136184692976
 31
0.0
  0
LINE
  5
18A
330
A
100
AcDbEntity
  8
1
  6
solid
 62
     7
100
AcDbLine
 10
9.53870225792602
 20
-0.7712136184692976
 30
0.0
 11
9.533800297141706
 21
-0.7952520800077592
 31
0.0
  0
LINE
  5
18B
330
A
100
AcDbEntity
  8
1
  6
solid
 62
     7
100
AcDbLine
 10
9.533800297141706
 20
-0.7952520800077592
 30
0.0
 11
9.530859120671118
 21
-0.8120790030846823
 31
0.0
  0
LINE
  5
18C
330
A
100
AcDbEntity
  8
1
  6
solid
 62
     7
100
AcDbLine
 10
9.530859120671118
 20
-0.8120790030846823
 30
0.0
 11
9.530859120671118
 21
-0.8240982338539129
 31
0.0
  0
LINE
  5
18D
330
A
100
AcDbEntity
  8
1
  6
solid
 62
     7
100
AcDbLine
 10
9.530859120671118
 20
-0.8240982338539129
 30
0.0
 11
9.533800297141706
 21
-0.8433290030846823
 31
0.0
  0
LINE
  5
18E
330
A
100
AcDbEntity
  8
1
  6
solid
 62
     7
100
AcDbLine
 10
9.533800297141706
 20
-0.8433290030846823
 30
0.0
 11
9.536741473612295
 21
-0.8649636184692976
 31
0.0
  0
LINE
  5
18F
330
A
100
AcDbEntity
  8
1
  6
solid
 62
     7
100
AcDbLine
 10
9.536741473612295
 20
-0.8649636184692976
 30
0.0
 11
9.541643434396608
 21
-0.8865982338539129
 31
0.0
  0
LINE
  5
190
330
A
100
AcDbEntity
  8
1
  6
solid
 62
     7
100
AcDbLine
 10
9.541643434396608
 20
-0.8865982338539129
 30
0.0
 11
9.552427748122099
 21
-0.9130405415462206
 31
0.0
  0
LINE
  5
191
330
A
100
AcDbEntity
  8
1
  6
solid
 62
     7
100
AcDbLine
 10
9.552427748122099
 20
-0.9130405415462206
 30
0.0
 11
9.569094414788764
 21
-0.9346751569308359
 31
0.0
  0
LINE
  5
192
330
A
100
AcDbEntity
  8
1
  6
solid
 62
     7
100
AcDbLine
 10
9.569094414788764
 20
-0.9346751569308359
 30
0.0
 11
9.582819904984845
 21
-0.9515020800077591
 31
0.0
  0
LINE
  5
193
330
A
100
AcDbEntity
  8
1
  6
solid
 62
     7
100
AcDbLine
 10
9.582819904984845
 20
-0.9515020800077591
 30
0.0
 11
9.607329708906412
 21
-0.9683290030846823
 31
0.0
  0
LINE
  5
194
330
A
100
AcDbEntity
  8
1
  6
solid
 62
     7
100
AcDbLine
 10
9.607329708906412
 20
-0.9683290030846823
 30
0.0
 11
9.63183951282798
 21
-0.9803482338539129
 31
0.0
  0
LINE
  5
195
330
A
100
AcDbEntity
  8
1
  6
solid
 62
     7
100
AcDbLine
 10
9.63183951282798
 20
-0.9803482338539129
 30
0.0
 11
9.650466963808373
 21
-0.9827520800077591
 31
0.0
  0
LINE
  5
196
330
A
100
AcDbEntity
  8
1
  6
solid
 62
     7
100
AcDbLine
 10
9.650466963808373
 20
-0.9827520800077591
 30
0.0
 11
9.672035591259355
 21
-0.9827520800077591
 31
0.0
  0
LINE
  5
197
330
A
100
AcDbEntity
  8
1
  6
solid
 62
     7
100
AcDbLine
 10
9.672035591259355
 20
-0.9827520800077591
 30
0.0
 11
9.693604218710333
 21
-0.9755405415462206
 31
0.0
  0
LINE
  5
198
330
A
100
AcDbEntity
  8
1
  6
solid
 62
     7
100
AcDbLine
 10
9.693604218710333
 20
-0.9755405415462206
 30
0.0
 11
9.718114022631903
 21
-0.9587136184692976
 31
0.0
  0
LINE
  5
199
330
A
100
AcDbEntity
  8
1
  6
solid
 62
     7
100
AcDbLine
 10
9.718114022631903
 20
-0.9587136184692976
 30
0.0
 11
9.742623826553472
 21
-0.9370790030846823
 31
0.0
  0
LINE
  5
19A
330
A
100
AcDbEntity
  8
1
  6
solid
 62
     7
100
AcDbLine
 10
9.742623826553472
 20
-0.9370790030846823
 30
0.0
 11
9.759290493220138
 21
-0.9106366953923746
 31
0.0
  0
LINE
  5
19B
330
A
100
AcDbEntity
  8
1
  6
solid
 62
     7
100
AcDbLine
 10
9.759290493220138
 20
-0.9106366953923746
 30
0.0
 11
9.770074806945629
 21
-0.8817905415462206
 31
0.0
  0
LINE
  5
19C
330
A
100
AcDbEntity
  8
1
  6
solid
 62
     7
100
AcDbLine
 10
9.770074806945629
 20
-0.8817905415462206
 30
0.0
 11
9.774976767729942
 21
-0.8673674646231436
 31
0.0
  0
LINE
  5
19D
330
A
100
AcDbEntity
  8
1
  6
solid
 62
     7
100
AcDbLine
 10
9.774976767729942
 20
-0.8673674646231436
 30
0.0
 11
9.780859120671118
 21
-0.8361174646231436
 31
0.0
  0
LINE
  5
19E
330
A
100
AcDbEntity
  8
1
  6
solid
 62
     7
100
AcDbLine
 10
9.780859120671118
 20
-0.8361174646231436
 30
0.0
 11
9.780859120671118
 21
-0.8096751569308359
 31
0.0
  0
LINE
  5
19F
330
A
100
AcDbEntity
  8
1
  6
solid
 62
     7
100
AcDbLine
 10
9.780859120671118
 20
-0.8096751569308359
 30
0.0
 11
9.774976767729942
 21
-0.7784251569308362
 31
0.0
  0
LINE
  5
1A0
330
A
100
AcDbEntity
  8
1
  6
solid
 62
     7
100
AcDbLine
 10
9.774976767729942
 20
-0.7784251569308362
 30
0.0
 11
9.76713363047504
 21
-0.7543866953923746
 31
0.0
  0
LINE
  5
1A1
330
A
100
AcDbEntity
  8
1
  6
solid
 62
     7
100
AcDbLine
 10
9.76713363047504
 20
-0.7543866953923746
 30
0.0
 11
9.756349316749549
 21
-0.7255405415462208
 31
0.0
  0
LINE
  5
1A2
330
A
100
AcDbEntity
  8
1
  6
solid
 62
     7
100
AcDbLine
 10
9.756349316749549
 20
-0.7255405415462208
 30
0.0
 11
9.742623826553472
 21
-0.7087136184692976
 31
0.0
  0
LINE
  5
1A3
330
A
100
AcDbEntity
  8
1
  6
solid
 62
     7
100
AcDbLine
 10
9.742623826553472
 20
-0.7087136184692976
 30
0.0
 11
9.728898336357392
 21
-0.6942905415462207
 31
0.0
  0
LINE
  5
1A4
330
A
100
AcDbEntity
  8
1
  6
solid
 62
     7
100
AcDbLine
 10
9.728898336357392
 20
-0.6942905415462207
 30
0.0
 11
9.72105519910249
 21
-0.6870790030846824
 31
0.0
  0
LINE
  5
1A5
330
A
100
AcDbEntity
  8
1
  6
solid
 62
     7
100
AcDbLine
 10
9.72105519910249
 20
-0.6870790030846824
 30
0.0
 11
9.73478068929857
 21
-0.6702520800077592
 31
0.0
  0
LINE
  5
1A6
330
A
100
AcDbEntity
  8
1
  6
solid
 62
     7
100
AcDbLine
 10
9.73478068929857
 20
-0.6702520800077592
 30
0.0
 11
9.742623826553472
 21
-0.653425156930836
 31
0.0
  0
LINE
  5
1A7
330
A
100
AcDbEntity
  8
1
  6
solid
 62
     7
100
AcDbLine
 10
9.742623826553472
 20
-0.653425156930836
 30
0.0
 11
9.748506179494647
 21
-0.6365982338539129
 31
0.0
  0
LINE
  5
1A8
330
A
100
AcDbEntity
  8
1
  6
solid
 62
     7
100
AcDbLine
 10
9.748506179494647
 20
-0.6365982338539129
 30
0.0
 11
9.751447355965236
 21
-0.6101559261616054
 31
0.0
  0
LINE
  5
1A9
330
A
100
AcDbEntity
  8
1
  6
solid
 62
     7
100
AcDbLine
 10
9.751447355965236
 20
-0.6101559261616054
 30
0.0
 11
9.751447355965236
 21
-0.590925156930836
 31
0.0
  0
LINE
  5
1AA
330
A
100
AcDbEntity
  8
1
  6
solid
 62
     7
100
AcDbLine
 10
9.751447355965236
 20
-0.590925156930836
 30
0.0
 11
9.748506179494647
 21
-0.574098233853913
 31
0.0
  0
LINE
  5
1AB
330
A
100
AcDbEntity
  8
1
  6
solid
 62
     7
100
AcDbLine
 10
9.748506179494647
 20
-0.574098233853913
 30
0.0
 11
9.742623826553472
 21
-0.5548674646231438
 31
0.0
  0
LINE
  5
1AC
330
A
100
AcDbEntity
  8
1
  6
solid
 62
     7
100
AcDbLine
 10
9.742623826553472
 20
-0.5548674646231438
 30
0.0
 11
9.73478068929857
 21
-0.5356366953923746
 31
0.0
  0
LINE
  5
1AD
330
A
100
AcDbEntity
  8
1
  6
solid
 62
     7
100
AcDbLine
 10
9.73478068929857
 20
-0.5356366953923746
 30
0.0
 11
9.726937552043668
 21
-0.5212136184692976
 31
0.0
  0
LINE
  5
1AE
330
A
100
AcDbEntity
  8
1
  6
solid
 62
     7
100
AcDbLine
 10
9.726937552043668
 20
-0.5212136184692976
 30
0.0
 11
9.713212061847588
 21
-0.5067905415462207
 31
0.0
  0
LINE
  5
1AF
330
A
100
AcDbEntity
  8
1
  6
solid
 62
     7
100
AcDbLine
 10
9.713212061847588
 20
-0.5067905415462207
 30
0.0
 11
9.702427748122099
 21
-0.4971751569308361
 31
0.0
  0
LINE
  5
1B0
330
A
100
AcDbEntity
  8
1
  6
solid
 62
     7
100
AcDbLine
 10
9.702427748122099
 20
-0.4971751569308361
 30
0.0
 11
9.688702257926021
 21
-0.4899636184692976
 31
0.0
  0
LINE
  5
1B1
330
A
100
AcDbEntity
  8
1
  6
solid
 62
     7
100
AcDbLine
 10
9.688702257926021
 20
-0.4899636184692976
 30
0.0
 11
9.669094414788766
 21
-0.4827520800077592
 31
0.0
  0
LINE
  5
1B2
330
A
100
AcDbEntity
  8
1
  6
solid
 62
     7
100
AcDbLine
 10
9.669094414788766
 20
-0.4827520800077592
 30
0.0
 11
9.647525787337784
 21
-0.4827520800077592
 31
0.0
  0
LINE
  5
1B3
330
A
100
AcDbEntity
  8
1
  6
solid
 62
     7
100
AcDbLine
 10
9.647525787337784
 20
-0.4827520800077592
 30
0.0
 11
9.623015983416216
 21
-0.4899636184692976
 31
0.0
  0
LINE
  5
1B4
330
A
100
AcDbEntity
  8
1
  6
solid
 62
     7
100
AcDbLine
 10
9.623015983416216
 20
-0.4899636184692976
 30
0.0
 11
9.601447355965236
 21
-0.5043866953923746
 31
0.0
  0
LINE
  5
1B5
330
A
100
AcDbEntity
  8
1
  6
solid
 62
     7
100
AcDbLine
 10
9.601447355965236
 20
-0.5043866953923746
 30
0.0
 11
9.587721865769157
 21
-0.5164059261616054
 31
0.0
  0
LINE
  5
1B6
330
A
100
AcDbEntity
  8
1
  6
solid
 62
     7
100
AcDbLine
 10
9.587721865769157
 20
-0.5164059261616054
 30
0.0
 11
9.576937552043666
 21
-0.5356366953923746
 31
0.0
  0
LINE
  5
1B7
330
A
100
AcDbEntity
  8
1
  6
solid
 62
     7
100
AcDbLine
 10
9.576937552043666
 20
-0.5356366953923746
 30
0.0
 11
9.569094414788764
 21
-0.5548674646231438
 31
0.0
  0
LINE
  5
1B8
330
A
100
AcDbEntity
  8
1
  6
solid
 62
     7
100
AcDbLine
 10
9.569094414788764
 20
-0.5548674646231438
 30
0.0
 11
9.56321206184759
 21
-0.5765020800077592
 31
0.0
  0
LINE
  5
1B9
330
A
100
AcDbEntity
  8
1
  6
solid
 62
     7
100
AcDbLine
 10
9.56321206184759
 20
-0.5765020800077592
 30
0.0
 11
9.560270885377001
 21
-0.590925156930836
 31
0.0
  0
LINE
  5
1BA
330
A
100
AcDbEntity
  8
1
  6
solid
 62
     7
100
AcDbLine
 10
9.560270885377001
 20
-0.590925156930836
 30
0.0
 11
9.560270885377001
 21
-0.6077520800077592
 31
0.0
  0
LINE
  5
1BB
330
A
100
AcDbEntity
  8
1
  6
solid
 62
     7
100
AcDbLine
 10
9.560270885377001
 20
-0.6077520800077592
 30
0.0
 11
9.56321206184759
 21
-0.6293866953923746
 31
0.0
  0
LINE
  5
1BC
330
A
100
AcDbEntity
  8
1
  6
solid
 62
     7
100
AcDbLine
 10
9.56321206184759
 20
-0.6293866953923746
 30
0.0
 11
9.569094414788764
 21
-0.653425156930836
 31
0.0
  0
LINE
  5
1BD
330
A
100
AcDbEntity
  8
1
  6
solid
 62
     7
100
AcDbLine
 10
9.569094414788764
 20
-0.653425156930836
 30
0.0
 11
9.576937552043666
 21
-0.6702520800077592
 31
0.0
  0
LINE
  5
1BE
330
A
100
AcDbEntity
  8
1
  6
solid
 62
     7
100
AcDbLine
 10
9.576937552043666
 20
-0.6702520800077592
 30
0.0
 11
9.584780689298568
 21
-0.6798674646231438
 31
0.0
  0
LINE
  5
1BF
330
A
100
AcDbEntity
  8
1
  6
solid
 62
     7
100
AcDbLine
 10
9.584780689298568
 20
-0.6798674646231438
 30
0.0
 11
9.590663042239746
 21
-0.6870790030846824
 31
0.0
  0
LINE
  5
1C0
330
A
100
AcDbEntity
  8
1
  6
solid
 62
     7
100
AcDbLine
 10
9.669094414788766
 20
-0.9202520800077591
 30
0.0
 11
9.688702257926021
 21
-0.9130405415462206
 31
0.0
  0
LINE
  5
1C1
330
A
100
AcDbEntity
  8
1
  6
solid
 62
     7
100
AcDbLine
 10
9.688702257926021
 20
-0.9130405415462206
 30
0.0
 11
9.702427748122099
 21
-0.9034251569308359
 31
0.0
  0
LINE
  5
1C2
330
A
100
AcDbEntity
  8
1
  6
solid
 62
     7
100
AcDbLine
 10
9.702427748122099
 20
-0.9034251569308359
 30
0.0
 11
9.715172846161316
 21
-0.8890020800077591
 31
0.0
  0
LINE
  5
1C3
330
A
100
AcDbEntity
  8
1
  6
solid
 62
     7
100
AcDbLine
 10
9.715172846161316
 20
-0.8890020800077591
 30
0.0
 11
9.726937552043668
 21
-0.8673674646231436
 31
0.0
  0
LINE
  5
1C4
330
A
100
AcDbEntity
  8
1
  6
solid
 62
     7
100
AcDbLine
 10
9.726937552043668
 20
-0.8673674646231436
 30
0.0
 11
9.731839512827981
 21
-0.8481366953923746
 31
0.0
  0
LINE
  5
1C5
330
A
100
AcDbEntity
  8
1
  6
solid
 62
     7
100
AcDbLine
 10
9.731839512827981
 20
-0.8481366953923746
 30
0.0
 11
9.73478068929857
 21
-0.8265020800077591
 31
0.0
  0
LINE
  5
1C6
330
A
100
AcDbEntity
  8
1
  6
solid
 62
     7
100
AcDbLine
 10
9.73478068929857
 20
-0.8265020800077591
 30
0.0
 11
9.73478068929857
 21
-0.8120790030846823
 31
0.0
  0
LINE
  5
1C7
330
A
100
AcDbEntity
  8
1
  6
solid
 62
     7
100
AcDbLine
 10
9.73478068929857
 20
-0.8120790030846823
 30
0.0
 11
9.726937552043668
 21
-0.7808290030846824
 31
0.0
  0
LINE
  5
1C8
330
A
100
AcDbEntity
  8
1
  6
solid
 62
     7
100
AcDbLine
 10
9.726937552043668
 20
-0.7808290030846824
 30
0.0
 11
9.718114022631903
 21
-0.7640020800077592
 31
0.0
  0
LINE
  5
1C9
330
A
100
AcDbEntity
  8
1
  6
solid
 62
     7
100
AcDbLine
 10
9.718114022631903
 20
-0.7640020800077592
 30
0.0
 11
9.707329708906414
 21
-0.7495790030846824
 31
0.0
  0
LINE
  5
1CA
330
A
100
AcDbEntity
  8
1
  6
solid
 62
     7
100
AcDbLine
 10
9.707329708906414
 20
-0.7495790030846824
 30
0.0
 11
9.693604218710333
 21
-0.7351559261616054
 31
0.0
  0
LINE
  5
1CB
330
A
100
AcDbEntity
  8
1
  6
solid
 62
     7
100
AcDbLine
 10
9.693604218710333
 20
-0.7351559261616054
 30
0.0
 11
9.682819904984844
 21
-0.730348233853913
 31
0.0
  0
LINE
  5
1CC
330
A
100
AcDbEntity
  8
1
  6
solid
 62
     7
100
AcDbLine
 10
9.682819904984844
 20
-0.730348233853913
 30
0.0
 11
9.66713363047504
 21
-0.7255405415462208
 31
0.0
  0
LINE
  5
1CD
330
A
100
AcDbEntity
  8
1
  6
solid
 62
     7
100
AcDbLine
 10
9.66713363047504
 20
-0.7255405415462208
 30
0.0
 11
9.647525787337784
 21
-0.7255405415462208
 31
0.0
  0
LINE
  5
1CE
330
A
100
AcDbEntity
  8
1
  6
solid
 62
     7
100
AcDbLine
 10
9.647525787337784
 20
-0.7255405415462208
 30
0.0
 11
9.625957159886805
 21
-0.7327520800077592
 31
0.0
  0
LINE
  5
1CF
330
A
100
AcDbEntity
  8
1
  6
solid
 62
     7
100
AcDbLine
 10
9.625957159886805
 20
-0.7327520800077592
 30
0.0
 11
9.612231669690725
 21
-0.7423674646231438
 31
0.0
  0
LINE
  5
1D0
330
A
100
AcDbEntity
  8
1
  6
solid
 62
     7
100
AcDbLine
 10
9.612231669690725
 20
-0.7423674646231438
 30
0.0
 11
9.598506179494648
 21
-0.7567905415462207
 31
0.0
  0
LINE
  5
1D1
330
A
100
AcDbEntity
  8
1
  6
solid
 62
     7
100
AcDbLine
 10
9.598506179494648
 20
-0.7567905415462207
 30
0.0
 11
9.587721865769157
 21
-0.7784251569308362
 31
0.0
  0
LINE
  5
1D2
330
A
100
AcDbEntity
  8
1
  6
solid
 62
     7
100
AcDbLine
 10
9.587721865769157
 20
-0.7784251569308362
 30
0.0
 11
9.582819904984845
 21
-0.7952520800077592
 31
0.0
  0
LINE
  5
1D3
330
A
100
AcDbEntity
  8
1
  6
solid
 62
     7
100
AcDbLine
 10
9.582819904984845
 20
-0.7952520800077592
 30
0.0
 11
9.579878728514255
 21
-0.8120790030846823
 31
0.0
  0
LINE
  5
1D4
330
A
100
AcDbEntity
  8
1
  6
solid
 62
     7
100
AcDbLine
 10
9.579878728514255
 20
-0.8120790030846823
 30
0.0
 11
9.579878728514255
 21
-0.8337136184692976
 31
0.0
  0
LINE
  5
1D5
330
A
100
AcDbEntity
  8
1
  6
solid
 62
     7
100
AcDbLine
 10
9.579878728514255
 20
-0.8337136184692976
 30
0.0
 11
9.582819904984845
 21
-0.8553482338539129
 31
0.0
  0
LINE
  5
1D6
330
A
100
AcDbEntity
  8
1
  6
solid
 62
     7
100
AcDbLine
 10
9.582819904984845
 20
-0.8553482338539129
 30
0.0
 11
9.590663042239746
 21
-0.8793866953923746
 31
0.0
  0
LINE
  5
1D7
330
A
100
AcDbEntity
  8
1
  6
solid
 62
     7
100
AcDbLine
 10
9.590663042239746
 20
-0.8793866953923746
 30
0.0
 11
9.604388532435823
 21
-0.8962136184692976
 31
0.0
  0
LINE
  5
1D8
330
A
100
AcDbEntity
  8
1
  6
solid
 62
     7
100
AcDbLine
 10
9.604388532435823
 20
-0.8962136184692976
 30
0.0
 11
9.618114022631903
 21
-0.9106366953923746
 31
0.0
  0
LINE
  5
1D9
330
A
100
AcDbEntity
  8
1
  6
solid
 62
     7
100
AcDbLine
 10
9.618114022631903
 20
-0.9106366953923746
 30
0.0
 11
9.636741473612294
 21
-0.9202520800077591
 31
0.0
  0
LINE
  5
1DA
330
A
100
AcDbEntity
  8
1
  6
solid
 62
     7
100
AcDbLine
 10
9.636741473612294
 20
-0.9202520800077591
 30
0.0
 11
9.669094414788766
 21
-0.9202520800077591
 31
0.0
  0
LINE
  5
1DB
330
A
100
AcDbEntity
  8
1
  6
solid
 62
     7
100
AcDbLine
 10
9.664192454004453
 20
-0.6630405415462208
 30
0.0
 11
9.674976767729942
 21
-0.6606366953923746
 31
0.0
  0
LINE
  5
1DC
330
A
100
AcDbEntity
  8
1
  6
solid
 62
     7
100
AcDbLine
 10
9.674976767729942
 20
-0.6606366953923746
 30
0.0
 11
9.688702257926021
 21
-0.6486174646231438
 31
0.0
  0
LINE
  5
1DD
330
A
100
AcDbEntity
  8
1
  6
solid
 62
     7
100
AcDbLine
 10
9.688702257926021
 20
-0.6486174646231438
 30
0.0
 11
9.696545395180923
 21
-0.6365982338539129
 31
0.0
  0
LINE
  5
1DE
330
A
100
AcDbEntity
  8
1
  6
solid
 62
     7
100
AcDbLine
 10
9.696545395180923
 20
-0.6365982338539129
 30
0.0
 11
9.702427748122099
 21
-0.622175156930836
 31
0.0
  0
LINE
  5
1DF
330
A
100
AcDbEntity
  8
1
  6
solid
 62
     7
100
AcDbLine
 10
9.702427748122099
 20
-0.622175156930836
 30
0.0
 11
9.704388532435824
 21
-0.6077520800077592
 31
0.0
  0
LINE
  5
1E0
330
A
100
AcDbEntity
  8
1
  6
solid
 62
     7
100
AcDbLine
 10
9.704388532435824
 20
-0.6077520800077592
 30
0.0
 11
9.704388532435824
 21
-0.5981366953923746
 31
0.0
  0
LINE
  5
1E1
330
A
100
AcDbEntity
  8
1
  6
solid
 62
     7
100
AcDbLine
 10
9.704388532435824
 20
-0.5981366953923746
 30
0.0
 11
9.699486571651512
 21
-0.5765020800077592
 31
0.0
  0
LINE
  5
1E2
330
A
100
AcDbEntity
  8
1
  6
solid
 62
     7
100
AcDbLine
 10
9.699486571651512
 20
-0.5765020800077592
 30
0.0
 11
9.69164343439661
 21
-0.5620790030846824
 31
0.0
  0
LINE
  5
1E3
330
A
100
AcDbEntity
  8
1
  6
solid
 62
     7
100
AcDbLine
 10
9.69164343439661
 20
-0.5620790030846824
 30
0.0
 11
9.682819904984844
 21
-0.5524636184692976
 31
0.0
  0
LINE
  5
1E4
330
A
100
AcDbEntity
  8
1
  6
solid
 62
     7
100
AcDbLine
 10
9.682819904984844
 20
-0.5524636184692976
 30
0.0
 11
9.672035591259355
 21
-0.5452520800077592
 31
0.0
  0
LINE
  5
1E5
330
A
100
AcDbEntity
  8
1
  6
solid
 62
     7
100
AcDbLine
 10
9.672035591259355
 20
-0.5452520800077592
 30
0.0
 11
9.661251277533864
 21
-0.5428482338539129
 31
0.0
  0
LINE
  5
1E6
330
A
100
AcDbEntity
  8
1
  6
solid
 62
     7
100
AcDbLine
 10
9.661251277533864
 20
-0.5428482338539129
 30
0.0
 11
9.653408140278962
 21
-0.5428482338539129
 31
0.0
  0
LINE
  5
1E7
330
A
100
AcDbEntity
  8
1
  6
solid
 62
     7
100
AcDbLine
 10
9.653408140278962
 20
-0.5428482338539129
 30
0.0
 11
9.639682650082882
 21
-0.5452520800077592
 31
0.0
  0
LINE
  5
1E8
330
A
100
AcDbEntity
  8
1
  6
solid
 62
     7
100
AcDbLine
 10
9.639682650082882
 20
-0.5452520800077592
 30
0.0
 11
9.628898336357393
 21
-0.5524636184692976
 31
0.0
  0
LINE
  5
1E9
330
A
100
AcDbEntity
  8
1
  6
solid
 62
     7
100
AcDbLine
 10
9.628898336357393
 20
-0.5524636184692976
 30
0.0
 11
9.620074806945627
 21
-0.5620790030846824
 31
0.0
  0
LINE
  5
1EA
330
A
100
AcDbEntity
  8
1
  6
solid
 62
     7
100
AcDbLine
 10
9.620074806945627
 20
-0.5620790030846824
 30
0.0
 11
9.612231669690725
 21
-0.5765020800077592
 31
0.0
  0
LINE
  5
1EB
330
A
100
AcDbEntity
  8
1
  6
solid
 62
     7
100
AcDbLine
 10
9.612231669690725
 20
-0.5765020800077592
 30
0.0
 11
9.609290493220138
 21
-0.590925156930836
 31
0.0
  0
LINE
  5
1EC
330
A
100
AcDbEntity
  8
1
  6
solid
 62
     7
100
AcDbLine
 10
9.609290493220138
 20
-0.590925156930836
 30
0.0
 11
9.607329708906412
 21
-0.6005405415462207
 31
0.0
  0
LINE
  5
1ED
330
A
100
AcDbEntity
  8
1
  6
solid
 62
     7
100
AcDbLine
 10
9.607329708906412
 20
-0.6005405415462207
 30
0.0
 11
9.607329708906412
 21
-0.6077520800077592
 31
0.0
  0
LINE
  5
1EE
330
A
100
AcDbEntity
  8
1
  6
solid
 62
     7
100
AcDbLine
 10
9.607329708906412
 20
-0.6077520800077592
 30
0.0
 11
9.612231669690725
 21
-0.6293866953923746
 31
0.0
  0
LINE
  5
1EF
330
A
100
AcDbEntity
  8
1
  6
solid
 62
     7
100
AcDbLine
 10
9.612231669690725
 20
-0.6293866953923746
 30
0.0
 11
9.618114022631903
 21
-0.6390020800077592
 31
0.0
  0
LINE
  5
1F0
330
A
100
AcDbEntity
  8
1
  6
solid
 62
     7
100
AcDbLine
 10
9.618114022631903
 20
-0.6390020800077592
 30
0.0
 11
9.625957159886805
 21
-0.653425156930836
 31
0.0
  0
LINE
  5
1F1
330
A
100
AcDbEntity
  8
1
  6
solid
 62
     7
100
AcDbLine
 10
9.625957159886805
 20
-0.653425156930836
 30
0.0
 11
9.636741473612294
 21
-0.6606366953923746
 31
0.0
  0
LINE
  5
1F2
330
A
100
AcDbEntity
  8
1
  6
solid
 62
     7
100
AcDbLine
 10
9.636741473612294
 20
-0.6606366953923746
 30
0.0
 11
9.650466963808373
 21
-0.6630405415462208
 31
0.0
  0
LINE
  5
1F3
330
A
100
AcDbEntity
  8
1
  6
solid
 62
     7
100
AcDbLine
 10
9.650466963808373
 20
-0.6630405415462208
 30
0.0
 11
9.664192454004453
 21
-0.6630405415462208
 31
0.0
  0
LINE
  5
1F4
330
A
100
AcDbEntity
  8
1
  6
solid
 62
     7
100
AcDbLine
 10
9.918114022631902
 20
-0.4827520800077592
 30
0.0
 11
9.918114022631902
 21
-0.5548674646231438
 31
0.0
  0
LINE
  5
1F5
330
A
100
AcDbEntity
  8
1
  6
solid
 62
     7
100
AcDbLine
 10
9.918114022631902
 20
-0.5548674646231438
 30
0.0
 11
9.930859120671119
 21
-0.5548674646231438
 31
0.0
  0
LINE
  5
1F6
330
A
100
AcDbEntity
  8
1
  6
solid
 62
     7
100
AcDbLine
 10
9.930859120671119
 20
-0.5548674646231438
 30
0.0
 11
9.930859120671119
 21
-0.6317905415462207
 31
0.0
  0
LINE
  5
1F7
330
A
100
AcDbEntity
  8
1
  6
solid
 62
     7
100
AcDbLine
 10
9.930859120671119
 20
-0.6317905415462207
 30
0.0
 11
9.980859120671119
 21
-0.6317905415462207
 31
0.0
  0
LINE
  5
1F8
330
A
100
AcDbEntity
  8
1
  6
solid
 62
     7
100
AcDbLine
 10
9.980859120671119
 20
-0.6317905415462207
 30
0.0
 11
9.980859120671119
 21
-0.5548674646231438
 31
0.0
  0
LINE
  5
1F9
330
A
100
AcDbEntity
  8
1
  6
solid
 62
     7
100
AcDbLine
 10
9.980859120671119
 20
-0.5548674646231438
 30
0.0
 11
9.993604218710334
 21
-0.5548674646231438
 31
0.0
  0
LINE
  5
1FA
330
A
100
AcDbEntity
  8
1
  6
solid
 62
     7
100
AcDbLine
 10
9.993604218710334
 20
-0.5548674646231438
 30
0.0
 11
9.993604218710334
 21
-0.4827520800077592
 31
0.0
  0
LINE
  5
1FB
330
A
100
AcDbEntity
  8
1
  6
solid
 62
     7
100
AcDbLine
 10
9.993604218710334
 20
-0.4827520800077592
 30
0.0
 11
9.918114022631902
 21
-0.4827520800077592
 31
0.0
  0
LINE
  5
1FD
330
A
100
AcDbEntity
  8
0
  6
solid
 62
     7
100
AcDbLine
 10
6.3579460451291
 20
2.670900932766821
 30
0.0
 11
6.3579460451291
 21
2.983400932766821
 31
0.0
  0
LINE
  5
1FE
330
A
100
AcDbEntity
  8
0
  6
solid
 62
     7
100
AcDbLine
 10
6.3579460451291
 20
2.983400932766821
 30
0.0
 11
6.416822856723303
 21
2.983400932766821
 31
0.0
  0
LINE
  5
1FF
330
A
100
AcDbEntity
  8
0
  6
solid
 62
     7
100
AcDbLine
 10
6.416822856723303
 20
2.983400932766821
 30
0.0
 11
6.416822856723303
 21
2.725248758853778
 31
0.0
  0
LINE
  5
200
330
A
100
AcDbEntity
  8
0
  6
solid
 62
     7
100
AcDbLine
 10
6.416822856723303
 20
2.725248758853778
 30
0.0
 11
6.579866334984172
 21
2.725248758853778
 31
0.0
  0
LINE
  5
201
330
A
100
AcDbEntity
  8
0
  6
solid
 62
     7
100
AcDbLine
 10
6.579866334984172
 20
2.725248758853778
 30
0.0
 11
6.579866334984172
 21
2.670900932766821
 31
0.0
  0
LINE
  5
202
330
A
100
AcDbEntity
  8
0
  6
solid
 62
     7
100
AcDbLine
 10
6.3579460451291
 20
2.670900932766821
 30
0.0
 11
6.579866334984172
 21
2.670900932766821
 31
0.0
  0
LINE
  5
203
330
A
100
AcDbEntity
  8
0
  6
solid
 62
     7
100
AcDbLine
 10
6.791215900201565
 20
2.670900932766821
 30
0.0
 11
6.732339088607361
 21
2.670900932766821
 31
0.0
  0
LINE
  5
204
330
A
100
AcDbEntity
  8
0
  6
solid
 62
     7
100
AcDbLine
 10
6.732339088607361
 20
2.670900932766821
 30
0.0
 11
6.732339088607361
 21
2.895371947259575
 31
0.0
  0
SPLINE
  5
205
330
A
100
AcDbEntity
  8
0
  6
solid
 62
     7
100
AcDbSpline
210
0.0
220
0.0
230
1.0
 70
     8
 71
     2
 72
     6
 73
     3
 74
     0
 42
0.0000000001
 43
0.0000000001
 40
0.0
 40
0.0
 40
0.0
 40
1.0
 40
1.0
 40
1.0
 10
6.732339088607361
 20
2.895371947259575
 30
0.0
 10
6.6984260451291
 20
2.862648758853778
 30
0.0
 10
6.655346334984173
 20
2.84753136754943
 30
0.0
  0
LINE
  5
206
330
A
100
AcDbEntity
  8
0
  6
solid
 62
     7
100
AcDbLine
 10
6.655346334984173
 20
2.84753136754943
 30
0.0
 11
6.655346334984173
 21
2.906408179143633
 31
0.0
  0
SPLINE
  5
207
330
A
100
AcDbEntity
  8
0
  6
solid
 62
     7
100
AcDbSpline
210
0.0
220
0.0
230
1.0
 70
     8
 71
     2
 72
     7
 73
     4
 74
     0
 42
0.0000000001
 43
0.0000000001
 40
0.0
 40
0.0
 40
0.0
 40
1.0
 40
2.0
 40
2.0
 40
2.0
 10
6.655346334984173
 20
2.906408179143633
 30
0.0
 10
6.678362277013158
 20
2.912884990737836
 30
0.0
 10
6.732756479911709
 20
2.954248758853778
 30
0.0
 10
6.742510103100115
 20
2.983400932766821
 30
0.0
  0
LINE
  5
208
330
A
100
AcDbEntity
  8
0
  6
solid
 62
     7
100
AcDbLine
 10
6.742510103100115
 20
2.983400932766821
 30
0.0
 11
6.791215900201565
 21
2.983400932766821
 31
0.0
  0
LINE
  5
209
330
A
100
AcDbEntity
  8
0
  6
solid
 62
     7
100
AcDbLine
 10
6.791215900201565
 20
2.670900932766821
 30
0.0
 11
6.791215900201565
 21
2.983400932766821
 31
0.0
  0
LINE
  5
20A
330
A
100
AcDbEntity
  8
0
  6
solid
 62
     7
100
AcDbLine
 10
7.007094450926202
 20
2.670900932766821
 30
0.0
 11
6.948217639331999
 21
2.670900932766821
 31
0.0
  0
LINE
  5
20B
330
A
100
AcDbEntity
  8
0
  6
solid
 62
     7
100
AcDbLine
 10
6.948217639331999
 20
2.670900932766821
 30
0.0
 11
6.948217639331999
 21
2.895371947259575
 31
0.0
  0
SPLINE
  5
20C
330
A
100
AcDbEntity
  8
0
  6
solid
 62
     7
100
AcDbSpline
210
0.0
220
0.0
230
1.0
 70
     8
 71
     2
 72
     6
 73
     3
 74
     0
 42
0.0000000001
 43
0.0000000001
 40
0.0
 40
0.0
 40
0.0
 40
1.0
 40
1.0
 40
1.0
 10
6.948217639331999
 20
2.895371947259575
 30
0.0
 10
6.914304595853738
 20
2.862648758853778
 30
0.0
 10
6.87122488570881
 20
2.84753136754943
 30
0.0
  0
LINE
  5
20D
330
A
100
AcDbEntity
  8
0
  6
solid
 62
     7
100
AcDbLine
 10
6.87122488570881
 20
2.84753136754943
 30
0.0
 11
6.87122488570881
 21
2.906408179143633
 31
0.0
  0
SPLINE
  5
20E
330
A
100
AcDbEntity
  8
0
  6
solid
 62
     7
100
AcDbSpline
210
0.0
220
0.0
230
1.0
 70
     8
 71
     2
 72
     7
 73
     4
 74
     0
 42
0.0000000001
 43
0.0000000001
 40
0.0
 40
0.0
 40
0.0
 40
1.0
 40
2.0
 40
2.0
 40
2.0
 10
6.87122488570881
 20
2.906408179143633
 30
0.0
 10
6.894240827737796
 20
2.912884990737836
 30
0.0
 10
6.948635030636347
 20
2.954248758853778
 30
0.0
 10
6.958388653824752
 20
2.983400932766821
 30
0.0
  0
LINE
  5
20F
330
A
100
AcDbEntity
  8
0
  6
solid
 62
     7
100
AcDbLine
 10
6.958388653824752
 20
2.983400932766821
 30
0.0
 11
7.007094450926202
 21
2.983400932766821
 31
0.0
  0
LINE
  5
210
330
A
100
AcDbEntity
  8
0
  6
solid
 62
     7
100
AcDbLine
 10
7.007094450926202
 20
2.670900932766821
 30
0.0
 11
7.007094450926202
 21
2.983400932766821
 31
0.0
  0
LINE
  5
211
330
A
100
AcDbEntity
  8
0
  6
solid
 62
     7
100
AcDbLine
 10
7.091632421940694
 20
2.758296584940734
 30
0.0
 11
7.150509233534897
 21
2.766009628418995
 31
0.0
  0
SPLINE
  5
212
330
A
100
AcDbEntity
  8
0
  6
solid
 62
     7
100
AcDbSpline
210
0.0
220
0.0
230
1.0
 70
     8
 71
     2
 72
     7
 73
     4
 74
     0
 42
0.0000000001
 43
0.0000000001
 40
0.0
 40
0.0
 40
0.0
 40
1.0
 40
2.0
 40
2.0
 40
2.0
 10
7.150509233534897
 20
2.766009628418995
 30
0.0
 10
7.152271552375477
 20
2.743782092187111
 30
0.0
 10
7.175612132085622
 20
2.720719773346531
 30
0.0
 10
7.192893291505912
 20
2.720719773346531
 30
0.0
  0
SPLINE
  5
213
330
A
100
AcDbEntity
  8
0
  6
solid
 62
     7
100
AcDbSpline
210
0.0
220
0.0
230
1.0
 70
     8
 71
     2
 72
     7
 73
     4
 74
     0
 42
0.0000000001
 43
0.0000000001
 40
0.0
 40
0.0
 40
0.0
 40
1.0
 40
2.0
 40
2.0
 40
2.0
 10
7.192893291505912
 20
2.720719773346531
 30
0.0
 10
7.210962856723303
 20
2.720719773346531
 30
0.0
 10
7.236559958172578
 20
2.745034266100154
 30
0.0
 10
7.236559958172578
 20
2.766890787839285
 30
0.0
  0
SPLINE
  5
214
330
A
100
AcDbEntity
  8
0
  6
solid
 62
     7
100
AcDbSpline
210
0.0
220
0.0
230
1.0
 70
     8
 71
     2
 72
     7
 73
     4
 74
     0
 42
0.0000000001
 43
0.0000000001
 40
0.0
 40
0.0
 40
0.0
 40
1.0
 40
2.0
 40
2.0
 40
2.0
 10
7.236559958172578
 20
2.766890787839285
 30
0.0
 10
7.236559958172578
 20
2.786398034216096
 30
0.0
 10
7.214193291505911
 20
2.811299483491459
 30
0.0
 10
7.197468653824752
 20
2.811299483491459
 30
0.0
  0
SPLINE
  5
215
330
A
100
AcDbEntity
  8
0
  6
solid
 62
     7
100
AcDbSpline
210
0.0
220
0.0
230
1.0
 70
     8
 71
     2
 72
     6
 73
     3
 74
     0
 42
0.0000000001
 43
0.0000000001
 40
0.0
 40
0.0
 40
0.0
 40
1.0
 40
1.0
 40
1.0
 10
7.197468653824752
 20
2.811299483491459
 30
0.0
 10
7.187436769766781
 20
2.811299483491459
 30
0.0
 10
7.173154161071129
 20
2.806816874795807
 30
0.0
  0
LINE
  5
216
330
A
100
AcDbEntity
  8
0
  6
solid
 62
     7
100
AcDbLine
 10
7.173154161071129
 20
2.806816874795807
 30
0.0
 11
7.178517929187071
 21
2.856589338563923
 31
0.0
  0
SPLINE
  5
217
330
A
100
AcDbEntity
  8
0
  6
solid
 62
     7
100
AcDbSpline
210
0.0
220
0.0
230
1.0
 70
     8
 71
     2
 72
     7
 73
     4
 74
     0
 42
0.0000000001
 43
0.0000000001
 40
0.0
 40
0.0
 40
0.0
 40
1.0
 40
2.0
 40
2.0
 40
2.0
 10
7.178517929187071
 20
2.856589338563923
 30
0.0
 10
7.200374450926202
 20
2.854611077694357
 30
0.0
 10
7.222973001650839
 20
2.876653106679865
 30
0.0
 10
7.222973001650839
 20
2.894629918274068
 30
0.0
  0
SPLINE
  5
218
330
A
100
AcDbEntity
  8
0
  6
solid
 62
     7
100
AcDbSpline
210
0.0
220
0.0
230
1.0
 70
     8
 71
     2
 72
     7
 73
     4
 74
     0
 42
0.0000000001
 43
0.0000000001
 40
0.0
 40
0.0
 40
0.0
 40
1.0
 40
2.0
 40
2.0
 40
2.0
 10
7.222973001650839
 20
2.894629918274068
 30
0.0
 10
7.222973001650839
 20
2.909329918274067
 30
0.0
 10
7.205413581360984
 20
2.929053106679864
 30
0.0
 10
7.191316479911709
 20
2.929053106679864
 30
0.0
  0
SPLINE
  5
219
330
A
100
AcDbEntity
  8
0
  6
solid
 62
     7
100
AcDbSpline
210
0.0
220
0.0
230
1.0
 70
     8
 71
     2
 72
     7
 73
     4
 74
     0
 42
0.0000000001
 43
0.0000000001
 40
0.0
 40
0.0
 40
0.0
 40
1.0
 40
2.0
 40
2.0
 40
2.0
 10
7.191316479911709
 20
2.929053106679864
 30
0.0
 10
7.175844016143592
 20
2.929053106679864
 30
0.0
 10
7.156475900201564
 20
2.907613976245082
 30
0.0
 10
7.155038219042143
 20
2.888292237114647
 30
0.0
  0
LINE
  5
21A
330
A
100
AcDbEntity
  8
0
  6
solid
 62
     7
100
AcDbLine
 10
7.155038219042143
 20
2.888292237114647
 30
0.0
 11
7.09616140744794
 21
2.897396584940734
 31
0.0
  0
SPLINE
  5
21B
330
A
100
AcDbEntity
  8
0
  6
solid
 62
     7
100
AcDbSpline
210
0.0
220
0.0
230
1.0
 70
     8
 71
     2
 72
     8
 73
     5
 74
     0
 42
0.0000000001
 43
0.0000000001
 40
0.0
 40
0.0
 40
0.0
 40
1.0
 40
2.0
 40
3.0
 40
3.0
 40
3.0
 10
7.09616140744794
 20
2.897396584940734
 30
0.0
 10
7.101432421940694
 20
2.926332816824792
 30
0.0
 10
7.124170103100114
 20
2.96219368639001
 30
0.0
 10
7.164977349476926
 20
2.983400932766821
 30
0.0
 10
7.189384595853738
 20
2.983400932766821
 30
0.0
  0
SPLINE
  5
21C
330
A
100
AcDbEntity
  8
0
  6
solid
 62
     7
100
AcDbSpline
210
0.0
220
0.0
230
1.0
 70
     8
 71
     2
 72
     6
 73
     3
 74
     0
 42
0.0000000001
 43
0.0000000001
 40
0.0
 40
0.0
 40
0.0
 40
1.0
 40
1.0
 40
1.0
 10
7.189384595853738
 20
2.983400932766821
 30
0.0
 10
7.233422277013158
 20
2.983400932766821
 30
0.0
 10
7.259900537882723
 20
2.953645860303053
 30
0.0
  0
SPLINE
  5
21D
330
A
100
AcDbEntity
  8
0
  6
solid
 62
     7
100
AcDbSpline
210
0.0
220
0.0
230
1.0
 70
     8
 71
     2
 72
     6
 73
     3
 74
     0
 42
0.0000000001
 43
0.0000000001
 40
0.0
 40
0.0
 40
0.0
 40
1.0
 40
1.0
 40
1.0
 10
7.259900537882723
 20
2.953645860303053
 30
0.0
 10
7.281849813245042
 20
2.930398034216096
 30
0.0
 10
7.281849813245042
 20
2.900040063201604
 30
0.0
  0
SPLINE
  5
21E
330
A
100
AcDbEntity
  8
0
  6
solid
 62
     7
100
AcDbSpline
210
0.0
220
0.0
230
1.0
 70
     8
 71
     2
 72
     6
 73
     3
 74
     0
 42
0.0000000001
 43
0.0000000001
 40
0.0
 40
0.0
 40
0.0
 40
1.0
 40
1.0
 40
1.0
 10
7.281849813245042
 20
2.900040063201604
 30
0.0
 10
7.281849813245042
 20
2.85844441102769
 30
0.0
 10
7.23734836396968
 20
2.834222671897256
 30
0.0
  0
SPLINE
  5
21F
330
A
100
AcDbEntity
  8
0
  6
solid
 62
     7
100
AcDbSpline
210
0.0
220
0.0
230
1.0
 70
     8
 71
     2
 72
     7
 73
     4
 74
     0
 42
0.0000000001
 43
0.0000000001
 40
0.0
 40
0.0
 40
0.0
 40
1.0
 40
2.0
 40
2.0
 40
2.0
 10
7.23734836396968
 20
2.834222671897256
 30
0.0
 10
7.263919378462433
 20
2.827437164650879
 30
0.0
 10
7.295436769766781
 20
2.789489338563923
 30
0.0
 10
7.295436769766781
 20
2.762129918274068
 30
0.0
  0
SPLINE
  5
220
330
A
100
AcDbEntity
  8
0
  6
solid
 62
     7
100
AcDbSpline
210
0.0
220
0.0
230
1.0
 70
     8
 71
     2
 72
     7
 73
     4
 74
     0
 42
0.0000000001
 43
0.0000000001
 40
0.0
 40
0.0
 40
0.0
 40
1.0
 40
2.0
 40
2.0
 40
2.0
 10
7.295436769766781
 20
2.762129918274068
 30
0.0
 10
7.295436769766781
 20
2.721925570447981
 30
0.0
 10
7.234906334984173
 20
2.666371947259575
 30
0.0
 10
7.192058508897216
 20
2.666371947259575
 30
0.0
  0
SPLINE
  5
221
330
A
100
AcDbEntity
  8
0
  6
solid
 62
     7
100
AcDbSpline
210
0.0
220
0.0
230
1.0
 70
     8
 71
     2
 72
     7
 73
     4
 74
     0
 42
0.0000000001
 43
0.0000000001
 40
0.0
 40
0.0
 40
0.0
 40
1.0
 40
2.0
 40
2.0
 40
2.0
 10
7.192058508897216
 20
2.666371947259575
 30
0.0
 10
7.150741117592868
 20
2.666371947259575
 30
0.0
 10
7.094507784259535
 20
2.717118324071169
 30
0.0
 10
7.091632421940694
 20
2.758296584940734
 30
0.0
  0
VIEWPORT
  5
23F
330
B
100
AcDbEntity
 67
     1
  8
0
  6
Continuous
370
     0
100
AcDbViewport
 10
5.169387968333035
 20
3.968749971919159
 30
0.0
 40
16.99659283974028
 41
8.992999745766949
 68
     1
 69
     1
 12
5.169387968333035
 22
3.968749971919159
 13
0.0
 23
0.0
 14
0.5
 24
0.5
 15
0.5
 25
0.5
 16
0.0
 26
0.0
 36
1.0
 17
0.0
 27
0.0
 37
0.0
 42
50.0
 43
0.0
 44
0.0
 45
8.992999745766949
 50
0.0
 51
0.0
 72
   100
 90
   819232
  1

281
     0
 71
     1
 74
     0
110
0.0
120
0.0
130
0.0
111
1.0
121
0.0
131
0.0
112
0.0
122
1.0
132
0.0
 79
     0
146
0.0
170
     0
 61
     5
348
22D
292
     1
282
     1
141
0.0
142
0.0
 63
   250
421
  3355443
  0
VIEWPORT
  5
242
330
B
100
AcDbEntity
 67
     1
  8
0
  6
Continuous
370
     0
100
AcDbViewport
 10
5.169387971421727
 20
4.004016646334992
 30
0.0
 40
10.44858045147579
 41
8.023166451358036
 68
     2
 69
     2
 12
7.883928382643197
 22
2.389535445797263
 13
0.0
 23
0.0
 14
0.5
 24
0.5
 15
0.5
 25
0.5
 16
0.0
 26
0.0
 36
1.0
 17
0.0
 27
0.0
 37
0.0
 42
50.0
 43
0.0
 44
0.0
 45
15.56367708318567
 50
0.0
 51
0.0
 72
   100
 90
   819232
  1

281
     0
 71
     1
 74
     0
110
0.0
120
0.0
130
0.0
111
1.0
121
0.0
131
0.0
112
0.0
122
1.0
132
0.0
 79
     0
146
0.0
170
     0
 61
     5
348
22D
292
     1
282
     1
141
0.0
142
0.0
 63
   250
421
  3355443
  0
ENDSEC
  0
SECTION
  2
OBJECTS
  0
DICTIONARY
  5
19
330
0
100
AcDbDictionary
281
     1
  3
ACAD_COLOR
350
238
  3
ACAD_GROUP
350
1A
  3
ACAD_LAYOUT
350
1E
  3
ACAD_MATERIAL
350
223
  3
ACAD_MLEADERSTYLE
350
268
  3
ACAD_MLINESTYLE
350
1B
  3
ACAD_PLOTSETTINGS
350
22
  3
ACAD_PLOTSTYLENAME
350
1F
  3
ACAD_SCALELIST
350
246
  3
ACAD_TABLESTYLE
350
239
  3
ACAD_VISUALSTYLE
350
227
  3
ACAD_WIPEOUT_VARS
350
23
  3
ACDB_RECOMPOSE_DATA
350
299
  3
AcDbVariableDictionary
350
243
  0
DICTIONARY
  5
271
330
14
100
AcDbDictionary
280
     1
281
     1
  3
ADSK_XREC_LAYER_RECONCILED
360
272
  0
DICTIONARY
  5
273
330
27
100
AcDbDictionary
280
     1
281
     1
  3
ADSK_XREC_LAYER_RECONCILED
360
274
  0
DICTIONARY
  5
275
330
1FC
100
AcDbDictionary
280
     1
281
     1
  3
ADSK_XREC_LAYER_RECONCILED
360
276
  0
DICTIONARY
  5
238
102
{ACAD_REACTORS
330
19
102
}
330
19
100
AcDbDictionary
281
     1
  0
DICTIONARY
  5
1A
102
{ACAD_REACTORS
330
19
102
}
330
19
100
AcDbDictionary
281
     1
  0
DICTIONARY
  5
1E
102
{ACAD_REACTORS
330
19
102
}
330
19
100
AcDbDictionary
281
     1
  3
Layout1
350
21
  3
Model
350
20
  0
DICTIONARY
  5
223
102
{ACAD_REACTORS
330
19
102
}
330
19
100
AcDbDictionary
281
     1
  3
ByBlock
350
225
  3
ByLayer
350
224
  3
Global
350
226
  0
DICTIONARY
  5
268
102
{ACAD_REACTORS
330
19
102
}
330
19
100
AcDbDictionary
281
     1
  3
Standard
350
269
  0
DICTIONARY
  5
1B
102
{ACAD_REACTORS
330
19
102
}
330
19
100
AcDbDictionary
281
     1
  3
Standard
350
1C
  0
DICTIONARY
  5
22
102
{ACAD_REACTORS
330
19
102
}
330
19
100
AcDbDictionary
281
     1
  0
ACDBDICTIONARYWDFLT
  5
1F
102
{ACAD_REACTORS
330
19
102
}
330
19
100
AcDbDictionary
281
     1
  3
Normal
350
1D
100
AcDbDictionaryWithDefault
340
1D
  0
DICTIONARY
  5
246
102
{ACAD_REACTORS
330
19
102
}
330
19
100
AcDbDictionary
281
     1
  3
A0
350
247
  3
A1
350
248
  3
A2
350
249
  3
A3
350
24A
  3
A4
350
24B
  3
A5
350
24C
  3
A6
350
24D
  3
A7
350
24E
  3
A8
350
24F
  3
A9
350
250
  3
B0
350
251
  3
B1
350
252
  3
B2
350
253
  3
B3
350
254
  3
B4
350
255
  3
B5
350
256
  3
B6
350
257
  3
B7
350
258
  3
B8
350
259
  3
B9
350
25A
  3
C0
350
25B
  3
C1
350
25C
  3
C2
350
25D
  3
C3
350
25E
  3
C4
350
25F
  3
C5
350
260
  3
C6
350
261
  3
C7
350
262
  3
C8
350
263
  3
C9
350
264
  3
D0
350
265
  3
D1
350
266
  3
D2
350
267
  0
DICTIONARY
  5
239
102
{ACAD_REACTORS
330
19
102
}
330
19
100
AcDbDictionary
281
     1
  3
Standard
350
23A
  0
DICTIONARY
  5
227
102
{ACAD_REACTORS
330
19
102
}
330
19
100
AcDbDictionary
281
     1
  3
2dWireframe
350
22D
  3
3D Hidden
350
22F
  3
3dWireframe
350
22E
  3
Basic
350
22C
  3
Brighten
350
233
  3
ColorChange
350
237
  3
Conceptual
350
230
  3
Dim
350
232
  3
Facepattern
350
236
  3
Flat
350
228
  3
FlatWithEdges
350
229
  3
Gouraud
350
22A
  3
GouraudWithEdges
350
22B
  3
Linepattern
350
235
  3
Realistic
350
231
  3
Thicken
350
234
  0
WIPEOUTVARIABLES
  5
23
330
19
100
AcDbWipeoutVariables
 70
     1
  0
XRECORD
  5
299
102
{ACAD_REACTORS
330
19
102
}
330
19
100
AcDbXrecord
280
     1
 90
        1
330
23A
  0
DICTIONARY
  5
243
102
{ACAD_REACTORS
330
19
102
}
330
19
100
AcDbDictionary
281
     1
  3
CANNOSCALE
350
293
  3
CMLEADERSTYLE
350
291
  3
CTABLESTYLE
350
244
  3
LAYEREVAL
350
295
  3
LAYERNOTIFY
350
296
  3
LIGHTINGUNITS
350
294
  3
MSLTSCALE
350
292
  0
XRECORD
  5
272
102
{ACAD_REACTORS
330
271
102
}
330
271
100
AcDbXrecord
280
     1
290
     1
  0
XRECORD
  5
274
102
{ACAD_REACTORS
330
273
102
}
330
273
100
AcDbXrecord
280
     1
290
     1
  0
XRECORD
  5
276
102
{ACAD_REACTORS
330
275
102
}
330
275
100
AcDbXrecord
280
     1
290
     1
  0
LAYOUT
  5
21
102
{ACAD_REACTORS
330
1E
102
}
330
1E
100
AcDbPlotSettings
  1

  2
Foxit PDF Printer
  4
Letter
  6

 40
3.174999952316284
 41
3.174999952316284
 42
3.17498779296875
 43
3.175003051757812
 44
279.3999938964844
 45
215.8999938964844
 46
31.47715384821894
 47
24.12875752349356
 48
0.0
 49
0.0
140
0.0
141
0.0
142
1.0
143
1.0
 70
     4
 72
     0
 73
     0
 74
     1
  7

 75
    16
147
1.0
 76
     1
 77
     2
 78
   300
148
-26.25461124795212
149
-20.16000981431432
100
AcDbLayout
  1
Layout1
 70
     0
 71
     1
 10
-0.3306119115190196
 20
-0.2812499079328949
 11
10.66938784818509
 21
8.218749851771214
 12
0.0
 22
0.0
 32
0.0
 14
-0.0549022543161684
 24
-0.0075665793440258
 34
-0.0015258207003583
 15
10.39367819715962
 25
8.015599872014011
 35
0.0000000349246037
146
0.0
 13
0.0
 23
0.0
 33
0.0
 16
1.0
 26
0.0
 36
0.0
 17
0.0
 27
1.0
 37
0.0
 76
     0
330
B
331
23F
1001
ACAD_PSEXT
1000
Foxit PDF Printer
1000
Foxit PDF Printer Driver
1000
FOXIT_PDF
1000

1070
     0
  0
LAYOUT
  5
20
102
{ACAD_REACTORS
330
1E
102
}
330
1E
100
AcDbPlotSettings
  1

  2

  4

  6

 40
0.0
 41
0.0
 42
0.0
 43
0.0
 44
0.0
 45
0.0
 46
0.0
 47
0.0
 48
0.0
 49
0.0
140
0.0
141
0.0
142
1.0
143
1.0
 70
  1024
 72
     0
 73
     0
 74
     0
  7

 75
     0
147
1.0
 76
     0
 77
     2
 78
   300
148
0.0
149
0.0
100
AcDbLayout
  1
Model
 70
     0
 71
     0
 10
0.0
 20
0.0
 11
0.0
 21
0.0
 12
0.0
 22
0.0
 32
0.0
 14
0.0
 24
0.0
 34
0.0
 15
0.0
 25
0.0
 35
0.0
146
0.0
 13
0.0
 23
0.0
 33
0.0
 16
0.0
 26
0.0
 36
0.0
 17
0.0
 27
0.0
 37
0.0
 76
     0
330
A
  0
MATERIAL
  5
225
102
{ACAD_REACTORS
330
223
102
}
330
223
100
AcDbMaterial
  1
ByBlock
 73
     1
 78
     1
172
     1
176
     1
270
     1
274
     1
 94
       63
  0
MATERIAL
  5
224
102
{ACAD_REACTORS
330
223
102
}
330
223
100
AcDbMaterial
  1
ByLayer
 73
     1
 78
     1
172
     1
176
     1
270
     1
274
     1
 94
       63
  0
MATERIAL
  5
226
102
{ACAD_REACTORS
330
223
102
}
330
223
100
AcDbMaterial
  1
Global
 73
     1
 78
     1
172
     1
176
     1
270
     1
274
     1
 94
       63
  0
MLEADERSTYLE
  5
269
102
{ACAD_REACTORS
330
268
102
}
330
268
100
AcDbMLeaderStyle
170
     2
171
     1
172
     0
 90
        2
 40
0.0
 41
0.0
173
     1
 91
-1056964608
340
11
 92
       -2
290
     1
 42
0.09
291
     1
 43
0.36
  3
Standard
 44
0.18
300

342
17
174
     1
178
     6
175
     1
176
     0
 93
-1056964608
 45
0.18
292
     0
297
     0
 46
0.18
 94
-1056964608
 47
1.0
 49
1.0
140
1.0
293
     1
141
0.0
294
     1
177
     0
142
1.0
295
     0
296
     0
143
0.125
1001
ACAD_MLEADERVER
1070
     2
  0
MLINESTYLE
  5
1C
102
{ACAD_REACTORS
330
1B
102
}
330
1B
100
AcDbMlineStyle
  2
STANDARD
 70
     0
  3

 62
     0
 51
90.0
 52
90.0
 71
     2
 49
0.5
 62
   256
  6
BYLAYER
 49
-0.5
 62
   256
  6
BYLAYER
  0
ACDBPLACEHOLDER
  5
1D
102
{ACAD_REACTORS
330
1F
102
}
330
1F
  0
SCALE
  5
247
102
{ACAD_REACTORS
330
246
102
}
330
246
100
AcDbScale
 70
     0
300
1:1
140
1.0
141
1.0
290
     1
  0
SCALE
  5
248
102
{ACAD_REACTORS
330
246
102
}
330
246
100
AcDbScale
 70
     0
300
1:2
140
1.0
141
2.0
290
     0
  0
SCALE
  5
249
102
{ACAD_REACTORS
330
246
102
}
330
246
100
AcDbScale
 70
     0
300
1:4
140
1.0
141
4.0
290
     0
  0
SCALE
  5
24A
102
{ACAD_REACTORS
330
246
102
}
330
246
100
AcDbScale
 70
     0
300
1:5
140
1.0
141
5.0
290
     0
  0
SCALE
  5
24B
102
{ACAD_REACTORS
330
246
102
}
330
246
100
AcDbScale
 70
     0
300
1:8
140
1.0
141
8.0
290
     0
  0
SCALE
  5
24C
102
{ACAD_REACTORS
330
246
102
}
330
246
100
AcDbScale
 70
     0
300
1:10
140
1.0
141
10.0
290
     0
  0
SCALE
  5
24D
102
{ACAD_REACTORS
330
246
102
}
330
246
100
AcDbScale
 70
     0
300
1:16
140
1.0
141
16.0
290
     0
  0
SCALE
  5
24E
102
{ACAD_REACTORS
330
246
102
}
330
246
100
AcDbScale
 70
     0
300
1:20
140
1.0
141
20.0
290
     0
  0
SCALE
  5
24F
102
{ACAD_REACTORS
330
246
102
}
330
246
100
AcDbScale
 70
     0
300
1:30
140
1.0
141
30.0
290
     0
  0
SCALE
  5
250
102
{ACAD_REACTORS
330
246
102
}
330
246
100
AcDbScale
 70
     0
300
1:40
140
1.0
141
40.0
290
     0
  0
SCALE
  5
251
102
{ACAD_REACTORS
330
246
102
}
330
246
100
AcDbScale
 70
     0
300
1:50
140
1.0
141
50.0
290
     0
  0
SCALE
  5
252
102
{ACAD_REACTORS
330
246
102
}
330
246
100
AcDbScale
 70
     0
300
1:100
140
1.0
141
100.0
290
     0
  0
SCALE
  5
253
102
{ACAD_REACTORS
330
246
102
}
330
246
100
AcDbScale
 70
     0
300
2:1
140
2.0
141
1.0
290
     0
  0
SCALE
  5
254
102
{ACAD_REACTORS
330
246
102
}
330
246
100
AcDbScale
 70
     0
300
4:1
140
4.0
141
1.0
290
     0
  0
SCALE
  5
255
102
{ACAD_REACTORS
330
246
102
}
330
246
100
AcDbScale
 70
     0
300
8:1
140
8.0
141
1.0
290
     0
  0
SCALE
  5
256
102
{ACAD_REACTORS
330
246
102
}
330
246
100
AcDbScale
 70
     0
300
10:1
140
10.0
141
1.0
290
     0
  0
SCALE
  5
257
102
{ACAD_REACTORS
330
246
102
}
330
246
100
AcDbScale
 70
     0
300
100:1
140
100.0
141
1.0
290
     0
  0
SCALE
  5
258
102
{ACAD_REACTORS
330
246
102
}
330
246
100
AcDbScale
 70
     0
300
1/128" = 1'-0"
140
0.0078125
141
12.0
290
     0
  0
SCALE
  5
259
102
{ACAD_REACTORS
330
246
102
}
330
246
100
AcDbScale
 70
     0
300
1/64" = 1'-0"
140
0.015625
141
12.0
290
     0
  0
SCALE
  5
25A
102
{ACAD_REACTORS
330
246
102
}
330
246
100
AcDbScale
 70
     0
300
1/32" = 1'-0"
140
0.03125
141
12.0
290
     0
  0
SCALE
  5
25B
102
{ACAD_REACTORS
330
246
102
}
330
246
100
AcDbScale
 70
     0
300
1/16" = 1'-0"
140
0.0625
141
12.0
290
     0
  0
SCALE
  5
25C
102
{ACAD_REACTORS
330
246
102
}
330
246
100
AcDbScale
 70
     0
300
3/32" = 1'-0"
140
0.09375
141
12.0
290
     0
  0
SCALE
  5
25D
102
{ACAD_REACTORS
330
246
102
}
330
246
100
AcDbScale
 70
     0
300
1/8" = 1'-0"
140
0.125
141
12.0
290
     0
  0
SCALE
  5
25E
102
{ACAD_REACTORS
330
246
102
}
330
246
100
AcDbScale
 70
     0
300
3/16" = 1'-0"
140
0.1875
141
12.0
290
     0
  0
SCALE
  5
25F
102
{ACAD_REACTORS
330
246
102
}
330
246
100
AcDbScale
 70
     0
300
1/4" = 1'-0"
140
0.25
141
12.0
290
     0
  0
SCALE
  5
260
102
{ACAD_REACTORS
330
246
102
}
330
246
100
AcDbScale
 70
     0
300
3/8" = 1'-0"
140
0.375
141
12.0
290
     0
  0
SCALE
  5
261
102
{ACAD_REACTORS
330
246
102
}
330
246
100
AcDbScale
 70
     0
300
1/2" = 1'-0"
140
0.5
141
12.0
290
     0
  0
SCALE
  5
262
102
{ACAD_REACTORS
330
246
102
}
330
246
100
AcDbScale
 70
     0
300
3/4" = 1'-0"
140
0.75
141
12.0
290
     0
  0
SCALE
  5
263
102
{ACAD_REACTORS
330
246
102
}
330
246
100
AcDbScale
 70
     0
300
1" = 1'-0"
140
1.0
141
12.0
290
     0
  0
SCALE
  5
264
102
{ACAD_REACTORS
330
246
102
}
330
246
100
AcDbScale
 70
     0
300
1-1/2" = 1'-0"
140
1.5
141
12.0
290
     0
  0
SCALE
  5
265
102
{ACAD_REACTORS
330
246
102
}
330
246
100
AcDbScale
 70
     0
300
3" = 1'-0"
140
3.0
141
12.0
290
     0
  0
SCALE
  5
266
102
{ACAD_REACTORS
330
246
102
}
330
246
100
AcDbScale
 70
     0
300
6" = 1'-0"
140
6.0
141
12.0
290
     0
  0
SCALE
  5
267
102
{ACAD_REACTORS
330
246
102
}
330
246
100
AcDbScale
 70
     0
300
1'-0" = 1'-0"
140
12.0
141
12.0
290
     0
  0
TABLESTYLE
  5
23A
102
{ACAD_XDICTIONARY
360
297
102
}
102
{ACAD_REACTORS
330
239
102
}
330
239
100
AcDbTableStyle
  3
Standard
 70
     0
 71
     0
 40
0.06
 41
0.06
280
     0
281
     0
  7
Standard
140
0.18
170
     2
 62
     0
 63
     7
283
     0
 90
      512
 91
        0
  1

274
    -2
284
     1
 64
     0
275
    -2
285
     1
 65
     0
276
    -2
286
     1
 66
     0
277
    -2
287
     1
 67
     0
278
    -2
288
     1
 68
     0
279
    -2
289
     1
 69
     0
  7
Standard
140
0.25
170
     5
 62
     0
 63
     7
283
     0
 90
      512
 91
        0
  1

274
    -2
284
     1
 64
     0
275
    -2
285
     1
 65
     0
276
    -2
286
     1
 66
     0
277
    -2
287
     1
 67
     0
278
    -2
288
     1
 68
     0
279
    -2
289
     1
 69
     0
  7
Standard
140
0.18
170
     5
 62
     0
 63
     7
283
     0
 90
      512
 91
        0
  1

274
    -2
284
     1
 64
     0
275
    -2
285
     1
 65
     0
276
    -2
286
     1
 66
     0
277
    -2
287
     1
 67
     0
278
    -2
288
     1
 68
     0
279
    -2
289
     1
 69
     0
  0
VISUALSTYLE
  5
22D
102
{ACAD_REACTORS
330
227
102
}
330
227
100
AcDbVisualStyle
  2
2dWireframe
 70
     4
 71
     0
 72
     2
 73
     0
 90
        0
 40
-0.6
 41
-30.0
 62
     5
 63
     7
421
 16777215
 74
     1
 91
        4
 64
     7
 65
   257
 75
     1
175
     1
 42
1.0
 92
        0
 66
   257
 43
1.0
 76
     1
 77
     6
 78
     2
 67
     7
 79
     5
170
     0
171
     0
290
     0
174
     0
 93
        1
 44
0.0
173
     0
291
     0
 45
0.0
  0
VISUALSTYLE
  5
22F
102
{ACAD_REACTORS
330
227
102
}
330
227
100
AcDbVisualStyle
  2
3D Hidden
 70
     6
 71
     1
 72
     2
 73
     2
 90
        0
 40
-0.6
 41
-30.0
 62
     5
 63
     7
421
 16777215
 74
     2
 91
        2
 64
     7
 65
   257
 75
     2
175
     1
 42
40.0
 92
        0
 66
   257
 43
1.0
 76
     1
 77
     6
 78
     2
 67
     7
 79
     3
170
     0
171
     0
290
     0
174
     0
 93
        1
 44
0.0
173
     0
291
     0
 45
0.0
  0
VISUALSTYLE
  5
22E
102
{ACAD_REACTORS
330
227
102
}
330
227
100
AcDbVisualStyle
  2
3dWireframe
 70
     5
 71
     0
 72
     2
 73
     0
 90
        0
 40
-0.6
 41
-30.0
 62
     5
 63
     7
421
 16777215
 74
     1
 91
        4
 64
     7
 65
   257
 75
     1
175
     1
 42
1.0
 92
        0
 66
   257
 43
1.0
 76
     1
 77
     6
 78
     2
 67
     7
 79
     5
170
     0
171
     0
290
     0
174
     0
 93
        1
 44
0.0
173
     0
291
     0
 45
0.0
  0
VISUALSTYLE
  5
22C
102
{ACAD_REACTORS
330
227
102
}
330
227
100
AcDbVisualStyle
  2
Basic
 70
     7
 71
     1
 72
     0
 73
     1
 90
        0
 40
-0.6
 41
-30.0
 62
     5
 63
     7
421
 16777215
 74
     0
 91
        4
 64
     7
 65
   257
 75
     1
175
     1
 42
1.0
 92
        8
 66
     7
 43
1.0
 76
     1
 77
     6
 78
     2
 67
     7
 79
     5
170
     0
171
     0
290
     0
174
     0
 93
        1
 44
0.0
173
     0
291
     1
 45
0.0
  0
VISUALSTYLE
  5
233
102
{ACAD_REACTORS
330
227
102
}
330
227
100
AcDbVisualStyle
  2
Brighten
 70
    12
 71
     2
 72
     2
 73
     0
 90
        0
 40
-0.6
 41
-30.0
 62
     5
 63
     7
421
 16777215
 74
     1
 91
        4
 64
     7
 65
   257
 75
     1
175
     1
 42
1.0
 92
        8
 66
     7
 43
1.0
 76
     1
 77
     6
 78
     2
 67
     7
 79
     5
170
     0
171
     0
290
     0
174
     0
 93
        1
 44
50.0
173
     0
291
     1
 45
0.0
  0
VISUALSTYLE
  5
237
102
{ACAD_REACTORS
330
227
102
}
330
227
100
AcDbVisualStyle
  2
ColorChange
 70
    16
 71
     2
 72
     2
 73
     3
 90
        0
 40
-0.6
 41
-30.0
 62
     5
 63
     8
421
  8421504
 74
     1
 91
        4
 64
     7
 65
   257
 75
     1
175
     1
 42
1.0
 92
        8
 66
     8
424
  8421504
 43
1.0
 76
     1
 77
     6
 78
     2
 67
     7
 79
     5
170
     0
171
     0
290
     0
174
     0
 93
        1
 44
0.0
173
     0
291
     1
 45
0.0
  0
VISUALSTYLE
  5
230
102
{ACAD_REACTORS
330
227
102
}
330
227
100
AcDbVisualStyle
  2
Conceptual
 70
     9
 71
     3
 72
     2
 73
     0
 90
        0
 40
-0.6
 41
-30.0
 62
     5
 63
     7
421
 16777215
 74
     2
 91
        2
 64
     7
 65
   257
 75
     1
175
     1
 42
40.0
 92
        8
 66
     7
 43
1.0
 76
     1
 77
     6
 78
     2
 67
     7
 79
     3
170
     0
171
     0
290
     0
174
     0
 93
        1
 44
0.0
173
     0
291
     0
 45
0.0
  0
VISUALSTYLE
  5
232
102
{ACAD_REACTORS
330
227
102
}
330
227
100
AcDbVisualStyle
  2
Dim
 70
    11
 71
     2
 72
     2
 73
     0
 90
        0
 40
-0.6
 41
-30.0
 62
     5
 63
     7
421
 16777215
 74
     1
 91
        4
 64
     7
 65
   257
 75
     1
175
     1
 42
1.0
 92
        8
 66
     7
 43
1.0
 76
     1
 77
     6
 78
     2
 67
     7
 79
     5
170
     0
171
     0
290
     0
174
     0
 93
        1
 44
-50.0
173
     0
291
     1
 45
0.0
  0
VISUALSTYLE
  5
236
102
{ACAD_REACTORS
330
227
102
}
330
227
100
AcDbVisualStyle
  2
Facepattern
 70
    15
 71
     2
 72
     2
 73
     0
 90
        0
 40
-0.6
 41
-30.0
 62
     5
 63
     7
421
 16777215
 74
     1
 91
        4
 64
     7
 65
   257
 75
     1
175
     1
 42
1.0
 92
        8
 66
     7
 43
1.0
 76
     1
 77
     6
 78
     2
 67
     7
 79
     5
170
     0
171
     0
290
     0
174
     0
 93
        1
 44
0.0
173
     0
291
     1
 45
0.0
  0
VISUALSTYLE
  5
228
102
{ACAD_REACTORS
330
227
102
}
330
227
100
AcDbVisualStyle
  2
Flat
 70
     0
 71
     2
 72
     1
 73
     1
 90
        2
 40
-0.6
 41
30.0
 62
     5
 63
     7
421
 16777215
 74
     0
 91
        4
 64
     7
 65
   257
 75
     1
175
     1
 42
1.0
 92
        8
 66
     7
 43
1.0
 76
     1
 77
     6
 78
     2
 67
     7
 79
     5
170
     0
171
     0
290
     0
174
     0
 93
       13
 44
0.0
173
     0
291
     1
 45
0.0
  0
VISUALSTYLE
  5
229
102
{ACAD_REACTORS
330
227
102
}
330
227
100
AcDbVisualStyle
  2
FlatWithEdges
 70
     1
 71
     2
 72
     1
 73
     1
 90
        2
 40
-0.6
 41
30.0
 62
     5
 63
     7
421
 16777215
 74
     1
 91
        4
 64
     7
 65
   257
 75
     1
175
     1
 42
1.0
 92
        0
 66
   257
 43
1.0
 76
     1
 77
     6
 78
     2
 67
     7
 79
     5
170
     0
171
     0
290
     0
174
     0
 93
       13
 44
0.0
173
     0
291
     1
 45
0.0
  0
VISUALSTYLE
  5
22A
102
{ACAD_REACTORS
330
227
102
}
330
227
100
AcDbVisualStyle
  2
Gouraud
 70
     2
 71
     2
 72
     2
 73
     1
 90
        2
 40
-0.6
 41
30.0
 62
     5
 63
     7
421
 16777215
 74
     0
 91
        4
 64
     7
 65
   257
 75
     1
175
     1
 42
1.0
 92
        0
 66
     7
 43
1.0
 76
     1
 77
     6
 78
     2
 67
     7
 79
     5
170
     0
171
     0
290
     0
174
     0
 93
       13
 44
0.0
173
     0
291
     1
 45
0.0
  0
VISUALSTYLE
  5
22B
102
{ACAD_REACTORS
330
227
102
}
330
227
100
AcDbVisualStyle
  2
GouraudWithEdges
 70
     3
 71
     2
 72
     2
 73
     1
 90
        2
 40
-0.6
 41
30.0
 62
     5
 63
     7
421
 16777215
 74
     1
 91
        4
 64
     7
 65
   257
 75
     1
175
     1
 42
1.0
 92
        0
 66
   257
 43
1.0
 76
     1
 77
     6
 78
     2
 67
     7
 79
     5
170
     0
171
     0
290
     0
174
     0
 93
       13
 44
0.0
173
     0
291
     1
 45
0.0
  0
VISUALSTYLE
  5
235
102
{ACAD_REACTORS
330
227
102
}
330
227
100
AcDbVisualStyle
  2
Linepattern
 70
    14
 71
     2
 72
     2
 73
     0
 90
        0
 40
-0.6
 41
-30.0
 62
     5
 63
     7
421
 16777215
 74
     1
 91
        4
 64
     7
 65
   257
 75
     7
175
     7
 42
1.0
 92
        8
 66
     7
 43
1.0
 76
     1
 77
     6
 78
     2
 67
     7
 79
     5
170
     0
171
     0
290
     0
174
     0
 93
        1
 44
0.0
173
     0
291
     1
 45
0.0
  0
VISUALSTYLE
  5
231
102
{ACAD_REACTORS
330
227
102
}
330
227
100
AcDbVisualStyle
  2
Realistic
 70
     8
 71
     2
 72
     2
 73
     0
 90
        0
 40
-0.6
 41
-30.0
 62
     5
 63
     7
421
 16777215
 74
     1
 91
        0
 64
     7
 65
   257
 75
     1
175
     1
 42
1.0
 92
        8
 66
     8
424
  7895160
 43
1.0
 76
     1
 77
     6
 78
     2
 67
     7
 79
     5
170
     0
171
     0
290
     0
174
     0
 93
       13
 44
0.0
173
     0
291
     0
 45
0.0
  0
VISUALSTYLE
  5
234
102
{ACAD_REACTORS
330
227
102
}
330
227
100
AcDbVisualStyle
  2
Thicken
 70
    13
 71
     2
 72
     2
 73
     0
 90
        0
 40
-0.6
 41
-30.0
 62
     5
 63
     7
421
 16777215
 74
     1
 91
        4
 64
     7
 65
   257
 75
     1
175
     1
 42
1.0
 92
       12
 66
     7
 43
1.0
 76
     1
 77
     6
 78
     2
 67
     7
 79
     5
170
     0
171
     0
290
     0
174
     0
 93
        1
 44
0.0
173
     0
291
     1
 45
0.0
  0
DICTIONARYVAR
  5
293
102
{ACAD_REACTORS
330
243
102
}
330
243
100
DictionaryVariables
280
     0
  1
1:1
  0
DICTIONARYVAR
  5
291
102
{ACAD_REACTORS
330
243
102
}
330
243
100
DictionaryVariables
280
     0
  1
STANDARD
  0
DICTIONARYVAR
  5
244
102
{ACAD_REACTORS
330
243
102
}
330
243
100
DictionaryVariables
280
     0
  1
STANDARD
  0
DICTIONARYVAR
  5
295
102
{ACAD_REACTORS
330
243
102
}
330
243
100
DictionaryVariables
280
     0
  1
1
  0
DICTIONARYVAR
  5
296
102
{ACAD_REACTORS
330
243
102
}
330
243
100
DictionaryVariables
280
     0
  1
15
  0
DICTIONARYVAR
  5
294
102
{ACAD_REACTORS
330
243
102
}
330
243
100
DictionaryVariables
280
     0
  1
0
  0
DICTIONARYVAR
  5
292
102
{ACAD_REACTORS
330
243
102
}
330
243
100
DictionaryVariables
280
     0
  1
0
  0
DICTIONARY
  5
297
330
23A
100
AcDbDictionary
280
     1
281
     1
  3
ACAD_ROUNDTRIP_2008_TABLESTYLE_CELLSTYLEMAP
360
298
  0
CELLSTYLEMAP
  5
298
102
{ACAD_REACTORS
330
297
102
}
330
297
100
AcDbCellStyleMap
 90
        3
300
CELLSTYLE
  1
TABLEFORMAT_BEGIN
 90
        5
170
     1
 91
        0
 92
    32768
 62
   257
 93
        1
300
CONTENTFORMAT
  1
CONTENTFORMAT_BEGIN
 90
        0
 91
        0
 92
      512
 93
        0
300

 40
0.0
140
1.0
 94
        5
 62
     0
340
17
144
0.25
309
CONTENTFORMAT_END
171
     0
 94
        6
 95
        1
302
GRIDFORMAT
  1
GRIDFORMAT_BEGIN
 90
        0
 91
        1
 62
     0
 92
       -2
340
0
 93
        0
 40
0.045
309
GRIDFORMAT_END
 95
        2
302
GRIDFORMAT
  1
GRIDFORMAT_BEGIN
 90
        0
 91
        1
 62
     0
 92
       -2
340
0
 93
        0
 40
0.045
309
GRIDFORMAT_END
 95
        4
302
GRIDFORMAT
  1
GRIDFORMAT_BEGIN
 90
        0
 91
        1
 62
     0
 92
       -2
340
0
 93
        0
 40
0.045
309
GRIDFORMAT_END
 95
        8
302
GRIDFORMAT
  1
GRIDFORMAT_BEGIN
 90
        0
 91
        1
 62
     0
 92
       -2
340
0
 93
        0
 40
0.045
309
GRIDFORMAT_END
 95
       16
302
GRIDFORMAT
  1
GRIDFORMAT_BEGIN
 90
        0
 91
        1
 62
     0
 92
       -2
340
0
 93
        0
 40
0.045
309
GRIDFORMAT_END
 95
       32
302
GRIDFORMAT
  1
GRIDFORMAT_BEGIN
 90
        0
 91
        1
 62
     0
 92
       -2
340
0
 93
        0
 40
0.045
309
GRIDFORMAT_END
309
TABLEFORMAT_END
  1
CELLSTYLE_BEGIN
 90
        1
 91
        1
300
_TITLE
309
CELLSTYLE_END
300
CELLSTYLE
  1
TABLEFORMAT_BEGIN
 90
        5
170
     1
 91
        0
 92
        0
 62
   257
 93
        1
300
CONTENTFORMAT
  1
CONTENTFORMAT_BEGIN
 90
        0
 91
        0
 92
      512
 93
        0
300

 40
0.0
140
1.0
 94
        5
 62
     0
340
17
144
0.18
309
CONTENTFORMAT_END
171
     0
 94
        6
 95
        1
302
GRIDFORMAT
  1
GRIDFORMAT_BEGIN
 90
        0
 91
        1
 62
     0
 92
       -2
340
0
 93
        0
 40
0.045
309
GRIDFORMAT_END
 95
        2
302
GRIDFORMAT
  1
GRIDFORMAT_BEGIN
 90
        0
 91
        1
 62
     0
 92
       -2
340
0
 93
        0
 40
0.045
309
GRIDFORMAT_END
 95
        4
302
GRIDFORMAT
  1
GRIDFORMAT_BEGIN
 90
        0
 91
        1
 62
     0
 92
       -2
340
0
 93
        0
 40
0.045
309
GRIDFORMAT_END
 95
        8
302
GRIDFORMAT
  1
GRIDFORMAT_BEGIN
 90
        0
 91
        1
 62
     0
 92
       -2
340
0
 93
        0
 40
0.045
309
GRIDFORMAT_END
 95
       16
302
GRIDFORMAT
  1
GRIDFORMAT_BEGIN
 90
        0
 91
        1
 62
     0
 92
       -2
340
0
 93
        0
 40
0.045
309
GRIDFORMAT_END
 95
       32
302
GRIDFORMAT
  1
GRIDFORMAT_BEGIN
 90
        0
 91
        1
 62
     0
 92
       -2
340
0
 93
        0
 40
0.045
309
GRIDFORMAT_END
309
TABLEFORMAT_END
  1
CELLSTYLE_BEGIN
 90
        2
 91
        1
300
_HEADER
309
CELLSTYLE_END
300
CELLSTYLE
  1
TABLEFORMAT_BEGIN
 90
        5
170
     1
 91
        0
 92
        0
 62
   257
 93
        1
300
CONTENTFORMAT
  1
CONTENTFORMAT_BEGIN
 90
        0
 91
        0
 92
      512
 93
        0
300

 40
0.0
140
1.0
 94
        2
 62
     0
340
17
144
0.18
309
CONTENTFORMAT_END
171
     0
 94
        6
 95
        1
302
GRIDFORMAT
  1
GRIDFORMAT_BEGIN
 90
        0
 91
        1
 62
     0
 92
       -2
340
0
 93
        0
 40
0.045
309
GRIDFORMAT_END
 95
        2
302
GRIDFORMAT
  1
GRIDFORMAT_BEGIN
 90
        0
 91
        1
 62
     0
 92
       -2
340
0
 93
        0
 40
0.045
309
GRIDFORMAT_END
 95
        4
302
GRIDFORMAT
  1
GRIDFORMAT_BEGIN
 90
        0
 91
        1
 62
     0
 92
       -2
340
0
 93
        0
 40
0.045
309
GRIDFORMAT_END
 95
        8
302
GRIDFORMAT
  1
GRIDFORMAT_BEGIN
 90
        0
 91
        1
 62
     0
 92
       -2
340
0
 93
        0
 40
0.045
309
GRIDFORMAT_END
 95
       16
302
GRIDFORMAT
  1
GRIDFORMAT_BEGIN
 90
        0
 91
        1
 62
     0
 92
       -2
340
0
 93
        0
 40
0.045
309
GRIDFORMAT_END
 95
       32
302
GRIDFORMAT
  1
GRIDFORMAT_BEGIN
 90
        0
 91
        1
 62
     0
 92
       -2
340
0
 93
        0
 40
0.045
309
GRIDFORMAT_END
309
TABLEFORMAT_END
  1
CELLSTYLE_BEGIN
 90
        3
 91
        2
300
_DATA
309
CELLSTYLE_END
  0
ENDSEC
  0
EOF
