  0
SECTION
  2
HEADER
  9
$ACADVER
  1
AC1018
  9
$ACADMAINTVER
 70
   104
  9
$DWGCODEPAGE
  3
ANSI_1252
  9
$LASTSAVEDBY
  1
EARL
  9
$INSBASE
 10
0.0
 20
0.0
 30
0.0
  9
$EXTMIN
 10
-0.0000000000000006
 20
-0.8971300613533493
 30
0.0
  9
$EXTMAX
 10
15.00465219389786
 20
4.625
 30
0.0
  9
$LIMMIN
 10
0.0
 20
0.0
  9
$LIMMAX
 10
0.0
 20
0.0
  9
$ORTHOMODE
 70
     0
  9
$REGENMODE
 70
     1
  9
$FILLMODE
 70
     1
  9
$QTEXTMODE
 70
     0
  9
$MIRRTEXT
 70
     1
  9
$LTSCALE
 40
1.0
  9
$ATTMODE
 70
     1
  9
$TEXTSIZE
 40
0.0
  9
$TRACEWID
 40
0.05
  9
$TEXTSTYLE
  7
Standard
  9
$CLAYER
  8
0
  9
$CELTYPE
  6
Continuous
  9
$CECOLOR
 62
   256
  9
$CELTSCALE
 40
1.0
  9
$DISPSILH
 70
     0
  9
$DIMSCALE
 40
1.0
  9
$DIMASZ
 40
0.18
  9
$DIMEXO
 40
0.0625
  9
$DIMDLI
 40
0.38
  9
$DIMRND
 40
0.0
  9
$DIMDLE
 40
0.0
  9
$DIMEXE
 40
0.18
  9
$DIMTP
 40
0.0
  9
$DIMTM
 40
0.0
  9
$DIMTXT
 40
0.18
  9
$DIMCEN
 40
0.09
  9
$DIMTSZ
 40
0.0
  9
$DIMTOL
 70
     0
  9
$DIMLIM
 70
     0
  9
$DIMTIH
 70
     1
  9
$DIMTOH
 70
     1
  9
$DIMSE1
 70
     0
  9
$DIMSE2
 70
     0
  9
$DIMTAD
 70
     0
  9
$DIMZIN
 70
     0
  9
$DIMBLK
  1

  9
$DIMASO
 70
     1
  9
$DIMSHO
 70
     1
  9
$DIMPOST
  1

  9
$DIMAPOST
  1

  9
$DIMALT
 70
     0
  9
$DIMALTD
 70
     2
  9
$DIMALTF
 40
25.4
  9
$DIMLFAC
 40
1.0
  9
$DIMTOFL
 70
     0
  9
$DIMTVP
 40
0.0
  9
$DIMTIX
 70
     0
  9
$DIMSOXD
 70
     0
  9
$DIMSAH
 70
     0
  9
$DIMBLK1
  1

  9
$DIMBLK2
  1

  9
$DIMSTYLE
  2
Standard
  9
$DIMCLRD
 70
     0
  9
$DIMCLRE
 70
     0
  9
$DIMCLRT
 70
     0
  9
$DIMTFAC
 40
1.0
  9
$DIMGAP
 40
0.09
  9
$DIMJUST
 70
     0
  9
$DIMSD1
 70
     0
  9
$DIMSD2
 70
     0
  9
$DIMTOLJ
 70
     1
  9
$DIMTZIN
 70
     0
  9
$DIMALTZ
 70
     0
  9
$DIMALTTZ
 70
     0
  9
$DIMUPT
 70
     0
  9
$DIMDEC
 70
     4
  9
$DIMTDEC
 70
     4
  9
$DIMALTU
 70
     2
  9
$DIMALTTD
 70
     2
  9
$DIMTXSTY
  7
Standard
  9
$DIMAUNIT
 70
     0
  9
$DIMADEC
 70
     0
  9
$DIMALTRND
 40
0.0
  9
$DIMAZIN
 70
     0
  9
$DIMDSEP
 70
    46
  9
$DIMATFIT
 70
     0
  9
$DIMFRAC
 70
     0
  9
$DIMLDRBLK
  1

  9
$DIMLUNIT
 70
     2
  9
$DIMLWD
 70
    -2
  9
$DIMLWE
 70
    -2
  9
$DIMTMOVE
 70
     0
  9
$LUNITS
 70
     2
  9
$LUPREC
 70
     4
  9
$SKETCHINC
 40
0.1
  9
$FILLETRAD
 40
0.0
  9
$AUNITS
 70
     0
  9
$AUPREC
 70
     0
  9
$MENU
  1
acad
  9
$ELEVATION
 40
0.0
  9
$PELEVATION
 40
0.0
  9
$THICKNESS
 40
0.0
  9
$LIMCHECK
 70
     0
  9
$CHAMFERA
 40
0.0
  9
$CHAMFERB
 40
0.0
  9
$CHAMFERC
 40
0.0
  9
$CHAMFERD
 40
0.0
  9
$SKPOLY
 70
     0
  9
$TDCREATE
 40
2455006.796307870
  9
$TDUCREATE
 40
2455006.962974537
  9
$TDUPDATE
 40
2455105.508889248
  9
$TDUUPDATE
 40
2455105.675555914
  9
$TDINDWG
 40
0.0004752778
  9
$TDUSRTIMER
 40
0.0004752778
  9
$USRTIMER
 70
     1
  9
$ANGBASE
 50
0.0
  9
$ANGDIR
 70
     0
  9
$PDMODE
 70
     0
  9
$PDSIZE
 40
0.0
  9
$PLINEWID
 40
0.0
  9
$SPLFRAME
 70
     0
  9
$SPLINETYPE
 70
     6
  9
$SPLINESEGS
 70
     8
  9
$HANDSEED
  5
27B
  9
$SURFTAB1
 70
     6
  9
$SURFTAB2
 70
     6
  9
$SURFTYPE
 70
     6
  9
$SURFU
 70
     6
  9
$SURFV
 70
     6
  9
$UCSBASE
  2

  9
$UCSNAME
  2

  9
$UCSORG
 10
0.0
 20
0.0
 30
0.0
  9
$UCSXDIR
 10
1.0
 20
0.0
 30
0.0
  9
$UCSYDIR
 10
0.0
 20
1.0
 30
0.0
  9
$UCSORTHOREF
  2

  9
$UCSORTHOVIEW
 70
     0
  9
$UCSORGTOP
 10
0.0
 20
0.0
 30
0.0
  9
$UCSORGBOTTOM
 10
0.0
 20
0.0
 30
0.0
  9
$UCSORGLEFT
 10
0.0
 20
0.0
 30
0.0
  9
$UCSORGRIGHT
 10
0.0
 20
0.0
 30
0.0
  9
$UCSORGFRONT
 10
0.0
 20
0.0
 30
0.0
  9
$UCSORGBACK
 10
0.0
 20
0.0
 30
0.0
  9
$PUCSBASE
  2

  9
$PUCSNAME
  2

  9
$PUCSORG
 10
0.0
 20
0.0
 30
0.0
  9
$PUCSXDIR
 10
1.0
 20
0.0
 30
0.0
  9
$PUCSYDIR
 10
0.0
 20
1.0
 30
0.0
  9
$PUCSORTHOREF
  2

  9
$PUCSORTHOVIEW
 70
     0
  9
$PUCSORGTOP
 10
0.0
 20
0.0
 30
0.0
  9
$PUCSORGBOTTOM
 10
0.0
 20
0.0
 30
0.0
  9
$PUCSORGLEFT
 10
0.0
 20
0.0
 30
0.0
  9
$PUCSORGRIGHT
 10
0.0
 20
0.0
 30
0.0
  9
$PUCSORGFRONT
 10
0.0
 20
0.0
 30
0.0
  9
$PUCSORGBACK
 10
0.0
 20
0.0
 30
0.0
  9
$USERI1
 70
     0
  9
$USERI2
 70
     0
  9
$USERI3
 70
     0
  9
$USERI4
 70
     0
  9
$USERI5
 70
     0
  9
$USERR1
 40
0.0
  9
$USERR2
 40
0.0
  9
$USERR3
 40
0.0
  9
$USERR4
 40
0.0
  9
$USERR5
 40
0.0
  9
$WORLDVIEW
 70
     1
  9
$SHADEDGE
 70
     3
  9
$SHADEDIF
 70
    70
  9
$TILEMODE
 70
     0
  9
$MAXACTVP
 70
    16
  9
$PINSBASE
 10
0.0
 20
0.0
 30
0.0
  9
$PLIMCHECK
 70
     0
  9
$PEXTMIN
 10
-0.1078511654042842
 20
-0.0075665793440258
 30
-0.0015258207003583
  9
$PEXTMAX
 10
10.3583789363301
 20
8.050866530765375
 30
0.0000000349246037
  9
$PLIMMIN
 10
-0.3306119115190196
 20
-0.2812499079328949
  9
$PLIMMAX
 10
10.66938784818509
 20
8.218749851771214
  9
$UNITMODE
 70
     0
  9
$VISRETAIN
 70
     0
  9
$PLINEGEN
 70
     1
  9
$PSLTSCALE
 70
     0
  9
$TREEDEPTH
 70
  3020
  9
$CMLSTYLE
  2
Standard
  9
$CMLJUST
 70
     0
  9
$CMLSCALE
 40
1.0
  9
$PROXYGRAPHICS
 70
     0
  9
$MEASUREMENT
 70
     0
  9
$CELWEIGHT
370
     0
  9
$ENDCAPS
280
     0
  9
$JOINSTYLE
280
     0
  9
$LWDISPLAY
290
     0
  9
$INSUNITS
 70
     0
  9
$HYPERLINKBASE
  1

  9
$STYLESHEET
  1

  9
$XEDIT
290
     1
  9
$CEPSNTYPE
380
     0
  9
$PSTYLEMODE
290
     1
  9
$FINGERPRINTGUID
  2

  9
$VERSIONGUID
  2
{D10F574B-4360-4D73-8D6C-D27329697E4B}
  9
$EXTNAMES
290
     1
  9
$PSVPSCALE
 40
0.0
  9
$OLESTARTUP
290
     0
  9
$SORTENTS
280
   127
  9
$INDEXCTL
280
     0
  9
$HIDETEXT
280
     0
  9
$XCLIPFRAME
290
     0
  9
$HALOGAP
280
     0
  9
$OBSCOLOR
 70
   257
  9
$OBSLTYPE
280
     0
  9
$INTERSECTIONDISPLAY
280
     0
  9
$INTERSECTIONCOLOR
 70
   257
  9
$DIMASSOC
280
     1
  9
$PROJECTNAME
  1

  0
ENDSEC
  0
SECTION
  2
CLASSES
  0
CLASS
  1
IMAGE
  2
AcDbRasterImage
  3
ISM
 90
     2175
 91
        0
280
     0
281
     1
  0
CLASS
  1
DICTIONARYVAR
  2
AcDbDictionaryVar
  3
ObjectDBX Classes
 90
        0
 91
        5
280
     0
281
     0
  0
CLASS
  1
RASTERVARIABLES
  2
AcDbRasterVariables
  3
ISM
 90
        0
 91
        0
280
     0
281
     0
  0
CLASS
  1
IMAGEDEF
  2
AcDbRasterImageDef
  3
ISM
 90
        0
 91
        0
280
     0
281
     0
  0
CLASS
  1
IMAGEDEF_REACTOR
  2
AcDbRasterImageDefReactor
  3
ISM
 90
        1
 91
        0
280
     0
281
     0
  0
CLASS
  1
IDBUFFER
  2
AcDbIdBuffer
  3
ObjectDBX Classes
 90
        0
 91
        0
280
     0
281
     0
  0
CLASS
  1
SPATIAL_FILTER
  2
AcDbSpatialFilter
  3
ObjectDBX Classes
 90
        0
 91
        0
280
     0
281
     0
  0
CLASS
  1
SORTENTSTABLE
  2
AcDbSortentsTable
  3
ObjectDBX Classes
 90
        0
 91
        0
280
     0
281
     0
  0
CLASS
  1
LAYER_INDEX
  2
AcDbLayerIndex
  3
ObjectDBX Classes
 90
        0
 91
        0
280
     0
281
     0
  0
CLASS
  1
SPATIAL_INDEX
  2
AcDbSpatialIndex
  3
ObjectDBX Classes
 90
        0
 91
        0
280
     0
281
     0
  0
CLASS
  1
OBJECT_PTR
  2
CAseDLPNTableRecord
  3
"ASE-LPNTableRecord"
 90
        1
 91
        0
280
     0
281
     0
  0
CLASS
  1
PLOTSETTINGS
  2
AcDbPlotSettings
  3
ObjectDBX Classes
 90
        0
 91
        0
280
     0
281
     0
  0
CLASS
  1
ACDBDICTIONARYWDFLT
  2
AcDbDictionaryWithDefault
  3
ObjectDBX Classes
 90
        0
 91
        1
280
     0
281
     0
  0
CLASS
  1
WIPEOUT
  2
AcDbWipeout
  3
"WipeOut|Product Desc: Object Enabler for WipeOut entity                        |Company: Autodesk, Inc.                        |WEB Address: www.autodesk.com"
 90
     2175
 91
        0
280
     0
281
     1
  0
CLASS
  1
WIPEOUTVARIABLES
  2
AcDbWipeoutVariables
  3
"WipeOut|Product Desc:     WipeOut Dbx Application|Company:          Autodesk, Inc.|WEB Address:      www.autodesk.com"
 90
        0
 91
        1
280
     0
281
     0
  0
CLASS
  1
RTEXT
  2
RText
  3
RText|AutoCAD Express Tool|expresstools@autodesk.com
 90
        0
 91
        0
280
     0
281
     1
  0
CLASS
  1
ARCALIGNEDTEXT
  2
AcDbArcAlignedText
  3
ATEXT|AutoCAD Express Tool|expresstools@autodesk.com
 90
        0
 91
        0
280
     0
281
     1
  0
CLASS
  1
MATERIAL
  2
AcDbMaterial
  3
ObjectDBX Classes
 90
     1153
 91
        3
280
     0
281
     0
  0
CLASS
  1
VISUALSTYLE
  2
AcDbVisualStyle
  3
ObjectDBX Classes
 90
     4095
 91
       16
280
     0
281
     0
  0
CLASS
  1
TABLESTYLE
  2
AcDbTableStyle
  3
ObjectDBX Classes
 90
     4095
 91
        1
280
     0
281
     0
  0
CLASS
  1
SCALE
  2
AcDbScale
  3
ObjectDBX Classes
 90
     1153
 91
       33
280
     0
281
     0
  0
CLASS
  1
MLEADERSTYLE
  2
AcDbMLeaderStyle
  3
ACDB_MLEADERSTYLE_CLASS
 90
     4095
 91
        1
280
     0
281
     0
  0
CLASS
  1
CELLSTYLEMAP
  2
AcDbCellStyleMap
  3
ObjectDBX Classes
 90
     1152
 91
        2
280
     0
281
     0
  0
ENDSEC
  0
SECTION
  2
TABLES
  0
TABLE
  2
VPORT
  5
7
330
0
100
AcDbSymbolTable
 70
     1
  0
VPORT
  5
15
330
7
100
AcDbSymbolTableRecord
100
AcDbViewportTableRecord
  2
*ACTIVE
 70
     0
 10
0.0
 20
0.0
 11
1.0
 21
1.0
 12
12.11780667605996
 22
4.579183999999999
 13
0.0
 23
0.0
 14
1.0
 24
1.0
 15
0.0
 25
0.0
 16
0.0
 26
0.0
 36
1.0
 17
0.0
 27
0.0
 37
0.0
 40
9.158369
 41
1.895442359249329
 42
50.0
 43
0.0
 44
0.0
 50
0.0
 51
0.0
 71
     0
 72
   100
 73
     1
 74
     1
 75
     0
 76
     0
 77
     0
 78
     0
281
     0
 65
     0
110
0.0
120
0.0
130
0.0
111
1.0
121
0.0
131
0.0
112
0.0
122
1.0
132
0.0
 79
     0
146
0.0
  0
ENDTAB
  0
TABLE
  2
LTYPE
  5
4
330
0
100
AcDbSymbolTable
 70
     4
  0
LTYPE
  5
11
330
4
100
AcDbSymbolTableRecord
100
AcDbLinetypeTableRecord
  2
ByBlock
 70
     0
  3

 72
    65
 73
     0
 40
0.0
  0
LTYPE
  5
12
330
4
100
AcDbSymbolTableRecord
100
AcDbLinetypeTableRecord
  2
ByLayer
 70
     0
  3

 72
    65
 73
     0
 40
0.0
  0
LTYPE
  5
13
330
4
100
AcDbSymbolTableRecord
100
AcDbLinetypeTableRecord
  2
Continuous
 70
     0
  3
Solid line
 72
    65
 73
     0
 40
0.0
  0
LTYPE
  5
24
330
4
100
AcDbSymbolTableRecord
100
AcDbLinetypeTableRecord
  2
solid
 70
     0
  3

 72
    65
 73
     0
 40
0.0
  0
LTYPE
  5
25
330
4
100
AcDbSymbolTableRecord
100
AcDbLinetypeTableRecord
  2
dashed
 70
     0
  3

 72
    65
 73
     0
 40
0.0
  0
LTYPE
  5
26
330
4
100
AcDbSymbolTableRecord
100
AcDbLinetypeTableRecord
  2
center
 70
     0
  3

 72
    65
 73
     0
 40
0.0
  0
ENDTAB
  0
TABLE
  2
LAYER
  5
2
330
0
100
AcDbSymbolTable
 70
     3
  0
LAYER
  5
14
102
{ACAD_XDICTIONARY
360
24F
102
}
330
2
100
AcDbSymbolTableRecord
100
AcDbLayerTableRecord
  2
0
 70
     0
 62
     7
  6
Continuous
370
    -3
390
1D
  0
LAYER
  5
27
102
{ACAD_XDICTIONARY
360
251
102
}
330
2
100
AcDbSymbolTableRecord
100
AcDbLayerTableRecord
  2
1
 70
     0
 62
     1
  6
solid
370
    -3
390
1D
  0
LAYER
  5
1D3
102
{ACAD_XDICTIONARY
360
253
102
}
330
2
100
AcDbSymbolTableRecord
100
AcDbLayerTableRecord
  2
0
 70
     0
 62
     1
  6
solid
370
    -3
390
1D
  0
ENDTAB
  0
TABLE
  2
STYLE
  5
3
330
0
100
AcDbSymbolTable
 70
     2
  0
STYLE
  5
17
330
3
100
AcDbSymbolTableRecord
100
AcDbTextStyleTableRecord
  2
Standard
 70
     0
 40
0.0
 41
1.0
 50
0.0
 71
     0
 42
0.0
  3
txt
  4

  0
ENDTAB
  0
TABLE
  2
VIEW
  5
5
330
0
100
AcDbSymbolTable
 70
     0
  0
ENDTAB
  0
TABLE
  2
UCS
  5
6
330
0
100
AcDbSymbolTable
 70
     0
  0
ENDTAB
  0
TABLE
  2
APPID
  5
8
330
0
100
AcDbSymbolTable
 70
     3
  0
APPID
  5
16
330
8
100
AcDbSymbolTableRecord
100
AcDbRegAppTableRecord
  2
ACAD
 70
     0
  0
APPID
  5
21E
330
8
100
AcDbSymbolTableRecord
100
AcDbRegAppTableRecord
  2
ACAD_PSEXT
 70
     0
  0
APPID
  5
248
330
8
100
AcDbSymbolTableRecord
100
AcDbRegAppTableRecord
  2
ACAD_MLEADERVER
 70
     0
  0
ENDTAB
  0
TABLE
  2
DIMSTYLE
  5
9
330
0
100
AcDbSymbolTable
 70
     2
100
AcDbDimStyleTable
 71
     1
340
18
  0
DIMSTYLE
105
18
102
{ACAD_REACTORS
330
3C
102
}
330
9
100
AcDbSymbolTableRecord
100
AcDbDimStyleTableRecord
  2
Standard
 70
     0
289
     0
340
17
  0
ENDTAB
  0
TABLE
  2
BLOCK_RECORD
  5
1
330
0
100
AcDbSymbolTable
 70
     2
  0
BLOCK_RECORD
  5
A
330
1
100
AcDbSymbolTableRecord
100
AcDbBlockTableRecord
  2
*MODEL_SPACE
340
20
  0
BLOCK_RECORD
  5
B
330
1
100
AcDbSymbolTableRecord
100
AcDbBlockTableRecord
  2
*PAPER_SPACE
340
21
  0
BLOCK_RECORD
  5
32
330
1
100
AcDbSymbolTableRecord
100
AcDbBlockTableRecord
  2
*D0
340
0
  0
ENDTAB
  0
ENDSEC
  0
SECTION
  2
BLOCKS
  0
BLOCK
  5
D
330
A
100
AcDbEntity
  8
0
100
AcDbBlockBegin
  2
*MODEL_SPACE
 70
     0
 10
0.0
 20
0.0
 30
0.0
  3
*MODEL_SPACE
  1

  0
ENDBLK
  5
E
330
A
100
AcDbEntity
  8
0
100
AcDbBlockEnd
  0
BLOCK
  5
F
330
B
100
AcDbEntity
 67
     1
  8
0
100
AcDbBlockBegin
  2
*PAPER_SPACE
 70
     0
 10
0.0
 20
0.0
 30
0.0
  3
*PAPER_SPACE
  1

  0
ENDBLK
  5
10
330
B
100
AcDbEntity
 67
     1
  8
0
100
AcDbBlockEnd
  0
BLOCK
  5
33
330
32
100
AcDbEntity
  8
1
  6
solid
 62
     7
100
AcDbBlockBegin
  2
*D0
 70
     0
 10
0.0
 20
0.0
 30
0.0
  3
*D0
  1

  0
LINE
  5
34
330
32
100
AcDbEntity
  8
1
  6
solid
 62
     7
100
AcDbLine
 10
13.41450881958008
 20
0.0
 30
0.0
 11
14.31715219389786
 21
0.0
 31
0.0
  0
LINE
  5
35
330
32
100
AcDbEntity
  8
1
  6
solid
 62
     7
100
AcDbLine
 10
13.41450881958008
 20
4.624999999999999
 30
0.0
 11
14.31715219389786
 21
4.624999999999996
 31
0.0
  0
LINE
  5
36
330
32
100
AcDbEntity
  8
1
  6
solid
 62
     7
100
AcDbLine
 10
14.12965219389786
 20
0.0
 30
0.0
 11
14.12965219389786
 21
1.83288221153846
 31
0.0
  0
LINE
  5
37
330
32
100
AcDbEntity
  8
1
  6
solid
 62
     7
100
AcDbLine
 10
14.12965219389786
 20
4.624999999999997
 30
0.0
 11
14.12965219389786
 21
2.792117788461538
 31
0.0
  0
MTEXT
  5
38
330
32
100
AcDbEntity
  8
1
  6
solid
 62
     7
100
AcDbMText
 10
14.12965219389786
 20
2.312499999999999
 30
0.0
 40
0.375
 41
0.0
 71
     5
 72
     1
  1
{\H0.375000;4 5/8}
 73
     1
 44
1.0
  0
SOLID
  5
39
330
32
100
AcDbEntity
  8
1
  6
solid
 62
     7
100
AcDbTrace
 10
14.06721469389786
 20
0.3750000000000001
 30
0.0
 11
14.19208969389786
 21
0.375
 31
0.0
 12
14.12965219389786
 22
0.0
 32
0.0
 13
14.12965219389786
 23
0.0
 33
0.0
  0
SOLID
  5
3A
330
32
100
AcDbEntity
  8
1
  6
solid
 62
     7
100
AcDbTrace
 10
14.19208969389786
 20
4.249999999999997
 30
0.0
 11
14.06721469389786
 21
4.249999999999997
 31
0.0
 12
14.12965219389786
 22
4.624999999999997
 32
0.0
 13
14.12965219389786
 23
4.624999999999997
 33
0.0
  0
ENDBLK
  5
3B
330
32
100
AcDbEntity
  8
1
  6
solid
 62
     7
100
AcDbBlockEnd
  0
ENDSEC
  0
SECTION
  2
ENTITIES
  0
ARC
  5
28
330
A
100
AcDbEntity
  8
1
  6
solid
 62
     7
100
AcDbCircle
 10
6.519754409790039
 20
3.116895398235148
 30
0.0
 40
3.116895382252475
100
AcDbArc
 50
220.3355936153526
 51
319.6644063846473
  0
LINE
  5
29
330
A
100
AcDbEntity
  8
1
  6
solid
 62
     7
100
AcDbLine
 10
4.143849849700927
 20
1.099442958831787
 30
0.0
 11
3.259877112876631
 21
0.3527696976768473
 31
0.0
  0
LINE
  5
2A
330
A
100
AcDbEntity
  8
1
  6
solid
 62
     7
100
AcDbLine
 10
2.375904560089111
 20
1.099442958831787
 30
0.0
 11
3.259877296913407
 21
0.3527696976768473
 31
0.0
  0
ARC
  5
2B
330
A
100
AcDbEntity
  8
1
  6
solid
 62
     7
100
AcDbCircle
 10
0.0
 20
3.116895398235148
 30
0.0
 40
3.116895382252475
100
AcDbArc
 50
269.9999999999999
 51
319.6644063846473
  0
LINE
  5
2C
330
A
100
AcDbEntity
  8
1
  6
solid
 62
     7
100
AcDbLine
 10
10.66360425949096
 20
1.099442958831787
 30
0.0
 11
9.779631522666671
 21
0.3527696976768473
 31
0.0
  0
LINE
  5
2D
330
A
100
AcDbEntity
  8
1
  6
solid
 62
     7
100
AcDbLine
 10
8.89565896987915
 20
1.099442958831787
 30
0.0
 11
9.779631706703446
 21
0.3527696976768473
 31
0.0
  0
ARC
  5
2E
330
A
100
AcDbEntity
  8
1
  6
solid
 62
     7
100
AcDbCircle
 10
13.03950881958008
 20
3.116895398235148
 30
0.0
 40
3.116895382252475
100
AcDbArc
 50
220.3355936153526
 51
269.9999999999999
  0
LINE
  5
2F
330
A
100
AcDbEntity
  8
1
  6
solid
 62
     7
100
AcDbLine
 10
0.0
 20
0.0
 30
0.0
 11
0.0
 21
4.625
 31
0.0
  0
LINE
  5
30
330
A
100
AcDbEntity
  8
1
  6
solid
 62
     7
100
AcDbLine
 10
0.0
 20
4.625
 30
0.0
 11
13.03950881958008
 21
4.625
 31
0.0
  0
LINE
  5
31
330
A
100
AcDbEntity
  8
1
  6
solid
 62
     7
100
AcDbLine
 10
13.03950881958008
 20
4.625
 30
0.0
 11
13.03950881958008
 21
0.0
 31
0.0
  0
DIMENSION
  5
3C
330
A
100
AcDbEntity
  8
1
  6
solid
 62
     7
100
AcDbDimension
  2
*D0
 10
14.12965219389786
 20
2.312499999999999
 30
0.0
 11
14.12965219389786
 21
2.312499999999999
 31
0.0
 70
    33
 71
     5
 42
4.625
  3
Standard
100
AcDbAlignedDimension
 13
13.03950881958008
 23
4.625
 33
0.0
 14
13.03950881958008
 24
0.0
 34
0.0
1001
ACAD
1000
DSTYLE
1002
{
1070
    41
1040
0.375
1070
    42
1040
0.375
1070
    44
1040
0.1875
1070
    47
1040
0.0005
1070
    48
1040
0.0005
1070
    75
1070
     1
1070
    76
1070
     1
1070
   140
1040
0.375
1070
   146
1040
0.1666666666666666
1070
   270
1070
     5
1070
   271
1070
     3
1070
   272
1070
     3
1070
   277
1070
     5
1002
}
  0
LINE
  5
3D
330
A
100
AcDbEntity
  8
1
  6
solid
 62
     7
100
AcDbLine
 10
3.784916344570466
 20
-0.8971300613533493
 30
0.0
 11
3.784916344570466
 21
-0.8322262151995031
 31
0.0
  0
LINE
  5
3E
330
A
100
AcDbEntity
  8
1
  6
solid
 62
     7
100
AcDbLine
 10
3.784916344570466
 20
-0.8322262151995031
 30
0.0
 11
3.838837913197918
 21
-0.8322262151995031
 31
0.0
  0
LINE
  5
3F
330
A
100
AcDbEntity
  8
1
  6
solid
 62
     7
100
AcDbLine
 10
3.838837913197918
 20
-0.8322262151995031
 30
0.0
 11
3.838837913197918
 21
-0.4620339075071955
 31
0.0
  0
LINE
  5
40
330
A
100
AcDbEntity
  8
1
  6
solid
 62
     7
100
AcDbLine
 10
3.838837913197918
 20
-0.4620339075071955
 30
0.0
 11
3.781975168099878
 21
-0.4620339075071955
 31
0.0
  0
LINE
  5
41
330
A
100
AcDbEntity
  8
1
  6
solid
 62
     7
100
AcDbLine
 10
3.781975168099878
 20
-0.4620339075071955
 30
0.0
 11
3.781975168099878
 21
-0.3971300613533493
 31
0.0
  0
LINE
  5
42
330
A
100
AcDbEntity
  8
1
  6
solid
 62
     7
100
AcDbLine
 10
3.781975168099878
 20
-0.3971300613533493
 30
0.0
 11
3.909426148492035
 21
-0.3971300613533493
 31
0.0
  0
LINE
  5
43
330
A
100
AcDbEntity
  8
1
  6
solid
 62
     7
100
AcDbLine
 10
3.909426148492035
 20
-0.3971300613533493
 30
0.0
 11
3.909426148492035
 21
-0.8322262151995031
 31
0.0
  0
LINE
  5
44
330
A
100
AcDbEntity
  8
1
  6
solid
 62
     7
100
AcDbLine
 10
3.909426148492035
 20
-0.8322262151995031
 30
0.0
 11
3.969230070060662
 21
-0.8322262151995031
 31
0.0
  0
LINE
  5
45
330
A
100
AcDbEntity
  8
1
  6
solid
 62
     7
100
AcDbLine
 10
3.969230070060662
 20
-0.8322262151995031
 30
0.0
 11
3.969230070060662
 21
-0.8971300613533493
 31
0.0
  0
LINE
  5
46
330
A
100
AcDbEntity
  8
1
  6
solid
 62
     7
100
AcDbLine
 10
3.969230070060662
 20
-0.8971300613533493
 30
0.0
 11
3.784916344570466
 21
-0.8971300613533493
 31
0.0
  0
LINE
  5
47
330
A
100
AcDbEntity
  8
1
  6
solid
 62
     7
100
AcDbLine
 10
4.300602619080271
 20
-0.3971300613533493
 30
0.0
 11
4.088837913197918
 21
-0.8971300613533493
 31
0.0
  0
LINE
  5
48
330
A
100
AcDbEntity
  8
1
  6
solid
 62
     7
100
AcDbLine
 10
4.088837913197918
 20
-0.8971300613533493
 30
0.0
 11
4.050602619080271
 21
-0.8971300613533493
 31
0.0
  0
LINE
  5
49
330
A
100
AcDbEntity
  8
1
  6
solid
 62
     7
100
AcDbLine
 10
4.050602619080271
 20
-0.8971300613533493
 30
0.0
 11
4.262367324962623
 21
-0.3971300613533493
 31
0.0
  0
LINE
  5
4A
330
A
100
AcDbEntity
  8
1
  6
solid
 62
     7
100
AcDbLine
 10
4.262367324962623
 20
-0.3971300613533493
 30
0.0
 11
4.300602619080271
 21
-0.3971300613533493
 31
0.0
  0
LINE
  5
4B
330
A
100
AcDbEntity
  8
1
  6
solid
 62
     7
100
AcDbLine
 10
4.463347717119486
 20
-0.8971300613533493
 30
0.0
 11
4.463347717119486
 21
-0.8322262151995031
 31
0.0
  0
LINE
  5
4C
330
A
100
AcDbEntity
  8
1
  6
solid
 62
     7
100
AcDbLine
 10
4.463347717119486
 20
-0.8322262151995031
 30
0.0
 11
4.505504579864584
 21
-0.8322262151995031
 31
0.0
  0
LINE
  5
4D
330
A
100
AcDbEntity
  8
1
  6
solid
 62
     7
100
AcDbLine
 10
4.505504579864584
 20
-0.8322262151995031
 30
0.0
 11
4.505504579864584
 21
-0.7745339075071955
 31
0.0
  0
LINE
  5
4E
330
A
100
AcDbEntity
  8
1
  6
solid
 62
     7
100
AcDbLine
 10
4.505504579864584
 20
-0.7745339075071955
 30
0.0
 11
4.35060261908027
 21
-0.7745339075071955
 31
0.0
  0
LINE
  5
4F
330
A
100
AcDbEntity
  8
1
  6
solid
 62
     7
100
AcDbLine
 10
4.35060261908027
 20
-0.7745339075071955
 30
0.0
 11
4.35060261908027
 21
-0.7120339075071955
 31
0.0
  0
LINE
  5
50
330
A
100
AcDbEntity
  8
1
  6
solid
 62
     7
100
AcDbLine
 10
4.35060261908027
 20
-0.7120339075071955
 30
0.0
 11
4.505504579864584
 21
-0.3971300613533493
 31
0.0
  0
LINE
  5
51
330
A
100
AcDbEntity
  8
1
  6
solid
 62
     7
100
AcDbLine
 10
4.505504579864584
 20
-0.3971300613533493
 30
0.0
 11
4.556484972021447
 21
-0.3971300613533493
 31
0.0
  0
LINE
  5
52
330
A
100
AcDbEntity
  8
1
  6
solid
 62
     7
100
AcDbLine
 10
4.556484972021447
 20
-0.3971300613533493
 30
0.0
 11
4.556484972021447
 21
-0.7096300613533493
 31
0.0
  0
LINE
  5
53
330
A
100
AcDbEntity
  8
1
  6
solid
 62
     7
100
AcDbLine
 10
4.556484972021447
 20
-0.7096300613533493
 30
0.0
 11
4.60060261908027
 21
-0.7096300613533493
 31
0.0
  0
LINE
  5
54
330
A
100
AcDbEntity
  8
1
  6
solid
 62
     7
100
AcDbLine
 10
4.60060261908027
 20
-0.7096300613533493
 30
0.0
 11
4.60060261908027
 21
-0.7745339075071955
 31
0.0
  0
LINE
  5
55
330
A
100
AcDbEntity
  8
1
  6
solid
 62
     7
100
AcDbLine
 10
4.60060261908027
 20
-0.7745339075071955
 30
0.0
 11
4.556484972021447
 21
-0.7745339075071955
 31
0.0
  0
LINE
  5
56
330
A
100
AcDbEntity
  8
1
  6
solid
 62
     7
100
AcDbLine
 10
4.556484972021447
 20
-0.7745339075071955
 30
0.0
 11
4.556484972021447
 21
-0.8322262151995031
 31
0.0
  0
LINE
  5
57
330
A
100
AcDbEntity
  8
1
  6
solid
 62
     7
100
AcDbLine
 10
4.556484972021447
 20
-0.8322262151995031
 30
0.0
 11
4.60060261908027
 21
-0.8322262151995031
 31
0.0
  0
LINE
  5
58
330
A
100
AcDbEntity
  8
1
  6
solid
 62
     7
100
AcDbLine
 10
4.60060261908027
 20
-0.8322262151995031
 30
0.0
 11
4.60060261908027
 21
-0.8971300613533493
 31
0.0
  0
LINE
  5
59
330
A
100
AcDbEntity
  8
1
  6
solid
 62
     7
100
AcDbLine
 10
4.60060261908027
 20
-0.8971300613533493
 30
0.0
 11
4.463347717119486
 21
-0.8971300613533493
 31
0.0
  0
LINE
  5
5A
330
A
100
AcDbEntity
  8
1
  6
solid
 62
     7
100
AcDbLine
 10
4.404524187707721
 20
-0.7096300613533493
 30
0.0
 11
4.505504579864584
 21
-0.5028992921225801
 31
0.0
  0
LINE
  5
5B
330
A
100
AcDbEntity
  8
1
  6
solid
 62
     7
100
AcDbLine
 10
4.505504579864584
 20
-0.5028992921225801
 30
0.0
 11
4.505504579864584
 21
-0.7096300613533493
 31
0.0
  0
LINE
  5
5C
330
A
100
AcDbEntity
  8
1
  6
solid
 62
     7
100
AcDbLine
 10
4.505504579864584
 20
-0.7096300613533493
 30
0.0
 11
4.404524187707721
 21
-0.7096300613533493
 31
0.0
  0
LINE
  5
5D
330
A
100
AcDbEntity
  8
1
  6
solid
 62
     7
100
AcDbLine
 10
4.954524187707721
 20
-0.3971300613533493
 30
0.0
 11
4.954524187707721
 21
-0.4620339075071955
 31
0.0
  0
LINE
  5
5E
330
A
100
AcDbEntity
  8
1
  6
solid
 62
     7
100
AcDbLine
 10
4.954524187707721
 20
-0.4620339075071955
 30
0.0
 11
4.989818305354781
 21
-0.4620339075071955
 31
0.0
  0
LINE
  5
5F
330
A
100
AcDbEntity
  8
1
  6
solid
 62
     7
100
AcDbLine
 10
4.989818305354781
 20
-0.4620339075071955
 30
0.0
 11
5.055504579864584
 21
-0.6423223690456571
 31
0.0
  0
LINE
  5
60
330
A
100
AcDbEntity
  8
1
  6
solid
 62
     7
100
AcDbLine
 10
5.055504579864584
 20
-0.6423223690456571
 30
0.0
 11
4.982955560256741
 21
-0.8322262151995031
 31
0.0
  0
LINE
  5
61
330
A
100
AcDbEntity
  8
1
  6
solid
 62
     7
100
AcDbLine
 10
4.982955560256741
 20
-0.8322262151995031
 30
0.0
 11
4.95060261908027
 21
-0.8322262151995031
 31
0.0
  0
LINE
  5
62
330
A
100
AcDbEntity
  8
1
  6
solid
 62
     7
100
AcDbLine
 10
4.95060261908027
 20
-0.8322262151995031
 30
0.0
 11
4.95060261908027
 21
-0.8971300613533493
 31
0.0
  0
LINE
  5
63
330
A
100
AcDbEntity
  8
1
  6
solid
 62
     7
100
AcDbLine
 10
4.95060261908027
 20
-0.8971300613533493
 30
0.0
 11
5.055504579864584
 21
-0.8971300613533493
 31
0.0
  0
LINE
  5
64
330
A
100
AcDbEntity
  8
1
  6
solid
 62
     7
100
AcDbLine
 10
5.055504579864584
 20
-0.8971300613533493
 30
0.0
 11
5.055504579864584
 21
-0.8322262151995031
 31
0.0
  0
LINE
  5
65
330
A
100
AcDbEntity
  8
1
  6
solid
 62
     7
100
AcDbLine
 10
5.055504579864584
 20
-0.8322262151995031
 30
0.0
 11
5.028053599472427
 21
-0.8322262151995031
 31
0.0
  0
LINE
  5
66
330
A
100
AcDbEntity
  8
1
  6
solid
 62
     7
100
AcDbLine
 10
5.028053599472427
 20
-0.8322262151995031
 30
0.0
 11
5.076092815158702
 21
-0.7000146767379647
 31
0.0
  0
LINE
  5
67
330
A
100
AcDbEntity
  8
1
  6
solid
 62
     7
100
AcDbLine
 10
5.076092815158702
 20
-0.7000146767379647
 30
0.0
 11
5.123151638688113
 21
-0.8322262151995031
 31
0.0
  0
LINE
  5
68
330
A
100
AcDbEntity
  8
1
  6
solid
 62
     7
100
AcDbLine
 10
5.123151638688113
 20
-0.8322262151995031
 30
0.0
 11
5.097661442609682
 21
-0.8322262151995031
 31
0.0
  0
LINE
  5
69
330
A
100
AcDbEntity
  8
1
  6
solid
 62
     7
100
AcDbLine
 10
5.097661442609682
 20
-0.8322262151995031
 30
0.0
 11
5.097661442609682
 21
-0.8971300613533493
 31
0.0
  0
LINE
  5
6A
330
A
100
AcDbEntity
  8
1
  6
solid
 62
     7
100
AcDbLine
 10
5.097661442609682
 20
-0.8971300613533493
 30
0.0
 11
5.20060261908027
 21
-0.8971300613533493
 31
0.0
  0
LINE
  5
6B
330
A
100
AcDbEntity
  8
1
  6
solid
 62
     7
100
AcDbLine
 10
5.20060261908027
 20
-0.8971300613533493
 30
0.0
 11
5.20060261908027
 21
-0.8322262151995031
 31
0.0
  0
LINE
  5
6C
330
A
100
AcDbEntity
  8
1
  6
solid
 62
     7
100
AcDbLine
 10
5.20060261908027
 20
-0.8322262151995031
 30
0.0
 11
5.1682496779038
 21
-0.8322262151995031
 31
0.0
  0
LINE
  5
6D
330
A
100
AcDbEntity
  8
1
  6
solid
 62
     7
100
AcDbLine
 10
5.1682496779038
 20
-0.8322262151995031
 30
0.0
 11
5.097661442609682
 21
-0.6423223690456571
 31
0.0
  0
LINE
  5
6E
330
A
100
AcDbEntity
  8
1
  6
solid
 62
     7
100
AcDbLine
 10
5.097661442609682
 20
-0.6423223690456571
 30
0.0
 11
5.16138693280576
 21
-0.4620339075071955
 31
0.0
  0
LINE
  5
6F
330
A
100
AcDbEntity
  8
1
  6
solid
 62
     7
100
AcDbLine
 10
5.16138693280576
 20
-0.4620339075071955
 30
0.0
 11
5.196681050452819
 21
-0.4620339075071955
 31
0.0
  0
LINE
  5
70
330
A
100
AcDbEntity
  8
1
  6
solid
 62
     7
100
AcDbLine
 10
5.196681050452819
 20
-0.4620339075071955
 30
0.0
 11
5.196681050452819
 21
-0.3971300613533493
 31
0.0
  0
LINE
  5
71
330
A
100
AcDbEntity
  8
1
  6
solid
 62
     7
100
AcDbLine
 10
5.196681050452819
 20
-0.3971300613533493
 30
0.0
 11
5.091779089668506
 21
-0.3971300613533493
 31
0.0
  0
LINE
  5
72
330
A
100
AcDbEntity
  8
1
  6
solid
 62
     7
100
AcDbLine
 10
5.091779089668506
 20
-0.3971300613533493
 30
0.0
 11
5.091779089668506
 21
-0.4620339075071955
 31
0.0
  0
LINE
  5
73
330
A
100
AcDbEntity
  8
1
  6
solid
 62
     7
100
AcDbLine
 10
5.091779089668506
 20
-0.4620339075071955
 30
0.0
 11
5.1182496779038
 21
-0.4620339075071955
 31
0.0
  0
LINE
  5
74
330
A
100
AcDbEntity
  8
1
  6
solid
 62
     7
100
AcDbLine
 10
5.1182496779038
 20
-0.4620339075071955
 30
0.0
 11
5.076092815158702
 21
-0.5798223690456571
 31
0.0
  0
LINE
  5
75
330
A
100
AcDbEntity
  8
1
  6
solid
 62
     7
100
AcDbLine
 10
5.076092815158702
 20
-0.5798223690456571
 30
0.0
 11
5.032955560256741
 21
-0.4620339075071955
 31
0.0
  0
LINE
  5
76
330
A
100
AcDbEntity
  8
1
  6
solid
 62
     7
100
AcDbLine
 10
5.032955560256741
 20
-0.4620339075071955
 30
0.0
 11
5.059426148492035
 21
-0.4620339075071955
 31
0.0
  0
LINE
  5
77
330
A
100
AcDbEntity
  8
1
  6
solid
 62
     7
100
AcDbLine
 10
5.059426148492035
 20
-0.4620339075071955
 30
0.0
 11
5.059426148492035
 21
-0.3971300613533493
 31
0.0
  0
LINE
  5
78
330
A
100
AcDbEntity
  8
1
  6
solid
 62
     7
100
AcDbLine
 10
5.059426148492035
 20
-0.3971300613533493
 30
0.0
 11
4.954524187707721
 21
-0.3971300613533493
 31
0.0
  0
LINE
  5
79
330
A
100
AcDbEntity
  8
1
  6
solid
 62
     7
100
AcDbLine
 10
5.663347717119486
 20
-0.8971300613533493
 30
0.0
 11
5.663347717119486
 21
-0.8322262151995031
 31
0.0
  0
LINE
  5
7A
330
A
100
AcDbEntity
  8
1
  6
solid
 62
     7
100
AcDbLine
 10
5.663347717119486
 20
-0.8322262151995031
 30
0.0
 11
5.705504579864584
 21
-0.8322262151995031
 31
0.0
  0
LINE
  5
7B
330
A
100
AcDbEntity
  8
1
  6
solid
 62
     7
100
AcDbLine
 10
5.705504579864584
 20
-0.8322262151995031
 30
0.0
 11
5.705504579864584
 21
-0.7745339075071955
 31
0.0
  0
LINE
  5
7C
330
A
100
AcDbEntity
  8
1
  6
solid
 62
     7
100
AcDbLine
 10
5.705504579864584
 20
-0.7745339075071955
 30
0.0
 11
5.550602619080271
 21
-0.7745339075071955
 31
0.0
  0
LINE
  5
7D
330
A
100
AcDbEntity
  8
1
  6
solid
 62
     7
100
AcDbLine
 10
5.550602619080271
 20
-0.7745339075071955
 30
0.0
 11
5.550602619080271
 21
-0.7120339075071955
 31
0.0
  0
LINE
  5
7E
330
A
100
AcDbEntity
  8
1
  6
solid
 62
     7
100
AcDbLine
 10
5.550602619080271
 20
-0.7120339075071955
 30
0.0
 11
5.705504579864584
 21
-0.3971300613533493
 31
0.0
  0
LINE
  5
7F
330
A
100
AcDbEntity
  8
1
  6
solid
 62
     7
100
AcDbLine
 10
5.705504579864584
 20
-0.3971300613533493
 30
0.0
 11
5.756484972021446
 21
-0.3971300613533493
 31
0.0
  0
LINE
  5
80
330
A
100
AcDbEntity
  8
1
  6
solid
 62
     7
100
AcDbLine
 10
5.756484972021446
 20
-0.3971300613533493
 30
0.0
 11
5.756484972021446
 21
-0.7096300613533493
 31
0.0
  0
LINE
  5
81
330
A
100
AcDbEntity
  8
1
  6
solid
 62
     7
100
AcDbLine
 10
5.756484972021446
 20
-0.7096300613533493
 30
0.0
 11
5.800602619080271
 21
-0.7096300613533493
 31
0.0
  0
LINE
  5
82
330
A
100
AcDbEntity
  8
1
  6
solid
 62
     7
100
AcDbLine
 10
5.800602619080271
 20
-0.7096300613533493
 30
0.0
 11
5.800602619080271
 21
-0.7745339075071955
 31
0.0
  0
LINE
  5
83
330
A
100
AcDbEntity
  8
1
  6
solid
 62
     7
100
AcDbLine
 10
5.800602619080271
 20
-0.7745339075071955
 30
0.0
 11
5.756484972021446
 21
-0.7745339075071955
 31
0.0
  0
LINE
  5
84
330
A
100
AcDbEntity
  8
1
  6
solid
 62
     7
100
AcDbLine
 10
5.756484972021446
 20
-0.7745339075071955
 30
0.0
 11
5.756484972021446
 21
-0.8322262151995031
 31
0.0
  0
LINE
  5
85
330
A
100
AcDbEntity
  8
1
  6
solid
 62
     7
100
AcDbLine
 10
5.756484972021446
 20
-0.8322262151995031
 30
0.0
 11
5.800602619080271
 21
-0.8322262151995031
 31
0.0
  0
LINE
  5
86
330
A
100
AcDbEntity
  8
1
  6
solid
 62
     7
100
AcDbLine
 10
5.800602619080271
 20
-0.8322262151995031
 30
0.0
 11
5.800602619080271
 21
-0.8971300613533493
 31
0.0
  0
LINE
  5
87
330
A
100
AcDbEntity
  8
1
  6
solid
 62
     7
100
AcDbLine
 10
5.800602619080271
 20
-0.8971300613533493
 30
0.0
 11
5.663347717119486
 21
-0.8971300613533493
 31
0.0
  0
LINE
  5
88
330
A
100
AcDbEntity
  8
1
  6
solid
 62
     7
100
AcDbLine
 10
5.604524187707721
 20
-0.7096300613533493
 30
0.0
 11
5.705504579864584
 21
-0.5028992921225801
 31
0.0
  0
LINE
  5
89
330
A
100
AcDbEntity
  8
1
  6
solid
 62
     7
100
AcDbLine
 10
5.705504579864584
 20
-0.5028992921225801
 30
0.0
 11
5.705504579864584
 21
-0.7096300613533493
 31
0.0
  0
LINE
  5
8A
330
A
100
AcDbEntity
  8
1
  6
solid
 62
     7
100
AcDbLine
 10
5.705504579864584
 20
-0.7096300613533493
 30
0.0
 11
5.604524187707721
 21
-0.7096300613533493
 31
0.0
  0
LINE
  5
8B
330
A
100
AcDbEntity
  8
1
  6
solid
 62
     7
100
AcDbLine
 10
5.85060261908027
 20
-0.7865531382764262
 30
0.0
 11
6.10060261908027
 21
-0.7865531382764262
 31
0.0
  0
LINE
  5
8C
330
A
100
AcDbEntity
  8
1
  6
solid
 62
     7
100
AcDbLine
 10
6.10060261908027
 20
-0.7865531382764262
 30
0.0
 11
6.10060261908027
 21
-0.6807839075071955
 31
0.0
  0
LINE
  5
8D
330
A
100
AcDbEntity
  8
1
  6
solid
 62
     7
100
AcDbLine
 10
6.10060261908027
 20
-0.6807839075071955
 30
0.0
 11
5.85060261908027
 21
-0.6807839075071955
 31
0.0
  0
LINE
  5
8E
330
A
100
AcDbEntity
  8
1
  6
solid
 62
     7
100
AcDbLine
 10
5.85060261908027
 20
-0.6807839075071955
 30
0.0
 11
5.85060261908027
 21
-0.7865531382764262
 31
0.0
  0
LINE
  5
8F
330
A
100
AcDbEntity
  8
1
  6
solid
 62
     7
100
AcDbLine
 10
6.15060261908027
 20
-0.7577069844302724
 30
0.0
 11
6.158445756335172
 21
-0.7913608305841185
 31
0.0
  0
LINE
  5
90
330
A
100
AcDbEntity
  8
1
  6
solid
 62
     7
100
AcDbLine
 10
6.158445756335172
 20
-0.7913608305841185
 30
0.0
 11
6.171190854374388
 21
-0.8202069844302723
 31
0.0
  0
LINE
  5
91
330
A
100
AcDbEntity
  8
1
  6
solid
 62
     7
100
AcDbLine
 10
6.171190854374388
 20
-0.8202069844302723
 30
0.0
 11
6.185896736727329
 21
-0.8442454459687338
 31
0.0
  0
LINE
  5
92
330
A
100
AcDbEntity
  8
1
  6
solid
 62
     7
100
AcDbLine
 10
6.185896736727329
 20
-0.8442454459687338
 30
0.0
 11
6.201583011237133
 21
-0.8658800613533493
 31
0.0
  0
LINE
  5
93
330
A
100
AcDbEntity
  8
1
  6
solid
 62
     7
100
AcDbLine
 10
6.201583011237133
 20
-0.8658800613533493
 30
0.0
 11
6.221190854374388
 21
-0.8803031382764261
 31
0.0
  0
LINE
  5
94
330
A
100
AcDbEntity
  8
1
  6
solid
 62
     7
100
AcDbLine
 10
6.221190854374388
 20
-0.8803031382764261
 30
0.0
 11
6.243739873982232
 21
-0.8899185228918108
 31
0.0
  0
LINE
  5
95
330
A
100
AcDbEntity
  8
1
  6
solid
 62
     7
100
AcDbLine
 10
6.243739873982232
 20
-0.8899185228918108
 30
0.0
 11
6.269230070060663
 21
-0.8971300613533493
 31
0.0
  0
LINE
  5
96
330
A
100
AcDbEntity
  8
1
  6
solid
 62
     7
100
AcDbLine
 10
6.269230070060663
 20
-0.8971300613533493
 30
0.0
 11
6.284916344570467
 21
-0.8971300613533493
 31
0.0
  0
LINE
  5
97
330
A
100
AcDbEntity
  8
1
  6
solid
 62
     7
100
AcDbLine
 10
6.284916344570467
 20
-0.8971300613533493
 30
0.0
 11
6.317269285746936
 21
-0.8875146767379646
 31
0.0
  0
LINE
  5
98
330
A
100
AcDbEntity
  8
1
  6
solid
 62
     7
100
AcDbLine
 10
6.317269285746936
 20
-0.8875146767379646
 30
0.0
 11
6.342759481825368
 21
-0.8682839075071953
 31
0.0
  0
LINE
  5
99
330
A
100
AcDbEntity
  8
1
  6
solid
 62
     7
100
AcDbLine
 10
6.342759481825368
 20
-0.8682839075071953
 30
0.0
 11
6.362367324962623
 21
-0.84664929212258
 31
0.0
  0
LINE
  5
9A
330
A
100
AcDbEntity
  8
1
  6
solid
 62
     7
100
AcDbLine
 10
6.362367324962623
 20
-0.84664929212258
 30
0.0
 11
6.380014383786153
 21
-0.8202069844302723
 31
0.0
  0
LINE
  5
9B
330
A
100
AcDbEntity
  8
1
  6
solid
 62
     7
100
AcDbLine
 10
6.380014383786153
 20
-0.8202069844302723
 30
0.0
 11
6.392759481825368
 21
-0.7841492921225801
 31
0.0
  0
LINE
  5
9C
330
A
100
AcDbEntity
  8
1
  6
solid
 62
     7
100
AcDbLine
 10
6.392759481825368
 20
-0.7841492921225801
 30
0.0
 11
6.397661442609682
 21
-0.7553031382764262
 31
0.0
  0
LINE
  5
9D
330
A
100
AcDbEntity
  8
1
  6
solid
 62
     7
100
AcDbLine
 10
6.397661442609682
 20
-0.7553031382764262
 30
0.0
 11
6.40060261908027
 21
-0.7312646767379647
 31
0.0
  0
LINE
  5
9E
330
A
100
AcDbEntity
  8
1
  6
solid
 62
     7
100
AcDbLine
 10
6.40060261908027
 20
-0.7312646767379647
 30
0.0
 11
6.40060261908027
 21
-0.7048223690456571
 31
0.0
  0
LINE
  5
9F
330
A
100
AcDbEntity
  8
1
  6
solid
 62
     7
100
AcDbLine
 10
6.40060261908027
 20
-0.7048223690456571
 30
0.0
 11
6.395700658295957
 21
-0.6639569844302724
 31
0.0
  0
LINE
  5
A0
330
A
100
AcDbEntity
  8
1
  6
solid
 62
     7
100
AcDbLine
 10
6.395700658295957
 20
-0.6639569844302724
 30
0.0
 11
6.382955560256741
 21
-0.6278992921225801
 31
0.0
  0
LINE
  5
A1
330
A
100
AcDbEntity
  8
1
  6
solid
 62
     7
100
AcDbLine
 10
6.382955560256741
 20
-0.6278992921225801
 30
0.0
 11
6.373151638688113
 21
-0.6062646767379647
 31
0.0
  0
LINE
  5
A2
330
A
100
AcDbEntity
  8
1
  6
solid
 62
     7
100
AcDbLine
 10
6.373151638688113
 20
-0.6062646767379647
 30
0.0
 11
6.35746536417831
 21
-0.5846300613533493
 31
0.0
  0
LINE
  5
A3
330
A
100
AcDbEntity
  8
1
  6
solid
 62
     7
100
AcDbLine
 10
6.35746536417831
 20
-0.5846300613533493
 30
0.0
 11
6.33981830535478
 21
-0.5678031382764262
 31
0.0
  0
LINE
  5
A4
330
A
100
AcDbEntity
  8
1
  6
solid
 62
     7
100
AcDbLine
 10
6.33981830535478
 20
-0.5678031382764262
 30
0.0
 11
6.322171246531251
 21
-0.5533800613533493
 31
0.0
  0
LINE
  5
A5
330
A
100
AcDbEntity
  8
1
  6
solid
 62
     7
100
AcDbLine
 10
6.322171246531251
 20
-0.5533800613533493
 30
0.0
 11
6.304524187707722
 21
-0.5461685228918107
 31
0.0
  0
LINE
  5
A6
330
A
100
AcDbEntity
  8
1
  6
solid
 62
     7
100
AcDbLine
 10
6.304524187707722
 20
-0.5461685228918107
 30
0.0
 11
6.27903399162929
 21
-0.5413608305841185
 31
0.0
  0
LINE
  5
A7
330
A
100
AcDbEntity
  8
1
  6
solid
 62
     7
100
AcDbLine
 10
6.27903399162929
 20
-0.5413608305841185
 30
0.0
 11
6.264328109276348
 21
-0.5413608305841185
 31
0.0
  0
LINE
  5
A8
330
A
100
AcDbEntity
  8
1
  6
solid
 62
     7
100
AcDbLine
 10
6.264328109276348
 20
-0.5413608305841185
 30
0.0
 11
6.243739873982232
 21
-0.5461685228918107
 31
0.0
  0
LINE
  5
A9
330
A
100
AcDbEntity
  8
1
  6
solid
 62
     7
100
AcDbLine
 10
6.243739873982232
 20
-0.5461685228918107
 30
0.0
 11
6.226092815158702
 21
-0.5533800613533493
 31
0.0
  0
LINE
  5
AA
330
A
100
AcDbEntity
  8
1
  6
solid
 62
     7
100
AcDbLine
 10
6.226092815158702
 20
-0.5533800613533493
 30
0.0
 11
6.216288893590075
 21
-0.5605915998148879
 31
0.0
  0
LINE
  5
AB
330
A
100
AcDbEntity
  8
1
  6
solid
 62
     7
100
AcDbLine
 10
6.216288893590075
 20
-0.5605915998148879
 30
0.0
 11
6.233935952413604
 21
-0.4572262151995031
 31
0.0
  0
LINE
  5
AC
330
A
100
AcDbEntity
  8
1
  6
solid
 62
     7
100
AcDbLine
 10
6.233935952413604
 20
-0.4572262151995031
 30
0.0
 11
6.35746536417831
 21
-0.4572262151995031
 31
0.0
  0
LINE
  5
AD
330
A
100
AcDbEntity
  8
1
  6
solid
 62
     7
100
AcDbLine
 10
6.35746536417831
 20
-0.4572262151995031
 30
0.0
 11
6.35746536417831
 21
-0.3971300613533493
 31
0.0
  0
LINE
  5
AE
330
A
100
AcDbEntity
  8
1
  6
solid
 62
     7
100
AcDbLine
 10
6.35746536417831
 20
-0.3971300613533493
 30
0.0
 11
6.201583011237133
 21
-0.3971300613533493
 31
0.0
  0
LINE
  5
AF
330
A
100
AcDbEntity
  8
1
  6
solid
 62
     7
100
AcDbLine
 10
6.201583011237133
 20
-0.3971300613533493
 30
0.0
 11
6.15060261908027
 21
-0.6783800613533493
 31
0.0
  0
LINE
  5
B0
330
A
100
AcDbEntity
  8
1
  6
solid
 62
     7
100
AcDbLine
 10
6.15060261908027
 20
-0.6783800613533493
 30
0.0
 11
6.193739873982231
 21
-0.6903992921225801
 31
0.0
  0
LINE
  5
B1
330
A
100
AcDbEntity
  8
1
  6
solid
 62
     7
100
AcDbLine
 10
6.193739873982231
 20
-0.6903992921225801
 30
0.0
 11
6.198641834766545
 21
-0.6711685228918107
 31
0.0
  0
LINE
  5
B2
330
A
100
AcDbEntity
  8
1
  6
solid
 62
     7
100
AcDbLine
 10
6.198641834766545
 20
-0.6711685228918107
 30
0.0
 11
6.206484972021446
 21
-0.6519377536610416
 31
0.0
  0
LINE
  5
B3
330
A
100
AcDbEntity
  8
1
  6
solid
 62
     7
100
AcDbLine
 10
6.206484972021446
 20
-0.6519377536610416
 30
0.0
 11
6.216288893590075
 21
-0.6351108305841185
 31
0.0
  0
LINE
  5
B4
330
A
100
AcDbEntity
  8
1
  6
solid
 62
     7
100
AcDbLine
 10
6.216288893590075
 20
-0.6351108305841185
 30
0.0
 11
6.22903399162929
 21
-0.6206877536610416
 31
0.0
  0
LINE
  5
B5
330
A
100
AcDbEntity
  8
1
  6
solid
 62
     7
100
AcDbLine
 10
6.22903399162929
 20
-0.6206877536610416
 30
0.0
 11
6.243739873982232
 21
-0.6110723690456571
 31
0.0
  0
LINE
  5
B6
330
A
100
AcDbEntity
  8
1
  6
solid
 62
     7
100
AcDbLine
 10
6.243739873982232
 20
-0.6110723690456571
 30
0.0
 11
6.261386932805761
 21
-0.6038608305841185
 31
0.0
  0
LINE
  5
B7
330
A
100
AcDbEntity
  8
1
  6
solid
 62
     7
100
AcDbLine
 10
6.261386932805761
 20
-0.6038608305841185
 30
0.0
 11
6.27903399162929
 21
-0.6038608305841185
 31
0.0
  0
LINE
  5
B8
330
A
100
AcDbEntity
  8
1
  6
solid
 62
     7
100
AcDbLine
 10
6.27903399162929
 20
-0.6038608305841185
 30
0.0
 11
6.299622226923407
 21
-0.6062646767379647
 31
0.0
  0
LINE
  5
B9
330
A
100
AcDbEntity
  8
1
  6
solid
 62
     7
100
AcDbLine
 10
6.299622226923407
 20
-0.6062646767379647
 30
0.0
 11
6.314328109276349
 21
-0.6158800613533493
 31
0.0
  0
LINE
  5
BA
330
A
100
AcDbEntity
  8
1
  6
solid
 62
     7
100
AcDbLine
 10
6.314328109276349
 20
-0.6158800613533493
 30
0.0
 11
6.327073207315564
 21
-0.6278992921225801
 31
0.0
  0
LINE
  5
BB
330
A
100
AcDbEntity
  8
1
  6
solid
 62
     7
100
AcDbLine
 10
6.327073207315564
 20
-0.6278992921225801
 30
0.0
 11
6.33981830535478
 21
-0.6447262151995031
 31
0.0
  0
LINE
  5
BC
330
A
100
AcDbEntity
  8
1
  6
solid
 62
     7
100
AcDbLine
 10
6.33981830535478
 20
-0.6447262151995031
 30
0.0
 11
6.349622226923408
 21
-0.6663608305841185
 31
0.0
  0
LINE
  5
BD
330
A
100
AcDbEntity
  8
1
  6
solid
 62
     7
100
AcDbLine
 10
6.349622226923408
 20
-0.6663608305841185
 30
0.0
 11
6.355504579864584
 21
-0.6879954459687339
 31
0.0
  0
LINE
  5
BE
330
A
100
AcDbEntity
  8
1
  6
solid
 62
     7
100
AcDbLine
 10
6.355504579864584
 20
-0.6879954459687339
 30
0.0
 11
6.35746536417831
 21
-0.7096300613533493
 31
0.0
  0
LINE
  5
BF
330
A
100
AcDbEntity
  8
1
  6
solid
 62
     7
100
AcDbLine
 10
6.35746536417831
 20
-0.7096300613533493
 30
0.0
 11
6.35746536417831
 21
-0.7264569844302724
 31
0.0
  0
LINE
  5
C0
330
A
100
AcDbEntity
  8
1
  6
solid
 62
     7
100
AcDbLine
 10
6.35746536417831
 20
-0.7264569844302724
 30
0.0
 11
6.352563403393996
 21
-0.7553031382764262
 31
0.0
  0
LINE
  5
C1
330
A
100
AcDbEntity
  8
1
  6
solid
 62
     7
100
AcDbLine
 10
6.352563403393996
 20
-0.7553031382764262
 30
0.0
 11
6.344720266139094
 21
-0.7793415998148877
 31
0.0
  0
LINE
  5
C2
330
A
100
AcDbEntity
  8
1
  6
solid
 62
     7
100
AcDbLine
 10
6.344720266139094
 20
-0.7793415998148877
 30
0.0
 11
6.331975168099878
 21
-0.8009762151995031
 31
0.0
  0
LINE
  5
C3
330
A
100
AcDbEntity
  8
1
  6
solid
 62
     7
100
AcDbLine
 10
6.331975168099878
 20
-0.8009762151995031
 30
0.0
 11
6.320210462217525
 21
-0.81539929212258
 31
0.0
  0
LINE
  5
C4
330
A
100
AcDbEntity
  8
1
  6
solid
 62
     7
100
AcDbLine
 10
6.320210462217525
 20
-0.81539929212258
 30
0.0
 11
6.304524187707722
 21
-0.8250146767379646
 31
0.0
  0
LINE
  5
C5
330
A
100
AcDbEntity
  8
1
  6
solid
 62
     7
100
AcDbLine
 10
6.304524187707722
 20
-0.8250146767379646
 30
0.0
 11
6.286877128884192
 21
-0.8322262151995031
 31
0.0
  0
LINE
  5
C6
330
A
100
AcDbEntity
  8
1
  6
solid
 62
     7
100
AcDbLine
 10
6.286877128884192
 20
-0.8322262151995031
 30
0.0
 11
6.269230070060663
 21
-0.8322262151995031
 31
0.0
  0
LINE
  5
C7
330
A
100
AcDbEntity
  8
1
  6
solid
 62
     7
100
AcDbLine
 10
6.269230070060663
 20
-0.8322262151995031
 30
0.0
 11
6.248641834766544
 21
-0.829822369045657
 31
0.0
  0
LINE
  5
C8
330
A
100
AcDbEntity
  8
1
  6
solid
 62
     7
100
AcDbLine
 10
6.248641834766544
 20
-0.829822369045657
 30
0.0
 11
6.22903399162929
 21
-0.81539929212258
 31
0.0
  0
LINE
  5
C9
330
A
100
AcDbEntity
  8
1
  6
solid
 62
     7
100
AcDbLine
 10
6.22903399162929
 20
-0.81539929212258
 30
0.0
 11
6.216288893590075
 21
-0.8009762151995031
 31
0.0
  0
LINE
  5
CA
330
A
100
AcDbEntity
  8
1
  6
solid
 62
     7
100
AcDbLine
 10
6.216288893590075
 20
-0.8009762151995031
 30
0.0
 11
6.203543795550858
 21
-0.7793415998148877
 31
0.0
  0
LINE
  5
CB
330
A
100
AcDbEntity
  8
1
  6
solid
 62
     7
100
AcDbLine
 10
6.203543795550858
 20
-0.7793415998148877
 30
0.0
 11
6.195700658295956
 21
-0.7577069844302724
 31
0.0
  0
LINE
  5
CC
330
A
100
AcDbEntity
  8
1
  6
solid
 62
     7
100
AcDbLine
 10
6.195700658295956
 20
-0.7577069844302724
 30
0.0
 11
6.15060261908027
 21
-0.7577069844302724
 31
0.0
  0
LINE
  5
CD
330
A
100
AcDbEntity
  8
1
  6
solid
 62
     7
100
AcDbLine
 10
6.70060261908027
 20
-0.3971300613533493
 30
0.0
 11
6.488837913197917
 21
-0.8971300613533493
 31
0.0
  0
LINE
  5
CE
330
A
100
AcDbEntity
  8
1
  6
solid
 62
     7
100
AcDbLine
 10
6.488837913197917
 20
-0.8971300613533493
 30
0.0
 11
6.45060261908027
 21
-0.8971300613533493
 31
0.0
  0
LINE
  5
CF
330
A
100
AcDbEntity
  8
1
  6
solid
 62
     7
100
AcDbLine
 10
6.45060261908027
 20
-0.8971300613533493
 30
0.0
 11
6.662367324962623
 21
-0.3971300613533493
 31
0.0
  0
LINE
  5
D0
330
A
100
AcDbEntity
  8
1
  6
solid
 62
     7
100
AcDbLine
 10
6.662367324962623
 20
-0.3971300613533493
 30
0.0
 11
6.70060261908027
 21
-0.3971300613533493
 31
0.0
  0
LINE
  5
D1
330
A
100
AcDbEntity
  8
1
  6
solid
 62
     7
100
AcDbLine
 10
6.810406540648897
 20
-0.6014569844302724
 30
0.0
 11
6.796681050452819
 21
-0.6158800613533493
 31
0.0
  0
LINE
  5
D2
330
A
100
AcDbEntity
  8
1
  6
solid
 62
     7
100
AcDbLine
 10
6.796681050452819
 20
-0.6158800613533493
 30
0.0
 11
6.78295556025674
 21
-0.6327069844302724
 31
0.0
  0
LINE
  5
D3
330
A
100
AcDbEntity
  8
1
  6
solid
 62
     7
100
AcDbLine
 10
6.78295556025674
 20
-0.6327069844302724
 30
0.0
 11
6.77217124653125
 21
-0.6495339075071955
 31
0.0
  0
LINE
  5
D4
330
A
100
AcDbEntity
  8
1
  6
solid
 62
     7
100
AcDbLine
 10
6.77217124653125
 20
-0.6495339075071955
 30
0.0
 11
6.764328109276348
 21
-0.6687646767379647
 31
0.0
  0
LINE
  5
D5
330
A
100
AcDbEntity
  8
1
  6
solid
 62
     7
100
AcDbLine
 10
6.764328109276348
 20
-0.6687646767379647
 30
0.0
 11
6.758445756335172
 21
-0.6855915998148877
 31
0.0
  0
LINE
  5
D6
330
A
100
AcDbEntity
  8
1
  6
solid
 62
     7
100
AcDbLine
 10
6.758445756335172
 20
-0.6855915998148877
 30
0.0
 11
6.753543795550858
 21
-0.7096300613533493
 31
0.0
  0
LINE
  5
D7
330
A
100
AcDbEntity
  8
1
  6
solid
 62
     7
100
AcDbLine
 10
6.753543795550858
 20
-0.7096300613533493
 30
0.0
 11
6.75060261908027
 21
-0.7264569844302724
 31
0.0
  0
LINE
  5
D8
330
A
100
AcDbEntity
  8
1
  6
solid
 62
     7
100
AcDbLine
 10
6.75060261908027
 20
-0.7264569844302724
 30
0.0
 11
6.75060261908027
 21
-0.7384762151995031
 31
0.0
  0
LINE
  5
D9
330
A
100
AcDbEntity
  8
1
  6
solid
 62
     7
100
AcDbLine
 10
6.75060261908027
 20
-0.7384762151995031
 30
0.0
 11
6.753543795550858
 21
-0.7577069844302724
 31
0.0
  0
LINE
  5
DA
330
A
100
AcDbEntity
  8
1
  6
solid
 62
     7
100
AcDbLine
 10
6.753543795550858
 20
-0.7577069844302724
 30
0.0
 11
6.756484972021446
 21
-0.7793415998148877
 31
0.0
  0
LINE
  5
DB
330
A
100
AcDbEntity
  8
1
  6
solid
 62
     7
100
AcDbLine
 10
6.756484972021446
 20
-0.7793415998148877
 30
0.0
 11
6.76138693280576
 21
-0.8009762151995031
 31
0.0
  0
LINE
  5
DC
330
A
100
AcDbEntity
  8
1
  6
solid
 62
     7
100
AcDbLine
 10
6.76138693280576
 20
-0.8009762151995031
 30
0.0
 11
6.77217124653125
 21
-0.8274185228918108
 31
0.0
  0
LINE
  5
DD
330
A
100
AcDbEntity
  8
1
  6
solid
 62
     7
100
AcDbLine
 10
6.77217124653125
 20
-0.8274185228918108
 30
0.0
 11
6.788837913197917
 21
-0.8490531382764261
 31
0.0
  0
LINE
  5
DE
330
A
100
AcDbEntity
  8
1
  6
solid
 62
     7
100
AcDbLine
 10
6.788837913197917
 20
-0.8490531382764261
 30
0.0
 11
6.802563403393995
 21
-0.8658800613533493
 31
0.0
  0
LINE
  5
DF
330
A
100
AcDbEntity
  8
1
  6
solid
 62
     7
100
AcDbLine
 10
6.802563403393995
 20
-0.8658800613533493
 30
0.0
 11
6.827073207315564
 21
-0.8827069844302723
 31
0.0
  0
LINE
  5
E0
330
A
100
AcDbEntity
  8
1
  6
solid
 62
     7
100
AcDbLine
 10
6.827073207315564
 20
-0.8827069844302723
 30
0.0
 11
6.851583011237133
 21
-0.8947262151995031
 31
0.0
  0
LINE
  5
E1
330
A
100
AcDbEntity
  8
1
  6
solid
 62
     7
100
AcDbLine
 10
6.851583011237133
 20
-0.8947262151995031
 30
0.0
 11
6.870210462217524
 21
-0.8971300613533493
 31
0.0
  0
LINE
  5
E2
330
A
100
AcDbEntity
  8
1
  6
solid
 62
     7
100
AcDbLine
 10
6.870210462217524
 20
-0.8971300613533493
 30
0.0
 11
6.891779089668505
 21
-0.8971300613533493
 31
0.0
  0
LINE
  5
E3
330
A
100
AcDbEntity
  8
1
  6
solid
 62
     7
100
AcDbLine
 10
6.891779089668505
 20
-0.8971300613533493
 30
0.0
 11
6.913347717119485
 21
-0.8899185228918108
 31
0.0
  0
LINE
  5
E4
330
A
100
AcDbEntity
  8
1
  6
solid
 62
     7
100
AcDbLine
 10
6.913347717119485
 20
-0.8899185228918108
 30
0.0
 11
6.937857521041054
 21
-0.8730915998148876
 31
0.0
  0
LINE
  5
E5
330
A
100
AcDbEntity
  8
1
  6
solid
 62
     7
100
AcDbLine
 10
6.937857521041054
 20
-0.8730915998148876
 30
0.0
 11
6.962367324962623
 21
-0.8514569844302723
 31
0.0
  0
LINE
  5
E6
330
A
100
AcDbEntity
  8
1
  6
solid
 62
     7
100
AcDbLine
 10
6.962367324962623
 20
-0.8514569844302723
 30
0.0
 11
6.97903399162929
 21
-0.8250146767379646
 31
0.0
  0
LINE
  5
E7
330
A
100
AcDbEntity
  8
1
  6
solid
 62
     7
100
AcDbLine
 10
6.97903399162929
 20
-0.8250146767379646
 30
0.0
 11
6.98981830535478
 21
-0.7961685228918109
 31
0.0
  0
LINE
  5
E8
330
A
100
AcDbEntity
  8
1
  6
solid
 62
     7
100
AcDbLine
 10
6.98981830535478
 20
-0.7961685228918109
 30
0.0
 11
6.994720266139093
 21
-0.7817454459687339
 31
0.0
  0
LINE
  5
E9
330
A
100
AcDbEntity
  8
1
  6
solid
 62
     7
100
AcDbLine
 10
6.994720266139093
 20
-0.7817454459687339
 30
0.0
 11
7.00060261908027
 21
-0.7504954459687339
 31
0.0
  0
LINE
  5
EA
330
A
100
AcDbEntity
  8
1
  6
solid
 62
     7
100
AcDbLine
 10
7.00060261908027
 20
-0.7504954459687339
 30
0.0
 11
7.00060261908027
 21
-0.7240531382764262
 31
0.0
  0
LINE
  5
EB
330
A
100
AcDbEntity
  8
1
  6
solid
 62
     7
100
AcDbLine
 10
7.00060261908027
 20
-0.7240531382764262
 30
0.0
 11
6.994720266139093
 21
-0.6928031382764263
 31
0.0
  0
LINE
  5
EC
330
A
100
AcDbEntity
  8
1
  6
solid
 62
     7
100
AcDbLine
 10
6.994720266139093
 20
-0.6928031382764263
 30
0.0
 11
6.986877128884191
 21
-0.6687646767379647
 31
0.0
  0
LINE
  5
ED
330
A
100
AcDbEntity
  8
1
  6
solid
 62
     7
100
AcDbLine
 10
6.986877128884191
 20
-0.6687646767379647
 30
0.0
 11
6.976092815158701
 21
-0.6399185228918109
 31
0.0
  0
LINE
  5
EE
330
A
100
AcDbEntity
  8
1
  6
solid
 62
     7
100
AcDbLine
 10
6.976092815158701
 20
-0.6399185228918109
 30
0.0
 11
6.962367324962623
 21
-0.6230915998148877
 31
0.0
  0
LINE
  5
EF
330
A
100
AcDbEntity
  8
1
  6
solid
 62
     7
100
AcDbLine
 10
6.962367324962623
 20
-0.6230915998148877
 30
0.0
 11
6.948641834766545
 21
-0.6086685228918107
 31
0.0
  0
LINE
  5
F0
330
A
100
AcDbEntity
  8
1
  6
solid
 62
     7
100
AcDbLine
 10
6.948641834766545
 20
-0.6086685228918107
 30
0.0
 11
6.940798697511642
 21
-0.6014569844302724
 31
0.0
  0
LINE
  5
F1
330
A
100
AcDbEntity
  8
1
  6
solid
 62
     7
100
AcDbLine
 10
6.940798697511642
 20
-0.6014569844302724
 30
0.0
 11
6.954524187707721
 21
-0.5846300613533493
 31
0.0
  0
LINE
  5
F2
330
A
100
AcDbEntity
  8
1
  6
solid
 62
     7
100
AcDbLine
 10
6.954524187707721
 20
-0.5846300613533493
 30
0.0
 11
6.962367324962623
 21
-0.5678031382764262
 31
0.0
  0
LINE
  5
F3
330
A
100
AcDbEntity
  8
1
  6
solid
 62
     7
100
AcDbLine
 10
6.962367324962623
 20
-0.5678031382764262
 30
0.0
 11
6.968249677903799
 21
-0.5509762151995031
 31
0.0
  0
LINE
  5
F4
330
A
100
AcDbEntity
  8
1
  6
solid
 62
     7
100
AcDbLine
 10
6.968249677903799
 20
-0.5509762151995031
 30
0.0
 11
6.971190854374388
 21
-0.5245339075071955
 31
0.0
  0
LINE
  5
F5
330
A
100
AcDbEntity
  8
1
  6
solid
 62
     7
100
AcDbLine
 10
6.971190854374388
 20
-0.5245339075071955
 30
0.0
 11
6.971190854374388
 21
-0.5053031382764262
 31
0.0
  0
LINE
  5
F6
330
A
100
AcDbEntity
  8
1
  6
solid
 62
     7
100
AcDbLine
 10
6.971190854374388
 20
-0.5053031382764262
 30
0.0
 11
6.968249677903799
 21
-0.4884762151995031
 31
0.0
  0
LINE
  5
F7
330
A
100
AcDbEntity
  8
1
  6
solid
 62
     7
100
AcDbLine
 10
6.968249677903799
 20
-0.4884762151995031
 30
0.0
 11
6.962367324962623
 21
-0.4692454459687339
 31
0.0
  0
LINE
  5
F8
330
A
100
AcDbEntity
  8
1
  6
solid
 62
     7
100
AcDbLine
 10
6.962367324962623
 20
-0.4692454459687339
 30
0.0
 11
6.954524187707721
 21
-0.4500146767379646
 31
0.0
  0
LINE
  5
F9
330
A
100
AcDbEntity
  8
1
  6
solid
 62
     7
100
AcDbLine
 10
6.954524187707721
 20
-0.4500146767379646
 30
0.0
 11
6.946681050452819
 21
-0.4355915998148877
 31
0.0
  0
LINE
  5
FA
330
A
100
AcDbEntity
  8
1
  6
solid
 62
     7
100
AcDbLine
 10
6.946681050452819
 20
-0.4355915998148877
 30
0.0
 11
6.93295556025674
 21
-0.4211685228918108
 31
0.0
  0
LINE
  5
FB
330
A
100
AcDbEntity
  8
1
  6
solid
 62
     7
100
AcDbLine
 10
6.93295556025674
 20
-0.4211685228918108
 30
0.0
 11
6.922171246531251
 21
-0.4115531382764262
 31
0.0
  0
LINE
  5
FC
330
A
100
AcDbEntity
  8
1
  6
solid
 62
     7
100
AcDbLine
 10
6.922171246531251
 20
-0.4115531382764262
 30
0.0
 11
6.908445756335172
 21
-0.4043415998148877
 31
0.0
  0
LINE
  5
FD
330
A
100
AcDbEntity
  8
1
  6
solid
 62
     7
100
AcDbLine
 10
6.908445756335172
 20
-0.4043415998148877
 30
0.0
 11
6.888837913197917
 21
-0.3971300613533493
 31
0.0
  0
LINE
  5
FE
330
A
100
AcDbEntity
  8
1
  6
solid
 62
     7
100
AcDbLine
 10
6.888837913197917
 20
-0.3971300613533493
 30
0.0
 11
6.867269285746937
 21
-0.3971300613533493
 31
0.0
  0
LINE
  5
FF
330
A
100
AcDbEntity
  8
1
  6
solid
 62
     7
100
AcDbLine
 10
6.867269285746937
 20
-0.3971300613533493
 30
0.0
 11
6.842759481825368
 21
-0.4043415998148877
 31
0.0
  0
LINE
  5
100
330
A
100
AcDbEntity
  8
1
  6
solid
 62
     7
100
AcDbLine
 10
6.842759481825368
 20
-0.4043415998148877
 30
0.0
 11
6.821190854374387
 21
-0.4187646767379646
 31
0.0
  0
LINE
  5
101
330
A
100
AcDbEntity
  8
1
  6
solid
 62
     7
100
AcDbLine
 10
6.821190854374387
 20
-0.4187646767379646
 30
0.0
 11
6.807465364178309
 21
-0.4307839075071955
 31
0.0
  0
LINE
  5
102
330
A
100
AcDbEntity
  8
1
  6
solid
 62
     7
100
AcDbLine
 10
6.807465364178309
 20
-0.4307839075071955
 30
0.0
 11
6.796681050452819
 21
-0.4500146767379646
 31
0.0
  0
LINE
  5
103
330
A
100
AcDbEntity
  8
1
  6
solid
 62
     7
100
AcDbLine
 10
6.796681050452819
 20
-0.4500146767379646
 30
0.0
 11
6.788837913197917
 21
-0.4692454459687339
 31
0.0
  0
LINE
  5
104
330
A
100
AcDbEntity
  8
1
  6
solid
 62
     7
100
AcDbLine
 10
6.788837913197917
 20
-0.4692454459687339
 30
0.0
 11
6.78295556025674
 21
-0.4908800613533493
 31
0.0
  0
LINE
  5
105
330
A
100
AcDbEntity
  8
1
  6
solid
 62
     7
100
AcDbLine
 10
6.78295556025674
 20
-0.4908800613533493
 30
0.0
 11
6.780014383786152
 21
-0.5053031382764262
 31
0.0
  0
LINE
  5
106
330
A
100
AcDbEntity
  8
1
  6
solid
 62
     7
100
AcDbLine
 10
6.780014383786152
 20
-0.5053031382764262
 30
0.0
 11
6.780014383786152
 21
-0.5221300613533493
 31
0.0
  0
LINE
  5
107
330
A
100
AcDbEntity
  8
1
  6
solid
 62
     7
100
AcDbLine
 10
6.780014383786152
 20
-0.5221300613533493
 30
0.0
 11
6.78295556025674
 21
-0.5437646767379647
 31
0.0
  0
LINE
  5
108
330
A
100
AcDbEntity
  8
1
  6
solid
 62
     7
100
AcDbLine
 10
6.78295556025674
 20
-0.5437646767379647
 30
0.0
 11
6.788837913197917
 21
-0.5678031382764262
 31
0.0
  0
LINE
  5
109
330
A
100
AcDbEntity
  8
1
  6
solid
 62
     7
100
AcDbLine
 10
6.788837913197917
 20
-0.5678031382764262
 30
0.0
 11
6.796681050452819
 21
-0.5846300613533493
 31
0.0
  0
LINE
  5
10A
330
A
100
AcDbEntity
  8
1
  6
solid
 62
     7
100
AcDbLine
 10
6.796681050452819
 20
-0.5846300613533493
 30
0.0
 11
6.804524187707721
 21
-0.5942454459687339
 31
0.0
  0
LINE
  5
10B
330
A
100
AcDbEntity
  8
1
  6
solid
 62
     7
100
AcDbLine
 10
6.804524187707721
 20
-0.5942454459687339
 30
0.0
 11
6.810406540648897
 21
-0.6014569844302724
 31
0.0
  0
LINE
  5
10C
330
A
100
AcDbEntity
  8
1
  6
solid
 62
     7
100
AcDbLine
 10
6.888837913197917
 20
-0.8346300613533493
 30
0.0
 11
6.908445756335172
 21
-0.8274185228918108
 31
0.0
  0
LINE
  5
10D
330
A
100
AcDbEntity
  8
1
  6
solid
 62
     7
100
AcDbLine
 10
6.908445756335172
 20
-0.8274185228918108
 30
0.0
 11
6.922171246531251
 21
-0.8178031382764261
 31
0.0
  0
LINE
  5
10E
330
A
100
AcDbEntity
  8
1
  6
solid
 62
     7
100
AcDbLine
 10
6.922171246531251
 20
-0.8178031382764261
 30
0.0
 11
6.934916344570465
 21
-0.8033800613533493
 31
0.0
  0
LINE
  5
10F
330
A
100
AcDbEntity
  8
1
  6
solid
 62
     7
100
AcDbLine
 10
6.934916344570465
 20
-0.8033800613533493
 30
0.0
 11
6.946681050452819
 21
-0.7817454459687339
 31
0.0
  0
LINE
  5
110
330
A
100
AcDbEntity
  8
1
  6
solid
 62
     7
100
AcDbLine
 10
6.946681050452819
 20
-0.7817454459687339
 30
0.0
 11
6.951583011237133
 21
-0.7625146767379647
 31
0.0
  0
LINE
  5
111
330
A
100
AcDbEntity
  8
1
  6
solid
 62
     7
100
AcDbLine
 10
6.951583011237133
 20
-0.7625146767379647
 30
0.0
 11
6.954524187707721
 21
-0.7408800613533493
 31
0.0
  0
LINE
  5
112
330
A
100
AcDbEntity
  8
1
  6
solid
 62
     7
100
AcDbLine
 10
6.954524187707721
 20
-0.7408800613533493
 30
0.0
 11
6.954524187707721
 21
-0.7264569844302724
 31
0.0
  0
LINE
  5
113
330
A
100
AcDbEntity
  8
1
  6
solid
 62
     7
100
AcDbLine
 10
6.954524187707721
 20
-0.7264569844302724
 30
0.0
 11
6.946681050452819
 21
-0.6952069844302724
 31
0.0
  0
LINE
  5
114
330
A
100
AcDbEntity
  8
1
  6
solid
 62
     7
100
AcDbLine
 10
6.946681050452819
 20
-0.6952069844302724
 30
0.0
 11
6.937857521041054
 21
-0.6783800613533493
 31
0.0
  0
LINE
  5
115
330
A
100
AcDbEntity
  8
1
  6
solid
 62
     7
100
AcDbLine
 10
6.937857521041054
 20
-0.6783800613533493
 30
0.0
 11
6.927073207315563
 21
-0.6639569844302724
 31
0.0
  0
LINE
  5
116
330
A
100
AcDbEntity
  8
1
  6
solid
 62
     7
100
AcDbLine
 10
6.927073207315563
 20
-0.6639569844302724
 30
0.0
 11
6.913347717119485
 21
-0.6495339075071955
 31
0.0
  0
LINE
  5
117
330
A
100
AcDbEntity
  8
1
  6
solid
 62
     7
100
AcDbLine
 10
6.913347717119485
 20
-0.6495339075071955
 30
0.0
 11
6.902563403393996
 21
-0.6447262151995031
 31
0.0
  0
LINE
  5
118
330
A
100
AcDbEntity
  8
1
  6
solid
 62
     7
100
AcDbLine
 10
6.902563403393996
 20
-0.6447262151995031
 30
0.0
 11
6.886877128884192
 21
-0.6399185228918109
 31
0.0
  0
LINE
  5
119
330
A
100
AcDbEntity
  8
1
  6
solid
 62
     7
100
AcDbLine
 10
6.886877128884192
 20
-0.6399185228918109
 30
0.0
 11
6.867269285746937
 21
-0.6399185228918109
 31
0.0
  0
LINE
  5
11A
330
A
100
AcDbEntity
  8
1
  6
solid
 62
     7
100
AcDbLine
 10
6.867269285746937
 20
-0.6399185228918109
 30
0.0
 11
6.845700658295957
 21
-0.6471300613533493
 31
0.0
  0
LINE
  5
11B
330
A
100
AcDbEntity
  8
1
  6
solid
 62
     7
100
AcDbLine
 10
6.845700658295957
 20
-0.6471300613533493
 30
0.0
 11
6.831975168099878
 21
-0.6567454459687339
 31
0.0
  0
LINE
  5
11C
330
A
100
AcDbEntity
  8
1
  6
solid
 62
     7
100
AcDbLine
 10
6.831975168099878
 20
-0.6567454459687339
 30
0.0
 11
6.8182496779038
 21
-0.6711685228918107
 31
0.0
  0
LINE
  5
11D
330
A
100
AcDbEntity
  8
1
  6
solid
 62
     7
100
AcDbLine
 10
6.8182496779038
 20
-0.6711685228918107
 30
0.0
 11
6.807465364178309
 21
-0.6928031382764263
 31
0.0
  0
LINE
  5
11E
330
A
100
AcDbEntity
  8
1
  6
solid
 62
     7
100
AcDbLine
 10
6.807465364178309
 20
-0.6928031382764263
 30
0.0
 11
6.802563403393995
 21
-0.7096300613533493
 31
0.0
  0
LINE
  5
11F
330
A
100
AcDbEntity
  8
1
  6
solid
 62
     7
100
AcDbLine
 10
6.802563403393995
 20
-0.7096300613533493
 30
0.0
 11
6.799622226923407
 21
-0.7264569844302724
 31
0.0
  0
LINE
  5
120
330
A
100
AcDbEntity
  8
1
  6
solid
 62
     7
100
AcDbLine
 10
6.799622226923407
 20
-0.7264569844302724
 30
0.0
 11
6.799622226923407
 21
-0.7480915998148877
 31
0.0
  0
LINE
  5
121
330
A
100
AcDbEntity
  8
1
  6
solid
 62
     7
100
AcDbLine
 10
6.799622226923407
 20
-0.7480915998148877
 30
0.0
 11
6.802563403393995
 21
-0.7697262151995031
 31
0.0
  0
LINE
  5
122
330
A
100
AcDbEntity
  8
1
  6
solid
 62
     7
100
AcDbLine
 10
6.802563403393995
 20
-0.7697262151995031
 30
0.0
 11
6.810406540648897
 21
-0.7937646767379647
 31
0.0
  0
LINE
  5
123
330
A
100
AcDbEntity
  8
1
  6
solid
 62
     7
100
AcDbLine
 10
6.810406540648897
 20
-0.7937646767379647
 30
0.0
 11
6.824132030844976
 21
-0.8105915998148876
 31
0.0
  0
LINE
  5
124
330
A
100
AcDbEntity
  8
1
  6
solid
 62
     7
100
AcDbLine
 10
6.824132030844976
 20
-0.8105915998148876
 30
0.0
 11
6.837857521041055
 21
-0.8250146767379646
 31
0.0
  0
LINE
  5
125
330
A
100
AcDbEntity
  8
1
  6
solid
 62
     7
100
AcDbLine
 10
6.837857521041055
 20
-0.8250146767379646
 30
0.0
 11
6.856484972021446
 21
-0.8346300613533493
 31
0.0
  0
LINE
  5
126
330
A
100
AcDbEntity
  8
1
  6
solid
 62
     7
100
AcDbLine
 10
6.856484972021446
 20
-0.8346300613533493
 30
0.0
 11
6.888837913197917
 21
-0.8346300613533493
 31
0.0
  0
LINE
  5
127
330
A
100
AcDbEntity
  8
1
  6
solid
 62
     7
100
AcDbLine
 10
6.883935952413603
 20
-0.5774185228918109
 30
0.0
 11
6.894720266139094
 21
-0.5750146767379647
 31
0.0
  0
LINE
  5
128
330
A
100
AcDbEntity
  8
1
  6
solid
 62
     7
100
AcDbLine
 10
6.894720266139094
 20
-0.5750146767379647
 30
0.0
 11
6.908445756335172
 21
-0.5629954459687339
 31
0.0
  0
LINE
  5
129
330
A
100
AcDbEntity
  8
1
  6
solid
 62
     7
100
AcDbLine
 10
6.908445756335172
 20
-0.5629954459687339
 30
0.0
 11
6.916288893590074
 21
-0.5509762151995031
 31
0.0
  0
LINE
  5
12A
330
A
100
AcDbEntity
  8
1
  6
solid
 62
     7
100
AcDbLine
 10
6.916288893590074
 20
-0.5509762151995031
 30
0.0
 11
6.922171246531251
 21
-0.5365531382764262
 31
0.0
  0
LINE
  5
12B
330
A
100
AcDbEntity
  8
1
  6
solid
 62
     7
100
AcDbLine
 10
6.922171246531251
 20
-0.5365531382764262
 30
0.0
 11
6.924132030844976
 21
-0.5221300613533493
 31
0.0
  0
LINE
  5
12C
330
A
100
AcDbEntity
  8
1
  6
solid
 62
     7
100
AcDbLine
 10
6.924132030844976
 20
-0.5221300613533493
 30
0.0
 11
6.924132030844976
 21
-0.5125146767379647
 31
0.0
  0
LINE
  5
12D
330
A
100
AcDbEntity
  8
1
  6
solid
 62
     7
100
AcDbLine
 10
6.924132030844976
 20
-0.5125146767379647
 30
0.0
 11
6.919230070060661
 21
-0.4908800613533493
 31
0.0
  0
LINE
  5
12E
330
A
100
AcDbEntity
  8
1
  6
solid
 62
     7
100
AcDbLine
 10
6.919230070060661
 20
-0.4908800613533493
 30
0.0
 11
6.911386932805759
 21
-0.4764569844302724
 31
0.0
  0
LINE
  5
12F
330
A
100
AcDbEntity
  8
1
  6
solid
 62
     7
100
AcDbLine
 10
6.911386932805759
 20
-0.4764569844302724
 30
0.0
 11
6.902563403393996
 21
-0.4668415998148877
 31
0.0
  0
LINE
  5
130
330
A
100
AcDbEntity
  8
1
  6
solid
 62
     7
100
AcDbLine
 10
6.902563403393996
 20
-0.4668415998148877
 30
0.0
 11
6.891779089668505
 21
-0.4596300613533492
 31
0.0
  0
LINE
  5
131
330
A
100
AcDbEntity
  8
1
  6
solid
 62
     7
100
AcDbLine
 10
6.891779089668505
 20
-0.4596300613533492
 30
0.0
 11
6.880994775943015
 21
-0.4572262151995031
 31
0.0
  0
LINE
  5
132
330
A
100
AcDbEntity
  8
1
  6
solid
 62
     7
100
AcDbLine
 10
6.880994775943015
 20
-0.4572262151995031
 30
0.0
 11
6.873151638688113
 21
-0.4572262151995031
 31
0.0
  0
LINE
  5
133
330
A
100
AcDbEntity
  8
1
  6
solid
 62
     7
100
AcDbLine
 10
6.873151638688113
 20
-0.4572262151995031
 30
0.0
 11
6.859426148492035
 21
-0.4596300613533492
 31
0.0
  0
LINE
  5
134
330
A
100
AcDbEntity
  8
1
  6
solid
 62
     7
100
AcDbLine
 10
6.859426148492035
 20
-0.4596300613533492
 30
0.0
 11
6.848641834766544
 21
-0.4668415998148877
 31
0.0
  0
LINE
  5
135
330
A
100
AcDbEntity
  8
1
  6
solid
 62
     7
100
AcDbLine
 10
6.848641834766544
 20
-0.4668415998148877
 30
0.0
 11
6.83981830535478
 21
-0.4764569844302724
 31
0.0
  0
LINE
  5
136
330
A
100
AcDbEntity
  8
1
  6
solid
 62
     7
100
AcDbLine
 10
6.83981830535478
 20
-0.4764569844302724
 30
0.0
 11
6.831975168099878
 21
-0.4908800613533493
 31
0.0
  0
LINE
  5
137
330
A
100
AcDbEntity
  8
1
  6
solid
 62
     7
100
AcDbLine
 10
6.831975168099878
 20
-0.4908800613533493
 30
0.0
 11
6.829033991629289
 21
-0.5053031382764262
 31
0.0
  0
LINE
  5
138
330
A
100
AcDbEntity
  8
1
  6
solid
 62
     7
100
AcDbLine
 10
6.829033991629289
 20
-0.5053031382764262
 30
0.0
 11
6.827073207315564
 21
-0.5149185228918107
 31
0.0
  0
LINE
  5
139
330
A
100
AcDbEntity
  8
1
  6
solid
 62
     7
100
AcDbLine
 10
6.827073207315564
 20
-0.5149185228918107
 30
0.0
 11
6.827073207315564
 21
-0.5221300613533493
 31
0.0
  0
LINE
  5
13A
330
A
100
AcDbEntity
  8
1
  6
solid
 62
     7
100
AcDbLine
 10
6.827073207315564
 20
-0.5221300613533493
 30
0.0
 11
6.831975168099878
 21
-0.5437646767379647
 31
0.0
  0
LINE
  5
13B
330
A
100
AcDbEntity
  8
1
  6
solid
 62
     7
100
AcDbLine
 10
6.831975168099878
 20
-0.5437646767379647
 30
0.0
 11
6.837857521041055
 21
-0.5533800613533493
 31
0.0
  0
LINE
  5
13C
330
A
100
AcDbEntity
  8
1
  6
solid
 62
     7
100
AcDbLine
 10
6.837857521041055
 20
-0.5533800613533493
 30
0.0
 11
6.845700658295957
 21
-0.5678031382764262
 31
0.0
  0
LINE
  5
13D
330
A
100
AcDbEntity
  8
1
  6
solid
 62
     7
100
AcDbLine
 10
6.845700658295957
 20
-0.5678031382764262
 30
0.0
 11
6.856484972021446
 21
-0.5750146767379647
 31
0.0
  0
LINE
  5
13E
330
A
100
AcDbEntity
  8
1
  6
solid
 62
     7
100
AcDbLine
 10
6.856484972021446
 20
-0.5750146767379647
 30
0.0
 11
6.870210462217524
 21
-0.5774185228918109
 31
0.0
  0
LINE
  5
13F
330
A
100
AcDbEntity
  8
1
  6
solid
 62
     7
100
AcDbLine
 10
6.870210462217524
 20
-0.5774185228918109
 30
0.0
 11
6.883935952413603
 21
-0.5774185228918109
 31
0.0
  0
LINE
  5
140
330
A
100
AcDbEntity
  8
1
  6
solid
 62
     7
100
AcDbLine
 10
7.35452418770772
 20
-0.3971300613533493
 30
0.0
 11
7.35452418770772
 21
-0.4620339075071955
 31
0.0
  0
LINE
  5
141
330
A
100
AcDbEntity
  8
1
  6
solid
 62
     7
100
AcDbLine
 10
7.35452418770772
 20
-0.4620339075071955
 30
0.0
 11
7.389818305354779
 21
-0.4620339075071955
 31
0.0
  0
LINE
  5
142
330
A
100
AcDbEntity
  8
1
  6
solid
 62
     7
100
AcDbLine
 10
7.389818305354779
 20
-0.4620339075071955
 30
0.0
 11
7.455504579864584
 21
-0.6423223690456571
 31
0.0
  0
LINE
  5
143
330
A
100
AcDbEntity
  8
1
  6
solid
 62
     7
100
AcDbLine
 10
7.455504579864584
 20
-0.6423223690456571
 30
0.0
 11
7.38295556025674
 21
-0.8322262151995031
 31
0.0
  0
LINE
  5
144
330
A
100
AcDbEntity
  8
1
  6
solid
 62
     7
100
AcDbLine
 10
7.38295556025674
 20
-0.8322262151995031
 30
0.0
 11
7.35060261908027
 21
-0.8322262151995031
 31
0.0
  0
LINE
  5
145
330
A
100
AcDbEntity
  8
1
  6
solid
 62
     7
100
AcDbLine
 10
7.35060261908027
 20
-0.8322262151995031
 30
0.0
 11
7.35060261908027
 21
-0.8971300613533493
 31
0.0
  0
LINE
  5
146
330
A
100
AcDbEntity
  8
1
  6
solid
 62
     7
100
AcDbLine
 10
7.35060261908027
 20
-0.8971300613533493
 30
0.0
 11
7.455504579864584
 21
-0.8971300613533493
 31
0.0
  0
LINE
  5
147
330
A
100
AcDbEntity
  8
1
  6
solid
 62
     7
100
AcDbLine
 10
7.455504579864584
 20
-0.8971300613533493
 30
0.0
 11
7.455504579864584
 21
-0.8322262151995031
 31
0.0
  0
LINE
  5
148
330
A
100
AcDbEntity
  8
1
  6
solid
 62
     7
100
AcDbLine
 10
7.455504579864584
 20
-0.8322262151995031
 30
0.0
 11
7.428053599472427
 21
-0.8322262151995031
 31
0.0
  0
LINE
  5
149
330
A
100
AcDbEntity
  8
1
  6
solid
 62
     7
100
AcDbLine
 10
7.428053599472427
 20
-0.8322262151995031
 30
0.0
 11
7.4760928151587
 21
-0.7000146767379647
 31
0.0
  0
LINE
  5
14A
330
A
100
AcDbEntity
  8
1
  6
solid
 62
     7
100
AcDbLine
 10
7.4760928151587
 20
-0.7000146767379647
 30
0.0
 11
7.523151638688112
 21
-0.8322262151995031
 31
0.0
  0
LINE
  5
14B
330
A
100
AcDbEntity
  8
1
  6
solid
 62
     7
100
AcDbLine
 10
7.523151638688112
 20
-0.8322262151995031
 30
0.0
 11
7.497661442609681
 21
-0.8322262151995031
 31
0.0
  0
LINE
  5
14C
330
A
100
AcDbEntity
  8
1
  6
solid
 62
     7
100
AcDbLine
 10
7.497661442609681
 20
-0.8322262151995031
 30
0.0
 11
7.497661442609681
 21
-0.8971300613533493
 31
0.0
  0
LINE
  5
14D
330
A
100
AcDbEntity
  8
1
  6
solid
 62
     7
100
AcDbLine
 10
7.497661442609681
 20
-0.8971300613533493
 30
0.0
 11
7.60060261908027
 21
-0.8971300613533493
 31
0.0
  0
LINE
  5
14E
330
A
100
AcDbEntity
  8
1
  6
solid
 62
     7
100
AcDbLine
 10
7.60060261908027
 20
-0.8971300613533493
 30
0.0
 11
7.60060261908027
 21
-0.8322262151995031
 31
0.0
  0
LINE
  5
14F
330
A
100
AcDbEntity
  8
1
  6
solid
 62
     7
100
AcDbLine
 10
7.60060261908027
 20
-0.8322262151995031
 30
0.0
 11
7.568249677903799
 21
-0.8322262151995031
 31
0.0
  0
LINE
  5
150
330
A
100
AcDbEntity
  8
1
  6
solid
 62
     7
100
AcDbLine
 10
7.568249677903799
 20
-0.8322262151995031
 30
0.0
 11
7.497661442609681
 21
-0.6423223690456571
 31
0.0
  0
LINE
  5
151
330
A
100
AcDbEntity
  8
1
  6
solid
 62
     7
100
AcDbLine
 10
7.497661442609681
 20
-0.6423223690456571
 30
0.0
 11
7.56138693280576
 21
-0.4620339075071955
 31
0.0
  0
LINE
  5
152
330
A
100
AcDbEntity
  8
1
  6
solid
 62
     7
100
AcDbLine
 10
7.56138693280576
 20
-0.4620339075071955
 30
0.0
 11
7.596681050452819
 21
-0.4620339075071955
 31
0.0
  0
LINE
  5
153
330
A
100
AcDbEntity
  8
1
  6
solid
 62
     7
100
AcDbLine
 10
7.596681050452819
 20
-0.4620339075071955
 30
0.0
 11
7.596681050452819
 21
-0.3971300613533493
 31
0.0
  0
LINE
  5
154
330
A
100
AcDbEntity
  8
1
  6
solid
 62
     7
100
AcDbLine
 10
7.596681050452819
 20
-0.3971300613533493
 30
0.0
 11
7.491779089668504
 21
-0.3971300613533493
 31
0.0
  0
LINE
  5
155
330
A
100
AcDbEntity
  8
1
  6
solid
 62
     7
100
AcDbLine
 10
7.491779089668504
 20
-0.3971300613533493
 30
0.0
 11
7.491779089668504
 21
-0.4620339075071955
 31
0.0
  0
LINE
  5
156
330
A
100
AcDbEntity
  8
1
  6
solid
 62
     7
100
AcDbLine
 10
7.491779089668504
 20
-0.4620339075071955
 30
0.0
 11
7.518249677903799
 21
-0.4620339075071955
 31
0.0
  0
LINE
  5
157
330
A
100
AcDbEntity
  8
1
  6
solid
 62
     7
100
AcDbLine
 10
7.518249677903799
 20
-0.4620339075071955
 30
0.0
 11
7.4760928151587
 21
-0.5798223690456571
 31
0.0
  0
LINE
  5
158
330
A
100
AcDbEntity
  8
1
  6
solid
 62
     7
100
AcDbLine
 10
7.4760928151587
 20
-0.5798223690456571
 30
0.0
 11
7.43295556025674
 21
-0.4620339075071955
 31
0.0
  0
LINE
  5
159
330
A
100
AcDbEntity
  8
1
  6
solid
 62
     7
100
AcDbLine
 10
7.43295556025674
 20
-0.4620339075071955
 30
0.0
 11
7.459426148492035
 21
-0.4620339075071955
 31
0.0
  0
LINE
  5
15A
330
A
100
AcDbEntity
  8
1
  6
solid
 62
     7
100
AcDbLine
 10
7.459426148492035
 20
-0.4620339075071955
 30
0.0
 11
7.459426148492035
 21
-0.3971300613533493
 31
0.0
  0
LINE
  5
15B
330
A
100
AcDbEntity
  8
1
  6
solid
 62
     7
100
AcDbLine
 10
7.459426148492035
 20
-0.3971300613533493
 30
0.0
 11
7.35452418770772
 21
-0.3971300613533493
 31
0.0
  0
LINE
  5
15C
330
A
100
AcDbEntity
  8
1
  6
solid
 62
     7
100
AcDbLine
 10
8.010406540648897
 20
-0.6014569844302724
 30
0.0
 11
7.996681050452819
 21
-0.6158800613533493
 31
0.0
  0
LINE
  5
15D
330
A
100
AcDbEntity
  8
1
  6
solid
 62
     7
100
AcDbLine
 10
7.996681050452819
 20
-0.6158800613533493
 30
0.0
 11
7.982955560256741
 21
-0.6327069844302724
 31
0.0
  0
LINE
  5
15E
330
A
100
AcDbEntity
  8
1
  6
solid
 62
     7
100
AcDbLine
 10
7.982955560256741
 20
-0.6327069844302724
 30
0.0
 11
7.972171246531249
 21
-0.6495339075071955
 31
0.0
  0
LINE
  5
15F
330
A
100
AcDbEntity
  8
1
  6
solid
 62
     7
100
AcDbLine
 10
7.972171246531249
 20
-0.6495339075071955
 30
0.0
 11
7.964328109276348
 21
-0.6687646767379647
 31
0.0
  0
LINE
  5
160
330
A
100
AcDbEntity
  8
1
  6
solid
 62
     7
100
AcDbLine
 10
7.964328109276348
 20
-0.6687646767379647
 30
0.0
 11
7.958445756335171
 21
-0.6855915998148877
 31
0.0
  0
LINE
  5
161
330
A
100
AcDbEntity
  8
1
  6
solid
 62
     7
100
AcDbLine
 10
7.958445756335171
 20
-0.6855915998148877
 30
0.0
 11
7.953543795550858
 21
-0.7096300613533493
 31
0.0
  0
LINE
  5
162
330
A
100
AcDbEntity
  8
1
  6
solid
 62
     7
100
AcDbLine
 10
7.953543795550858
 20
-0.7096300613533493
 30
0.0
 11
7.950602619080269
 21
-0.7264569844302724
 31
0.0
  0
LINE
  5
163
330
A
100
AcDbEntity
  8
1
  6
solid
 62
     7
100
AcDbLine
 10
7.950602619080269
 20
-0.7264569844302724
 30
0.0
 11
7.950602619080269
 21
-0.7384762151995031
 31
0.0
  0
LINE
  5
164
330
A
100
AcDbEntity
  8
1
  6
solid
 62
     7
100
AcDbLine
 10
7.950602619080269
 20
-0.7384762151995031
 30
0.0
 11
7.953543795550858
 21
-0.7577069844302724
 31
0.0
  0
LINE
  5
165
330
A
100
AcDbEntity
  8
1
  6
solid
 62
     7
100
AcDbLine
 10
7.953543795550858
 20
-0.7577069844302724
 30
0.0
 11
7.956484972021446
 21
-0.7793415998148877
 31
0.0
  0
LINE
  5
166
330
A
100
AcDbEntity
  8
1
  6
solid
 62
     7
100
AcDbLine
 10
7.956484972021446
 20
-0.7793415998148877
 30
0.0
 11
7.96138693280576
 21
-0.8009762151995031
 31
0.0
  0
LINE
  5
167
330
A
100
AcDbEntity
  8
1
  6
solid
 62
     7
100
AcDbLine
 10
7.96138693280576
 20
-0.8009762151995031
 30
0.0
 11
7.972171246531249
 21
-0.8274185228918108
 31
0.0
  0
LINE
  5
168
330
A
100
AcDbEntity
  8
1
  6
solid
 62
     7
100
AcDbLine
 10
7.972171246531249
 20
-0.8274185228918108
 30
0.0
 11
7.988837913197917
 21
-0.8490531382764261
 31
0.0
  0
LINE
  5
169
330
A
100
AcDbEntity
  8
1
  6
solid
 62
     7
100
AcDbLine
 10
7.988837913197917
 20
-0.8490531382764261
 30
0.0
 11
8.002563403393995
 21
-0.8658800613533493
 31
0.0
  0
LINE
  5
16A
330
A
100
AcDbEntity
  8
1
  6
solid
 62
     7
100
AcDbLine
 10
8.002563403393995
 20
-0.8658800613533493
 30
0.0
 11
8.027073207315563
 21
-0.8827069844302723
 31
0.0
  0
LINE
  5
16B
330
A
100
AcDbEntity
  8
1
  6
solid
 62
     7
100
AcDbLine
 10
8.027073207315563
 20
-0.8827069844302723
 30
0.0
 11
8.051583011237132
 21
-0.8947262151995031
 31
0.0
  0
LINE
  5
16C
330
A
100
AcDbEntity
  8
1
  6
solid
 62
     7
100
AcDbLine
 10
8.051583011237132
 20
-0.8947262151995031
 30
0.0
 11
8.070210462217524
 21
-0.8971300613533493
 31
0.0
  0
LINE
  5
16D
330
A
100
AcDbEntity
  8
1
  6
solid
 62
     7
100
AcDbLine
 10
8.070210462217524
 20
-0.8971300613533493
 30
0.0
 11
8.091779089668506
 21
-0.8971300613533493
 31
0.0
  0
LINE
  5
16E
330
A
100
AcDbEntity
  8
1
  6
solid
 62
     7
100
AcDbLine
 10
8.091779089668506
 20
-0.8971300613533493
 30
0.0
 11
8.113347717119486
 21
-0.8899185228918108
 31
0.0
  0
LINE
  5
16F
330
A
100
AcDbEntity
  8
1
  6
solid
 62
     7
100
AcDbLine
 10
8.113347717119486
 20
-0.8899185228918108
 30
0.0
 11
8.137857521041054
 21
-0.8730915998148876
 31
0.0
  0
LINE
  5
170
330
A
100
AcDbEntity
  8
1
  6
solid
 62
     7
100
AcDbLine
 10
8.137857521041054
 20
-0.8730915998148876
 30
0.0
 11
8.162367324962623
 21
-0.8514569844302723
 31
0.0
  0
LINE
  5
171
330
A
100
AcDbEntity
  8
1
  6
solid
 62
     7
100
AcDbLine
 10
8.162367324962623
 20
-0.8514569844302723
 30
0.0
 11
8.179033991629289
 21
-0.8250146767379646
 31
0.0
  0
LINE
  5
172
330
A
100
AcDbEntity
  8
1
  6
solid
 62
     7
100
AcDbLine
 10
8.179033991629289
 20
-0.8250146767379646
 30
0.0
 11
8.18981830535478
 21
-0.7961685228918109
 31
0.0
  0
LINE
  5
173
330
A
100
AcDbEntity
  8
1
  6
solid
 62
     7
100
AcDbLine
 10
8.18981830535478
 20
-0.7961685228918109
 30
0.0
 11
8.194720266139093
 21
-0.7817454459687339
 31
0.0
  0
LINE
  5
174
330
A
100
AcDbEntity
  8
1
  6
solid
 62
     7
100
AcDbLine
 10
8.194720266139093
 20
-0.7817454459687339
 30
0.0
 11
8.200602619080269
 21
-0.7504954459687339
 31
0.0
  0
LINE
  5
175
330
A
100
AcDbEntity
  8
1
  6
solid
 62
     7
100
AcDbLine
 10
8.200602619080269
 20
-0.7504954459687339
 30
0.0
 11
8.200602619080269
 21
-0.7240531382764262
 31
0.0
  0
LINE
  5
176
330
A
100
AcDbEntity
  8
1
  6
solid
 62
     7
100
AcDbLine
 10
8.200602619080269
 20
-0.7240531382764262
 30
0.0
 11
8.194720266139093
 21
-0.6928031382764263
 31
0.0
  0
LINE
  5
177
330
A
100
AcDbEntity
  8
1
  6
solid
 62
     7
100
AcDbLine
 10
8.194720266139093
 20
-0.6928031382764263
 30
0.0
 11
8.186877128884191
 21
-0.6687646767379647
 31
0.0
  0
LINE
  5
178
330
A
100
AcDbEntity
  8
1
  6
solid
 62
     7
100
AcDbLine
 10
8.186877128884191
 20
-0.6687646767379647
 30
0.0
 11
8.176092815158702
 21
-0.6399185228918109
 31
0.0
  0
LINE
  5
179
330
A
100
AcDbEntity
  8
1
  6
solid
 62
     7
100
AcDbLine
 10
8.176092815158702
 20
-0.6399185228918109
 30
0.0
 11
8.162367324962623
 21
-0.6230915998148877
 31
0.0
  0
LINE
  5
17A
330
A
100
AcDbEntity
  8
1
  6
solid
 62
     7
100
AcDbLine
 10
8.162367324962623
 20
-0.6230915998148877
 30
0.0
 11
8.148641834766545
 21
-0.6086685228918107
 31
0.0
  0
LINE
  5
17B
330
A
100
AcDbEntity
  8
1
  6
solid
 62
     7
100
AcDbLine
 10
8.148641834766545
 20
-0.6086685228918107
 30
0.0
 11
8.140798697511643
 21
-0.6014569844302724
 31
0.0
  0
LINE
  5
17C
330
A
100
AcDbEntity
  8
1
  6
solid
 62
     7
100
AcDbLine
 10
8.140798697511643
 20
-0.6014569844302724
 30
0.0
 11
8.154524187707721
 21
-0.5846300613533493
 31
0.0
  0
LINE
  5
17D
330
A
100
AcDbEntity
  8
1
  6
solid
 62
     7
100
AcDbLine
 10
8.154524187707721
 20
-0.5846300613533493
 30
0.0
 11
8.162367324962623
 21
-0.5678031382764262
 31
0.0
  0
LINE
  5
17E
330
A
100
AcDbEntity
  8
1
  6
solid
 62
     7
100
AcDbLine
 10
8.162367324962623
 20
-0.5678031382764262
 30
0.0
 11
8.1682496779038
 21
-0.5509762151995031
 31
0.0
  0
LINE
  5
17F
330
A
100
AcDbEntity
  8
1
  6
solid
 62
     7
100
AcDbLine
 10
8.1682496779038
 20
-0.5509762151995031
 30
0.0
 11
8.171190854374387
 21
-0.5245339075071955
 31
0.0
  0
LINE
  5
180
330
A
100
AcDbEntity
  8
1
  6
solid
 62
     7
100
AcDbLine
 10
8.171190854374387
 20
-0.5245339075071955
 30
0.0
 11
8.171190854374387
 21
-0.5053031382764262
 31
0.0
  0
LINE
  5
181
330
A
100
AcDbEntity
  8
1
  6
solid
 62
     7
100
AcDbLine
 10
8.171190854374387
 20
-0.5053031382764262
 30
0.0
 11
8.1682496779038
 21
-0.4884762151995031
 31
0.0
  0
LINE
  5
182
330
A
100
AcDbEntity
  8
1
  6
solid
 62
     7
100
AcDbLine
 10
8.1682496779038
 20
-0.4884762151995031
 30
0.0
 11
8.162367324962623
 21
-0.4692454459687339
 31
0.0
  0
LINE
  5
183
330
A
100
AcDbEntity
  8
1
  6
solid
 62
     7
100
AcDbLine
 10
8.162367324962623
 20
-0.4692454459687339
 30
0.0
 11
8.154524187707721
 21
-0.4500146767379646
 31
0.0
  0
LINE
  5
184
330
A
100
AcDbEntity
  8
1
  6
solid
 62
     7
100
AcDbLine
 10
8.154524187707721
 20
-0.4500146767379646
 30
0.0
 11
8.146681050452819
 21
-0.4355915998148877
 31
0.0
  0
LINE
  5
185
330
A
100
AcDbEntity
  8
1
  6
solid
 62
     7
100
AcDbLine
 10
8.146681050452819
 20
-0.4355915998148877
 30
0.0
 11
8.132955560256741
 21
-0.4211685228918108
 31
0.0
  0
LINE
  5
186
330
A
100
AcDbEntity
  8
1
  6
solid
 62
     7
100
AcDbLine
 10
8.132955560256741
 20
-0.4211685228918108
 30
0.0
 11
8.12217124653125
 21
-0.4115531382764262
 31
0.0
  0
LINE
  5
187
330
A
100
AcDbEntity
  8
1
  6
solid
 62
     7
100
AcDbLine
 10
8.12217124653125
 20
-0.4115531382764262
 30
0.0
 11
8.108445756335171
 21
-0.4043415998148877
 31
0.0
  0
LINE
  5
188
330
A
100
AcDbEntity
  8
1
  6
solid
 62
     7
100
AcDbLine
 10
8.108445756335171
 20
-0.4043415998148877
 30
0.0
 11
8.088837913197917
 21
-0.3971300613533493
 31
0.0
  0
LINE
  5
189
330
A
100
AcDbEntity
  8
1
  6
solid
 62
     7
100
AcDbLine
 10
8.088837913197917
 20
-0.3971300613533493
 30
0.0
 11
8.067269285746936
 21
-0.3971300613533493
 31
0.0
  0
LINE
  5
18A
330
A
100
AcDbEntity
  8
1
  6
solid
 62
     7
100
AcDbLine
 10
8.067269285746936
 20
-0.3971300613533493
 30
0.0
 11
8.042759481825367
 21
-0.4043415998148877
 31
0.0
  0
LINE
  5
18B
330
A
100
AcDbEntity
  8
1
  6
solid
 62
     7
100
AcDbLine
 10
8.042759481825367
 20
-0.4043415998148877
 30
0.0
 11
8.021190854374387
 21
-0.4187646767379646
 31
0.0
  0
LINE
  5
18C
330
A
100
AcDbEntity
  8
1
  6
solid
 62
     7
100
AcDbLine
 10
8.021190854374387
 20
-0.4187646767379646
 30
0.0
 11
8.007465364178308
 21
-0.4307839075071955
 31
0.0
  0
LINE
  5
18D
330
A
100
AcDbEntity
  8
1
  6
solid
 62
     7
100
AcDbLine
 10
8.007465364178308
 20
-0.4307839075071955
 30
0.0
 11
7.996681050452819
 21
-0.4500146767379646
 31
0.0
  0
LINE
  5
18E
330
A
100
AcDbEntity
  8
1
  6
solid
 62
     7
100
AcDbLine
 10
7.996681050452819
 20
-0.4500146767379646
 30
0.0
 11
7.988837913197917
 21
-0.4692454459687339
 31
0.0
  0
LINE
  5
18F
330
A
100
AcDbEntity
  8
1
  6
solid
 62
     7
100
AcDbLine
 10
7.988837913197917
 20
-0.4692454459687339
 30
0.0
 11
7.982955560256741
 21
-0.4908800613533493
 31
0.0
  0
LINE
  5
190
330
A
100
AcDbEntity
  8
1
  6
solid
 62
     7
100
AcDbLine
 10
7.982955560256741
 20
-0.4908800613533493
 30
0.0
 11
7.980014383786151
 21
-0.5053031382764262
 31
0.0
  0
LINE
  5
191
330
A
100
AcDbEntity
  8
1
  6
solid
 62
     7
100
AcDbLine
 10
7.980014383786151
 20
-0.5053031382764262
 30
0.0
 11
7.980014383786151
 21
-0.5221300613533493
 31
0.0
  0
LINE
  5
192
330
A
100
AcDbEntity
  8
1
  6
solid
 62
     7
100
AcDbLine
 10
7.980014383786151
 20
-0.5221300613533493
 30
0.0
 11
7.982955560256741
 21
-0.5437646767379647
 31
0.0
  0
LINE
  5
193
330
A
100
AcDbEntity
  8
1
  6
solid
 62
     7
100
AcDbLine
 10
7.982955560256741
 20
-0.5437646767379647
 30
0.0
 11
7.988837913197917
 21
-0.5678031382764262
 31
0.0
  0
LINE
  5
194
330
A
100
AcDbEntity
  8
1
  6
solid
 62
     7
100
AcDbLine
 10
7.988837913197917
 20
-0.5678031382764262
 30
0.0
 11
7.996681050452819
 21
-0.5846300613533493
 31
0.0
  0
LINE
  5
195
330
A
100
AcDbEntity
  8
1
  6
solid
 62
     7
100
AcDbLine
 10
7.996681050452819
 20
-0.5846300613533493
 30
0.0
 11
8.004524187707721
 21
-0.5942454459687339
 31
0.0
  0
LINE
  5
196
330
A
100
AcDbEntity
  8
1
  6
solid
 62
     7
100
AcDbLine
 10
8.004524187707721
 20
-0.5942454459687339
 30
0.0
 11
8.010406540648897
 21
-0.6014569844302724
 31
0.0
  0
LINE
  5
197
330
A
100
AcDbEntity
  8
1
  6
solid
 62
     7
100
AcDbLine
 10
8.088837913197917
 20
-0.8346300613533493
 30
0.0
 11
8.108445756335171
 21
-0.8274185228918108
 31
0.0
  0
LINE
  5
198
330
A
100
AcDbEntity
  8
1
  6
solid
 62
     7
100
AcDbLine
 10
8.108445756335171
 20
-0.8274185228918108
 30
0.0
 11
8.12217124653125
 21
-0.8178031382764261
 31
0.0
  0
LINE
  5
199
330
A
100
AcDbEntity
  8
1
  6
solid
 62
     7
100
AcDbLine
 10
8.12217124653125
 20
-0.8178031382764261
 30
0.0
 11
8.134916344570466
 21
-0.8033800613533493
 31
0.0
  0
LINE
  5
19A
330
A
100
AcDbEntity
  8
1
  6
solid
 62
     7
100
AcDbLine
 10
8.134916344570466
 20
-0.8033800613533493
 30
0.0
 11
8.146681050452819
 21
-0.7817454459687339
 31
0.0
  0
LINE
  5
19B
330
A
100
AcDbEntity
  8
1
  6
solid
 62
     7
100
AcDbLine
 10
8.146681050452819
 20
-0.7817454459687339
 30
0.0
 11
8.151583011237132
 21
-0.7625146767379647
 31
0.0
  0
LINE
  5
19C
330
A
100
AcDbEntity
  8
1
  6
solid
 62
     7
100
AcDbLine
 10
8.151583011237132
 20
-0.7625146767379647
 30
0.0
 11
8.154524187707721
 21
-0.7408800613533493
 31
0.0
  0
LINE
  5
19D
330
A
100
AcDbEntity
  8
1
  6
solid
 62
     7
100
AcDbLine
 10
8.154524187707721
 20
-0.7408800613533493
 30
0.0
 11
8.154524187707721
 21
-0.7264569844302724
 31
0.0
  0
LINE
  5
19E
330
A
100
AcDbEntity
  8
1
  6
solid
 62
     7
100
AcDbLine
 10
8.154524187707721
 20
-0.7264569844302724
 30
0.0
 11
8.146681050452819
 21
-0.6952069844302724
 31
0.0
  0
LINE
  5
19F
330
A
100
AcDbEntity
  8
1
  6
solid
 62
     7
100
AcDbLine
 10
8.146681050452819
 20
-0.6952069844302724
 30
0.0
 11
8.137857521041054
 21
-0.6783800613533493
 31
0.0
  0
LINE
  5
1A0
330
A
100
AcDbEntity
  8
1
  6
solid
 62
     7
100
AcDbLine
 10
8.137857521041054
 20
-0.6783800613533493
 30
0.0
 11
8.127073207315564
 21
-0.6639569844302724
 31
0.0
  0
LINE
  5
1A1
330
A
100
AcDbEntity
  8
1
  6
solid
 62
     7
100
AcDbLine
 10
8.127073207315564
 20
-0.6639569844302724
 30
0.0
 11
8.113347717119486
 21
-0.6495339075071955
 31
0.0
  0
LINE
  5
1A2
330
A
100
AcDbEntity
  8
1
  6
solid
 62
     7
100
AcDbLine
 10
8.113347717119486
 20
-0.6495339075071955
 30
0.0
 11
8.102563403393995
 21
-0.6447262151995031
 31
0.0
  0
LINE
  5
1A3
330
A
100
AcDbEntity
  8
1
  6
solid
 62
     7
100
AcDbLine
 10
8.102563403393995
 20
-0.6447262151995031
 30
0.0
 11
8.086877128884191
 21
-0.6399185228918109
 31
0.0
  0
LINE
  5
1A4
330
A
100
AcDbEntity
  8
1
  6
solid
 62
     7
100
AcDbLine
 10
8.086877128884191
 20
-0.6399185228918109
 30
0.0
 11
8.067269285746936
 21
-0.6399185228918109
 31
0.0
  0
LINE
  5
1A5
330
A
100
AcDbEntity
  8
1
  6
solid
 62
     7
100
AcDbLine
 10
8.067269285746936
 20
-0.6399185228918109
 30
0.0
 11
8.045700658295956
 21
-0.6471300613533493
 31
0.0
  0
LINE
  5
1A6
330
A
100
AcDbEntity
  8
1
  6
solid
 62
     7
100
AcDbLine
 10
8.045700658295956
 20
-0.6471300613533493
 30
0.0
 11
8.031975168099878
 21
-0.6567454459687339
 31
0.0
  0
LINE
  5
1A7
330
A
100
AcDbEntity
  8
1
  6
solid
 62
     7
100
AcDbLine
 10
8.031975168099878
 20
-0.6567454459687339
 30
0.0
 11
8.018249677903799
 21
-0.6711685228918107
 31
0.0
  0
LINE
  5
1A8
330
A
100
AcDbEntity
  8
1
  6
solid
 62
     7
100
AcDbLine
 10
8.018249677903799
 20
-0.6711685228918107
 30
0.0
 11
8.007465364178308
 21
-0.6928031382764263
 31
0.0
  0
LINE
  5
1A9
330
A
100
AcDbEntity
  8
1
  6
solid
 62
     7
100
AcDbLine
 10
8.007465364178308
 20
-0.6928031382764263
 30
0.0
 11
8.002563403393995
 21
-0.7096300613533493
 31
0.0
  0
LINE
  5
1AA
330
A
100
AcDbEntity
  8
1
  6
solid
 62
     7
100
AcDbLine
 10
8.002563403393995
 20
-0.7096300613533493
 30
0.0
 11
7.999622226923406
 21
-0.7264569844302724
 31
0.0
  0
LINE
  5
1AB
330
A
100
AcDbEntity
  8
1
  6
solid
 62
     7
100
AcDbLine
 10
7.999622226923406
 20
-0.7264569844302724
 30
0.0
 11
7.999622226923406
 21
-0.7480915998148877
 31
0.0
  0
LINE
  5
1AC
330
A
100
AcDbEntity
  8
1
  6
solid
 62
     7
100
AcDbLine
 10
7.999622226923406
 20
-0.7480915998148877
 30
0.0
 11
8.002563403393995
 21
-0.7697262151995031
 31
0.0
  0
LINE
  5
1AD
330
A
100
AcDbEntity
  8
1
  6
solid
 62
     7
100
AcDbLine
 10
8.002563403393995
 20
-0.7697262151995031
 30
0.0
 11
8.010406540648897
 21
-0.7937646767379647
 31
0.0
  0
LINE
  5
1AE
330
A
100
AcDbEntity
  8
1
  6
solid
 62
     7
100
AcDbLine
 10
8.010406540648897
 20
-0.7937646767379647
 30
0.0
 11
8.024132030844976
 21
-0.8105915998148876
 31
0.0
  0
LINE
  5
1AF
330
A
100
AcDbEntity
  8
1
  6
solid
 62
     7
100
AcDbLine
 10
8.024132030844976
 20
-0.8105915998148876
 30
0.0
 11
8.037857521041054
 21
-0.8250146767379646
 31
0.0
  0
LINE
  5
1B0
330
A
100
AcDbEntity
  8
1
  6
solid
 62
     7
100
AcDbLine
 10
8.037857521041054
 20
-0.8250146767379646
 30
0.0
 11
8.056484972021445
 21
-0.8346300613533493
 31
0.0
  0
LINE
  5
1B1
330
A
100
AcDbEntity
  8
1
  6
solid
 62
     7
100
AcDbLine
 10
8.056484972021445
 20
-0.8346300613533493
 30
0.0
 11
8.088837913197917
 21
-0.8346300613533493
 31
0.0
  0
LINE
  5
1B2
330
A
100
AcDbEntity
  8
1
  6
solid
 62
     7
100
AcDbLine
 10
8.083935952413604
 20
-0.5774185228918109
 30
0.0
 11
8.094720266139093
 21
-0.5750146767379647
 31
0.0
  0
LINE
  5
1B3
330
A
100
AcDbEntity
  8
1
  6
solid
 62
     7
100
AcDbLine
 10
8.094720266139093
 20
-0.5750146767379647
 30
0.0
 11
8.108445756335171
 21
-0.5629954459687339
 31
0.0
  0
LINE
  5
1B4
330
A
100
AcDbEntity
  8
1
  6
solid
 62
     7
100
AcDbLine
 10
8.108445756335171
 20
-0.5629954459687339
 30
0.0
 11
8.116288893590073
 21
-0.5509762151995031
 31
0.0
  0
LINE
  5
1B5
330
A
100
AcDbEntity
  8
1
  6
solid
 62
     7
100
AcDbLine
 10
8.116288893590073
 20
-0.5509762151995031
 30
0.0
 11
8.12217124653125
 21
-0.5365531382764262
 31
0.0
  0
LINE
  5
1B6
330
A
100
AcDbEntity
  8
1
  6
solid
 62
     7
100
AcDbLine
 10
8.12217124653125
 20
-0.5365531382764262
 30
0.0
 11
8.124132030844975
 21
-0.5221300613533493
 31
0.0
  0
LINE
  5
1B7
330
A
100
AcDbEntity
  8
1
  6
solid
 62
     7
100
AcDbLine
 10
8.124132030844975
 20
-0.5221300613533493
 30
0.0
 11
8.124132030844975
 21
-0.5125146767379647
 31
0.0
  0
LINE
  5
1B8
330
A
100
AcDbEntity
  8
1
  6
solid
 62
     7
100
AcDbLine
 10
8.124132030844975
 20
-0.5125146767379647
 30
0.0
 11
8.119230070060662
 21
-0.4908800613533493
 31
0.0
  0
LINE
  5
1B9
330
A
100
AcDbEntity
  8
1
  6
solid
 62
     7
100
AcDbLine
 10
8.119230070060662
 20
-0.4908800613533493
 30
0.0
 11
8.111386932805761
 21
-0.4764569844302724
 31
0.0
  0
LINE
  5
1BA
330
A
100
AcDbEntity
  8
1
  6
solid
 62
     7
100
AcDbLine
 10
8.111386932805761
 20
-0.4764569844302724
 30
0.0
 11
8.102563403393995
 21
-0.4668415998148877
 31
0.0
  0
LINE
  5
1BB
330
A
100
AcDbEntity
  8
1
  6
solid
 62
     7
100
AcDbLine
 10
8.102563403393995
 20
-0.4668415998148877
 30
0.0
 11
8.091779089668506
 21
-0.4596300613533492
 31
0.0
  0
LINE
  5
1BC
330
A
100
AcDbEntity
  8
1
  6
solid
 62
     7
100
AcDbLine
 10
8.091779089668506
 20
-0.4596300613533492
 30
0.0
 11
8.080994775943015
 21
-0.4572262151995031
 31
0.0
  0
LINE
  5
1BD
330
A
100
AcDbEntity
  8
1
  6
solid
 62
     7
100
AcDbLine
 10
8.080994775943015
 20
-0.4572262151995031
 30
0.0
 11
8.073151638688113
 21
-0.4572262151995031
 31
0.0
  0
LINE
  5
1BE
330
A
100
AcDbEntity
  8
1
  6
solid
 62
     7
100
AcDbLine
 10
8.073151638688113
 20
-0.4572262151995031
 30
0.0
 11
8.059426148492034
 21
-0.4596300613533492
 31
0.0
  0
LINE
  5
1BF
330
A
100
AcDbEntity
  8
1
  6
solid
 62
     7
100
AcDbLine
 10
8.059426148492034
 20
-0.4596300613533492
 30
0.0
 11
8.048641834766543
 21
-0.4668415998148877
 31
0.0
  0
LINE
  5
1C0
330
A
100
AcDbEntity
  8
1
  6
solid
 62
     7
100
AcDbLine
 10
8.048641834766543
 20
-0.4668415998148877
 30
0.0
 11
8.03981830535478
 21
-0.4764569844302724
 31
0.0
  0
LINE
  5
1C1
330
A
100
AcDbEntity
  8
1
  6
solid
 62
     7
100
AcDbLine
 10
8.03981830535478
 20
-0.4764569844302724
 30
0.0
 11
8.031975168099878
 21
-0.4908800613533493
 31
0.0
  0
LINE
  5
1C2
330
A
100
AcDbEntity
  8
1
  6
solid
 62
     7
100
AcDbLine
 10
8.031975168099878
 20
-0.4908800613533493
 30
0.0
 11
8.029033991629288
 21
-0.5053031382764262
 31
0.0
  0
LINE
  5
1C3
330
A
100
AcDbEntity
  8
1
  6
solid
 62
     7
100
AcDbLine
 10
8.029033991629288
 20
-0.5053031382764262
 30
0.0
 11
8.027073207315563
 21
-0.5149185228918107
 31
0.0
  0
LINE
  5
1C4
330
A
100
AcDbEntity
  8
1
  6
solid
 62
     7
100
AcDbLine
 10
8.027073207315563
 20
-0.5149185228918107
 30
0.0
 11
8.027073207315563
 21
-0.5221300613533493
 31
0.0
  0
LINE
  5
1C5
330
A
100
AcDbEntity
  8
1
  6
solid
 62
     7
100
AcDbLine
 10
8.027073207315563
 20
-0.5221300613533493
 30
0.0
 11
8.031975168099878
 21
-0.5437646767379647
 31
0.0
  0
LINE
  5
1C6
330
A
100
AcDbEntity
  8
1
  6
solid
 62
     7
100
AcDbLine
 10
8.031975168099878
 20
-0.5437646767379647
 30
0.0
 11
8.037857521041054
 21
-0.5533800613533493
 31
0.0
  0
LINE
  5
1C7
330
A
100
AcDbEntity
  8
1
  6
solid
 62
     7
100
AcDbLine
 10
8.037857521041054
 20
-0.5533800613533493
 30
0.0
 11
8.045700658295956
 21
-0.5678031382764262
 31
0.0
  0
LINE
  5
1C8
330
A
100
AcDbEntity
  8
1
  6
solid
 62
     7
100
AcDbLine
 10
8.045700658295956
 20
-0.5678031382764262
 30
0.0
 11
8.056484972021445
 21
-0.5750146767379647
 31
0.0
  0
LINE
  5
1C9
330
A
100
AcDbEntity
  8
1
  6
solid
 62
     7
100
AcDbLine
 10
8.056484972021445
 20
-0.5750146767379647
 30
0.0
 11
8.070210462217524
 21
-0.5774185228918109
 31
0.0
  0
LINE
  5
1CA
330
A
100
AcDbEntity
  8
1
  6
solid
 62
     7
100
AcDbLine
 10
8.070210462217524
 20
-0.5774185228918109
 30
0.0
 11
8.083935952413604
 21
-0.5774185228918109
 31
0.0
  0
LINE
  5
1CB
330
A
100
AcDbEntity
  8
1
  6
solid
 62
     7
100
AcDbLine
 10
8.337857521041053
 20
-0.3971300613533493
 30
0.0
 11
8.337857521041053
 21
-0.4692454459687339
 31
0.0
  0
LINE
  5
1CC
330
A
100
AcDbEntity
  8
1
  6
solid
 62
     7
100
AcDbLine
 10
8.337857521041053
 20
-0.4692454459687339
 30
0.0
 11
8.35060261908027
 21
-0.4692454459687339
 31
0.0
  0
LINE
  5
1CD
330
A
100
AcDbEntity
  8
1
  6
solid
 62
     7
100
AcDbLine
 10
8.35060261908027
 20
-0.4692454459687339
 30
0.0
 11
8.35060261908027
 21
-0.5461685228918107
 31
0.0
  0
LINE
  5
1CE
330
A
100
AcDbEntity
  8
1
  6
solid
 62
     7
100
AcDbLine
 10
8.35060261908027
 20
-0.5461685228918107
 30
0.0
 11
8.40060261908027
 21
-0.5461685228918107
 31
0.0
  0
LINE
  5
1CF
330
A
100
AcDbEntity
  8
1
  6
solid
 62
     7
100
AcDbLine
 10
8.40060261908027
 20
-0.5461685228918107
 30
0.0
 11
8.40060261908027
 21
-0.4692454459687339
 31
0.0
  0
LINE
  5
1D0
330
A
100
AcDbEntity
  8
1
  6
solid
 62
     7
100
AcDbLine
 10
8.40060261908027
 20
-0.4692454459687339
 30
0.0
 11
8.413347717119485
 21
-0.4692454459687339
 31
0.0
  0
LINE
  5
1D1
330
A
100
AcDbEntity
  8
1
  6
solid
 62
     7
100
AcDbLine
 10
8.413347717119485
 20
-0.4692454459687339
 30
0.0
 11
8.413347717119485
 21
-0.3971300613533493
 31
0.0
  0
LINE
  5
1D2
330
A
100
AcDbEntity
  8
1
  6
solid
 62
     7
100
AcDbLine
 10
8.413347717119485
 20
-0.3971300613533493
 30
0.0
 11
8.337857521041053
 21
-0.3971300613533493
 31
0.0
  0
LINE
  5
1D4
330
A
100
AcDbEntity
  8
0
  6
solid
 62
     7
100
AcDbLine
 10
5.6472336814782
 20
2.07682293847054
 30
0.0
 11
5.6472336814782
 21
2.38932293847054
 31
0.0
  0
LINE
  5
1D5
330
A
100
AcDbEntity
  8
0
  6
solid
 62
     7
100
AcDbLine
 10
5.6472336814782
 20
2.38932293847054
 30
0.0
 11
5.706110493072404
 21
2.38932293847054
 31
0.0
  0
LINE
  5
1D6
330
A
100
AcDbEntity
  8
0
  6
solid
 62
     7
100
AcDbLine
 10
5.706110493072404
 20
2.38932293847054
 30
0.0
 11
5.706110493072404
 21
2.131170764557496
 31
0.0
  0
LINE
  5
1D7
330
A
100
AcDbEntity
  8
0
  6
solid
 62
     7
100
AcDbLine
 10
5.706110493072404
 20
2.131170764557496
 30
0.0
 11
5.869153971333273
 21
2.131170764557496
 31
0.0
  0
LINE
  5
1D8
330
A
100
AcDbEntity
  8
0
  6
solid
 62
     7
100
AcDbLine
 10
5.869153971333273
 20
2.131170764557496
 30
0.0
 11
5.869153971333273
 21
2.07682293847054
 31
0.0
  0
LINE
  5
1D9
330
A
100
AcDbEntity
  8
0
  6
solid
 62
     7
100
AcDbLine
 10
5.6472336814782
 20
2.07682293847054
 30
0.0
 11
5.869153971333273
 21
2.07682293847054
 31
0.0
  0
LINE
  5
1DA
330
A
100
AcDbEntity
  8
0
  6
solid
 62
     7
100
AcDbLine
 10
6.065033536550664
 20
2.07682293847054
 30
0.0
 11
6.006156724956461
 21
2.07682293847054
 31
0.0
  0
LINE
  5
1DB
330
A
100
AcDbEntity
  8
0
  6
solid
 62
     7
100
AcDbLine
 10
6.006156724956461
 20
2.07682293847054
 30
0.0
 11
6.006156724956461
 21
2.301293952963293
 31
0.0
  0
SPLINE
  5
1DC
330
A
100
AcDbEntity
  8
0
  6
solid
 62
     7
100
AcDbSpline
210
0.0
220
0.0
230
1.0
 70
     8
 71
     2
 72
     6
 73
     3
 74
     0
 42
0.0000000001
 43
0.0000000001
 40
0.0
 40
0.0
 40
0.0
 40
1.0
 40
1.0
 40
1.0
 10
6.006156724956461
 20
2.301293952963293
 30
0.0
 10
5.9722436814782
 20
2.268570764557496
 30
0.0
 10
5.929163971333273
 20
2.253453373253149
 30
0.0
  0
LINE
  5
1DD
330
A
100
AcDbEntity
  8
0
  6
solid
 62
     7
100
AcDbLine
 10
5.929163971333273
 20
2.253453373253149
 30
0.0
 11
5.929163971333273
 21
2.312330184847351
 31
0.0
  0
SPLINE
  5
1DE
330
A
100
AcDbEntity
  8
0
  6
solid
 62
     7
100
AcDbSpline
210
0.0
220
0.0
230
1.0
 70
     8
 71
     2
 72
     7
 73
     4
 74
     0
 42
0.0000000001
 43
0.0000000001
 40
0.0
 40
0.0
 40
0.0
 40
1.0
 40
2.0
 40
2.0
 40
2.0
 10
5.929163971333273
 20
2.312330184847351
 30
0.0
 10
5.952179913362258
 20
2.318806996441554
 30
0.0
 10
6.006574116260809
 20
2.360170764557496
 30
0.0
 10
6.016327739449215
 20
2.38932293847054
 30
0.0
  0
LINE
  5
1DF
330
A
100
AcDbEntity
  8
0
  6
solid
 62
     7
100
AcDbLine
 10
6.016327739449215
 20
2.38932293847054
 30
0.0
 11
6.065033536550664
 21
2.38932293847054
 31
0.0
  0
LINE
  5
1E0
330
A
100
AcDbEntity
  8
0
  6
solid
 62
     7
100
AcDbLine
 10
6.065033536550664
 20
2.07682293847054
 30
0.0
 11
6.065033536550664
 21
2.38932293847054
 31
0.0
  0
LINE
  5
1E1
330
A
100
AcDbEntity
  8
0
  6
solid
 62
     7
100
AcDbLine
 10
6.265442087275302
 20
2.07682293847054
 30
0.0
 11
6.206565275681099
 21
2.07682293847054
 31
0.0
  0
LINE
  5
1E2
330
A
100
AcDbEntity
  8
0
  6
solid
 62
     7
100
AcDbLine
 10
6.206565275681099
 20
2.07682293847054
 30
0.0
 11
6.206565275681099
 21
2.301293952963293
 31
0.0
  0
SPLINE
  5
1E3
330
A
100
AcDbEntity
  8
0
  6
solid
 62
     7
100
AcDbSpline
210
0.0
220
0.0
230
1.0
 70
     8
 71
     2
 72
     6
 73
     3
 74
     0
 42
0.0000000001
 43
0.0000000001
 40
0.0
 40
0.0
 40
0.0
 40
1.0
 40
1.0
 40
1.0
 10
6.206565275681099
 20
2.301293952963293
 30
0.0
 10
6.172652232202838
 20
2.268570764557496
 30
0.0
 10
6.129572522057911
 20
2.253453373253149
 30
0.0
  0
LINE
  5
1E4
330
A
100
AcDbEntity
  8
0
  6
solid
 62
     7
100
AcDbLine
 10
6.129572522057911
 20
2.253453373253149
 30
0.0
 11
6.129572522057911
 21
2.312330184847351
 31
0.0
  0
SPLINE
  5
1E5
330
A
100
AcDbEntity
  8
0
  6
solid
 62
     7
100
AcDbSpline
210
0.0
220
0.0
230
1.0
 70
     8
 71
     2
 72
     7
 73
     4
 74
     0
 42
0.0000000001
 43
0.0000000001
 40
0.0
 40
0.0
 40
0.0
 40
1.0
 40
2.0
 40
2.0
 40
2.0
 10
6.129572522057911
 20
2.312330184847351
 30
0.0
 10
6.152588464086896
 20
2.318806996441554
 30
0.0
 10
6.206982666985447
 20
2.360170764557496
 30
0.0
 10
6.216736290173852
 20
2.38932293847054
 30
0.0
  0
LINE
  5
1E6
330
A
100
AcDbEntity
  8
0
  6
solid
 62
     7
100
AcDbLine
 10
6.216736290173852
 20
2.38932293847054
 30
0.0
 11
6.265442087275302
 21
2.38932293847054
 31
0.0
  0
LINE
  5
1E7
330
A
100
AcDbEntity
  8
0
  6
solid
 62
     7
100
AcDbLine
 10
6.265442087275302
 20
2.07682293847054
 30
0.0
 11
6.265442087275302
 21
2.38932293847054
 31
0.0
  0
LINE
  5
1E8
330
A
100
AcDbEntity
  8
0
  6
solid
 62
     7
100
AcDbLine
 10
6.542843391623128
 20
2.135699750064743
 30
0.0
 11
6.542843391623128
 21
2.07682293847054
 31
0.0
  0
LINE
  5
1E9
330
A
100
AcDbEntity
  8
0
  6
solid
 62
     7
100
AcDbLine
 10
6.542843391623128
 20
2.07682293847054
 30
0.0
 11
6.339039043797041
 21
2.07682293847054
 31
0.0
  0
SPLINE
  5
1EA
330
A
100
AcDbEntity
  8
0
  6
solid
 62
     7
100
AcDbSpline
210
0.0
220
0.0
230
1.0
 70
     8
 71
     2
 72
     7
 73
     4
 74
     0
 42
0.0000000001
 43
0.0000000001
 40
0.0
 40
0.0
 40
0.0
 40
1.0
 40
2.0
 40
2.0
 40
2.0
 10
6.339039043797041
 20
2.07682293847054
 30
0.0
 10
6.341218753941968
 20
2.106408445716917
 30
0.0
 10
6.375317304666606
 20
2.162873663108221
 30
0.0
 10
6.422786869883998
 20
2.208395402238656
 30
0.0
  0
SPLINE
  5
1EB
330
A
100
AcDbEntity
  8
0
  6
solid
 62
     7
100
AcDbSpline
210
0.0
220
0.0
230
1.0
 70
     8
 71
     2
 72
     6
 73
     3
 74
     0
 42
0.0000000001
 43
0.0000000001
 40
0.0
 40
0.0
 40
0.0
 40
1.0
 40
1.0
 40
1.0
 10
6.422786869883998
 20
2.208395402238656
 30
0.0
 10
6.462527449594142
 20
2.245044677600974
 30
0.0
 10
6.471446290173853
 20
2.258306996441554
 30
0.0
  0
SPLINE
  5
1EC
330
A
100
AcDbEntity
  8
0
  6
solid
 62
     7
100
AcDbSpline
210
0.0
220
0.0
230
1.0
 70
     8
 71
     2
 72
     6
 73
     3
 74
     0
 42
0.0000000001
 43
0.0000000001
 40
0.0
 40
0.0
 40
0.0
 40
1.0
 40
1.0
 40
1.0
 10
6.471446290173853
 20
2.258306996441554
 30
0.0
 10
6.483966580028925
 20
2.276469315282134
 30
0.0
 10
6.483966580028925
 20
2.294306996441554
 30
0.0
  0
SPLINE
  5
1ED
330
A
100
AcDbEntity
  8
0
  6
solid
 62
     7
100
AcDbSpline
210
0.0
220
0.0
230
1.0
 70
     8
 71
     2
 72
     7
 73
     4
 74
     0
 42
0.0000000001
 43
0.0000000001
 40
0.0
 40
0.0
 40
0.0
 40
1.0
 40
2.0
 40
2.0
 40
2.0
 10
6.483966580028925
 20
2.294306996441554
 30
0.0
 10
6.483966580028925
 20
2.313396851514018
 30
0.0
 10
6.462341942347766
 20
2.334975112383583
 30
0.0
 10
6.44390136263762
 20
2.334975112383583
 30
0.0
  0
SPLINE
  5
1EE
330
A
100
AcDbEntity
  8
0
  6
solid
 62
     7
100
AcDbSpline
210
0.0
220
0.0
230
1.0
 70
     8
 71
     2
 72
     7
 73
     4
 74
     0
 42
0.0000000001
 43
0.0000000001
 40
0.0
 40
0.0
 40
0.0
 40
1.0
 40
2.0
 40
2.0
 40
2.0
 10
6.44390136263762
 20
2.334975112383583
 30
0.0
 10
6.425599913362258
 20
2.334975112383583
 30
0.0
 10
6.403557884376751
 20
2.313443228325612
 30
0.0
 10
6.40244484089849
 20
2.289685257311119
 30
0.0
  0
LINE
  5
1EF
330
A
100
AcDbEntity
  8
0
  6
solid
 62
     7
100
AcDbLine
 10
6.40244484089849
 20
2.289685257311119
 30
0.0
 11
6.343568029304287
 21
2.294863518180685
 31
0.0
  0
SPLINE
  5
1F0
330
A
100
AcDbEntity
  8
0
  6
solid
 62
     7
100
AcDbSpline
210
0.0
220
0.0
230
1.0
 70
     8
 71
     2
 72
     7
 73
     4
 74
     0
 42
0.0000000001
 43
0.0000000001
 40
0.0
 40
0.0
 40
0.0
 40
1.0
 40
2.0
 40
2.0
 40
2.0
 10
6.343568029304287
 20
2.294863518180685
 30
0.0
 10
6.348560782927475
 20
2.345006996441554
 30
0.0
 10
6.403511507565156
 20
2.38932293847054
 30
0.0
 10
6.444736145246316
 20
2.38932293847054
 30
0.0
  0
SPLINE
  5
1F1
330
A
100
AcDbEntity
  8
0
  6
solid
 62
     7
100
AcDbSpline
210
0.0
220
0.0
230
1.0
 70
     8
 71
     2
 72
     7
 73
     4
 74
     0
 42
0.0000000001
 43
0.0000000001
 40
0.0
 40
0.0
 40
0.0
 40
1.0
 40
2.0
 40
2.0
 40
2.0
 10
6.444736145246316
 20
2.38932293847054
 30
0.0
 10
6.490072377130374
 20
2.38932293847054
 30
0.0
 10
6.542843391623128
 20
2.340014242818366
 30
0.0
 10
6.542843391623128
 20
2.303689605137206
 30
0.0
  0
SPLINE
  5
1F2
330
A
100
AcDbEntity
  8
0
  6
solid
 62
     7
100
AcDbSpline
210
0.0
220
0.0
230
1.0
 70
     8
 71
     2
 72
     7
 73
     4
 74
     0
 42
0.0000000001
 43
0.0000000001
 40
0.0
 40
0.0
 40
0.0
 40
1.0
 40
2.0
 40
2.0
 40
2.0
 10
6.542843391623128
 20
2.303689605137206
 30
0.0
 10
6.542843391623128
 20
2.282296851514018
 30
0.0
 10
6.527185420608635
 20
2.245230184847351
 30
0.0
 10
6.512253536550664
 20
2.223976561658945
 30
0.0
  0
SPLINE
  5
1F3
330
A
100
AcDbEntity
  8
0
  6
solid
 62
     7
100
AcDbSpline
210
0.0
220
0.0
230
1.0
 70
     8
 71
     2
 72
     8
 73
     5
 74
     0
 42
0.0000000001
 43
0.0000000001
 40
0.0
 40
0.0
 40
0.0
 40
1.0
 40
2.0
 40
3.0
 40
3.0
 40
3.0
 10
6.512253536550664
 20
2.223976561658945
 30
0.0
 10
6.502360782927476
 20
2.210343228325612
 30
0.0
 10
6.445246290173852
 20
2.159689605137207
 30
0.0
 10
6.431102811912983
 20
2.142454822528511
 30
0.0
 10
6.426620203217331
 20
2.135699750064743
 30
0.0
  0
LINE
  5
1F4
330
A
100
AcDbEntity
  8
0
  6
solid
 62
     7
100
AcDbLine
 10
6.542843391623128
 20
2.135699750064743
 30
0.0
 11
6.426620203217331
 21
2.135699750064743
 31
0.0
  0
LINE
  5
1F5
330
A
100
AcDbEntity
  8
0
  6
solid
 62
     7
100
AcDbLine
 10
6.906295420608635
 20
2.07682293847054
 30
0.0
 11
6.843492522057911
 21
2.07682293847054
 31
0.0
  0
LINE
  5
1F6
330
A
100
AcDbEntity
  8
0
  6
solid
 62
     7
100
AcDbLine
 10
6.843492522057911
 20
2.07682293847054
 30
0.0
 11
6.816133101768055
 21
2.149286706586482
 31
0.0
  0
LINE
  5
1F7
330
A
100
AcDbEntity
  8
0
  6
solid
 62
     7
100
AcDbLine
 10
6.816133101768055
 20
2.149286706586482
 30
0.0
 11
6.691593971333273
 21
2.149286706586482
 31
0.0
  0
LINE
  5
1F8
330
A
100
AcDbEntity
  8
0
  6
solid
 62
     7
100
AcDbLine
 10
6.691593971333273
 20
2.149286706586482
 30
0.0
 11
6.664280927855012
 21
2.07682293847054
 31
0.0
  0
LINE
  5
1F9
330
A
100
AcDbEntity
  8
0
  6
solid
 62
     7
100
AcDbLine
 10
6.664280927855012
 20
2.07682293847054
 30
0.0
 11
6.602853391623128
 21
2.07682293847054
 31
0.0
  0
LINE
  5
1FA
330
A
100
AcDbEntity
  8
0
  6
solid
 62
     7
100
AcDbLine
 10
6.602853391623128
 20
2.07682293847054
 30
0.0
 11
6.725553391623128
 21
2.38932293847054
 31
0.0
  0
LINE
  5
1FB
330
A
100
AcDbEntity
  8
0
  6
solid
 62
     7
100
AcDbLine
 10
6.725553391623128
 20
2.38932293847054
 30
0.0
 11
6.781802666985447
 21
2.38932293847054
 31
0.0
  0
LINE
  5
1FC
330
A
100
AcDbEntity
  8
0
  6
solid
 62
     7
100
AcDbLine
 10
6.906295420608635
 20
2.07682293847054
 30
0.0
 11
6.781802666985447
 21
2.38932293847054
 31
0.0
  0
LINE
  5
1FD
330
A
100
AcDbEntity
  8
0
  6
solid
 62
     7
100
AcDbLine
 10
6.794833101768055
 20
2.203634532673438
 30
0.0
 11
6.753793971333273
 21
2.312330184847351
 31
0.0
  0
LINE
  5
1FE
330
A
100
AcDbEntity
  8
0
  6
solid
 62
     7
100
AcDbLine
 10
6.753793971333273
 20
2.312330184847351
 30
0.0
 11
6.712801217710084
 21
2.203634532673438
 31
0.0
  0
LINE
  5
1FF
330
A
100
AcDbEntity
  8
0
  6
solid
 62
     7
100
AcDbLine
 10
6.794833101768055
 20
2.203634532673438
 30
0.0
 11
6.712801217710084
 21
2.203634532673438
 31
0.0
  0
VIEWPORT
  5
21D
330
B
100
AcDbEntity
 67
     1
  8
0
  6
Continuous
370
     0
100
AcDbViewport
 10
5.169387968333035
 20
3.968749971919159
 30
0.0
 40
16.99659283974028
 41
8.992999745766949
 68
     1
 69
     1
 12
5.169387968333035
 22
3.968749971919159
 13
0.0
 23
0.0
 14
0.5
 24
0.5
 15
0.5
 25
0.5
 16
0.0
 26
0.0
 36
1.0
 17
0.0
 27
0.0
 37
0.0
 42
50.0
 43
0.0
 44
0.0
 45
8.992999745766949
 50
0.0
 51
0.0
 72
   100
 90
   819232
  1

281
     0
 71
     1
 74
     0
110
0.0
120
0.0
130
0.0
111
1.0
121
0.0
131
0.0
112
0.0
122
1.0
132
0.0
 79
     0
146
0.0
170
     0
  0
VIEWPORT
  5
220
330
B
100
AcDbEntity
 67
     1
  8
0
  6
Continuous
370
     0
100
AcDbViewport
 10
5.125263885462906
 20
4.021649975710674
 30
0.0
 40
10.46623010173438
 41
8.058433110109401
 68
     2
 69
     2
 12
7.420898015315831
 22
1.96158568846537
 13
0.0
 23
0.0
 14
0.5
 24
0.5
 15
0.5
 25
0.5
 16
0.0
 26
0.0
 36
1.0
 17
0.0
 27
0.0
 37
0.0
 42
50.0
 43
0.0
 44
0.0
 45
14.87550133676606
 50
0.0
 51
0.0
 72
   100
 90
   819232
  1

281
     0
 71
     1
 74
     0
110
0.0
120
0.0
130
0.0
111
1.0
121
0.0
131
0.0
112
0.0
122
1.0
132
0.0
 79
     0
146
0.0
170
     0
  0
ENDSEC
  0
SECTION
  2
OBJECTS
  0
DICTIONARY
  5
19
330
0
100
AcDbDictionary
281
     1
  3
ACAD_COLOR
350
216
  3
ACAD_GROUP
350
1A
  3
ACAD_LAYOUT
350
1E
  3
ACAD_MATERIAL
350
201
  3
ACAD_MLEADERSTYLE
350
246
  3
ACAD_MLINESTYLE
350
1B
  3
ACAD_PLOTSETTINGS
350
22
  3
ACAD_PLOTSTYLENAME
350
1F
  3
ACAD_SCALELIST
350
224
  3
ACAD_TABLESTYLE
350
217
  3
ACAD_VISUALSTYLE
350
205
  3
ACAD_WIPEOUT_VARS
350
23
  3
ACDB_RECOMPOSE_DATA
350
273
  3
AcDbVariableDictionary
350
221
  0
DICTIONARY
  5
24F
330
14
100
AcDbDictionary
280
     1
281
     1
  3
ADSK_XREC_LAYER_RECONCILED
360
250
  0
DICTIONARY
  5
251
330
27
100
AcDbDictionary
280
     1
281
     1
  3
ADSK_XREC_LAYER_RECONCILED
360
252
  0
DICTIONARY
  5
253
330
1D3
100
AcDbDictionary
280
     1
281
     1
  3
ADSK_XREC_LAYER_RECONCILED
360
254
  0
DICTIONARY
  5
216
102
{ACAD_REACTORS
330
19
102
}
330
19
100
AcDbDictionary
281
     1
  0
DICTIONARY
  5
1A
102
{ACAD_REACTORS
330
19
102
}
330
19
100
AcDbDictionary
281
     1
  0
DICTIONARY
  5
1E
102
{ACAD_REACTORS
330
19
102
}
330
19
100
AcDbDictionary
281
     1
  3
Layout1
350
21
  3
Model
350
20
  0
DICTIONARY
  5
201
102
{ACAD_REACTORS
330
19
102
}
330
19
100
AcDbDictionary
281
     1
  3
ByBlock
350
203
  3
ByLayer
350
202
  3
Global
350
204
  0
DICTIONARY
  5
246
102
{ACAD_REACTORS
330
19
102
}
330
19
100
AcDbDictionary
281
     1
  3
Standard
350
247
  0
DICTIONARY
  5
1B
102
{ACAD_REACTORS
330
19
102
}
330
19
100
AcDbDictionary
281
     1
  3
Standard
350
1C
  0
DICTIONARY
  5
22
102
{ACAD_REACTORS
330
19
102
}
330
19
100
AcDbDictionary
281
     1
  0
ACDBDICTIONARYWDFLT
  5
1F
102
{ACAD_REACTORS
330
19
102
}
330
19
100
AcDbDictionary
281
     1
  3
Normal
350
1D
100
AcDbDictionaryWithDefault
340
1D
  0
DICTIONARY
  5
224
102
{ACAD_REACTORS
330
19
102
}
330
19
100
AcDbDictionary
281
     1
  3
A0
350
225
  3
A1
350
226
  3
A2
350
227
  3
A3
350
228
  3
A4
350
229
  3
A5
350
22A
  3
A6
350
22B
  3
A7
350
22C
  3
A8
350
22D
  3
A9
350
22E
  3
B0
350
22F
  3
B1
350
230
  3
B2
350
231
  3
B3
350
232
  3
B4
350
233
  3
B5
350
234
  3
B6
350
235
  3
B7
350
236
  3
B8
350
237
  3
B9
350
238
  3
C0
350
239
  3
C1
350
23A
  3
C2
350
23B
  3
C3
350
23C
  3
C4
350
23D
  3
C5
350
23E
  3
C6
350
23F
  3
C7
350
240
  3
C8
350
241
  3
C9
350
242
  3
D0
350
243
  3
D1
350
244
  3
D2
350
245
  0
DICTIONARY
  5
217
102
{ACAD_REACTORS
330
19
102
}
330
19
100
AcDbDictionary
281
     1
  3
Standard
350
218
  0
DICTIONARY
  5
205
102
{ACAD_REACTORS
330
19
102
}
330
19
100
AcDbDictionary
281
     1
  3
2dWireframe
350
20B
  3
3D Hidden
350
20D
  3
3dWireframe
350
20C
  3
Basic
350
20A
  3
Brighten
350
211
  3
ColorChange
350
215
  3
Conceptual
350
20E
  3
Dim
350
210
  3
Facepattern
350
214
  3
Flat
350
206
  3
FlatWithEdges
350
207
  3
Gouraud
350
208
  3
GouraudWithEdges
350
209
  3
Linepattern
350
213
  3
Realistic
350
20F
  3
Thicken
350
212
  0
WIPEOUTVARIABLES
  5
23
330
19
100
AcDbWipeoutVariables
 70
     1
  0
XRECORD
  5
273
102
{ACAD_REACTORS
330
19
102
}
330
19
100
AcDbXrecord
280
     1
 90
        1
330
218
  0
DICTIONARY
  5
221
102
{ACAD_REACTORS
330
19
102
}
330
19
100
AcDbDictionary
281
     1
  3
CANNOSCALE
350
270
  3
CMLEADERSTYLE
350
26F
  3
CTABLESTYLE
350
222
  0
XRECORD
  5
250
102
{ACAD_REACTORS
330
24F
102
}
330
24F
100
AcDbXrecord
280
     1
290
     1
  0
XRECORD
  5
252
102
{ACAD_REACTORS
330
251
102
}
330
251
100
AcDbXrecord
280
     1
290
     1
  0
XRECORD
  5
254
102
{ACAD_REACTORS
330
253
102
}
330
253
100
AcDbXrecord
280
     1
290
     1
  0
LAYOUT
  5
21
102
{ACAD_REACTORS
330
1E
102
}
330
1E
100
AcDbPlotSettings
  1

  2
Foxit PDF Printer
  4
Letter
  6

 40
3.174999952316284
 41
3.174999952316284
 42
3.17498779296875
 43
3.175003051757812
 44
279.3999938964844
 45
215.8999938964844
 46
31.47715384821894
 47
24.12875752349356
 48
0.0
 49
0.0
140
0.0
141
0.0
142
1.0
143
1.0
 70
     4
 72
     0
 73
     0
 74
     1
  7

 75
    16
147
1.0
 76
     1
 77
     2
 78
   300
148
-26.25461124795212
149
-20.16000981431432
100
AcDbLayout
  1
Layout1
 70
     0
 71
     1
 10
-0.3306119115190196
 20
-0.2812499079328949
 11
10.66938784818509
 21
8.218749851771214
 12
0.0
 22
0.0
 32
0.0
 14
-0.1078511654042842
 24
-0.0075665793440258
 34
-0.0015258207003583
 15
10.3583789363301
 25
8.050866530765375
 35
0.0000000349246037
146
0.0
 13
0.0
 23
0.0
 33
0.0
 16
1.0
 26
0.0
 36
0.0
 17
0.0
 27
1.0
 37
0.0
 76
     0
330
B
331
21D
1001
ACAD_PSEXT
1000
Foxit PDF Printer
1000
Foxit PDF Printer Driver
1000
FOXIT_PDF
1000

1070
     0
  0
LAYOUT
  5
20
102
{ACAD_REACTORS
330
1E
102
}
330
1E
100
AcDbPlotSettings
  1

  2

  4

  6

 40
0.0
 41
0.0
 42
0.0
 43
0.0
 44
0.0
 45
0.0
 46
0.0
 47
0.0
 48
0.0
 49
0.0
140
0.0
141
0.0
142
1.0
143
1.0
 70
  1024
 72
     0
 73
     0
 74
     0
  7

 75
     0
147
1.0
 76
     0
 77
     2
 78
   300
148
0.0
149
0.0
100
AcDbLayout
  1
Model
 70
     0
 71
     0
 10
0.0
 20
0.0
 11
0.0
 21
0.0
 12
0.0
 22
0.0
 32
0.0
 14
0.0
 24
0.0
 34
0.0
 15
0.0
 25
0.0
 35
0.0
146
0.0
 13
0.0
 23
0.0
 33
0.0
 16
0.0
 26
0.0
 36
0.0
 17
0.0
 27
0.0
 37
0.0
 76
     0
330
A
  0
MATERIAL
  5
203
102
{ACAD_XDICTIONARY
360
276
102
}
102
{ACAD_REACTORS
330
201
102
}
330
201
100
AcDbMaterial
  1
ByBlock
 73
     1
 78
     1
172
     1
176
     1
270
     1
274
     1
  0
MATERIAL
  5
202
102
{ACAD_XDICTIONARY
360
274
102
}
102
{ACAD_REACTORS
330
201
102
}
330
201
100
AcDbMaterial
  1
ByLayer
 73
     1
 78
     1
172
     1
176
     1
270
     1
274
     1
  0
MATERIAL
  5
204
102
{ACAD_XDICTIONARY
360
278
102
}
102
{ACAD_REACTORS
330
201
102
}
330
201
100
AcDbMaterial
  1
Global
 73
     1
 78
     1
172
     1
176
     1
270
     1
274
     1
  0
MLEADERSTYLE
  5
247
102
{ACAD_REACTORS
330
246
102
}
330
246
100
AcDbMLeaderStyle
170
     2
171
     1
172
     0
 90
        2
 40
0.0
 41
0.0
173
     1
 91
-1056964608
340
11
 92
       -2
290
     1
 42
0.09
291
     1
 43
0.36
  3
Standard
 44
0.18
300

342
17
174
     1
178
     6
175
     1
176
     0
 93
-1056964608
 45
0.18
292
     0
297
     0
 46
0.18
 94
-1056964608
 47
1.0
 49
1.0
140
1.0
293
     1
141
0.0
294
     1
177
     0
142
1.0
295
     0
296
     0
143
0.125
1001
ACAD_MLEADERVER
1070
     2
  0
MLINESTYLE
  5
1C
102
{ACAD_REACTORS
330
1B
102
}
330
1B
100
AcDbMlineStyle
  2
STANDARD
 70
     0
  3

 62
     0
 51
90.0
 52
90.0
 71
     2
 49
0.5
 62
   256
  6
BYLAYER
 49
-0.5
 62
   256
  6
BYLAYER
  0
ACDBPLACEHOLDER
  5
1D
102
{ACAD_REACTORS
330
1F
102
}
330
1F
  0
SCALE
  5
225
102
{ACAD_REACTORS
330
224
102
}
330
224
100
AcDbScale
 70
     0
300
1:1
140
1.0
141
1.0
290
     1
  0
SCALE
  5
226
102
{ACAD_REACTORS
330
224
102
}
330
224
100
AcDbScale
 70
     0
300
1:2
140
1.0
141
2.0
290
     0
  0
SCALE
  5
227
102
{ACAD_REACTORS
330
224
102
}
330
224
100
AcDbScale
 70
     0
300
1:4
140
1.0
141
4.0
290
     0
  0
SCALE
  5
228
102
{ACAD_REACTORS
330
224
102
}
330
224
100
AcDbScale
 70
     0
300
1:5
140
1.0
141
5.0
290
     0
  0
SCALE
  5
229
102
{ACAD_REACTORS
330
224
102
}
330
224
100
AcDbScale
 70
     0
300
1:8
140
1.0
141
8.0
290
     0
  0
SCALE
  5
22A
102
{ACAD_REACTORS
330
224
102
}
330
224
100
AcDbScale
 70
     0
300
1:10
140
1.0
141
10.0
290
     0
  0
SCALE
  5
22B
102
{ACAD_REACTORS
330
224
102
}
330
224
100
AcDbScale
 70
     0
300
1:16
140
1.0
141
16.0
290
     0
  0
SCALE
  5
22C
102
{ACAD_REACTORS
330
224
102
}
330
224
100
AcDbScale
 70
     0
300
1:20
140
1.0
141
20.0
290
     0
  0
SCALE
  5
22D
102
{ACAD_REACTORS
330
224
102
}
330
224
100
AcDbScale
 70
     0
300
1:30
140
1.0
141
30.0
290
     0
  0
SCALE
  5
22E
102
{ACAD_REACTORS
330
224
102
}
330
224
100
AcDbScale
 70
     0
300
1:40
140
1.0
141
40.0
290
     0
  0
SCALE
  5
22F
102
{ACAD_REACTORS
330
224
102
}
330
224
100
AcDbScale
 70
     0
300
1:50
140
1.0
141
50.0
290
     0
  0
SCALE
  5
230
102
{ACAD_REACTORS
330
224
102
}
330
224
100
AcDbScale
 70
     0
300
1:100
140
1.0
141
100.0
290
     0
  0
SCALE
  5
231
102
{ACAD_REACTORS
330
224
102
}
330
224
100
AcDbScale
 70
     0
300
2:1
140
2.0
141
1.0
290
     0
  0
SCALE
  5
232
102
{ACAD_REACTORS
330
224
102
}
330
224
100
AcDbScale
 70
     0
300
4:1
140
4.0
141
1.0
290
     0
  0
SCALE
  5
233
102
{ACAD_REACTORS
330
224
102
}
330
224
100
AcDbScale
 70
     0
300
8:1
140
8.0
141
1.0
290
     0
  0
SCALE
  5
234
102
{ACAD_REACTORS
330
224
102
}
330
224
100
AcDbScale
 70
     0
300
10:1
140
10.0
141
1.0
290
     0
  0
SCALE
  5
235
102
{ACAD_REACTORS
330
224
102
}
330
224
100
AcDbScale
 70
     0
300
100:1
140
100.0
141
1.0
290
     0
  0
SCALE
  5
236
102
{ACAD_REACTORS
330
224
102
}
330
224
100
AcDbScale
 70
     0
300
1/128" = 1'-0"
140
0.0078125
141
12.0
290
     0
  0
SCALE
  5
237
102
{ACAD_REACTORS
330
224
102
}
330
224
100
AcDbScale
 70
     0
300
1/64" = 1'-0"
140
0.015625
141
12.0
290
     0
  0
SCALE
  5
238
102
{ACAD_REACTORS
330
224
102
}
330
224
100
AcDbScale
 70
     0
300
1/32" = 1'-0"
140
0.03125
141
12.0
290
     0
  0
SCALE
  5
239
102
{ACAD_REACTORS
330
224
102
}
330
224
100
AcDbScale
 70
     0
300
1/16" = 1'-0"
140
0.0625
141
12.0
290
     0
  0
SCALE
  5
23A
102
{ACAD_REACTORS
330
224
102
}
330
224
100
AcDbScale
 70
     0
300
3/32" = 1'-0"
140
0.09375
141
12.0
290
     0
  0
SCALE
  5
23B
102
{ACAD_REACTORS
330
224
102
}
330
224
100
AcDbScale
 70
     0
300
1/8" = 1'-0"
140
0.125
141
12.0
290
     0
  0
SCALE
  5
23C
102
{ACAD_REACTORS
330
224
102
}
330
224
100
AcDbScale
 70
     0
300
3/16" = 1'-0"
140
0.1875
141
12.0
290
     0
  0
SCALE
  5
23D
102
{ACAD_REACTORS
330
224
102
}
330
224
100
AcDbScale
 70
     0
300
1/4" = 1'-0"
140
0.25
141
12.0
290
     0
  0
SCALE
  5
23E
102
{ACAD_REACTORS
330
224
102
}
330
224
100
AcDbScale
 70
     0
300
3/8" = 1'-0"
140
0.375
141
12.0
290
     0
  0
SCALE
  5
23F
102
{ACAD_REACTORS
330
224
102
}
330
224
100
AcDbScale
 70
     0
300
1/2" = 1'-0"
140
0.5
141
12.0
290
     0
  0
SCALE
  5
240
102
{ACAD_REACTORS
330
224
102
}
330
224
100
AcDbScale
 70
     0
300
3/4" = 1'-0"
140
0.75
141
12.0
290
     0
  0
SCALE
  5
241
102
{ACAD_REACTORS
330
224
102
}
330
224
100
AcDbScale
 70
     0
300
1" = 1'-0"
140
1.0
141
12.0
290
     0
  0
SCALE
  5
242
102
{ACAD_REACTORS
330
224
102
}
330
224
100
AcDbScale
 70
     0
300
1-1/2" = 1'-0"
140
1.5
141
12.0
290
     0
  0
SCALE
  5
243
102
{ACAD_REACTORS
330
224
102
}
330
224
100
AcDbScale
 70
     0
300
3" = 1'-0"
140
3.0
141
12.0
290
     0
  0
SCALE
  5
244
102
{ACAD_REACTORS
330
224
102
}
330
224
100
AcDbScale
 70
     0
300
6" = 1'-0"
140
6.0
141
12.0
290
     0
  0
SCALE
  5
245
102
{ACAD_REACTORS
330
224
102
}
330
224
100
AcDbScale
 70
     0
300
1'-0" = 1'-0"
140
12.0
141
12.0
290
     0
  0
TABLESTYLE
  5
218
102
{ACAD_XDICTIONARY
360
271
102
}
102
{ACAD_REACTORS
330
217
102
}
330
217
100
AcDbTableStyle
  3
Standard
 70
     0
 71
     0
 40
0.06
 41
0.06
280
     0
281
     0
  7
Standard
140
0.18
170
     2
 62
     0
 63
     7
283
     0
274
    -2
284
     1
 64
     0
275
    -2
285
     1
 65
     0
276
    -2
286
     1
 66
     0
277
    -2
287
     1
 67
     0
278
    -2
288
     1
 68
     0
279
    -2
289
     1
 69
     0
  7
Standard
140
0.25
170
     5
 62
     0
 63
     7
283
     0
274
    -2
284
     1
 64
     0
275
    -2
285
     1
 65
     0
276
    -2
286
     1
 66
     0
277
    -2
287
     1
 67
     0
278
    -2
288
     1
 68
     0
279
    -2
289
     1
 69
     0
  7
Standard
140
0.18
170
     5
 62
     0
 63
     7
283
     0
274
    -2
284
     1
 64
     0
275
    -2
285
     1
 65
     0
276
    -2
286
     1
 66
     0
277
    -2
287
     1
 67
     0
278
    -2
288
     1
 68
     0
279
    -2
289
     1
 69
     0
  0
VISUALSTYLE
  5
20B
102
{ACAD_REACTORS
330
205
102
}
330
205
100
AcDbVisualStyle
  2
2dWireframe
 70
     4
 71
     0
 72
     2
 73
     0
 90
        0
 40
-0.6
 41
-30.0
 62
     5
 63
     7
421
 16777215
 74
     1
 91
        4
 64
     7
 65
   257
 75
     1
175
     1
 42
1.0
 92
        0
 66
   257
 43
1.0
 76
     1
 77
     6
 78
     2
 67
     7
 79
     5
170
     0
171
     0
290
     0
174
     0
 93
        1
 44
0.0
173
     0
291
     0
 45
0.0
1001
ACAD
1000
AcDbSavedByObjectVersion
1070
     0
  0
VISUALSTYLE
  5
20D
102
{ACAD_REACTORS
330
205
102
}
330
205
100
AcDbVisualStyle
  2
3D Hidden
 70
     6
 71
     1
 72
     2
 73
     2
 90
        0
 40
-0.6
 41
-30.0
 62
     5
 63
     7
421
 16777215
 74
     2
 91
        2
 64
     7
 65
   257
 75
     2
175
     1
 42
40.0
 92
        0
 66
   257
 43
1.0
 76
     1
 77
     6
 78
     2
 67
     7
 79
     3
170
     0
171
     0
290
     0
174
     0
 93
        1
 44
0.0
173
     0
291
     0
 45
0.0
1001
ACAD
1000
AcDbSavedByObjectVersion
1070
     0
  0
VISUALSTYLE
  5
20C
102
{ACAD_REACTORS
330
205
102
}
330
205
100
AcDbVisualStyle
  2
3dWireframe
 70
     5
 71
     0
 72
     2
 73
     0
 90
        0
 40
-0.6
 41
-30.0
 62
     5
 63
     7
421
 16777215
 74
     1
 91
        4
 64
     7
 65
   257
 75
     1
175
     1
 42
1.0
 92
        0
 66
   257
 43
1.0
 76
     1
 77
     6
 78
     2
 67
     7
 79
     5
170
     0
171
     0
290
     0
174
     0
 93
        1
 44
0.0
173
     0
291
     0
 45
0.0
1001
ACAD
1000
AcDbSavedByObjectVersion
1070
     0
  0
VISUALSTYLE
  5
20A
102
{ACAD_REACTORS
330
205
102
}
330
205
100
AcDbVisualStyle
  2
Basic
 70
     7
 71
     1
 72
     0
 73
     1
 90
        0
 40
-0.6
 41
-30.0
 62
     5
 63
     7
421
 16777215
 74
     0
 91
        4
 64
     7
 65
   257
 75
     1
175
     1
 42
1.0
 92
        8
 66
     7
 43
1.0
 76
     1
 77
     6
 78
     2
 67
     7
 79
     5
170
     0
171
     0
290
     0
174
     0
 93
        1
 44
0.0
173
     0
291
     1
 45
0.0
1001
ACAD
1000
AcDbSavedByObjectVersion
1070
     0
  0
VISUALSTYLE
  5
211
102
{ACAD_REACTORS
330
205
102
}
330
205
100
AcDbVisualStyle
  2
Brighten
 70
    12
 71
     2
 72
     2
 73
     0
 90
        0
 40
-0.6
 41
-30.0
 62
     5
 63
     7
421
 16777215
 74
     1
 91
        4
 64
     7
 65
   257
 75
     1
175
     1
 42
1.0
 92
        8
 66
     7
 43
1.0
 76
     1
 77
     6
 78
     2
 67
     7
 79
     5
170
     0
171
     0
290
     0
174
     0
 93
        1
 44
50.0
173
     0
291
     1
 45
0.0
1001
ACAD
1000
AcDbSavedByObjectVersion
1070
     0
  0
VISUALSTYLE
  5
215
102
{ACAD_REACTORS
330
205
102
}
330
205
100
AcDbVisualStyle
  2
ColorChange
 70
    16
 71
     2
 72
     2
 73
     3
 90
        0
 40
-0.6
 41
-30.0
 62
     5
 63
     8
421
  8421504
 74
     1
 91
        4
 64
     7
 65
   257
 75
     1
175
     1
 42
1.0
 92
        8
 66
     8
424
  8421504
 43
1.0
 76
     1
 77
     6
 78
     2
 67
     7
 79
     5
170
     0
171
     0
290
     0
174
     0
 93
        1
 44
0.0
173
     0
291
     1
 45
0.0
1001
ACAD
1000
AcDbSavedByObjectVersion
1070
     0
  0
VISUALSTYLE
  5
20E
102
{ACAD_REACTORS
330
205
102
}
330
205
100
AcDbVisualStyle
  2
Conceptual
 70
     9
 71
     3
 72
     2
 73
     0
 90
        0
 40
-0.6
 41
-30.0
 62
     5
 63
     7
421
 16777215
 74
     2
 91
        2
 64
     7
 65
   257
 75
     1
175
     1
 42
40.0
 92
        8
 66
     7
 43
1.0
 76
     1
 77
     6
 78
     2
 67
     7
 79
     3
170
     0
171
     0
290
     0
174
     0
 93
        1
 44
0.0
173
     0
291
     0
 45
0.0
1001
ACAD
1000
AcDbSavedByObjectVersion
1070
     0
  0
VISUALSTYLE
  5
210
102
{ACAD_REACTORS
330
205
102
}
330
205
100
AcDbVisualStyle
  2
Dim
 70
    11
 71
     2
 72
     2
 73
     0
 90
        0
 40
-0.6
 41
-30.0
 62
     5
 63
     7
421
 16777215
 74
     1
 91
        4
 64
     7
 65
   257
 75
     1
175
     1
 42
1.0
 92
        8
 66
     7
 43
1.0
 76
     1
 77
     6
 78
     2
 67
     7
 79
     5
170
     0
171
     0
290
     0
174
     0
 93
        1
 44
-50.0
173
     0
291
     1
 45
0.0
1001
ACAD
1000
AcDbSavedByObjectVersion
1070
     0
  0
VISUALSTYLE
  5
214
102
{ACAD_REACTORS
330
205
102
}
330
205
100
AcDbVisualStyle
  2
Facepattern
 70
    15
 71
     2
 72
     2
 73
     0
 90
        0
 40
-0.6
 41
-30.0
 62
     5
 63
     7
421
 16777215
 74
     1
 91
        4
 64
     7
 65
   257
 75
     1
175
     1
 42
1.0
 92
        8
 66
     7
 43
1.0
 76
     1
 77
     6
 78
     2
 67
     7
 79
     5
170
     0
171
     0
290
     0
174
     0
 93
        1
 44
0.0
173
     0
291
     1
 45
0.0
1001
ACAD
1000
AcDbSavedByObjectVersion
1070
     0
  0
VISUALSTYLE
  5
206
102
{ACAD_REACTORS
330
205
102
}
330
205
100
AcDbVisualStyle
  2
Flat
 70
     0
 71
     2
 72
     1
 73
     1
 90
        2
 40
-0.6
 41
30.0
 62
     5
 63
     7
421
 16777215
 74
     0
 91
        4
 64
     7
 65
   257
 75
     1
175
     1
 42
1.0
 92
        8
 66
     7
 43
1.0
 76
     1
 77
     6
 78
     2
 67
     7
 79
     5
170
     0
171
     0
290
     0
174
     0
 93
       13
 44
0.0
173
     0
291
     1
 45
0.0
1001
ACAD
1000
AcDbSavedByObjectVersion
1070
     0
  0
VISUALSTYLE
  5
207
102
{ACAD_REACTORS
330
205
102
}
330
205
100
AcDbVisualStyle
  2
FlatWithEdges
 70
     1
 71
     2
 72
     1
 73
     1
 90
        2
 40
-0.6
 41
30.0
 62
     5
 63
     7
421
 16777215
 74
     1
 91
        4
 64
     7
 65
   257
 75
     1
175
     1
 42
1.0
 92
        0
 66
   257
 43
1.0
 76
     1
 77
     6
 78
     2
 67
     7
 79
     5
170
     0
171
     0
290
     0
174
     0
 93
       13
 44
0.0
173
     0
291
     1
 45
0.0
1001
ACAD
1000
AcDbSavedByObjectVersion
1070
     0
  0
VISUALSTYLE
  5
208
102
{ACAD_REACTORS
330
205
102
}
330
205
100
AcDbVisualStyle
  2
Gouraud
 70
     2
 71
     2
 72
     2
 73
     1
 90
        2
 40
-0.6
 41
30.0
 62
     5
 63
     7
421
 16777215
 74
     0
 91
        4
 64
     7
 65
   257
 75
     1
175
     1
 42
1.0
 92
        0
 66
     7
 43
1.0
 76
     1
 77
     6
 78
     2
 67
     7
 79
     5
170
     0
171
     0
290
     0
174
     0
 93
       13
 44
0.0
173
     0
291
     1
 45
0.0
1001
ACAD
1000
AcDbSavedByObjectVersion
1070
     0
  0
VISUALSTYLE
  5
209
102
{ACAD_REACTORS
330
205
102
}
330
205
100
AcDbVisualStyle
  2
GouraudWithEdges
 70
     3
 71
     2
 72
     2
 73
     1
 90
        2
 40
-0.6
 41
30.0
 62
     5
 63
     7
421
 16777215
 74
     1
 91
        4
 64
     7
 65
   257
 75
     1
175
     1
 42
1.0
 92
        0
 66
   257
 43
1.0
 76
     1
 77
     6
 78
     2
 67
     7
 79
     5
170
     0
171
     0
290
     0
174
     0
 93
       13
 44
0.0
173
     0
291
     1
 45
0.0
1001
ACAD
1000
AcDbSavedByObjectVersion
1070
     0
  0
VISUALSTYLE
  5
213
102
{ACAD_REACTORS
330
205
102
}
330
205
100
AcDbVisualStyle
  2
Linepattern
 70
    14
 71
     2
 72
     2
 73
     0
 90
        0
 40
-0.6
 41
-30.0
 62
     5
 63
     7
421
 16777215
 74
     1
 91
        4
 64
     7
 65
   257
 75
     7
175
     7
 42
1.0
 92
        8
 66
     7
 43
1.0
 76
     1
 77
     6
 78
     2
 67
     7
 79
     5
170
     0
171
     0
290
     0
174
     0
 93
        1
 44
0.0
173
     0
291
     1
 45
0.0
1001
ACAD
1000
AcDbSavedByObjectVersion
1070
     0
  0
VISUALSTYLE
  5
20F
102
{ACAD_REACTORS
330
205
102
}
330
205
100
AcDbVisualStyle
  2
Realistic
 70
     8
 71
     2
 72
     2
 73
     0
 90
        0
 40
-0.6
 41
-30.0
 62
     5
 63
     7
421
 16777215
 74
     1
 91
        0
 64
     7
 65
   257
 75
     1
175
     1
 42
1.0
 92
        8
 66
     8
424
  7895160
 43
1.0
 76
     1
 77
     6
 78
     2
 67
     7
 79
     5
170
     0
171
     0
290
     0
174
     0
 93
       13
 44
0.0
173
     0
291
     0
 45
0.0
1001
ACAD
1000
AcDbSavedByObjectVersion
1070
     0
  0
VISUALSTYLE
  5
212
102
{ACAD_REACTORS
330
205
102
}
330
205
100
AcDbVisualStyle
  2
Thicken
 70
    13
 71
     2
 72
     2
 73
     0
 90
        0
 40
-0.6
 41
-30.0
 62
     5
 63
     7
421
 16777215
 74
     1
 91
        4
 64
     7
 65
   257
 75
     1
175
     1
 42
1.0
 92
       12
 66
     7
 43
1.0
 76
     1
 77
     6
 78
     2
 67
     7
 79
     5
170
     0
171
     0
290
     0
174
     0
 93
        1
 44
0.0
173
     0
291
     1
 45
0.0
1001
ACAD
1000
AcDbSavedByObjectVersion
1070
     0
  0
DICTIONARYVAR
  5
270
102
{ACAD_REACTORS
330
221
102
}
330
221
100
DictionaryVariables
280
     0
  1
1:1
  0
DICTIONARYVAR
  5
26F
102
{ACAD_REACTORS
330
221
102
}
330
221
100
DictionaryVariables
280
     0
  1
STANDARD
  0
DICTIONARYVAR
  5
222
102
{ACAD_REACTORS
330
221
102
}
330
221
100
DictionaryVariables
280
     0
  1
STANDARD
  0
DICTIONARY
  5
276
330
203
100
AcDbDictionary
280
     1
281
     1
  3
ACAD_XREC_ROUNDTRIP
360
277
  0
DICTIONARY
  5
274
330
202
100
AcDbDictionary
280
     1
281
     1
  3
ACAD_XREC_ROUNDTRIP
360
275
  0
DICTIONARY
  5
278
330
204
100
AcDbDictionary
280
     1
281
     1
  3
ACAD_XREC_ROUNDTRIP
360
279
  0
DICTIONARY
  5
271
330
218
100
AcDbDictionary
280
     1
281
     1
  3
ACAD_ROUNDTRIP_2008_TABLESTYLE_CELLSTYLEMAP
360
272
  3
ACAD_XREC_ROUNDTRIP
360
27A
  0
XRECORD
  5
277
102
{ACAD_REACTORS
330
276
102
}
330
276
100
AcDbXrecord
280
     1
102
MATERIAL
148
0.0
149
0.0
149
0.0
 93
        0
 94
       63
282
     0
 72
     1
 77
     1
171
     1
175
     1
179
     1
273
     0
  0
XRECORD
  5
275
102
{ACAD_REACTORS
330
274
102
}
330
274
100
AcDbXrecord
280
     1
102
MATERIAL
148
0.0
149
0.0
149
0.0
 93
        0
 94
       63
282
     0
 72
     1
 77
     1
171
     1
175
     1
179
     1
273
     0
  0
XRECORD
  5
279
102
{ACAD_REACTORS
330
278
102
}
330
278
100
AcDbXrecord
280
     1
102
MATERIAL
148
0.0
149
0.0
149
0.0
 93
        0
 94
       63
282
     0
 72
     1
 77
     1
171
     1
175
     1
179
     1
273
     0
  0
CELLSTYLEMAP
  5
272
102
{ACAD_REACTORS
330
271
102
}
330
271
100
AcDbCellStyleMap
 90
        3
300
CELLSTYLE
  1
TABLEFORMAT_BEGIN
 90
        5
170
     1
 91
        0
 92
    32768
 62
   257
 93
        1
300
CONTENTFORMAT
  1
CONTENTFORMAT_BEGIN
 90
        0
 91
        0
 92
      512
 93
        0
300

 40
0.0
140
1.0
 94
        5
 62
     0
340
17
144
0.25
309
CONTENTFORMAT_END
171
     0
 94
        6
 95
        1
302
GRIDFORMAT
  1
GRIDFORMAT_BEGIN
 90
        0
 91
        1
 62
     0
 92
       -2
340
0
 93
        0
 40
0.045
309
GRIDFORMAT_END
 95
        2
302
GRIDFORMAT
  1
GRIDFORMAT_BEGIN
 90
        0
 91
        1
 62
     0
 92
       -2
340
0
 93
        0
 40
0.045
309
GRIDFORMAT_END
 95
        4
302
GRIDFORMAT
  1
GRIDFORMAT_BEGIN
 90
        0
 91
        1
 62
     0
 92
       -2
340
0
 93
        0
 40
0.045
309
GRIDFORMAT_END
 95
        8
302
GRIDFORMAT
  1
GRIDFORMAT_BEGIN
 90
        0
 91
        1
 62
     0
 92
       -2
340
0
 93
        0
 40
0.045
309
GRIDFORMAT_END
 95
       16
302
GRIDFORMAT
  1
GRIDFORMAT_BEGIN
 90
        0
 91
        1
 62
     0
 92
       -2
340
0
 93
        0
 40
0.045
309
GRIDFORMAT_END
 95
       32
302
GRIDFORMAT
  1
GRIDFORMAT_BEGIN
 90
        0
 91
        1
 62
     0
 92
       -2
340
0
 93
        0
 40
0.045
309
GRIDFORMAT_END
309
TABLEFORMAT_END
  1
CELLSTYLE_BEGIN
 90
        1
 91
        1
300
_TITLE
309
CELLSTYLE_END
300
CELLSTYLE
  1
TABLEFORMAT_BEGIN
 90
        5
170
     1
 91
        0
 92
        0
 62
   257
 93
        1
300
CONTENTFORMAT
  1
CONTENTFORMAT_BEGIN
 90
        0
 91
        0
 92
      512
 93
        0
300

 40
0.0
140
1.0
 94
        5
 62
     0
340
17
144
0.18
309
CONTENTFORMAT_END
171
     0
 94
        6
 95
        1
302
GRIDFORMAT
  1
GRIDFORMAT_BEGIN
 90
        0
 91
        1
 62
     0
 92
       -2
340
0
 93
        0
 40
0.045
309
GRIDFORMAT_END
 95
        2
302
GRIDFORMAT
  1
GRIDFORMAT_BEGIN
 90
        0
 91
        1
 62
     0
 92
       -2
340
0
 93
        0
 40
0.045
309
GRIDFORMAT_END
 95
        4
302
GRIDFORMAT
  1
GRIDFORMAT_BEGIN
 90
        0
 91
        1
 62
     0
 92
       -2
340
0
 93
        0
 40
0.045
309
GRIDFORMAT_END
 95
        8
302
GRIDFORMAT
  1
GRIDFORMAT_BEGIN
 90
        0
 91
        1
 62
     0
 92
       -2
340
0
 93
        0
 40
0.045
309
GRIDFORMAT_END
 95
       16
302
GRIDFORMAT
  1
GRIDFORMAT_BEGIN
 90
        0
 91
        1
 62
     0
 92
       -2
340
0
 93
        0
 40
0.045
309
GRIDFORMAT_END
 95
       32
302
GRIDFORMAT
  1
GRIDFORMAT_BEGIN
 90
        0
 91
        1
 62
     0
 92
       -2
340
0
 93
        0
 40
0.045
309
GRIDFORMAT_END
309
TABLEFORMAT_END
  1
CELLSTYLE_BEGIN
 90
        2
 91
        1
300
_HEADER
309
CELLSTYLE_END
300
CELLSTYLE
  1
TABLEFORMAT_BEGIN
 90
        5
170
     1
 91
        0
 92
        0
 62
   257
 93
        1
300
CONTENTFORMAT
  1
CONTENTFORMAT_BEGIN
 90
        0
 91
        0
 92
      512
 93
        0
300

 40
0.0
140
1.0
 94
        2
 62
     0
340
17
144
0.18
309
CONTENTFORMAT_END
171
     0
 94
        6
 95
        1
302
GRIDFORMAT
  1
GRIDFORMAT_BEGIN
 90
        0
 91
        1
 62
     0
 92
       -2
340
0
 93
        0
 40
0.045
309
GRIDFORMAT_END
 95
        2
302
GRIDFORMAT
  1
GRIDFORMAT_BEGIN
 90
        0
 91
        1
 62
     0
 92
       -2
340
0
 93
        0
 40
0.045
309
GRIDFORMAT_END
 95
        4
302
GRIDFORMAT
  1
GRIDFORMAT_BEGIN
 90
        0
 91
        1
 62
     0
 92
       -2
340
0
 93
        0
 40
0.045
309
GRIDFORMAT_END
 95
        8
302
GRIDFORMAT
  1
GRIDFORMAT_BEGIN
 90
        0
 91
        1
 62
     0
 92
       -2
340
0
 93
        0
 40
0.045
309
GRIDFORMAT_END
 95
       16
302
GRIDFORMAT
  1
GRIDFORMAT_BEGIN
 90
        0
 91
        1
 62
     0
 92
       -2
340
0
 93
        0
 40
0.045
309
GRIDFORMAT_END
 95
       32
302
GRIDFORMAT
  1
GRIDFORMAT_BEGIN
 90
        0
 91
        1
 62
     0
 92
       -2
340
0
 93
        0
 40
0.045
309
GRIDFORMAT_END
309
TABLEFORMAT_END
  1
CELLSTYLE_BEGIN
 90
        3
 91
        2
300
_DATA
309
CELLSTYLE_END
  0
XRECORD
  5
27A
102
{ACAD_REACTORS
330
271
102
}
330
271
100
AcDbXrecord
280
     1
102
ACAD_ROUNDTRIP_PRE2007_TABLESTYLE
 90
      512
 91
        0
  1

 92
      512
 93
        0
  2

 94
      512
 95
        0
  3

  0
ENDSEC
  0
EOF
