  0
SECTION
  2
HEADER
  9
$ACADVER
  1
AC1018
  9
$ACADMAINTVER
 70
   104
  9
$DWGCODEPAGE
  3
ANSI_1252
  9
$LASTSAVEDBY
  1
EARL
  9
$INSBASE
 10
0.0
 20
0.0
 30
0.0
  9
$EXTMIN
 10
-0.0000000000000041
 20
-1.000314419774364
 30
0.0
  9
$EXTMAX
 10
12.09920274934838
 20
3.625
 30
0.0
  9
$LIMMIN
 10
0.0
 20
0.0
  9
$LIMMAX
 10
0.0
 20
0.0
  9
$ORTHOMODE
 70
     0
  9
$REGENMODE
 70
     1
  9
$FILLMODE
 70
     1
  9
$QTEXTMODE
 70
     0
  9
$MIRRTEXT
 70
     1
  9
$LTSCALE
 40
1.0
  9
$ATTMODE
 70
     1
  9
$TEXTSIZE
 40
0.0
  9
$TRACEWID
 40
0.05
  9
$TEXTSTYLE
  7
Standard
  9
$CLAYER
  8
0
  9
$CELTYPE
  6
Continuous
  9
$CECOLOR
 62
   256
  9
$CELTSCALE
 40
1.0
  9
$DISPSILH
 70
     0
  9
$DIMSCALE
 40
1.0
  9
$DIMASZ
 40
0.18
  9
$DIMEXO
 40
0.0625
  9
$DIMDLI
 40
0.38
  9
$DIMRND
 40
0.0
  9
$DIMDLE
 40
0.0
  9
$DIMEXE
 40
0.18
  9
$DIMTP
 40
0.0
  9
$DIMTM
 40
0.0
  9
$DIMTXT
 40
0.18
  9
$DIMCEN
 40
0.09
  9
$DIMTSZ
 40
0.0
  9
$DIMTOL
 70
     0
  9
$DIMLIM
 70
     0
  9
$DIMTIH
 70
     1
  9
$DIMTOH
 70
     1
  9
$DIMSE1
 70
     0
  9
$DIMSE2
 70
     0
  9
$DIMTAD
 70
     0
  9
$DIMZIN
 70
     0
  9
$DIMBLK
  1

  9
$DIMASO
 70
     1
  9
$DIMSHO
 70
     1
  9
$DIMPOST
  1

  9
$DIMAPOST
  1

  9
$DIMALT
 70
     0
  9
$DIMALTD
 70
     2
  9
$DIMALTF
 40
25.4
  9
$DIMLFAC
 40
1.0
  9
$DIMTOFL
 70
     0
  9
$DIMTVP
 40
0.0
  9
$DIMTIX
 70
     0
  9
$DIMSOXD
 70
     0
  9
$DIMSAH
 70
     0
  9
$DIMBLK1
  1

  9
$DIMBLK2
  1

  9
$DIMSTYLE
  2
Standard
  9
$DIMCLRD
 70
     0
  9
$DIMCLRE
 70
     0
  9
$DIMCLRT
 70
     0
  9
$DIMTFAC
 40
1.0
  9
$DIMGAP
 40
0.09
  9
$DIMJUST
 70
     0
  9
$DIMSD1
 70
     0
  9
$DIMSD2
 70
     0
  9
$DIMTOLJ
 70
     1
  9
$DIMTZIN
 70
     0
  9
$DIMALTZ
 70
     0
  9
$DIMALTTZ
 70
     0
  9
$DIMUPT
 70
     0
  9
$DIMDEC
 70
     4
  9
$DIMTDEC
 70
     4
  9
$DIMALTU
 70
     2
  9
$DIMALTTD
 70
     2
  9
$DIMTXSTY
  7
Standard
  9
$DIMAUNIT
 70
     0
  9
$DIMADEC
 70
     0
  9
$DIMALTRND
 40
0.0
  9
$DIMAZIN
 70
     0
  9
$DIMDSEP
 70
    46
  9
$DIMATFIT
 70
     0
  9
$DIMFRAC
 70
     0
  9
$DIMLDRBLK
  1

  9
$DIMLUNIT
 70
     2
  9
$DIMLWD
 70
    -2
  9
$DIMLWE
 70
    -2
  9
$DIMTMOVE
 70
     0
  9
$LUNITS
 70
     2
  9
$LUPREC
 70
     4
  9
$SKETCHINC
 40
0.1
  9
$FILLETRAD
 40
0.0
  9
$AUNITS
 70
     0
  9
$AUPREC
 70
     0
  9
$MENU
  1
acad
  9
$ELEVATION
 40
0.0
  9
$PELEVATION
 40
0.0
  9
$THICKNESS
 40
0.0
  9
$LIMCHECK
 70
     0
  9
$CHAMFERA
 40
0.0
  9
$CHAMFERB
 40
0.0
  9
$CHAMFERC
 40
0.0
  9
$CHAMFERD
 40
0.0
  9
$SKPOLY
 70
     0
  9
$TDCREATE
 40
2454511.251423611
  9
$TDUCREATE
 40
2454511.418090278
  9
$TDUPDATE
 40
2455105.507339225
  9
$TDUUPDATE
 40
2455105.674005892
  9
$TDINDWG
 40
0.0006926273
  9
$TDUSRTIMER
 40
0.0006926273
  9
$USRTIMER
 70
     1
  9
$ANGBASE
 50
0.0
  9
$ANGDIR
 70
     0
  9
$PDMODE
 70
     0
  9
$PDSIZE
 40
0.0
  9
$PLINEWID
 40
0.0
  9
$SPLFRAME
 70
     0
  9
$SPLINETYPE
 70
     6
  9
$SPLINESEGS
 70
     8
  9
$HANDSEED
  5
2CD
  9
$SURFTAB1
 70
     6
  9
$SURFTAB2
 70
     6
  9
$SURFTYPE
 70
     6
  9
$SURFU
 70
     6
  9
$SURFV
 70
     6
  9
$UCSBASE
  2

  9
$UCSNAME
  2

  9
$UCSORG
 10
0.0
 20
0.0
 30
0.0
  9
$UCSXDIR
 10
1.0
 20
0.0
 30
0.0
  9
$UCSYDIR
 10
0.0
 20
1.0
 30
0.0
  9
$UCSORTHOREF
  2

  9
$UCSORTHOVIEW
 70
     0
  9
$UCSORGTOP
 10
0.0
 20
0.0
 30
0.0
  9
$UCSORGBOTTOM
 10
0.0
 20
0.0
 30
0.0
  9
$UCSORGLEFT
 10
0.0
 20
0.0
 30
0.0
  9
$UCSORGRIGHT
 10
0.0
 20
0.0
 30
0.0
  9
$UCSORGFRONT
 10
0.0
 20
0.0
 30
0.0
  9
$UCSORGBACK
 10
0.0
 20
0.0
 30
0.0
  9
$PUCSBASE
  2

  9
$PUCSNAME
  2

  9
$PUCSORG
 10
0.0
 20
0.0
 30
0.0
  9
$PUCSXDIR
 10
1.0
 20
0.0
 30
0.0
  9
$PUCSYDIR
 10
0.0
 20
1.0
 30
0.0
  9
$PUCSORTHOREF
  2

  9
$PUCSORTHOVIEW
 70
     0
  9
$PUCSORGTOP
 10
0.0
 20
0.0
 30
0.0
  9
$PUCSORGBOTTOM
 10
0.0
 20
0.0
 30
0.0
  9
$PUCSORGLEFT
 10
0.0
 20
0.0
 30
0.0
  9
$PUCSORGRIGHT
 10
0.0
 20
0.0
 30
0.0
  9
$PUCSORGFRONT
 10
0.0
 20
0.0
 30
0.0
  9
$PUCSORGBACK
 10
0.0
 20
0.0
 30
0.0
  9
$USERI1
 70
     0
  9
$USERI2
 70
     0
  9
$USERI3
 70
     0
  9
$USERI4
 70
     0
  9
$USERI5
 70
     0
  9
$USERR1
 40
0.0
  9
$USERR2
 40
0.0
  9
$USERR3
 40
0.0
  9
$USERR4
 40
0.0
  9
$USERR5
 40
0.0
  9
$WORLDVIEW
 70
     1
  9
$SHADEDGE
 70
     3
  9
$SHADEDIF
 70
    70
  9
$TILEMODE
 70
     0
  9
$MAXACTVP
 70
    16
  9
$PINSBASE
 10
0.0
 20
0.0
 30
0.0
  9
$PLIMCHECK
 70
     0
  9
$PEXTMIN
 10
-0.0523849078246954
 20
-0.025756769139111
 30
-0.0015258207003583
  9
$PEXTMAX
 10
10.37854590320038
 20
7.962143023230282
 30
0.0000000349246037
  9
$PLIMMIN
 10
-0.3280945746555161
 20
-0.2818067443045545
  9
$PLIMMAX
 10
10.67190518504859
 20
8.218193015399554
  9
$UNITMODE
 70
     0
  9
$VISRETAIN
 70
     0
  9
$PLINEGEN
 70
     1
  9
$PSLTSCALE
 70
     0
  9
$TREEDEPTH
 70
  3020
  9
$CMLSTYLE
  2
Standard
  9
$CMLJUST
 70
     0
  9
$CMLSCALE
 40
1.0
  9
$PROXYGRAPHICS
 70
     0
  9
$MEASUREMENT
 70
     0
  9
$CELWEIGHT
370
     0
  9
$ENDCAPS
280
     0
  9
$JOINSTYLE
280
     0
  9
$LWDISPLAY
290
     0
  9
$INSUNITS
 70
     0
  9
$HYPERLINKBASE
  1

  9
$STYLESHEET
  1

  9
$XEDIT
290
     1
  9
$CEPSNTYPE
380
     0
  9
$PSTYLEMODE
290
     1
  9
$FINGERPRINTGUID
  2

  9
$VERSIONGUID
  2
{520C27B0-20B4-4295-992C-D0349EE296C9}
  9
$EXTNAMES
290
     1
  9
$PSVPSCALE
 40
0.0
  9
$OLESTARTUP
290
     0
  9
$SORTENTS
280
   127
  9
$INDEXCTL
280
     0
  9
$HIDETEXT
280
     0
  9
$XCLIPFRAME
290
     0
  9
$HALOGAP
280
     0
  9
$OBSCOLOR
 70
   257
  9
$OBSLTYPE
280
     0
  9
$INTERSECTIONDISPLAY
280
     0
  9
$INTERSECTIONCOLOR
 70
   257
  9
$DIMASSOC
280
     1
  9
$PROJECTNAME
  1

  0
ENDSEC
  0
SECTION
  2
CLASSES
  0
CLASS
  1
IMAGE
  2
AcDbRasterImage
  3
ISM
 90
     2175
 91
        0
280
     0
281
     1
  0
CLASS
  1
DICTIONARYVAR
  2
AcDbDictionaryVar
  3
ObjectDBX Classes
 90
        0
 91
        5
280
     0
281
     0
  0
CLASS
  1
RASTERVARIABLES
  2
AcDbRasterVariables
  3
ISM
 90
        0
 91
        0
280
     0
281
     0
  0
CLASS
  1
IMAGEDEF
  2
AcDbRasterImageDef
  3
ISM
 90
        0
 91
        0
280
     0
281
     0
  0
CLASS
  1
IMAGEDEF_REACTOR
  2
AcDbRasterImageDefReactor
  3
ISM
 90
        1
 91
        0
280
     0
281
     0
  0
CLASS
  1
IDBUFFER
  2
AcDbIdBuffer
  3
ObjectDBX Classes
 90
        0
 91
        0
280
     0
281
     0
  0
CLASS
  1
SPATIAL_FILTER
  2
AcDbSpatialFilter
  3
ObjectDBX Classes
 90
        0
 91
        0
280
     0
281
     0
  0
CLASS
  1
SORTENTSTABLE
  2
AcDbSortentsTable
  3
ObjectDBX Classes
 90
        0
 91
        0
280
     0
281
     0
  0
CLASS
  1
LAYER_INDEX
  2
AcDbLayerIndex
  3
ObjectDBX Classes
 90
        0
 91
        0
280
     0
281
     0
  0
CLASS
  1
SPATIAL_INDEX
  2
AcDbSpatialIndex
  3
ObjectDBX Classes
 90
        0
 91
        0
280
     0
281
     0
  0
CLASS
  1
OBJECT_PTR
  2
CAseDLPNTableRecord
  3
"ASE-LPNTableRecord"
 90
        1
 91
        0
280
     0
281
     0
  0
CLASS
  1
PLOTSETTINGS
  2
AcDbPlotSettings
  3
ObjectDBX Classes
 90
        0
 91
        0
280
     0
281
     0
  0
CLASS
  1
ACDBDICTIONARYWDFLT
  2
AcDbDictionaryWithDefault
  3
ObjectDBX Classes
 90
        0
 91
        1
280
     0
281
     0
  0
CLASS
  1
WIPEOUT
  2
AcDbWipeout
  3
"WipeOut|Product Desc: Object Enabler for WipeOut entity                        |Company: Autodesk, Inc.                        |WEB Address: www.autodesk.com"
 90
     2175
 91
        0
280
     0
281
     1
  0
CLASS
  1
WIPEOUTVARIABLES
  2
AcDbWipeoutVariables
  3
"WipeOut|Product Desc:     WipeOut Dbx Application|Company:          Autodesk, Inc.|WEB Address:      www.autodesk.com"
 90
        0
 91
        1
280
     0
281
     0
  0
CLASS
  1
RTEXT
  2
RText
  3
RText|AutoCAD Express Tool|expresstools@autodesk.com
 90
        0
 91
        0
280
     0
281
     1
  0
CLASS
  1
ARCALIGNEDTEXT
  2
AcDbArcAlignedText
  3
ATEXT|AutoCAD Express Tool|expresstools@autodesk.com
 90
        0
 91
        0
280
     0
281
     1
  0
CLASS
  1
TABLESTYLE
  2
AcDbTableStyle
  3
ObjectDBX Classes
 90
     4095
 91
        1
280
     0
281
     0
  0
CLASS
  1
MATERIAL
  2
AcDbMaterial
  3
ObjectDBX Classes
 90
     1153
 91
        3
280
     0
281
     0
  0
CLASS
  1
VISUALSTYLE
  2
AcDbVisualStyle
  3
ObjectDBX Classes
 90
     4095
 91
       16
280
     0
281
     0
  0
CLASS
  1
SCALE
  2
AcDbScale
  3
ObjectDBX Classes
 90
     1153
 91
       33
280
     0
281
     0
  0
CLASS
  1
MLEADERSTYLE
  2
AcDbMLeaderStyle
  3
ACDB_MLEADERSTYLE_CLASS
 90
     4095
 91
        1
280
     0
281
     0
  0
CLASS
  1
CELLSTYLEMAP
  2
AcDbCellStyleMap
  3
ObjectDBX Classes
 90
     1152
 91
        2
280
     0
281
     0
  0
ENDSEC
  0
SECTION
  2
TABLES
  0
TABLE
  2
VPORT
  5
7
330
0
100
AcDbSymbolTable
 70
     1
  0
VPORT
  5
24C
330
7
100
AcDbSymbolTableRecord
100
AcDbViewportTableRecord
  2
*Active
 70
     0
 10
0.0
 20
0.0
 11
1.0
 21
1.0
 12
7.029406773212764
 22
2.033968105634412
 13
0.0
 23
0.0
 14
1.0
 24
1.0
 15
0.0
 25
0.0
 16
0.0
 26
0.0
 36
1.0
 17
0.0
 27
0.0
 37
0.0
 40
9.291472284123944
 41
1.889980353634577
 42
50.0
 43
0.0
 44
0.0
 50
0.0
 51
0.0
 71
     0
 72
   100
 73
     1
 74
     1
 75
     0
 76
     0
 77
     0
 78
     0
281
     0
 65
     0
110
0.0
120
0.0
130
0.0
111
1.0
121
0.0
131
0.0
112
0.0
122
1.0
132
0.0
 79
     0
146
0.0
  0
ENDTAB
  0
TABLE
  2
LTYPE
  5
4
330
0
100
AcDbSymbolTable
 70
     4
  0
LTYPE
  5
11
330
4
100
AcDbSymbolTableRecord
100
AcDbLinetypeTableRecord
  2
ByBlock
 70
     0
  3

 72
    65
 73
     0
 40
0.0
  0
LTYPE
  5
12
330
4
100
AcDbSymbolTableRecord
100
AcDbLinetypeTableRecord
  2
ByLayer
 70
     0
  3

 72
    65
 73
     0
 40
0.0
  0
LTYPE
  5
13
330
4
100
AcDbSymbolTableRecord
100
AcDbLinetypeTableRecord
  2
Continuous
 70
     0
  3
Solid line
 72
    65
 73
     0
 40
0.0
  0
LTYPE
  5
24
330
4
100
AcDbSymbolTableRecord
100
AcDbLinetypeTableRecord
  2
solid
 70
     0
  3

 72
    65
 73
     0
 40
0.0
  0
LTYPE
  5
25
330
4
100
AcDbSymbolTableRecord
100
AcDbLinetypeTableRecord
  2
dashed
 70
     0
  3

 72
    65
 73
     0
 40
0.0
  0
LTYPE
  5
26
330
4
100
AcDbSymbolTableRecord
100
AcDbLinetypeTableRecord
  2
center
 70
     0
  3

 72
    65
 73
     0
 40
0.0
  0
ENDTAB
  0
TABLE
  2
LAYER
  5
2
330
0
100
AcDbSymbolTable
 70
     2
  0
LAYER
  5
14
102
{ACAD_XDICTIONARY
360
2AB
102
}
330
2
100
AcDbSymbolTableRecord
100
AcDbLayerTableRecord
  2
0
 70
     0
 62
     7
  6
Continuous
370
    -3
390
1D
  0
LAYER
  5
27
102
{ACAD_XDICTIONARY
360
2AD
102
}
330
2
100
AcDbSymbolTableRecord
100
AcDbLayerTableRecord
  2
1
 70
     0
 62
     1
  6
solid
370
    -3
390
1D
  0
ENDTAB
  0
TABLE
  2
STYLE
  5
3
330
0
100
AcDbSymbolTable
 70
     2
  0
STYLE
  5
17
330
3
100
AcDbSymbolTableRecord
100
AcDbTextStyleTableRecord
  2
Standard
 70
     0
 40
0.0
 41
1.0
 50
0.0
 71
     0
 42
0.0
  3
txt
  4

  0
ENDTAB
  0
TABLE
  2
VIEW
  5
5
330
0
100
AcDbSymbolTable
 70
     0
  0
ENDTAB
  0
TABLE
  2
UCS
  5
6
330
0
100
AcDbSymbolTable
 70
     0
  0
ENDTAB
  0
TABLE
  2
APPID
  5
8
330
0
100
AcDbSymbolTable
 70
     3
  0
APPID
  5
16
330
8
100
AcDbSymbolTableRecord
100
AcDbRegAppTableRecord
  2
ACAD
 70
     0
  0
APPID
  5
29D
330
8
100
AcDbSymbolTableRecord
100
AcDbRegAppTableRecord
  2
ACAD_MLEADERVER
 70
     0
  0
APPID
  5
2A6
330
8
100
AcDbSymbolTableRecord
100
AcDbRegAppTableRecord
  2
ACAD_PSEXT
 70
     0
  0
ENDTAB
  0
TABLE
  2
DIMSTYLE
  5
9
330
0
100
AcDbSymbolTable
 70
     2
100
AcDbDimStyleTable
 71
     1
340
18
  0
DIMSTYLE
105
18
102
{ACAD_REACTORS
330
38
102
}
330
9
100
AcDbSymbolTableRecord
100
AcDbDimStyleTableRecord
  2
Standard
 70
     0
289
     0
340
17
  0
ENDTAB
  0
TABLE
  2
BLOCK_RECORD
  5
1
330
0
100
AcDbSymbolTable
 70
     2
  0
BLOCK_RECORD
  5
A
330
1
100
AcDbSymbolTableRecord
100
AcDbBlockTableRecord
  2
*MODEL_SPACE
340
20
  0
BLOCK_RECORD
  5
B
330
1
100
AcDbSymbolTableRecord
100
AcDbBlockTableRecord
  2
*PAPER_SPACE
340
21
  0
BLOCK_RECORD
  5
2E
330
1
100
AcDbSymbolTableRecord
100
AcDbBlockTableRecord
  2
*D0
340
0
  0
ENDTAB
  0
ENDSEC
  0
SECTION
  2
BLOCKS
  0
BLOCK
  5
D
330
A
100
AcDbEntity
  8
0
100
AcDbBlockBegin
  2
*MODEL_SPACE
 70
     0
 10
0.0
 20
0.0
 30
0.0
  3
*MODEL_SPACE
  1

  0
ENDBLK
  5
E
330
A
100
AcDbEntity
  8
0
100
AcDbBlockEnd
  0
BLOCK
  5
F
330
B
100
AcDbEntity
 67
     1
  8
0
100
AcDbBlockBegin
  2
*PAPER_SPACE
 70
     0
 10
0.0
 20
0.0
 30
0.0
  3
*PAPER_SPACE
  1

  0
ENDBLK
  5
10
330
B
100
AcDbEntity
 67
     1
  8
0
100
AcDbBlockEnd
  0
BLOCK
  5
2F
330
2E
100
AcDbEntity
  8
1
  6
solid
 62
     0
100
AcDbBlockBegin
  2
*D0
 70
     0
 10
0.0
 20
0.0
 30
0.0
  3
*D0
  1

  0
LINE
  5
30
330
2E
100
AcDbEntity
  8
1
  6
solid
 62
     0
100
AcDbLine
 10
11.05703067779541
 20
0.0
 30
0.0
 11
11.64086941601505
 21
0.0
 31
0.0
  0
LINE
  5
31
330
2E
100
AcDbEntity
  8
1
  6
solid
 62
     0
100
AcDbLine
 10
11.05703067779541
 20
3.625
 30
0.0
 11
11.64086941601505
 21
3.625
 31
0.0
  0
LINE
  5
32
330
2E
100
AcDbEntity
  8
1
  6
solid
 62
     0
100
AcDbLine
 10
11.51586941601505
 20
0.0
 30
0.0
 11
11.51586941601505
 21
1.552687499999999
 31
0.0
  0
LINE
  5
33
330
2E
100
AcDbEntity
  8
1
  6
solid
 62
     0
100
AcDbLine
 10
11.51586941601505
 20
3.625
 30
0.0
 11
11.51586941601505
 21
2.0723125
 31
0.0
  0
MTEXT
  5
34
330
2E
100
AcDbEntity
  8
1
  6
solid
 62
     0
100
AcDbMText
 10
11.51586941601505
 20
1.812499999999999
 30
0.0
 40
0.25
 41
0.0
 71
     5
 72
     1
  1
{\H0.250000;3 5/8}
 73
     1
 44
1.0
  0
SOLID
  5
35
330
2E
100
AcDbEntity
  8
1
  6
solid
 62
     0
100
AcDbTrace
 10
11.47424441601504
 20
0.2499999999999997
 30
0.0
 11
11.55749441601504
 21
0.2500000000000002
 31
0.0
 12
11.51586941601505
 22
0.0
 32
0.0
 13
11.51586941601505
 23
0.0
 33
0.0
  0
SOLID
  5
36
330
2E
100
AcDbEntity
  8
1
  6
solid
 62
     0
100
AcDbTrace
 10
11.55749441601505
 20
3.374999999999999
 30
0.0
 11
11.47424441601505
 21
3.375
 31
0.0
 12
11.51586941601505
 22
3.625
 32
0.0
 13
11.51586941601505
 23
3.625
 33
0.0
  0
ENDBLK
  5
37
330
2E
100
AcDbEntity
  8
1
  6
solid
 62
     0
100
AcDbBlockEnd
  0
ENDSEC
  0
SECTION
  2
ENTITIES
  0
ARC
  5
28
330
A
100
AcDbEntity
  8
1
  6
solid
 62
     0
100
AcDbCircle
 10
5.4035153788659
 20
3.221372419223227
 30
0.0
 40
3.221372408665609
100
AcDbArc
 50
212.9971437503101
 51
327.0028545862093
  0
ARC
  5
29
330
A
100
AcDbEntity
  8
1
  6
solid
 62
     0
100
AcDbCircle
 10
10.80703083697289
 20
3.221372419223227
 30
0.0
 40
3.221372408665609
100
AcDbArc
 50
212.9971437503101
 51
269.999997168847
  0
ARC
  5
2A
330
A
100
AcDbEntity
  8
1
  6
solid
 62
     0
100
AcDbCircle
 10
0.0000000399681959
 20
3.221372419223227
 30
0.0
 40
3.221372408665609
100
AcDbArc
 50
269.99999928912
 51
327.0028545862093
  0
LINE
  5
2B
330
A
100
AcDbEntity
  8
1
  6
solid
 62
     0
100
AcDbLine
 10
0.0
 20
3.625
 30
0.0
 11
10.80703067779541
 21
3.625
 31
0.0
  0
LINE
  5
2C
330
A
100
AcDbEntity
  8
1
  6
solid
 62
     0
100
AcDbLine
 10
0.0
 20
3.625
 30
0.0
 11
0.0
 21
0.0000000105576178
 31
0.0
  0
LINE
  5
2D
330
A
100
AcDbEntity
  8
1
  6
solid
 62
     0
100
AcDbLine
 10
10.80703067779541
 20
3.625
 30
0.0
 11
10.80703067779541
 21
0.0000000105576218
 31
0.0
  0
DIMENSION
  5
38
330
A
100
AcDbEntity
  8
1
  6
solid
 62
     0
100
AcDbDimension
  2
*D0
 10
11.51586941601505
 20
1.812499999999999
 30
0.0
 11
11.51586941601505
 21
1.812499999999999
 31
0.0
 70
    33
 71
     5
 42
3.625
  3
Standard
100
AcDbAlignedDimension
 13
10.80703067779541
 23
3.625
 33
0.0
 14
10.80703067779541
 24
0.0
 34
0.0
1001
ACAD
1000
DSTYLE
1002
{
1070
    41
1040
0.25
1070
    42
1040
0.25
1070
    44
1040
0.125
1070
    47
1040
0.0005
1070
    48
1040
0.0005
1070
    75
1070
     1
1070
    76
1070
     1
1070
   140
1040
0.25
1070
   146
1040
0.5
1070
   174
1070
     1
1070
   270
1070
     5
1070
   271
1070
     3
1070
   272
1070
     3
1070
   277
1070
     5
1002
}
  0
LINE
  5
39
330
A
100
AcDbEntity
  8
1
  6
solid
 62
     0
100
AcDbLine
 10
4.612690372448081
 20
1.41918215676994
 30
0.0
 11
4.612690372448081
 21
1.500311964462247
 31
0.0
  0
LINE
  5
3A
330
A
100
AcDbEntity
  8
1
  6
solid
 62
     0
100
AcDbLine
 10
4.612690372448081
 20
1.500311964462247
 30
0.0
 11
4.671513901859846
 21
1.500311964462247
 31
0.0
  0
LINE
  5
3B
330
A
100
AcDbEntity
  8
1
  6
solid
 62
     0
100
AcDbLine
 10
4.671513901859846
 20
1.500311964462247
 30
0.0
 11
4.671513901859846
 21
1.963052349077632
 31
0.0
  0
LINE
  5
3C
330
A
100
AcDbEntity
  8
1
  6
solid
 62
     0
100
AcDbLine
 10
4.671513901859846
 20
1.963052349077632
 30
0.0
 11
4.612690372448081
 21
1.963052349077632
 31
0.0
  0
LINE
  5
3D
330
A
100
AcDbEntity
  8
1
  6
solid
 62
     0
100
AcDbLine
 10
4.612690372448081
 20
1.963052349077632
 30
0.0
 11
4.612690372448081
 21
2.04418215676994
 31
0.0
  0
LINE
  5
3E
330
A
100
AcDbEntity
  8
1
  6
solid
 62
     0
100
AcDbLine
 10
4.612690372448081
 20
2.04418215676994
 30
0.0
 11
4.791611941075532
 21
2.04418215676994
 31
0.0
  0
LINE
  5
3F
330
A
100
AcDbEntity
  8
1
  6
solid
 62
     0
100
AcDbLine
 10
4.791611941075532
 20
2.04418215676994
 30
0.0
 11
4.791611941075532
 21
1.963052349077632
 31
0.0
  0
LINE
  5
40
330
A
100
AcDbEntity
  8
1
  6
solid
 62
     0
100
AcDbLine
 10
4.791611941075532
 20
1.963052349077632
 30
0.0
 11
4.740141352840238
 21
1.963052349077632
 31
0.0
  0
LINE
  5
41
330
A
100
AcDbEntity
  8
1
  6
solid
 62
     0
100
AcDbLine
 10
4.740141352840238
 20
1.963052349077632
 30
0.0
 11
4.740141352840238
 21
1.500311964462247
 31
0.0
  0
LINE
  5
42
330
A
100
AcDbEntity
  8
1
  6
solid
 62
     0
100
AcDbLine
 10
4.740141352840238
 20
1.500311964462247
 30
0.0
 11
4.866366843036317
 21
1.500311964462247
 31
0.0
  0
LINE
  5
43
330
A
100
AcDbEntity
  8
1
  6
solid
 62
     0
100
AcDbLine
 10
4.866366843036317
 20
1.500311964462247
 30
0.0
 11
4.866366843036317
 21
1.61449465676994
 31
0.0
  0
LINE
  5
44
330
A
100
AcDbEntity
  8
1
  6
solid
 62
     0
100
AcDbLine
 10
4.866366843036317
 20
1.61449465676994
 30
0.0
 11
4.925190372448081
 21
1.61449465676994
 31
0.0
  0
LINE
  5
45
330
A
100
AcDbEntity
  8
1
  6
solid
 62
     0
100
AcDbLine
 10
4.925190372448081
 20
1.61449465676994
 30
0.0
 11
4.925190372448081
 21
1.41918215676994
 31
0.0
  0
LINE
  5
46
330
A
100
AcDbEntity
  8
1
  6
solid
 62
     0
100
AcDbLine
 10
4.925190372448081
 20
1.41918215676994
 30
0.0
 11
4.612690372448081
 21
1.41918215676994
 31
0.0
  0
LINE
  5
47
330
A
100
AcDbEntity
  8
1
  6
solid
 62
     0
100
AcDbLine
 10
5.030582529310827
 20
1.41918215676994
 30
0.0
 11
5.030582529310827
 21
1.500311964462247
 31
0.0
  0
LINE
  5
48
330
A
100
AcDbEntity
  8
1
  6
solid
 62
     0
100
AcDbLine
 10
5.030582529310827
 20
1.500311964462247
 30
0.0
 11
5.09798449009514
 21
1.500311964462247
 31
0.0
  0
LINE
  5
49
330
A
100
AcDbEntity
  8
1
  6
solid
 62
     0
100
AcDbLine
 10
5.09798449009514
 20
1.500311964462247
 30
0.0
 11
5.09798449009514
 21
1.963052349077632
 31
0.0
  0
LINE
  5
4A
330
A
100
AcDbEntity
  8
1
  6
solid
 62
     0
100
AcDbLine
 10
5.09798449009514
 20
1.963052349077632
 30
0.0
 11
5.026906058722591
 21
1.963052349077632
 31
0.0
  0
LINE
  5
4B
330
A
100
AcDbEntity
  8
1
  6
solid
 62
     0
100
AcDbLine
 10
5.026906058722591
 20
1.963052349077632
 30
0.0
 11
5.026906058722591
 21
2.04418215676994
 31
0.0
  0
LINE
  5
4C
330
A
100
AcDbEntity
  8
1
  6
solid
 62
     0
100
AcDbLine
 10
5.026906058722591
 20
2.04418215676994
 30
0.0
 11
5.186219784212787
 21
2.04418215676994
 31
0.0
  0
LINE
  5
4D
330
A
100
AcDbEntity
  8
1
  6
solid
 62
     0
100
AcDbLine
 10
5.186219784212787
 20
2.04418215676994
 30
0.0
 11
5.186219784212787
 21
1.500311964462247
 31
0.0
  0
LINE
  5
4E
330
A
100
AcDbEntity
  8
1
  6
solid
 62
     0
100
AcDbLine
 10
5.186219784212787
 20
1.500311964462247
 30
0.0
 11
5.260974686173572
 21
1.500311964462247
 31
0.0
  0
LINE
  5
4F
330
A
100
AcDbEntity
  8
1
  6
solid
 62
     0
100
AcDbLine
 10
5.260974686173572
 20
1.500311964462247
 30
0.0
 11
5.260974686173572
 21
1.41918215676994
 31
0.0
  0
LINE
  5
50
330
A
100
AcDbEntity
  8
1
  6
solid
 62
     0
100
AcDbLine
 10
5.260974686173572
 20
1.41918215676994
 30
0.0
 11
5.030582529310827
 21
1.41918215676994
 31
0.0
  0
LINE
  5
51
330
A
100
AcDbEntity
  8
1
  6
solid
 62
     0
100
AcDbLine
 10
5.405582529310827
 20
1.41918215676994
 30
0.0
 11
5.405582529310827
 21
1.500311964462247
 31
0.0
  0
LINE
  5
52
330
A
100
AcDbEntity
  8
1
  6
solid
 62
     0
100
AcDbLine
 10
5.405582529310827
 20
1.500311964462247
 30
0.0
 11
5.47298449009514
 21
1.500311964462247
 31
0.0
  0
LINE
  5
53
330
A
100
AcDbEntity
  8
1
  6
solid
 62
     0
100
AcDbLine
 10
5.47298449009514
 20
1.500311964462247
 30
0.0
 11
5.47298449009514
 21
1.963052349077632
 31
0.0
  0
LINE
  5
54
330
A
100
AcDbEntity
  8
1
  6
solid
 62
     0
100
AcDbLine
 10
5.47298449009514
 20
1.963052349077632
 30
0.0
 11
5.401906058722591
 21
1.963052349077632
 31
0.0
  0
LINE
  5
55
330
A
100
AcDbEntity
  8
1
  6
solid
 62
     0
100
AcDbLine
 10
5.401906058722591
 20
1.963052349077632
 30
0.0
 11
5.401906058722591
 21
2.04418215676994
 31
0.0
  0
LINE
  5
56
330
A
100
AcDbEntity
  8
1
  6
solid
 62
     0
100
AcDbLine
 10
5.401906058722591
 20
2.04418215676994
 30
0.0
 11
5.561219784212787
 21
2.04418215676994
 31
0.0
  0
LINE
  5
57
330
A
100
AcDbEntity
  8
1
  6
solid
 62
     0
100
AcDbLine
 10
5.561219784212787
 20
2.04418215676994
 30
0.0
 11
5.561219784212787
 21
1.500311964462247
 31
0.0
  0
LINE
  5
58
330
A
100
AcDbEntity
  8
1
  6
solid
 62
     0
100
AcDbLine
 10
5.561219784212787
 20
1.500311964462247
 30
0.0
 11
5.635974686173572
 21
1.500311964462247
 31
0.0
  0
LINE
  5
59
330
A
100
AcDbEntity
  8
1
  6
solid
 62
     0
100
AcDbLine
 10
5.635974686173572
 20
1.500311964462247
 30
0.0
 11
5.635974686173572
 21
1.41918215676994
 31
0.0
  0
LINE
  5
5A
330
A
100
AcDbEntity
  8
1
  6
solid
 62
     0
100
AcDbLine
 10
5.635974686173572
 20
1.41918215676994
 30
0.0
 11
5.405582529310827
 21
1.41918215676994
 31
0.0
  0
LINE
  5
5B
330
A
100
AcDbEntity
  8
1
  6
solid
 62
     0
100
AcDbLine
 10
5.780582529310827
 20
1.41918215676994
 30
0.0
 11
5.780582529310827
 21
1.500311964462247
 31
0.0
  0
LINE
  5
5C
330
A
100
AcDbEntity
  8
1
  6
solid
 62
     0
100
AcDbLine
 10
5.780582529310827
 20
1.500311964462247
 30
0.0
 11
5.84798449009514
 21
1.500311964462247
 31
0.0
  0
LINE
  5
5D
330
A
100
AcDbEntity
  8
1
  6
solid
 62
     0
100
AcDbLine
 10
5.84798449009514
 20
1.500311964462247
 30
0.0
 11
5.84798449009514
 21
1.963052349077632
 31
0.0
  0
LINE
  5
5E
330
A
100
AcDbEntity
  8
1
  6
solid
 62
     0
100
AcDbLine
 10
5.84798449009514
 20
1.963052349077632
 30
0.0
 11
5.776906058722591
 21
1.963052349077632
 31
0.0
  0
LINE
  5
5F
330
A
100
AcDbEntity
  8
1
  6
solid
 62
     0
100
AcDbLine
 10
5.776906058722591
 20
1.963052349077632
 30
0.0
 11
5.776906058722591
 21
2.04418215676994
 31
0.0
  0
LINE
  5
60
330
A
100
AcDbEntity
  8
1
  6
solid
 62
     0
100
AcDbLine
 10
5.776906058722591
 20
2.04418215676994
 30
0.0
 11
5.936219784212787
 21
2.04418215676994
 31
0.0
  0
LINE
  5
61
330
A
100
AcDbEntity
  8
1
  6
solid
 62
     0
100
AcDbLine
 10
5.936219784212787
 20
2.04418215676994
 30
0.0
 11
5.936219784212787
 21
1.500311964462247
 31
0.0
  0
LINE
  5
62
330
A
100
AcDbEntity
  8
1
  6
solid
 62
     0
100
AcDbLine
 10
5.936219784212787
 20
1.500311964462247
 30
0.0
 11
6.010974686173572
 21
1.500311964462247
 31
0.0
  0
LINE
  5
63
330
A
100
AcDbEntity
  8
1
  6
solid
 62
     0
100
AcDbLine
 10
6.010974686173572
 20
1.500311964462247
 30
0.0
 11
6.010974686173572
 21
1.41918215676994
 31
0.0
  0
LINE
  5
64
330
A
100
AcDbEntity
  8
1
  6
solid
 62
     0
100
AcDbLine
 10
6.010974686173572
 20
1.41918215676994
 30
0.0
 11
5.780582529310827
 21
1.41918215676994
 31
0.0
  0
LINE
  5
65
330
A
100
AcDbEntity
  8
1
  6
solid
 62
     0
100
AcDbLine
 10
2.743672647146445
 20
-1.000314419774364
 30
0.0
 11
2.743672647146445
 21
-0.9191846120820567
 31
0.0
  0
LINE
  5
66
330
A
100
AcDbEntity
  8
1
  6
solid
 62
     0
100
AcDbLine
 10
2.743672647146445
 20
-0.9191846120820567
 30
0.0
 11
2.811074607930759
 21
-0.9191846120820567
 31
0.0
  0
LINE
  5
67
330
A
100
AcDbEntity
  8
1
  6
solid
 62
     0
100
AcDbLine
 10
2.811074607930759
 20
-0.9191846120820567
 30
0.0
 11
2.811074607930759
 21
-0.4564442274666723
 31
0.0
  0
LINE
  5
68
330
A
100
AcDbEntity
  8
1
  6
solid
 62
     0
100
AcDbLine
 10
2.811074607930759
 20
-0.4564442274666723
 30
0.0
 11
2.73999617655821
 21
-0.4564442274666723
 31
0.0
  0
LINE
  5
69
330
A
100
AcDbEntity
  8
1
  6
solid
 62
     0
100
AcDbLine
 10
2.73999617655821
 20
-0.4564442274666723
 30
0.0
 11
2.73999617655821
 21
-0.3753144197743645
 31
0.0
  0
LINE
  5
6A
330
A
100
AcDbEntity
  8
1
  6
solid
 62
     0
100
AcDbLine
 10
2.73999617655821
 20
-0.3753144197743645
 30
0.0
 11
2.899309902048406
 21
-0.3753144197743645
 31
0.0
  0
LINE
  5
6B
330
A
100
AcDbEntity
  8
1
  6
solid
 62
     0
100
AcDbLine
 10
2.899309902048406
 20
-0.3753144197743645
 30
0.0
 11
2.899309902048406
 21
-0.9191846120820567
 31
0.0
  0
LINE
  5
6C
330
A
100
AcDbEntity
  8
1
  6
solid
 62
     0
100
AcDbLine
 10
2.899309902048406
 20
-0.9191846120820567
 30
0.0
 11
2.974064804009191
 21
-0.9191846120820567
 31
0.0
  0
LINE
  5
6D
330
A
100
AcDbEntity
  8
1
  6
solid
 62
     0
100
AcDbLine
 10
2.974064804009191
 20
-0.9191846120820567
 30
0.0
 11
2.974064804009191
 21
-1.000314419774364
 31
0.0
  0
LINE
  5
6E
330
A
100
AcDbEntity
  8
1
  6
solid
 62
     0
100
AcDbLine
 10
2.974064804009191
 20
-1.000314419774364
 30
0.0
 11
2.743672647146445
 21
-1.000314419774364
 31
0.0
  0
LINE
  5
6F
330
A
100
AcDbEntity
  8
1
  6
solid
 62
     0
100
AcDbLine
 10
3.3882804902837
 20
-0.3753144197743645
 30
0.0
 11
3.123574607930759
 21
-1.000314419774364
 31
0.0
  0
LINE
  5
70
330
A
100
AcDbEntity
  8
1
  6
solid
 62
     0
100
AcDbLine
 10
3.123574607930759
 20
-1.000314419774364
 30
0.0
 11
3.0757804902837
 21
-1.000314419774364
 31
0.0
  0
LINE
  5
71
330
A
100
AcDbEntity
  8
1
  6
solid
 62
     0
100
AcDbLine
 10
3.0757804902837
 20
-1.000314419774364
 30
0.0
 11
3.340486372636641
 21
-0.3753144197743645
 31
0.0
  0
LINE
  5
72
330
A
100
AcDbEntity
  8
1
  6
solid
 62
     0
100
AcDbLine
 10
3.340486372636641
 20
-0.3753144197743645
 30
0.0
 11
3.3882804902837
 21
-0.3753144197743645
 31
0.0
  0
LINE
  5
73
330
A
100
AcDbEntity
  8
1
  6
solid
 62
     0
100
AcDbLine
 10
3.59171186283272
 20
-1.000314419774364
 30
0.0
 11
3.59171186283272
 21
-0.9191846120820567
 31
0.0
  0
LINE
  5
74
330
A
100
AcDbEntity
  8
1
  6
solid
 62
     0
100
AcDbLine
 10
3.59171186283272
 20
-0.9191846120820567
 30
0.0
 11
3.644407941264092
 21
-0.9191846120820567
 31
0.0
  0
LINE
  5
75
330
A
100
AcDbEntity
  8
1
  6
solid
 62
     0
100
AcDbLine
 10
3.644407941264092
 20
-0.9191846120820567
 30
0.0
 11
3.644407941264092
 21
-0.8470692274666722
 31
0.0
  0
LINE
  5
76
330
A
100
AcDbEntity
  8
1
  6
solid
 62
     0
100
AcDbLine
 10
3.644407941264092
 20
-0.8470692274666722
 30
0.0
 11
3.4507804902837
 21
-0.8470692274666722
 31
0.0
  0
LINE
  5
77
330
A
100
AcDbEntity
  8
1
  6
solid
 62
     0
100
AcDbLine
 10
3.4507804902837
 20
-0.8470692274666722
 30
0.0
 11
3.4507804902837
 21
-0.7689442274666723
 31
0.0
  0
LINE
  5
78
330
A
100
AcDbEntity
  8
1
  6
solid
 62
     0
100
AcDbLine
 10
3.4507804902837
 20
-0.7689442274666723
 30
0.0
 11
3.644407941264092
 21
-0.3753144197743645
 31
0.0
  0
LINE
  5
79
330
A
100
AcDbEntity
  8
1
  6
solid
 62
     0
100
AcDbLine
 10
3.644407941264092
 20
-0.3753144197743645
 30
0.0
 11
3.708133431460171
 21
-0.3753144197743645
 31
0.0
  0
LINE
  5
7A
330
A
100
AcDbEntity
  8
1
  6
solid
 62
     0
100
AcDbLine
 10
3.708133431460171
 20
-0.3753144197743645
 30
0.0
 11
3.708133431460171
 21
-0.7659394197743646
 31
0.0
  0
LINE
  5
7B
330
A
100
AcDbEntity
  8
1
  6
solid
 62
     0
100
AcDbLine
 10
3.708133431460171
 20
-0.7659394197743646
 30
0.0
 11
3.7632804902837
 21
-0.7659394197743646
 31
0.0
  0
LINE
  5
7C
330
A
100
AcDbEntity
  8
1
  6
solid
 62
     0
100
AcDbLine
 10
3.7632804902837
 20
-0.7659394197743646
 30
0.0
 11
3.7632804902837
 21
-0.8470692274666722
 31
0.0
  0
LINE
  5
7D
330
A
100
AcDbEntity
  8
1
  6
solid
 62
     0
100
AcDbLine
 10
3.7632804902837
 20
-0.8470692274666722
 30
0.0
 11
3.708133431460171
 21
-0.8470692274666722
 31
0.0
  0
LINE
  5
7E
330
A
100
AcDbEntity
  8
1
  6
solid
 62
     0
100
AcDbLine
 10
3.708133431460171
 20
-0.8470692274666722
 30
0.0
 11
3.708133431460171
 21
-0.9191846120820567
 31
0.0
  0
LINE
  5
7F
330
A
100
AcDbEntity
  8
1
  6
solid
 62
     0
100
AcDbLine
 10
3.708133431460171
 20
-0.9191846120820567
 30
0.0
 11
3.7632804902837
 21
-0.9191846120820567
 31
0.0
  0
LINE
  5
80
330
A
100
AcDbEntity
  8
1
  6
solid
 62
     0
100
AcDbLine
 10
3.7632804902837
 20
-0.9191846120820567
 30
0.0
 11
3.7632804902837
 21
-1.000314419774364
 31
0.0
  0
LINE
  5
81
330
A
100
AcDbEntity
  8
1
  6
solid
 62
     0
100
AcDbLine
 10
3.7632804902837
 20
-1.000314419774364
 30
0.0
 11
3.59171186283272
 21
-1.000314419774364
 31
0.0
  0
LINE
  5
82
330
A
100
AcDbEntity
  8
1
  6
solid
 62
     0
100
AcDbLine
 10
3.518182451068014
 20
-0.7659394197743646
 30
0.0
 11
3.644407941264092
 21
-0.5075259582359032
 31
0.0
  0
LINE
  5
83
330
A
100
AcDbEntity
  8
1
  6
solid
 62
     0
100
AcDbLine
 10
3.644407941264092
 20
-0.5075259582359032
 30
0.0
 11
3.644407941264092
 21
-0.7659394197743646
 31
0.0
  0
LINE
  5
84
330
A
100
AcDbEntity
  8
1
  6
solid
 62
     0
100
AcDbLine
 10
3.644407941264092
 20
-0.7659394197743646
 30
0.0
 11
3.518182451068014
 21
-0.7659394197743646
 31
0.0
  0
LINE
  5
85
330
A
100
AcDbEntity
  8
1
  6
solid
 62
     0
100
AcDbLine
 10
4.205682451068014
 20
-0.3753144197743645
 30
0.0
 11
4.205682451068014
 21
-0.4564442274666723
 31
0.0
  0
LINE
  5
86
330
A
100
AcDbEntity
  8
1
  6
solid
 62
     0
100
AcDbLine
 10
4.205682451068014
 20
-0.4564442274666723
 30
0.0
 11
4.249800098126837
 21
-0.4564442274666723
 31
0.0
  0
LINE
  5
87
330
A
100
AcDbEntity
  8
1
  6
solid
 62
     0
100
AcDbLine
 10
4.249800098126837
 20
-0.4564442274666723
 30
0.0
 11
4.331907941264092
 21
-0.6818048043897491
 31
0.0
  0
LINE
  5
88
330
A
100
AcDbEntity
  8
1
  6
solid
 62
     0
100
AcDbLine
 10
4.331907941264092
 20
-0.6818048043897491
 30
0.0
 11
4.241221666754288
 21
-0.9191846120820567
 31
0.0
  0
LINE
  5
89
330
A
100
AcDbEntity
  8
1
  6
solid
 62
     0
100
AcDbLine
 10
4.241221666754288
 20
-0.9191846120820567
 30
0.0
 11
4.2007804902837
 21
-0.9191846120820567
 31
0.0
  0
LINE
  5
8A
330
A
100
AcDbEntity
  8
1
  6
solid
 62
     0
100
AcDbLine
 10
4.2007804902837
 20
-0.9191846120820567
 30
0.0
 11
4.2007804902837
 21
-1.000314419774364
 31
0.0
  0
LINE
  5
8B
330
A
100
AcDbEntity
  8
1
  6
solid
 62
     0
100
AcDbLine
 10
4.2007804902837
 20
-1.000314419774364
 30
0.0
 11
4.331907941264092
 21
-1.000314419774364
 31
0.0
  0
LINE
  5
8C
330
A
100
AcDbEntity
  8
1
  6
solid
 62
     0
100
AcDbLine
 10
4.331907941264092
 20
-1.000314419774364
 30
0.0
 11
4.331907941264092
 21
-0.9191846120820567
 31
0.0
  0
LINE
  5
8D
330
A
100
AcDbEntity
  8
1
  6
solid
 62
     0
100
AcDbLine
 10
4.331907941264092
 20
-0.9191846120820567
 30
0.0
 11
4.297594215773896
 21
-0.9191846120820567
 31
0.0
  0
LINE
  5
8E
330
A
100
AcDbEntity
  8
1
  6
solid
 62
     0
100
AcDbLine
 10
4.297594215773896
 20
-0.9191846120820567
 30
0.0
 11
4.35764323538174
 21
-0.7539201890051338
 31
0.0
  0
LINE
  5
8F
330
A
100
AcDbEntity
  8
1
  6
solid
 62
     0
100
AcDbLine
 10
4.35764323538174
 20
-0.7539201890051338
 30
0.0
 11
4.416466764793504
 21
-0.9191846120820567
 31
0.0
  0
LINE
  5
90
330
A
100
AcDbEntity
  8
1
  6
solid
 62
     0
100
AcDbLine
 10
4.416466764793504
 20
-0.9191846120820567
 30
0.0
 11
4.384604019695465
 21
-0.9191846120820567
 31
0.0
  0
LINE
  5
91
330
A
100
AcDbEntity
  8
1
  6
solid
 62
     0
100
AcDbLine
 10
4.384604019695465
 20
-0.9191846120820567
 30
0.0
 11
4.384604019695465
 21
-1.000314419774364
 31
0.0
  0
LINE
  5
92
330
A
100
AcDbEntity
  8
1
  6
solid
 62
     0
100
AcDbLine
 10
4.384604019695465
 20
-1.000314419774364
 30
0.0
 11
4.5132804902837
 21
-1.000314419774364
 31
0.0
  0
LINE
  5
93
330
A
100
AcDbEntity
  8
1
  6
solid
 62
     0
100
AcDbLine
 10
4.5132804902837
 20
-1.000314419774364
 30
0.0
 11
4.5132804902837
 21
-0.9191846120820567
 31
0.0
  0
LINE
  5
94
330
A
100
AcDbEntity
  8
1
  6
solid
 62
     0
100
AcDbLine
 10
4.5132804902837
 20
-0.9191846120820567
 30
0.0
 11
4.472839313813112
 21
-0.9191846120820567
 31
0.0
  0
LINE
  5
95
330
A
100
AcDbEntity
  8
1
  6
solid
 62
     0
100
AcDbLine
 10
4.472839313813112
 20
-0.9191846120820567
 30
0.0
 11
4.384604019695465
 21
-0.6818048043897491
 31
0.0
  0
LINE
  5
96
330
A
100
AcDbEntity
  8
1
  6
solid
 62
     0
100
AcDbLine
 10
4.384604019695465
 20
-0.6818048043897491
 30
0.0
 11
4.464260882440562
 21
-0.4564442274666723
 31
0.0
  0
LINE
  5
97
330
A
100
AcDbEntity
  8
1
  6
solid
 62
     0
100
AcDbLine
 10
4.464260882440562
 20
-0.4564442274666723
 30
0.0
 11
4.508378529499386
 21
-0.4564442274666723
 31
0.0
  0
LINE
  5
98
330
A
100
AcDbEntity
  8
1
  6
solid
 62
     0
100
AcDbLine
 10
4.508378529499386
 20
-0.4564442274666723
 30
0.0
 11
4.508378529499386
 21
-0.3753144197743645
 31
0.0
  0
LINE
  5
99
330
A
100
AcDbEntity
  8
1
  6
solid
 62
     0
100
AcDbLine
 10
4.508378529499386
 20
-0.3753144197743645
 30
0.0
 11
4.377251078518995
 21
-0.3753144197743645
 31
0.0
  0
LINE
  5
9A
330
A
100
AcDbEntity
  8
1
  6
solid
 62
     0
100
AcDbLine
 10
4.377251078518995
 20
-0.3753144197743645
 30
0.0
 11
4.377251078518995
 21
-0.4564442274666723
 31
0.0
  0
LINE
  5
9B
330
A
100
AcDbEntity
  8
1
  6
solid
 62
     0
100
AcDbLine
 10
4.377251078518995
 20
-0.4564442274666723
 30
0.0
 11
4.410339313813112
 21
-0.4564442274666723
 31
0.0
  0
LINE
  5
9C
330
A
100
AcDbEntity
  8
1
  6
solid
 62
     0
100
AcDbLine
 10
4.410339313813112
 20
-0.4564442274666723
 30
0.0
 11
4.35764323538174
 21
-0.6036798043897491
 31
0.0
  0
LINE
  5
9D
330
A
100
AcDbEntity
  8
1
  6
solid
 62
     0
100
AcDbLine
 10
4.35764323538174
 20
-0.6036798043897491
 30
0.0
 11
4.303721666754288
 21
-0.4564442274666723
 31
0.0
  0
LINE
  5
9E
330
A
100
AcDbEntity
  8
1
  6
solid
 62
     0
100
AcDbLine
 10
4.303721666754288
 20
-0.4564442274666723
 30
0.0
 11
4.336809902048406
 21
-0.4564442274666723
 31
0.0
  0
LINE
  5
9F
330
A
100
AcDbEntity
  8
1
  6
solid
 62
     0
100
AcDbLine
 10
4.336809902048406
 20
-0.4564442274666723
 30
0.0
 11
4.336809902048406
 21
-0.3753144197743645
 31
0.0
  0
LINE
  5
A0
330
A
100
AcDbEntity
  8
1
  6
solid
 62
     0
100
AcDbLine
 10
4.336809902048406
 20
-0.3753144197743645
 30
0.0
 11
4.205682451068014
 21
-0.3753144197743645
 31
0.0
  0
LINE
  5
A1
330
A
100
AcDbEntity
  8
1
  6
solid
 62
     0
100
AcDbLine
 10
4.9507804902837
 20
-0.7929826890051338
 30
0.0
 11
4.954456960871936
 21
-0.8320451890051337
 31
0.0
  0
LINE
  5
A2
330
A
100
AcDbEntity
  8
1
  6
solid
 62
     0
100
AcDbLine
 10
4.954456960871936
 20
-0.8320451890051337
 30
0.0
 11
4.960584411852328
 21
-0.8650980736205184
 31
0.0
  0
LINE
  5
A3
330
A
100
AcDbEntity
  8
1
  6
solid
 62
     0
100
AcDbLine
 10
4.960584411852328
 20
-0.8650980736205184
 30
0.0
 11
4.970388333420955
 21
-0.8921413428512876
 31
0.0
  0
LINE
  5
A4
330
A
100
AcDbEntity
  8
1
  6
solid
 62
     0
100
AcDbLine
 10
4.970388333420955
 20
-0.8921413428512876
 30
0.0
 11
4.986319705969975
 21
-0.9221894197743644
 31
0.0
  0
LINE
  5
A5
330
A
100
AcDbEntity
  8
1
  6
solid
 62
     0
100
AcDbLine
 10
4.986319705969975
 20
-0.9221894197743644
 30
0.0
 11
5.003476568715073
 21
-0.9432230736205184
 31
0.0
  0
LINE
  5
A6
330
A
100
AcDbEntity
  8
1
  6
solid
 62
     0
100
AcDbLine
 10
5.003476568715073
 20
-0.9432230736205184
 30
0.0
 11
5.019407941264093
 21
-0.9642567274666722
 31
0.0
  0
LINE
  5
A7
330
A
100
AcDbEntity
  8
1
  6
solid
 62
     0
100
AcDbLine
 10
5.019407941264093
 20
-0.9642567274666722
 30
0.0
 11
5.039015784401348
 21
-0.9792807659282106
 31
0.0
  0
LINE
  5
A8
330
A
100
AcDbEntity
  8
1
  6
solid
 62
     0
100
AcDbLine
 10
5.039015784401348
 20
-0.9792807659282106
 30
0.0
 11
5.058623627538603
 21
-0.9882951890051337
 31
0.0
  0
LINE
  5
A9
330
A
100
AcDbEntity
  8
1
  6
solid
 62
     0
100
AcDbLine
 10
5.058623627538603
 20
-0.9882951890051337
 30
0.0
 11
5.074555000087622
 21
-0.9973096120820567
 31
0.0
  0
LINE
  5
AA
330
A
100
AcDbEntity
  8
1
  6
solid
 62
     0
100
AcDbLine
 10
5.074555000087622
 20
-0.9973096120820567
 30
0.0
 11
5.097839313813112
 21
-1.000314419774364
 31
0.0
  0
LINE
  5
AB
330
A
100
AcDbEntity
  8
1
  6
solid
 62
     0
100
AcDbLine
 10
5.097839313813112
 20
-1.000314419774364
 30
0.0
 11
5.119898137342524
 21
-1.000314419774364
 31
0.0
  0
LINE
  5
AC
330
A
100
AcDbEntity
  8
1
  6
solid
 62
     0
100
AcDbLine
 10
5.119898137342524
 20
-1.000314419774364
 30
0.0
 11
5.145633431460171
 21
-0.9912999966974414
 31
0.0
  0
LINE
  5
AD
330
A
100
AcDbEntity
  8
1
  6
solid
 62
     0
100
AcDbLine
 10
5.145633431460171
 20
-0.9912999966974414
 30
0.0
 11
5.175045196166053
 21
-0.9792807659282106
 31
0.0
  0
LINE
  5
AE
330
A
100
AcDbEntity
  8
1
  6
solid
 62
     0
100
AcDbLine
 10
5.175045196166053
 20
-0.9792807659282106
 30
0.0
 11
5.202005980479778
 21
-0.9582471120820567
 31
0.0
  0
LINE
  5
AF
330
A
100
AcDbEntity
  8
1
  6
solid
 62
     0
100
AcDbLine
 10
5.202005980479778
 20
-0.9582471120820567
 30
0.0
 11
5.220388333420955
 21
-0.9312038428512876
 31
0.0
  0
LINE
  5
B0
330
A
100
AcDbEntity
  8
1
  6
solid
 62
     0
100
AcDbLine
 10
5.220388333420955
 20
-0.9312038428512876
 30
0.0
 11
5.23999617655821
 21
-0.8951461505435954
 31
0.0
  0
LINE
  5
B1
330
A
100
AcDbEntity
  8
1
  6
solid
 62
     0
100
AcDbLine
 10
5.23999617655821
 20
-0.8951461505435954
 30
0.0
 11
5.253476568715073
 21
-0.8620932659282106
 31
0.0
  0
LINE
  5
B2
330
A
100
AcDbEntity
  8
1
  6
solid
 62
     0
100
AcDbLine
 10
5.253476568715073
 20
-0.8620932659282106
 30
0.0
 11
5.259604019695465
 21
-0.8350499966974414
 31
0.0
  0
LINE
  5
B3
330
A
100
AcDbEntity
  8
1
  6
solid
 62
     0
100
AcDbLine
 10
5.259604019695465
 20
-0.8350499966974414
 30
0.0
 11
5.2632804902837
 21
-0.8050019197743644
 31
0.0
  0
LINE
  5
B4
330
A
100
AcDbEntity
  8
1
  6
solid
 62
     0
100
AcDbLine
 10
5.2632804902837
 20
-0.8050019197743644
 30
0.0
 11
5.2632804902837
 21
-0.7779586505435954
 31
0.0
  0
LINE
  5
B5
330
A
100
AcDbEntity
  8
1
  6
solid
 62
     0
100
AcDbLine
 10
5.2632804902837
 20
-0.7779586505435954
 30
0.0
 11
5.257153039303307
 21
-0.7388961505435953
 31
0.0
  0
LINE
  5
B6
330
A
100
AcDbEntity
  8
1
  6
solid
 62
     0
100
AcDbLine
 10
5.257153039303307
 20
-0.7388961505435953
 30
0.0
 11
5.24734911773468
 21
-0.6998336505435954
 31
0.0
  0
LINE
  5
B7
330
A
100
AcDbEntity
  8
1
  6
solid
 62
     0
100
AcDbLine
 10
5.24734911773468
 20
-0.6998336505435954
 30
0.0
 11
5.233868725577818
 21
-0.6757951890051338
 31
0.0
  0
LINE
  5
B8
330
A
100
AcDbEntity
  8
1
  6
solid
 62
     0
100
AcDbLine
 10
5.233868725577818
 20
-0.6757951890051338
 30
0.0
 11
5.224064804009191
 21
-0.6517567274666723
 31
0.0
  0
LINE
  5
B9
330
A
100
AcDbEntity
  8
1
  6
solid
 62
     0
100
AcDbLine
 10
5.224064804009191
 20
-0.6517567274666723
 30
0.0
 11
5.20813343146017
 21
-0.6367326890051337
 31
0.0
  0
LINE
  5
BA
330
A
100
AcDbEntity
  8
1
  6
solid
 62
     0
100
AcDbLine
 10
5.20813343146017
 20
-0.6367326890051337
 30
0.0
 11
5.194653039303308
 21
-0.6217086505435953
 31
0.0
  0
LINE
  5
BB
330
A
100
AcDbEntity
  8
1
  6
solid
 62
     0
100
AcDbLine
 10
5.194653039303308
 20
-0.6217086505435953
 30
0.0
 11
5.20813343146017
 21
-0.5916605736205184
 31
0.0
  0
LINE
  5
BC
330
A
100
AcDbEntity
  8
1
  6
solid
 62
     0
100
AcDbLine
 10
5.20813343146017
 20
-0.5916605736205184
 30
0.0
 11
5.217937353028798
 21
-0.5676221120820568
 31
0.0
  0
LINE
  5
BD
330
A
100
AcDbEntity
  8
1
  6
solid
 62
     0
100
AcDbLine
 10
5.217937353028798
 20
-0.5676221120820568
 30
0.0
 11
5.220388333420955
 21
-0.5405788428512876
 31
0.0
  0
LINE
  5
BE
330
A
100
AcDbEntity
  8
1
  6
solid
 62
     0
100
AcDbLine
 10
5.220388333420955
 20
-0.5405788428512876
 30
0.0
 11
5.220388333420955
 21
-0.5045211505435954
 31
0.0
  0
LINE
  5
BF
330
A
100
AcDbEntity
  8
1
  6
solid
 62
     0
100
AcDbLine
 10
5.220388333420955
 20
-0.5045211505435954
 30
0.0
 11
5.211809902048406
 21
-0.4654586505435953
 31
0.0
  0
LINE
  5
C0
330
A
100
AcDbEntity
  8
1
  6
solid
 62
     0
100
AcDbLine
 10
5.211809902048406
 20
-0.4654586505435953
 30
0.0
 11
5.202005980479778
 21
-0.4414201890051338
 31
0.0
  0
LINE
  5
C1
330
A
100
AcDbEntity
  8
1
  6
solid
 62
     0
100
AcDbLine
 10
5.202005980479778
 20
-0.4414201890051338
 30
0.0
 11
5.188525588322915
 21
-0.4173817274666723
 31
0.0
  0
LINE
  5
C2
330
A
100
AcDbEntity
  8
1
  6
solid
 62
     0
100
AcDbLine
 10
5.188525588322915
 20
-0.4173817274666723
 30
0.0
 11
5.168917745185661
 21
-0.4023576890051337
 31
0.0
  0
LINE
  5
C3
330
A
100
AcDbEntity
  8
1
  6
solid
 62
     0
100
AcDbLine
 10
5.168917745185661
 20
-0.4023576890051337
 30
0.0
 11
5.149309902048406
 21
-0.3873336505435954
 31
0.0
  0
LINE
  5
C4
330
A
100
AcDbEntity
  8
1
  6
solid
 62
     0
100
AcDbLine
 10
5.149309902048406
 20
-0.3873336505435954
 30
0.0
 11
5.133378529499386
 21
-0.3783192274666722
 31
0.0
  0
LINE
  5
C5
330
A
100
AcDbEntity
  8
1
  6
solid
 62
     0
100
AcDbLine
 10
5.133378529499386
 20
-0.3783192274666722
 30
0.0
 11
5.110094215773896
 21
-0.3753144197743645
 31
0.0
  0
LINE
  5
C6
330
A
100
AcDbEntity
  8
1
  6
solid
 62
     0
100
AcDbLine
 10
5.110094215773896
 20
-0.3753144197743645
 30
0.0
 11
5.097839313813112
 21
-0.3753144197743645
 31
0.0
  0
LINE
  5
C7
330
A
100
AcDbEntity
  8
1
  6
solid
 62
     0
100
AcDbLine
 10
5.097839313813112
 20
-0.3753144197743645
 30
0.0
 11
5.074555000087622
 21
-0.3783192274666722
 31
0.0
  0
LINE
  5
C8
330
A
100
AcDbEntity
  8
1
  6
solid
 62
     0
100
AcDbLine
 10
5.074555000087622
 20
-0.3783192274666722
 30
0.0
 11
5.051270686362132
 21
-0.3933432659282107
 31
0.0
  0
LINE
  5
C9
330
A
100
AcDbEntity
  8
1
  6
solid
 62
     0
100
AcDbLine
 10
5.051270686362132
 20
-0.3933432659282107
 30
0.0
 11
5.031662843224877
 21
-0.4113721120820568
 31
0.0
  0
LINE
  5
CA
330
A
100
AcDbEntity
  8
1
  6
solid
 62
     0
100
AcDbLine
 10
5.031662843224877
 20
-0.4113721120820568
 30
0.0
 11
5.019407941264093
 21
-0.4263961505435953
 31
0.0
  0
LINE
  5
CB
330
A
100
AcDbEntity
  8
1
  6
solid
 62
     0
100
AcDbLine
 10
5.019407941264093
 20
-0.4263961505435953
 30
0.0
 11
5.00592754910723
 21
-0.4534394197743646
 31
0.0
  0
LINE
  5
CC
330
A
100
AcDbEntity
  8
1
  6
solid
 62
     0
100
AcDbLine
 10
5.00592754910723
 20
-0.4534394197743646
 30
0.0
 11
4.999800098126838
 21
-0.4714682659282107
 31
0.0
  0
LINE
  5
CD
330
A
100
AcDbEntity
  8
1
  6
solid
 62
     0
100
AcDbLine
 10
4.999800098126838
 20
-0.4714682659282107
 30
0.0
 11
4.996123627538603
 21
-0.4834874966974416
 31
0.0
  0
LINE
  5
CE
330
A
100
AcDbEntity
  8
1
  6
solid
 62
     0
100
AcDbLine
 10
4.996123627538603
 20
-0.4834874966974416
 30
0.0
 11
4.993672647146445
 21
-0.5285596120820568
 31
0.0
  0
LINE
  5
CF
330
A
100
AcDbEntity
  8
1
  6
solid
 62
     0
100
AcDbLine
 10
4.993672647146445
 20
-0.5285596120820568
 30
0.0
 11
5.048819705969975
 21
-0.5285596120820568
 31
0.0
  0
LINE
  5
D0
330
A
100
AcDbEntity
  8
1
  6
solid
 62
     0
100
AcDbLine
 10
5.048819705969975
 20
-0.5285596120820568
 30
0.0
 11
5.051270686362132
 21
-0.5045211505435954
 31
0.0
  0
LINE
  5
D1
330
A
100
AcDbEntity
  8
1
  6
solid
 62
     0
100
AcDbLine
 10
5.051270686362132
 20
-0.5045211505435954
 30
0.0
 11
5.058623627538603
 21
-0.4834874966974416
 31
0.0
  0
LINE
  5
D2
330
A
100
AcDbEntity
  8
1
  6
solid
 62
     0
100
AcDbLine
 10
5.058623627538603
 20
-0.4834874966974416
 30
0.0
 11
5.06842754910723
 21
-0.4654586505435953
 31
0.0
  0
LINE
  5
D3
330
A
100
AcDbEntity
  8
1
  6
solid
 62
     0
100
AcDbLine
 10
5.06842754910723
 20
-0.4654586505435953
 30
0.0
 11
5.078231470675858
 21
-0.4564442274666723
 31
0.0
  0
LINE
  5
D4
330
A
100
AcDbEntity
  8
1
  6
solid
 62
     0
100
AcDbLine
 10
5.078231470675858
 20
-0.4564442274666723
 30
0.0
 11
5.088035392244485
 21
-0.4534394197743646
 31
0.0
  0
LINE
  5
D5
330
A
100
AcDbEntity
  8
1
  6
solid
 62
     0
100
AcDbLine
 10
5.088035392244485
 20
-0.4534394197743646
 30
0.0
 11
5.100290294205269
 21
-0.4504346120820568
 31
0.0
  0
LINE
  5
D6
330
A
100
AcDbEntity
  8
1
  6
solid
 62
     0
100
AcDbLine
 10
5.100290294205269
 20
-0.4504346120820568
 30
0.0
 11
5.110094215773896
 21
-0.4504346120820568
 31
0.0
  0
LINE
  5
D7
330
A
100
AcDbEntity
  8
1
  6
solid
 62
     0
100
AcDbLine
 10
5.110094215773896
 20
-0.4504346120820568
 30
0.0
 11
5.123574607930759
 21
-0.4534394197743646
 31
0.0
  0
LINE
  5
D8
330
A
100
AcDbEntity
  8
1
  6
solid
 62
     0
100
AcDbLine
 10
5.123574607930759
 20
-0.4534394197743646
 30
0.0
 11
5.135829509891543
 21
-0.4624538428512876
 31
0.0
  0
LINE
  5
D9
330
A
100
AcDbEntity
  8
1
  6
solid
 62
     0
100
AcDbLine
 10
5.135829509891543
 20
-0.4624538428512876
 30
0.0
 11
5.145633431460171
 21
-0.4714682659282107
 31
0.0
  0
LINE
  5
DA
330
A
100
AcDbEntity
  8
1
  6
solid
 62
     0
100
AcDbLine
 10
5.145633431460171
 20
-0.4714682659282107
 30
0.0
 11
5.155437353028799
 21
-0.4834874966974416
 31
0.0
  0
LINE
  5
DB
330
A
100
AcDbEntity
  8
1
  6
solid
 62
     0
100
AcDbLine
 10
5.155437353028799
 20
-0.4834874966974416
 30
0.0
 11
5.162790294205269
 21
-0.5015163428512876
 31
0.0
  0
LINE
  5
DC
330
A
100
AcDbEntity
  8
1
  6
solid
 62
     0
100
AcDbLine
 10
5.162790294205269
 20
-0.5015163428512876
 30
0.0
 11
5.165241274597426
 21
-0.5195451890051337
 31
0.0
  0
LINE
  5
DD
330
A
100
AcDbEntity
  8
1
  6
solid
 62
     0
100
AcDbLine
 10
5.165241274597426
 20
-0.5195451890051337
 30
0.0
 11
5.165241274597426
 21
-0.5315644197743646
 31
0.0
  0
LINE
  5
DE
330
A
100
AcDbEntity
  8
1
  6
solid
 62
     0
100
AcDbLine
 10
5.165241274597426
 20
-0.5315644197743646
 30
0.0
 11
5.159113823617033
 21
-0.5586076890051338
 31
0.0
  0
LINE
  5
DF
330
A
100
AcDbEntity
  8
1
  6
solid
 62
     0
100
AcDbLine
 10
5.159113823617033
 20
-0.5586076890051338
 30
0.0
 11
5.152986372636641
 21
-0.5706269197743646
 31
0.0
  0
LINE
  5
E0
330
A
100
AcDbEntity
  8
1
  6
solid
 62
     0
100
AcDbLine
 10
5.152986372636641
 20
-0.5706269197743646
 30
0.0
 11
5.143182451068014
 21
-0.5826461505435954
 31
0.0
  0
LINE
  5
E1
330
A
100
AcDbEntity
  8
1
  6
solid
 62
     0
100
AcDbLine
 10
5.143182451068014
 20
-0.5826461505435954
 30
0.0
 11
5.133378529499386
 21
-0.5916605736205184
 31
0.0
  0
LINE
  5
E2
330
A
100
AcDbEntity
  8
1
  6
solid
 62
     0
100
AcDbLine
 10
5.133378529499386
 20
-0.5916605736205184
 30
0.0
 11
5.119898137342524
 21
-0.6006749966974416
 31
0.0
  0
LINE
  5
E3
330
A
100
AcDbEntity
  8
1
  6
solid
 62
     0
100
AcDbLine
 10
5.119898137342524
 20
-0.6006749966974416
 30
0.0
 11
5.084358921656249
 21
-0.6066846120820568
 31
0.0
  0
LINE
  5
E4
330
A
100
AcDbEntity
  8
1
  6
solid
 62
     0
100
AcDbLine
 10
5.084358921656249
 20
-0.6066846120820568
 30
0.0
 11
5.084358921656249
 21
-0.6607711505435954
 31
0.0
  0
LINE
  5
E5
330
A
100
AcDbEntity
  8
1
  6
solid
 62
     0
100
AcDbLine
 10
5.084358921656249
 20
-0.6607711505435954
 30
0.0
 11
5.129702058911151
 21
-0.6667807659282107
 31
0.0
  0
LINE
  5
E6
330
A
100
AcDbEntity
  8
1
  6
solid
 62
     0
100
AcDbLine
 10
5.129702058911151
 20
-0.6667807659282107
 30
0.0
 11
5.143182451068014
 21
-0.6697855736205183
 31
0.0
  0
LINE
  5
E7
330
A
100
AcDbEntity
  8
1
  6
solid
 62
     0
100
AcDbLine
 10
5.143182451068014
 20
-0.6697855736205183
 30
0.0
 11
5.162790294205269
 21
-0.6848096120820568
 31
0.0
  0
LINE
  5
E8
330
A
100
AcDbEntity
  8
1
  6
solid
 62
     0
100
AcDbLine
 10
5.162790294205269
 20
-0.6848096120820568
 30
0.0
 11
5.175045196166053
 21
-0.6968288428512876
 31
0.0
  0
LINE
  5
E9
330
A
100
AcDbEntity
  8
1
  6
solid
 62
     0
100
AcDbLine
 10
5.175045196166053
 20
-0.6968288428512876
 30
0.0
 11
5.184849117734681
 21
-0.7088480736205184
 31
0.0
  0
LINE
  5
EA
330
A
100
AcDbEntity
  8
1
  6
solid
 62
     0
100
AcDbLine
 10
5.184849117734681
 20
-0.7088480736205184
 30
0.0
 11
5.194653039303308
 21
-0.7298817274666723
 31
0.0
  0
LINE
  5
EB
330
A
100
AcDbEntity
  8
1
  6
solid
 62
     0
100
AcDbLine
 10
5.194653039303308
 20
-0.7298817274666723
 30
0.0
 11
5.202005980479778
 21
-0.7539201890051338
 31
0.0
  0
LINE
  5
EC
330
A
100
AcDbEntity
  8
1
  6
solid
 62
     0
100
AcDbLine
 10
5.202005980479778
 20
-0.7539201890051338
 30
0.0
 11
5.204456960871936
 21
-0.7839682659282107
 31
0.0
  0
LINE
  5
ED
330
A
100
AcDbEntity
  8
1
  6
solid
 62
     0
100
AcDbLine
 10
5.204456960871936
 20
-0.7839682659282107
 30
0.0
 11
5.204456960871936
 21
-0.8050019197743644
 31
0.0
  0
LINE
  5
EE
330
A
100
AcDbEntity
  8
1
  6
solid
 62
     0
100
AcDbLine
 10
5.204456960871936
 20
-0.8050019197743644
 30
0.0
 11
5.198329509891543
 21
-0.8440644197743644
 31
0.0
  0
LINE
  5
EF
330
A
100
AcDbEntity
  8
1
  6
solid
 62
     0
100
AcDbLine
 10
5.198329509891543
 20
-0.8440644197743644
 30
0.0
 11
5.184849117734681
 21
-0.8711076890051337
 31
0.0
  0
LINE
  5
F0
330
A
100
AcDbEntity
  8
1
  6
solid
 62
     0
100
AcDbLine
 10
5.184849117734681
 20
-0.8711076890051337
 30
0.0
 11
5.172594215773896
 21
-0.8921413428512876
 31
0.0
  0
LINE
  5
F1
330
A
100
AcDbEntity
  8
1
  6
solid
 62
     0
100
AcDbLine
 10
5.172594215773896
 20
-0.8921413428512876
 30
0.0
 11
5.159113823617033
 21
-0.9041605736205184
 31
0.0
  0
LINE
  5
F2
330
A
100
AcDbEntity
  8
1
  6
solid
 62
     0
100
AcDbLine
 10
5.159113823617033
 20
-0.9041605736205184
 30
0.0
 11
5.145633431460171
 21
-0.9131749966974414
 31
0.0
  0
LINE
  5
F3
330
A
100
AcDbEntity
  8
1
  6
solid
 62
     0
100
AcDbLine
 10
5.145633431460171
 20
-0.9131749966974414
 30
0.0
 11
5.129702058911151
 21
-0.9221894197743644
 31
0.0
  0
LINE
  5
F4
330
A
100
AcDbEntity
  8
1
  6
solid
 62
     0
100
AcDbLine
 10
5.129702058911151
 20
-0.9221894197743644
 30
0.0
 11
5.10764323538174
 21
-0.9251942274666722
 31
0.0
  0
LINE
  5
F5
330
A
100
AcDbEntity
  8
1
  6
solid
 62
     0
100
AcDbLine
 10
5.10764323538174
 20
-0.9251942274666722
 30
0.0
 11
5.094162843224877
 21
-0.9251942274666722
 31
0.0
  0
LINE
  5
F6
330
A
100
AcDbEntity
  8
1
  6
solid
 62
     0
100
AcDbLine
 10
5.094162843224877
 20
-0.9251942274666722
 30
0.0
 11
5.06842754910723
 21
-0.9131749966974414
 31
0.0
  0
LINE
  5
F7
330
A
100
AcDbEntity
  8
1
  6
solid
 62
     0
100
AcDbLine
 10
5.06842754910723
 20
-0.9131749966974414
 30
0.0
 11
5.048819705969975
 21
-0.9011557659282106
 31
0.0
  0
LINE
  5
F8
330
A
100
AcDbEntity
  8
1
  6
solid
 62
     0
100
AcDbLine
 10
5.048819705969975
 20
-0.9011557659282106
 30
0.0
 11
5.035339313813112
 21
-0.8831269197743644
 31
0.0
  0
LINE
  5
F9
330
A
100
AcDbEntity
  8
1
  6
solid
 62
     0
100
AcDbLine
 10
5.035339313813112
 20
-0.8831269197743644
 30
0.0
 11
5.019407941264093
 21
-0.8560836505435952
 31
0.0
  0
LINE
  5
FA
330
A
100
AcDbEntity
  8
1
  6
solid
 62
     0
100
AcDbLine
 10
5.019407941264093
 20
-0.8560836505435952
 30
0.0
 11
5.012055000087622
 21
-0.8410596120820567
 31
0.0
  0
LINE
  5
FB
330
A
100
AcDbEntity
  8
1
  6
solid
 62
     0
100
AcDbLine
 10
5.012055000087622
 20
-0.8410596120820567
 30
0.0
 11
5.00592754910723
 21
-0.7929826890051338
 31
0.0
  0
LINE
  5
FC
330
A
100
AcDbEntity
  8
1
  6
solid
 62
     0
100
AcDbLine
 10
5.00592754910723
 20
-0.7929826890051338
 30
0.0
 11
4.9507804902837
 21
-0.7929826890051338
 31
0.0
  0
LINE
  5
FD
330
A
100
AcDbEntity
  8
1
  6
solid
 62
     0
100
AcDbLine
 10
5.3257804902837
 20
-0.8620932659282106
 30
0.0
 11
5.6382804902837
 21
-0.8620932659282106
 31
0.0
  0
LINE
  5
FE
330
A
100
AcDbEntity
  8
1
  6
solid
 62
     0
100
AcDbLine
 10
5.6382804902837
 20
-0.8620932659282106
 30
0.0
 11
5.6382804902837
 21
-0.7298817274666723
 31
0.0
  0
LINE
  5
FF
330
A
100
AcDbEntity
  8
1
  6
solid
 62
     0
100
AcDbLine
 10
5.6382804902837
 20
-0.7298817274666723
 30
0.0
 11
5.3257804902837
 21
-0.7298817274666723
 31
0.0
  0
LINE
  5
100
330
A
100
AcDbEntity
  8
1
  6
solid
 62
     0
100
AcDbLine
 10
5.3257804902837
 20
-0.7298817274666723
 30
0.0
 11
5.3257804902837
 21
-0.8620932659282106
 31
0.0
  0
LINE
  5
101
330
A
100
AcDbEntity
  8
1
  6
solid
 62
     0
100
AcDbLine
 10
5.7007804902837
 20
-0.8260355736205184
 30
0.0
 11
5.710584411852328
 21
-0.8681028813128261
 31
0.0
  0
LINE
  5
102
330
A
100
AcDbEntity
  8
1
  6
solid
 62
     0
100
AcDbLine
 10
5.710584411852328
 20
-0.8681028813128261
 30
0.0
 11
5.726515784401347
 21
-0.9041605736205184
 31
0.0
  0
LINE
  5
103
330
A
100
AcDbEntity
  8
1
  6
solid
 62
     0
100
AcDbLine
 10
5.726515784401347
 20
-0.9041605736205184
 30
0.0
 11
5.744898137342524
 21
-0.9342086505435954
 31
0.0
  0
LINE
  5
104
330
A
100
AcDbEntity
  8
1
  6
solid
 62
     0
100
AcDbLine
 10
5.744898137342524
 20
-0.9342086505435954
 30
0.0
 11
5.764505980479778
 21
-0.9612519197743644
 31
0.0
  0
LINE
  5
105
330
A
100
AcDbEntity
  8
1
  6
solid
 62
     0
100
AcDbLine
 10
5.764505980479778
 20
-0.9612519197743644
 30
0.0
 11
5.789015784401348
 21
-0.9792807659282106
 31
0.0
  0
LINE
  5
106
330
A
100
AcDbEntity
  8
1
  6
solid
 62
     0
100
AcDbLine
 10
5.789015784401348
 20
-0.9792807659282106
 30
0.0
 11
5.817202058911151
 21
-0.9912999966974414
 31
0.0
  0
LINE
  5
107
330
A
100
AcDbEntity
  8
1
  6
solid
 62
     0
100
AcDbLine
 10
5.817202058911151
 20
-0.9912999966974414
 30
0.0
 11
5.849064804009191
 21
-1.000314419774364
 31
0.0
  0
LINE
  5
108
330
A
100
AcDbEntity
  8
1
  6
solid
 62
     0
100
AcDbLine
 10
5.849064804009191
 20
-1.000314419774364
 30
0.0
 11
5.868672647146445
 21
-1.000314419774364
 31
0.0
  0
LINE
  5
109
330
A
100
AcDbEntity
  8
1
  6
solid
 62
     0
100
AcDbLine
 10
5.868672647146445
 20
-1.000314419774364
 30
0.0
 11
5.909113823617033
 21
-0.9882951890051337
 31
0.0
  0
LINE
  5
10A
330
A
100
AcDbEntity
  8
1
  6
solid
 62
     0
100
AcDbLine
 10
5.909113823617033
 20
-0.9882951890051337
 30
0.0
 11
5.940976568715072
 21
-0.9642567274666722
 31
0.0
  0
LINE
  5
10B
330
A
100
AcDbEntity
  8
1
  6
solid
 62
     0
100
AcDbLine
 10
5.940976568715072
 20
-0.9642567274666722
 30
0.0
 11
5.965486372636641
 21
-0.9372134582359029
 31
0.0
  0
LINE
  5
10C
330
A
100
AcDbEntity
  8
1
  6
solid
 62
     0
100
AcDbLine
 10
5.965486372636641
 20
-0.9372134582359029
 30
0.0
 11
5.987545196166053
 21
-0.9041605736205184
 31
0.0
  0
LINE
  5
10D
330
A
100
AcDbEntity
  8
1
  6
solid
 62
     0
100
AcDbLine
 10
5.987545196166053
 20
-0.9041605736205184
 30
0.0
 11
6.003476568715073
 21
-0.8590884582359029
 31
0.0
  0
LINE
  5
10E
330
A
100
AcDbEntity
  8
1
  6
solid
 62
     0
100
AcDbLine
 10
6.003476568715073
 20
-0.8590884582359029
 30
0.0
 11
6.009604019695465
 21
-0.8230307659282106
 31
0.0
  0
LINE
  5
10F
330
A
100
AcDbEntity
  8
1
  6
solid
 62
     0
100
AcDbLine
 10
6.009604019695465
 20
-0.8230307659282106
 30
0.0
 11
6.0132804902837
 21
-0.7929826890051338
 31
0.0
  0
LINE
  5
110
330
A
100
AcDbEntity
  8
1
  6
solid
 62
     0
100
AcDbLine
 10
6.0132804902837
 20
-0.7929826890051338
 30
0.0
 11
6.0132804902837
 21
-0.7599298043897491
 31
0.0
  0
LINE
  5
111
330
A
100
AcDbEntity
  8
1
  6
solid
 62
     0
100
AcDbLine
 10
6.0132804902837
 20
-0.7599298043897491
 30
0.0
 11
6.007153039303307
 21
-0.7088480736205184
 31
0.0
  0
LINE
  5
112
330
A
100
AcDbEntity
  8
1
  6
solid
 62
     0
100
AcDbLine
 10
6.007153039303307
 20
-0.7088480736205184
 30
0.0
 11
5.991221666754288
 21
-0.663775958235903
 31
0.0
  0
LINE
  5
113
330
A
100
AcDbEntity
  8
1
  6
solid
 62
     0
100
AcDbLine
 10
5.991221666754288
 20
-0.663775958235903
 30
0.0
 11
5.978966764793504
 21
-0.6367326890051337
 31
0.0
  0
LINE
  5
114
330
A
100
AcDbEntity
  8
1
  6
solid
 62
     0
100
AcDbLine
 10
5.978966764793504
 20
-0.6367326890051337
 30
0.0
 11
5.959358921656249
 21
-0.6096894197743646
 31
0.0
  0
LINE
  5
115
330
A
100
AcDbEntity
  8
1
  6
solid
 62
     0
100
AcDbLine
 10
5.959358921656249
 20
-0.6096894197743646
 30
0.0
 11
5.937300098126837
 21
-0.5886557659282107
 31
0.0
  0
LINE
  5
116
330
A
100
AcDbEntity
  8
1
  6
solid
 62
     0
100
AcDbLine
 10
5.937300098126837
 20
-0.5886557659282107
 30
0.0
 11
5.915241274597425
 21
-0.5706269197743646
 31
0.0
  0
LINE
  5
117
330
A
100
AcDbEntity
  8
1
  6
solid
 62
     0
100
AcDbLine
 10
5.915241274597425
 20
-0.5706269197743646
 30
0.0
 11
5.893182451068014
 21
-0.5616124966974415
 31
0.0
  0
LINE
  5
118
330
A
100
AcDbEntity
  8
1
  6
solid
 62
     0
100
AcDbLine
 10
5.893182451068014
 20
-0.5616124966974415
 30
0.0
 11
5.861319705969974
 21
-0.5556028813128262
 31
0.0
  0
LINE
  5
119
330
A
100
AcDbEntity
  8
1
  6
solid
 62
     0
100
AcDbLine
 10
5.861319705969974
 20
-0.5556028813128262
 30
0.0
 11
5.842937353028798
 21
-0.5556028813128262
 31
0.0
  0
LINE
  5
11A
330
A
100
AcDbEntity
  8
1
  6
solid
 62
     0
100
AcDbLine
 10
5.842937353028798
 20
-0.5556028813128262
 30
0.0
 11
5.817202058911151
 21
-0.5616124966974415
 31
0.0
  0
LINE
  5
11B
330
A
100
AcDbEntity
  8
1
  6
solid
 62
     0
100
AcDbLine
 10
5.817202058911151
 20
-0.5616124966974415
 30
0.0
 11
5.79514323538174
 21
-0.5706269197743646
 31
0.0
  0
LINE
  5
11C
330
A
100
AcDbEntity
  8
1
  6
solid
 62
     0
100
AcDbLine
 10
5.79514323538174
 20
-0.5706269197743646
 30
0.0
 11
5.782888333420955
 21
-0.5796413428512876
 31
0.0
  0
LINE
  5
11D
330
A
100
AcDbEntity
  8
1
  6
solid
 62
     0
100
AcDbLine
 10
5.782888333420955
 20
-0.5796413428512876
 30
0.0
 11
5.804947156950367
 21
-0.4504346120820568
 31
0.0
  0
LINE
  5
11E
330
A
100
AcDbEntity
  8
1
  6
solid
 62
     0
100
AcDbLine
 10
5.804947156950367
 20
-0.4504346120820568
 30
0.0
 11
5.959358921656249
 21
-0.4504346120820568
 31
0.0
  0
LINE
  5
11F
330
A
100
AcDbEntity
  8
1
  6
solid
 62
     0
100
AcDbLine
 10
5.959358921656249
 20
-0.4504346120820568
 30
0.0
 11
5.959358921656249
 21
-0.3753144197743645
 31
0.0
  0
LINE
  5
120
330
A
100
AcDbEntity
  8
1
  6
solid
 62
     0
100
AcDbLine
 10
5.959358921656249
 20
-0.3753144197743645
 30
0.0
 11
5.764505980479778
 21
-0.3753144197743645
 31
0.0
  0
LINE
  5
121
330
A
100
AcDbEntity
  8
1
  6
solid
 62
     0
100
AcDbLine
 10
5.764505980479778
 20
-0.3753144197743645
 30
0.0
 11
5.7007804902837
 21
-0.7268769197743646
 31
0.0
  0
LINE
  5
122
330
A
100
AcDbEntity
  8
1
  6
solid
 62
     0
100
AcDbLine
 10
5.7007804902837
 20
-0.7268769197743646
 30
0.0
 11
5.754702058911151
 21
-0.741900958235903
 31
0.0
  0
LINE
  5
123
330
A
100
AcDbEntity
  8
1
  6
solid
 62
     0
100
AcDbLine
 10
5.754702058911151
 20
-0.741900958235903
 30
0.0
 11
5.760829509891543
 21
-0.7178624966974415
 31
0.0
  0
LINE
  5
124
330
A
100
AcDbEntity
  8
1
  6
solid
 62
     0
100
AcDbLine
 10
5.760829509891543
 20
-0.7178624966974415
 30
0.0
 11
5.77063343146017
 21
-0.69382403515898
 31
0.0
  0
LINE
  5
125
330
A
100
AcDbEntity
  8
1
  6
solid
 62
     0
100
AcDbLine
 10
5.77063343146017
 20
-0.69382403515898
 30
0.0
 11
5.782888333420955
 21
-0.672790381312826
 31
0.0
  0
LINE
  5
126
330
A
100
AcDbEntity
  8
1
  6
solid
 62
     0
100
AcDbLine
 10
5.782888333420955
 20
-0.672790381312826
 30
0.0
 11
5.798819705969975
 21
-0.65476153515898
 31
0.0
  0
LINE
  5
127
330
A
100
AcDbEntity
  8
1
  6
solid
 62
     0
100
AcDbLine
 10
5.798819705969975
 20
-0.65476153515898
 30
0.0
 11
5.817202058911151
 21
-0.6427423043897491
 31
0.0
  0
LINE
  5
128
330
A
100
AcDbEntity
  8
1
  6
solid
 62
     0
100
AcDbLine
 10
5.817202058911151
 20
-0.6427423043897491
 30
0.0
 11
5.839260882440563
 21
-0.6337278813128262
 31
0.0
  0
LINE
  5
129
330
A
100
AcDbEntity
  8
1
  6
solid
 62
     0
100
AcDbLine
 10
5.839260882440563
 20
-0.6337278813128262
 30
0.0
 11
5.861319705969974
 21
-0.6337278813128262
 31
0.0
  0
LINE
  5
12A
330
A
100
AcDbEntity
  8
1
  6
solid
 62
     0
100
AcDbLine
 10
5.861319705969974
 20
-0.6337278813128262
 30
0.0
 11
5.887055000087622
 21
-0.6367326890051337
 31
0.0
  0
LINE
  5
12B
330
A
100
AcDbEntity
  8
1
  6
solid
 62
     0
100
AcDbLine
 10
5.887055000087622
 20
-0.6367326890051337
 30
0.0
 11
5.905437353028798
 21
-0.6487519197743646
 31
0.0
  0
LINE
  5
12C
330
A
100
AcDbEntity
  8
1
  6
solid
 62
     0
100
AcDbLine
 10
5.905437353028798
 20
-0.6487519197743646
 30
0.0
 11
5.921368725577817
 21
-0.663775958235903
 31
0.0
  0
LINE
  5
12D
330
A
100
AcDbEntity
  8
1
  6
solid
 62
     0
100
AcDbLine
 10
5.921368725577817
 20
-0.663775958235903
 30
0.0
 11
5.937300098126837
 21
-0.6848096120820568
 31
0.0
  0
LINE
  5
12E
330
A
100
AcDbEntity
  8
1
  6
solid
 62
     0
100
AcDbLine
 10
5.937300098126837
 20
-0.6848096120820568
 30
0.0
 11
5.949555000087622
 21
-0.711852881312826
 31
0.0
  0
LINE
  5
12F
330
A
100
AcDbEntity
  8
1
  6
solid
 62
     0
100
AcDbLine
 10
5.949555000087622
 20
-0.711852881312826
 30
0.0
 11
5.956907941264093
 21
-0.7388961505435953
 31
0.0
  0
LINE
  5
130
330
A
100
AcDbEntity
  8
1
  6
solid
 62
     0
100
AcDbLine
 10
5.956907941264093
 20
-0.7388961505435953
 30
0.0
 11
5.959358921656249
 21
-0.7659394197743646
 31
0.0
  0
LINE
  5
131
330
A
100
AcDbEntity
  8
1
  6
solid
 62
     0
100
AcDbLine
 10
5.959358921656249
 20
-0.7659394197743646
 30
0.0
 11
5.959358921656249
 21
-0.7869730736205184
 31
0.0
  0
LINE
  5
132
330
A
100
AcDbEntity
  8
1
  6
solid
 62
     0
100
AcDbLine
 10
5.959358921656249
 20
-0.7869730736205184
 30
0.0
 11
5.953231470675858
 21
-0.8230307659282106
 31
0.0
  0
LINE
  5
133
330
A
100
AcDbEntity
  8
1
  6
solid
 62
     0
100
AcDbLine
 10
5.953231470675858
 20
-0.8230307659282106
 30
0.0
 11
5.94342754910723
 21
-0.8530788428512876
 31
0.0
  0
LINE
  5
134
330
A
100
AcDbEntity
  8
1
  6
solid
 62
     0
100
AcDbLine
 10
5.94342754910723
 20
-0.8530788428512876
 30
0.0
 11
5.92749617655821
 21
-0.8801221120820567
 31
0.0
  0
LINE
  5
135
330
A
100
AcDbEntity
  8
1
  6
solid
 62
     0
100
AcDbLine
 10
5.92749617655821
 20
-0.8801221120820567
 30
0.0
 11
5.912790294205269
 21
-0.8981509582359029
 31
0.0
  0
LINE
  5
136
330
A
100
AcDbEntity
  8
1
  6
solid
 62
     0
100
AcDbLine
 10
5.912790294205269
 20
-0.8981509582359029
 30
0.0
 11
5.893182451068014
 21
-0.9101701890051337
 31
0.0
  0
LINE
  5
137
330
A
100
AcDbEntity
  8
1
  6
solid
 62
     0
100
AcDbLine
 10
5.893182451068014
 20
-0.9101701890051337
 30
0.0
 11
5.871123627538602
 21
-0.9191846120820567
 31
0.0
  0
LINE
  5
138
330
A
100
AcDbEntity
  8
1
  6
solid
 62
     0
100
AcDbLine
 10
5.871123627538602
 20
-0.9191846120820567
 30
0.0
 11
5.849064804009191
 21
-0.9191846120820567
 31
0.0
  0
LINE
  5
139
330
A
100
AcDbEntity
  8
1
  6
solid
 62
     0
100
AcDbLine
 10
5.849064804009191
 20
-0.9191846120820567
 30
0.0
 11
5.823329509891543
 21
-0.9161798043897491
 31
0.0
  0
LINE
  5
13A
330
A
100
AcDbEntity
  8
1
  6
solid
 62
     0
100
AcDbLine
 10
5.823329509891543
 20
-0.9161798043897491
 30
0.0
 11
5.798819705969975
 21
-0.8981509582359029
 31
0.0
  0
LINE
  5
13B
330
A
100
AcDbEntity
  8
1
  6
solid
 62
     0
100
AcDbLine
 10
5.798819705969975
 20
-0.8981509582359029
 30
0.0
 11
5.782888333420955
 21
-0.8801221120820567
 31
0.0
  0
LINE
  5
13C
330
A
100
AcDbEntity
  8
1
  6
solid
 62
     0
100
AcDbLine
 10
5.782888333420955
 20
-0.8801221120820567
 30
0.0
 11
5.766956960871935
 21
-0.8530788428512876
 31
0.0
  0
LINE
  5
13D
330
A
100
AcDbEntity
  8
1
  6
solid
 62
     0
100
AcDbLine
 10
5.766956960871935
 20
-0.8530788428512876
 30
0.0
 11
5.757153039303307
 21
-0.8260355736205184
 31
0.0
  0
LINE
  5
13E
330
A
100
AcDbEntity
  8
1
  6
solid
 62
     0
100
AcDbLine
 10
5.757153039303307
 20
-0.8260355736205184
 30
0.0
 11
5.7007804902837
 21
-0.8260355736205184
 31
0.0
  0
LINE
  5
13F
330
A
100
AcDbEntity
  8
1
  6
solid
 62
     0
100
AcDbLine
 10
6.388280490283699
 20
-0.3753144197743645
 30
0.0
 11
6.123574607930759
 21
-1.000314419774364
 31
0.0
  0
LINE
  5
140
330
A
100
AcDbEntity
  8
1
  6
solid
 62
     0
100
AcDbLine
 10
6.123574607930759
 20
-1.000314419774364
 30
0.0
 11
6.075780490283699
 21
-1.000314419774364
 31
0.0
  0
LINE
  5
141
330
A
100
AcDbEntity
  8
1
  6
solid
 62
     0
100
AcDbLine
 10
6.075780490283699
 20
-1.000314419774364
 30
0.0
 11
6.340486372636641
 21
-0.3753144197743645
 31
0.0
  0
LINE
  5
142
330
A
100
AcDbEntity
  8
1
  6
solid
 62
     0
100
AcDbLine
 10
6.340486372636641
 20
-0.3753144197743645
 30
0.0
 11
6.388280490283699
 21
-0.3753144197743645
 31
0.0
  0
LINE
  5
143
330
A
100
AcDbEntity
  8
1
  6
solid
 62
     0
100
AcDbLine
 10
6.525535392244483
 20
-0.6307230736205184
 30
0.0
 11
6.508378529499386
 21
-0.6487519197743646
 31
0.0
  0
LINE
  5
144
330
A
100
AcDbEntity
  8
1
  6
solid
 62
     0
100
AcDbLine
 10
6.508378529499386
 20
-0.6487519197743646
 30
0.0
 11
6.491221666754288
 21
-0.6697855736205183
 31
0.0
  0
LINE
  5
145
330
A
100
AcDbEntity
  8
1
  6
solid
 62
     0
100
AcDbLine
 10
6.491221666754288
 20
-0.6697855736205183
 30
0.0
 11
6.477741274597425
 21
-0.6908192274666723
 31
0.0
  0
LINE
  5
146
330
A
100
AcDbEntity
  8
1
  6
solid
 62
     0
100
AcDbLine
 10
6.477741274597425
 20
-0.6908192274666723
 30
0.0
 11
6.467937353028798
 21
-0.7148576890051337
 31
0.0
  0
LINE
  5
147
330
A
100
AcDbEntity
  8
1
  6
solid
 62
     0
100
AcDbLine
 10
6.467937353028798
 20
-0.7148576890051337
 30
0.0
 11
6.460584411852327
 21
-0.7358913428512876
 31
0.0
  0
LINE
  5
148
330
A
100
AcDbEntity
  8
1
  6
solid
 62
     0
100
AcDbLine
 10
6.460584411852327
 20
-0.7358913428512876
 30
0.0
 11
6.454456960871935
 21
-0.7659394197743646
 31
0.0
  0
LINE
  5
149
330
A
100
AcDbEntity
  8
1
  6
solid
 62
     0
100
AcDbLine
 10
6.454456960871935
 20
-0.7659394197743646
 30
0.0
 11
6.450780490283699
 21
-0.7869730736205184
 31
0.0
  0
LINE
  5
14A
330
A
100
AcDbEntity
  8
1
  6
solid
 62
     0
100
AcDbLine
 10
6.450780490283699
 20
-0.7869730736205184
 30
0.0
 11
6.450780490283699
 21
-0.8019971120820567
 31
0.0
  0
LINE
  5
14B
330
A
100
AcDbEntity
  8
1
  6
solid
 62
     0
100
AcDbLine
 10
6.450780490283699
 20
-0.8019971120820567
 30
0.0
 11
6.454456960871935
 21
-0.8260355736205184
 31
0.0
  0
LINE
  5
14C
330
A
100
AcDbEntity
  8
1
  6
solid
 62
     0
100
AcDbLine
 10
6.454456960871935
 20
-0.8260355736205184
 30
0.0
 11
6.45813343146017
 21
-0.8530788428512876
 31
0.0
  0
LINE
  5
14D
330
A
100
AcDbEntity
  8
1
  6
solid
 62
     0
100
AcDbLine
 10
6.45813343146017
 20
-0.8530788428512876
 30
0.0
 11
6.464260882440562
 21
-0.8801221120820567
 31
0.0
  0
LINE
  5
14E
330
A
100
AcDbEntity
  8
1
  6
solid
 62
     0
100
AcDbLine
 10
6.464260882440562
 20
-0.8801221120820567
 30
0.0
 11
6.477741274597425
 21
-0.9131749966974414
 31
0.0
  0
LINE
  5
14F
330
A
100
AcDbEntity
  8
1
  6
solid
 62
     0
100
AcDbLine
 10
6.477741274597425
 20
-0.9131749966974414
 30
0.0
 11
6.498574607930758
 21
-0.9402182659282106
 31
0.0
  0
LINE
  5
150
330
A
100
AcDbEntity
  8
1
  6
solid
 62
     0
100
AcDbLine
 10
6.498574607930758
 20
-0.9402182659282106
 30
0.0
 11
6.515731470675856
 21
-0.9612519197743644
 31
0.0
  0
LINE
  5
151
330
A
100
AcDbEntity
  8
1
  6
solid
 62
     0
100
AcDbLine
 10
6.515731470675856
 20
-0.9612519197743644
 30
0.0
 11
6.546368725577817
 21
-0.9822855736205184
 31
0.0
  0
LINE
  5
152
330
A
100
AcDbEntity
  8
1
  6
solid
 62
     0
100
AcDbLine
 10
6.546368725577817
 20
-0.9822855736205184
 30
0.0
 11
6.577005980479778
 21
-0.9973096120820567
 31
0.0
  0
LINE
  5
153
330
A
100
AcDbEntity
  8
1
  6
solid
 62
     0
100
AcDbLine
 10
6.577005980479778
 20
-0.9973096120820567
 30
0.0
 11
6.600290294205269
 21
-1.000314419774364
 31
0.0
  0
LINE
  5
154
330
A
100
AcDbEntity
  8
1
  6
solid
 62
     0
100
AcDbLine
 10
6.600290294205269
 20
-1.000314419774364
 30
0.0
 11
6.627251078518994
 21
-1.000314419774364
 31
0.0
  0
LINE
  5
155
330
A
100
AcDbEntity
  8
1
  6
solid
 62
     0
100
AcDbLine
 10
6.627251078518994
 20
-1.000314419774364
 30
0.0
 11
6.654211862832719
 21
-0.9912999966974414
 31
0.0
  0
LINE
  5
156
330
A
100
AcDbEntity
  8
1
  6
solid
 62
     0
100
AcDbLine
 10
6.654211862832719
 20
-0.9912999966974414
 30
0.0
 11
6.68484911773468
 21
-0.9702663428512876
 31
0.0
  0
LINE
  5
157
330
A
100
AcDbEntity
  8
1
  6
solid
 62
     0
100
AcDbLine
 10
6.68484911773468
 20
-0.9702663428512876
 30
0.0
 11
6.715486372636641
 21
-0.9432230736205184
 31
0.0
  0
LINE
  5
158
330
A
100
AcDbEntity
  8
1
  6
solid
 62
     0
100
AcDbLine
 10
6.715486372636641
 20
-0.9432230736205184
 30
0.0
 11
6.736319705969974
 21
-0.9101701890051337
 31
0.0
  0
LINE
  5
159
330
A
100
AcDbEntity
  8
1
  6
solid
 62
     0
100
AcDbLine
 10
6.736319705969974
 20
-0.9101701890051337
 30
0.0
 11
6.749800098126837
 21
-0.8741124966974414
 31
0.0
  0
LINE
  5
15A
330
A
100
AcDbEntity
  8
1
  6
solid
 62
     0
100
AcDbLine
 10
6.749800098126837
 20
-0.8741124966974414
 30
0.0
 11
6.755927549107229
 21
-0.8560836505435952
 31
0.0
  0
LINE
  5
15B
330
A
100
AcDbEntity
  8
1
  6
solid
 62
     0
100
AcDbLine
 10
6.755927549107229
 20
-0.8560836505435952
 30
0.0
 11
6.763280490283699
 21
-0.8170211505435954
 31
0.0
  0
LINE
  5
15C
330
A
100
AcDbEntity
  8
1
  6
solid
 62
     0
100
AcDbLine
 10
6.763280490283699
 20
-0.8170211505435954
 30
0.0
 11
6.763280490283699
 21
-0.7839682659282107
 31
0.0
  0
LINE
  5
15D
330
A
100
AcDbEntity
  8
1
  6
solid
 62
     0
100
AcDbLine
 10
6.763280490283699
 20
-0.7839682659282107
 30
0.0
 11
6.755927549107229
 21
-0.7449057659282108
 31
0.0
  0
LINE
  5
15E
330
A
100
AcDbEntity
  8
1
  6
solid
 62
     0
100
AcDbLine
 10
6.755927549107229
 20
-0.7449057659282108
 30
0.0
 11
6.746123627538602
 21
-0.7148576890051337
 31
0.0
  0
LINE
  5
15F
330
A
100
AcDbEntity
  8
1
  6
solid
 62
     0
100
AcDbLine
 10
6.746123627538602
 20
-0.7148576890051337
 30
0.0
 11
6.732643235381739
 21
-0.6787999966974415
 31
0.0
  0
LINE
  5
160
330
A
100
AcDbEntity
  8
1
  6
solid
 62
     0
100
AcDbLine
 10
6.732643235381739
 20
-0.6787999966974415
 30
0.0
 11
6.715486372636641
 21
-0.6577663428512876
 31
0.0
  0
LINE
  5
161
330
A
100
AcDbEntity
  8
1
  6
solid
 62
     0
100
AcDbLine
 10
6.715486372636641
 20
-0.6577663428512876
 30
0.0
 11
6.698329509891543
 21
-0.6397374966974415
 31
0.0
  0
LINE
  5
162
330
A
100
AcDbEntity
  8
1
  6
solid
 62
     0
100
AcDbLine
 10
6.698329509891543
 20
-0.6397374966974415
 30
0.0
 11
6.688525588322915
 21
-0.6307230736205184
 31
0.0
  0
LINE
  5
163
330
A
100
AcDbEntity
  8
1
  6
solid
 62
     0
100
AcDbLine
 10
6.688525588322915
 20
-0.6307230736205184
 30
0.0
 11
6.705682451068014
 21
-0.6096894197743646
 31
0.0
  0
LINE
  5
164
330
A
100
AcDbEntity
  8
1
  6
solid
 62
     0
100
AcDbLine
 10
6.705682451068014
 20
-0.6096894197743646
 30
0.0
 11
6.715486372636641
 21
-0.5886557659282107
 31
0.0
  0
LINE
  5
165
330
A
100
AcDbEntity
  8
1
  6
solid
 62
     0
100
AcDbLine
 10
6.715486372636641
 20
-0.5886557659282107
 30
0.0
 11
6.722839313813111
 21
-0.5676221120820568
 31
0.0
  0
LINE
  5
166
330
A
100
AcDbEntity
  8
1
  6
solid
 62
     0
100
AcDbLine
 10
6.722839313813111
 20
-0.5676221120820568
 30
0.0
 11
6.726515784401347
 21
-0.5345692274666723
 31
0.0
  0
LINE
  5
167
330
A
100
AcDbEntity
  8
1
  6
solid
 62
     0
100
AcDbLine
 10
6.726515784401347
 20
-0.5345692274666723
 30
0.0
 11
6.726515784401347
 21
-0.5105307659282108
 31
0.0
  0
LINE
  5
168
330
A
100
AcDbEntity
  8
1
  6
solid
 62
     0
100
AcDbLine
 10
6.726515784401347
 20
-0.5105307659282108
 30
0.0
 11
6.722839313813111
 21
-0.4894971120820568
 31
0.0
  0
LINE
  5
169
330
A
100
AcDbEntity
  8
1
  6
solid
 62
     0
100
AcDbLine
 10
6.722839313813111
 20
-0.4894971120820568
 30
0.0
 11
6.715486372636641
 21
-0.4654586505435953
 31
0.0
  0
LINE
  5
16A
330
A
100
AcDbEntity
  8
1
  6
solid
 62
     0
100
AcDbLine
 10
6.715486372636641
 20
-0.4654586505435953
 30
0.0
 11
6.705682451068014
 21
-0.4414201890051338
 31
0.0
  0
LINE
  5
16B
330
A
100
AcDbEntity
  8
1
  6
solid
 62
     0
100
AcDbLine
 10
6.705682451068014
 20
-0.4414201890051338
 30
0.0
 11
6.695878529499386
 21
-0.4233913428512876
 31
0.0
  0
LINE
  5
16C
330
A
100
AcDbEntity
  8
1
  6
solid
 62
     0
100
AcDbLine
 10
6.695878529499386
 20
-0.4233913428512876
 30
0.0
 11
6.678721666754288
 21
-0.4053624966974415
 31
0.0
  0
LINE
  5
16D
330
A
100
AcDbEntity
  8
1
  6
solid
 62
     0
100
AcDbLine
 10
6.678721666754288
 20
-0.4053624966974415
 30
0.0
 11
6.665241274597425
 21
-0.3933432659282107
 31
0.0
  0
LINE
  5
16E
330
A
100
AcDbEntity
  8
1
  6
solid
 62
     0
100
AcDbLine
 10
6.665241274597425
 20
-0.3933432659282107
 30
0.0
 11
6.648084411852327
 21
-0.3843288428512875
 31
0.0
  0
LINE
  5
16F
330
A
100
AcDbEntity
  8
1
  6
solid
 62
     0
100
AcDbLine
 10
6.648084411852327
 20
-0.3843288428512875
 30
0.0
 11
6.623574607930758
 21
-0.3753144197743645
 31
0.0
  0
LINE
  5
170
330
A
100
AcDbEntity
  8
1
  6
solid
 62
     0
100
AcDbLine
 10
6.623574607930758
 20
-0.3753144197743645
 30
0.0
 11
6.596613823617033
 21
-0.3753144197743645
 31
0.0
  0
LINE
  5
171
330
A
100
AcDbEntity
  8
1
  6
solid
 62
     0
100
AcDbLine
 10
6.596613823617033
 20
-0.3753144197743645
 30
0.0
 11
6.565976568715072
 21
-0.3843288428512875
 31
0.0
  0
LINE
  5
172
330
A
100
AcDbEntity
  8
1
  6
solid
 62
     0
100
AcDbLine
 10
6.565976568715072
 20
-0.3843288428512875
 30
0.0
 11
6.539015784401347
 21
-0.4023576890051337
 31
0.0
  0
LINE
  5
173
330
A
100
AcDbEntity
  8
1
  6
solid
 62
     0
100
AcDbLine
 10
6.539015784401347
 20
-0.4023576890051337
 30
0.0
 11
6.521858921656249
 21
-0.4173817274666723
 31
0.0
  0
LINE
  5
174
330
A
100
AcDbEntity
  8
1
  6
solid
 62
     0
100
AcDbLine
 10
6.521858921656249
 20
-0.4173817274666723
 30
0.0
 11
6.508378529499386
 21
-0.4414201890051338
 31
0.0
  0
LINE
  5
175
330
A
100
AcDbEntity
  8
1
  6
solid
 62
     0
100
AcDbLine
 10
6.508378529499386
 20
-0.4414201890051338
 30
0.0
 11
6.498574607930758
 21
-0.4654586505435953
 31
0.0
  0
LINE
  5
176
330
A
100
AcDbEntity
  8
1
  6
solid
 62
     0
100
AcDbLine
 10
6.498574607930758
 20
-0.4654586505435953
 30
0.0
 11
6.491221666754288
 21
-0.4925019197743646
 31
0.0
  0
LINE
  5
177
330
A
100
AcDbEntity
  8
1
  6
solid
 62
     0
100
AcDbLine
 10
6.491221666754288
 20
-0.4925019197743646
 30
0.0
 11
6.487545196166053
 21
-0.5105307659282108
 31
0.0
  0
LINE
  5
178
330
A
100
AcDbEntity
  8
1
  6
solid
 62
     0
100
AcDbLine
 10
6.487545196166053
 20
-0.5105307659282108
 30
0.0
 11
6.487545196166053
 21
-0.5315644197743646
 31
0.0
  0
LINE
  5
179
330
A
100
AcDbEntity
  8
1
  6
solid
 62
     0
100
AcDbLine
 10
6.487545196166053
 20
-0.5315644197743646
 30
0.0
 11
6.491221666754288
 21
-0.5586076890051338
 31
0.0
  0
LINE
  5
17A
330
A
100
AcDbEntity
  8
1
  6
solid
 62
     0
100
AcDbLine
 10
6.491221666754288
 20
-0.5586076890051338
 30
0.0
 11
6.498574607930758
 21
-0.5886557659282107
 31
0.0
  0
LINE
  5
17B
330
A
100
AcDbEntity
  8
1
  6
solid
 62
     0
100
AcDbLine
 10
6.498574607930758
 20
-0.5886557659282107
 30
0.0
 11
6.508378529499386
 21
-0.6096894197743646
 31
0.0
  0
LINE
  5
17C
330
A
100
AcDbEntity
  8
1
  6
solid
 62
     0
100
AcDbLine
 10
6.508378529499386
 20
-0.6096894197743646
 30
0.0
 11
6.518182451068013
 21
-0.6217086505435953
 31
0.0
  0
LINE
  5
17D
330
A
100
AcDbEntity
  8
1
  6
solid
 62
     0
100
AcDbLine
 10
6.518182451068013
 20
-0.6217086505435953
 30
0.0
 11
6.525535392244483
 21
-0.6307230736205184
 31
0.0
  0
LINE
  5
17E
330
A
100
AcDbEntity
  8
1
  6
solid
 62
     0
100
AcDbLine
 10
6.623574607930758
 20
-0.9221894197743644
 30
0.0
 11
6.648084411852327
 21
-0.9131749966974414
 31
0.0
  0
LINE
  5
17F
330
A
100
AcDbEntity
  8
1
  6
solid
 62
     0
100
AcDbLine
 10
6.648084411852327
 20
-0.9131749966974414
 30
0.0
 11
6.665241274597425
 21
-0.9011557659282106
 31
0.0
  0
LINE
  5
180
330
A
100
AcDbEntity
  8
1
  6
solid
 62
     0
100
AcDbLine
 10
6.665241274597425
 20
-0.9011557659282106
 30
0.0
 11
6.681172647146444
 21
-0.8831269197743644
 31
0.0
  0
LINE
  5
181
330
A
100
AcDbEntity
  8
1
  6
solid
 62
     0
100
AcDbLine
 10
6.681172647146444
 20
-0.8831269197743644
 30
0.0
 11
6.695878529499386
 21
-0.8560836505435952
 31
0.0
  0
LINE
  5
182
330
A
100
AcDbEntity
  8
1
  6
solid
 62
     0
100
AcDbLine
 10
6.695878529499386
 20
-0.8560836505435952
 30
0.0
 11
6.702005980479778
 21
-0.8320451890051337
 31
0.0
  0
LINE
  5
183
330
A
100
AcDbEntity
  8
1
  6
solid
 62
     0
100
AcDbLine
 10
6.702005980479778
 20
-0.8320451890051337
 30
0.0
 11
6.705682451068014
 21
-0.8050019197743644
 31
0.0
  0
LINE
  5
184
330
A
100
AcDbEntity
  8
1
  6
solid
 62
     0
100
AcDbLine
 10
6.705682451068014
 20
-0.8050019197743644
 30
0.0
 11
6.705682451068014
 21
-0.7869730736205184
 31
0.0
  0
LINE
  5
185
330
A
100
AcDbEntity
  8
1
  6
solid
 62
     0
100
AcDbLine
 10
6.705682451068014
 20
-0.7869730736205184
 30
0.0
 11
6.695878529499386
 21
-0.7479105736205185
 31
0.0
  0
LINE
  5
186
330
A
100
AcDbEntity
  8
1
  6
solid
 62
     0
100
AcDbLine
 10
6.695878529499386
 20
-0.7479105736205185
 30
0.0
 11
6.68484911773468
 21
-0.7268769197743646
 31
0.0
  0
LINE
  5
187
330
A
100
AcDbEntity
  8
1
  6
solid
 62
     0
100
AcDbLine
 10
6.68484911773468
 20
-0.7268769197743646
 30
0.0
 11
6.671368725577817
 21
-0.7088480736205184
 31
0.0
  0
LINE
  5
188
330
A
100
AcDbEntity
  8
1
  6
solid
 62
     0
100
AcDbLine
 10
6.671368725577817
 20
-0.7088480736205184
 30
0.0
 11
6.654211862832719
 21
-0.6908192274666723
 31
0.0
  0
LINE
  5
189
330
A
100
AcDbEntity
  8
1
  6
solid
 62
     0
100
AcDbLine
 10
6.654211862832719
 20
-0.6908192274666723
 30
0.0
 11
6.640731470675857
 21
-0.6848096120820568
 31
0.0
  0
LINE
  5
18A
330
A
100
AcDbEntity
  8
1
  6
solid
 62
     0
100
AcDbLine
 10
6.640731470675857
 20
-0.6848096120820568
 30
0.0
 11
6.621123627538602
 21
-0.6787999966974415
 31
0.0
  0
LINE
  5
18B
330
A
100
AcDbEntity
  8
1
  6
solid
 62
     0
100
AcDbLine
 10
6.621123627538602
 20
-0.6787999966974415
 30
0.0
 11
6.596613823617033
 21
-0.6787999966974415
 31
0.0
  0
LINE
  5
18C
330
A
100
AcDbEntity
  8
1
  6
solid
 62
     0
100
AcDbLine
 10
6.596613823617033
 20
-0.6787999966974415
 30
0.0
 11
6.569653039303307
 21
-0.6878144197743646
 31
0.0
  0
LINE
  5
18D
330
A
100
AcDbEntity
  8
1
  6
solid
 62
     0
100
AcDbLine
 10
6.569653039303307
 20
-0.6878144197743646
 30
0.0
 11
6.55249617655821
 21
-0.6998336505435954
 31
0.0
  0
LINE
  5
18E
330
A
100
AcDbEntity
  8
1
  6
solid
 62
     0
100
AcDbLine
 10
6.55249617655821
 20
-0.6998336505435954
 30
0.0
 11
6.535339313813111
 21
-0.7178624966974415
 31
0.0
  0
LINE
  5
18F
330
A
100
AcDbEntity
  8
1
  6
solid
 62
     0
100
AcDbLine
 10
6.535339313813111
 20
-0.7178624966974415
 30
0.0
 11
6.521858921656249
 21
-0.7449057659282108
 31
0.0
  0
LINE
  5
190
330
A
100
AcDbEntity
  8
1
  6
solid
 62
     0
100
AcDbLine
 10
6.521858921656249
 20
-0.7449057659282108
 30
0.0
 11
6.515731470675856
 21
-0.7659394197743646
 31
0.0
  0
LINE
  5
191
330
A
100
AcDbEntity
  8
1
  6
solid
 62
     0
100
AcDbLine
 10
6.515731470675856
 20
-0.7659394197743646
 30
0.0
 11
6.512055000087621
 21
-0.7869730736205184
 31
0.0
  0
LINE
  5
192
330
A
100
AcDbEntity
  8
1
  6
solid
 62
     0
100
AcDbLine
 10
6.512055000087621
 20
-0.7869730736205184
 30
0.0
 11
6.512055000087621
 21
-0.8140163428512876
 31
0.0
  0
LINE
  5
193
330
A
100
AcDbEntity
  8
1
  6
solid
 62
     0
100
AcDbLine
 10
6.512055000087621
 20
-0.8140163428512876
 30
0.0
 11
6.515731470675856
 21
-0.8410596120820567
 31
0.0
  0
LINE
  5
194
330
A
100
AcDbEntity
  8
1
  6
solid
 62
     0
100
AcDbLine
 10
6.515731470675856
 20
-0.8410596120820567
 30
0.0
 11
6.525535392244483
 21
-0.8711076890051337
 31
0.0
  0
LINE
  5
195
330
A
100
AcDbEntity
  8
1
  6
solid
 62
     0
100
AcDbLine
 10
6.525535392244483
 20
-0.8711076890051337
 30
0.0
 11
6.542692254989582
 21
-0.8921413428512876
 31
0.0
  0
LINE
  5
196
330
A
100
AcDbEntity
  8
1
  6
solid
 62
     0
100
AcDbLine
 10
6.542692254989582
 20
-0.8921413428512876
 30
0.0
 11
6.55984911773468
 21
-0.9101701890051337
 31
0.0
  0
LINE
  5
197
330
A
100
AcDbEntity
  8
1
  6
solid
 62
     0
100
AcDbLine
 10
6.55984911773468
 20
-0.9101701890051337
 30
0.0
 11
6.58313343146017
 21
-0.9221894197743644
 31
0.0
  0
LINE
  5
198
330
A
100
AcDbEntity
  8
1
  6
solid
 62
     0
100
AcDbLine
 10
6.58313343146017
 20
-0.9221894197743644
 30
0.0
 11
6.623574607930758
 21
-0.9221894197743644
 31
0.0
  0
LINE
  5
199
330
A
100
AcDbEntity
  8
1
  6
solid
 62
     0
100
AcDbLine
 10
6.617447156950366
 20
-0.6006749966974416
 30
0.0
 11
6.630927549107229
 21
-0.5976701890051337
 31
0.0
  0
LINE
  5
19A
330
A
100
AcDbEntity
  8
1
  6
solid
 62
     0
100
AcDbLine
 10
6.630927549107229
 20
-0.5976701890051337
 30
0.0
 11
6.648084411852327
 21
-0.5826461505435954
 31
0.0
  0
LINE
  5
19B
330
A
100
AcDbEntity
  8
1
  6
solid
 62
     0
100
AcDbLine
 10
6.648084411852327
 20
-0.5826461505435954
 30
0.0
 11
6.657888333420954
 21
-0.5676221120820568
 31
0.0
  0
LINE
  5
19C
330
A
100
AcDbEntity
  8
1
  6
solid
 62
     0
100
AcDbLine
 10
6.657888333420954
 20
-0.5676221120820568
 30
0.0
 11
6.665241274597425
 21
-0.5495932659282107
 31
0.0
  0
LINE
  5
19D
330
A
100
AcDbEntity
  8
1
  6
solid
 62
     0
100
AcDbLine
 10
6.665241274597425
 20
-0.5495932659282107
 30
0.0
 11
6.667692254989582
 21
-0.5315644197743646
 31
0.0
  0
LINE
  5
19E
330
A
100
AcDbEntity
  8
1
  6
solid
 62
     0
100
AcDbLine
 10
6.667692254989582
 20
-0.5315644197743646
 30
0.0
 11
6.667692254989582
 21
-0.5195451890051337
 31
0.0
  0
LINE
  5
19F
330
A
100
AcDbEntity
  8
1
  6
solid
 62
     0
100
AcDbLine
 10
6.667692254989582
 20
-0.5195451890051337
 30
0.0
 11
6.66156480400919
 21
-0.4925019197743646
 31
0.0
  0
LINE
  5
1A0
330
A
100
AcDbEntity
  8
1
  6
solid
 62
     0
100
AcDbLine
 10
6.66156480400919
 20
-0.4925019197743646
 30
0.0
 11
6.651760882440562
 21
-0.4744730736205184
 31
0.0
  0
LINE
  5
1A1
330
A
100
AcDbEntity
  8
1
  6
solid
 62
     0
100
AcDbLine
 10
6.651760882440562
 20
-0.4744730736205184
 30
0.0
 11
6.640731470675857
 21
-0.4624538428512876
 31
0.0
  0
LINE
  5
1A2
330
A
100
AcDbEntity
  8
1
  6
solid
 62
     0
100
AcDbLine
 10
6.640731470675857
 20
-0.4624538428512876
 30
0.0
 11
6.627251078518994
 21
-0.4534394197743646
 31
0.0
  0
LINE
  5
1A3
330
A
100
AcDbEntity
  8
1
  6
solid
 62
     0
100
AcDbLine
 10
6.627251078518994
 20
-0.4534394197743646
 30
0.0
 11
6.613770686362131
 21
-0.4504346120820568
 31
0.0
  0
LINE
  5
1A4
330
A
100
AcDbEntity
  8
1
  6
solid
 62
     0
100
AcDbLine
 10
6.613770686362131
 20
-0.4504346120820568
 30
0.0
 11
6.603966764793503
 21
-0.4504346120820568
 31
0.0
  0
LINE
  5
1A5
330
A
100
AcDbEntity
  8
1
  6
solid
 62
     0
100
AcDbLine
 10
6.603966764793503
 20
-0.4504346120820568
 30
0.0
 11
6.586809902048406
 21
-0.4534394197743646
 31
0.0
  0
LINE
  5
1A6
330
A
100
AcDbEntity
  8
1
  6
solid
 62
     0
100
AcDbLine
 10
6.586809902048406
 20
-0.4534394197743646
 30
0.0
 11
6.573329509891543
 21
-0.4624538428512876
 31
0.0
  0
LINE
  5
1A7
330
A
100
AcDbEntity
  8
1
  6
solid
 62
     0
100
AcDbLine
 10
6.573329509891543
 20
-0.4624538428512876
 30
0.0
 11
6.562300098126837
 21
-0.4744730736205184
 31
0.0
  0
LINE
  5
1A8
330
A
100
AcDbEntity
  8
1
  6
solid
 62
     0
100
AcDbLine
 10
6.562300098126837
 20
-0.4744730736205184
 30
0.0
 11
6.55249617655821
 21
-0.4925019197743646
 31
0.0
  0
LINE
  5
1A9
330
A
100
AcDbEntity
  8
1
  6
solid
 62
     0
100
AcDbLine
 10
6.55249617655821
 20
-0.4925019197743646
 30
0.0
 11
6.548819705969974
 21
-0.5105307659282108
 31
0.0
  0
LINE
  5
1AA
330
A
100
AcDbEntity
  8
1
  6
solid
 62
     0
100
AcDbLine
 10
6.548819705969974
 20
-0.5105307659282108
 30
0.0
 11
6.546368725577817
 21
-0.5225499966974415
 31
0.0
  0
LINE
  5
1AB
330
A
100
AcDbEntity
  8
1
  6
solid
 62
     0
100
AcDbLine
 10
6.546368725577817
 20
-0.5225499966974415
 30
0.0
 11
6.546368725577817
 21
-0.5315644197743646
 31
0.0
  0
LINE
  5
1AC
330
A
100
AcDbEntity
  8
1
  6
solid
 62
     0
100
AcDbLine
 10
6.546368725577817
 20
-0.5315644197743646
 30
0.0
 11
6.55249617655821
 21
-0.5586076890051338
 31
0.0
  0
LINE
  5
1AD
330
A
100
AcDbEntity
  8
1
  6
solid
 62
     0
100
AcDbLine
 10
6.55249617655821
 20
-0.5586076890051338
 30
0.0
 11
6.55984911773468
 21
-0.5706269197743646
 31
0.0
  0
LINE
  5
1AE
330
A
100
AcDbEntity
  8
1
  6
solid
 62
     0
100
AcDbLine
 10
6.55984911773468
 20
-0.5706269197743646
 30
0.0
 11
6.569653039303307
 21
-0.5886557659282107
 31
0.0
  0
LINE
  5
1AF
330
A
100
AcDbEntity
  8
1
  6
solid
 62
     0
100
AcDbLine
 10
6.569653039303307
 20
-0.5886557659282107
 30
0.0
 11
6.58313343146017
 21
-0.5976701890051337
 31
0.0
  0
LINE
  5
1B0
330
A
100
AcDbEntity
  8
1
  6
solid
 62
     0
100
AcDbLine
 10
6.58313343146017
 20
-0.5976701890051337
 30
0.0
 11
6.600290294205269
 21
-0.6006749966974416
 31
0.0
  0
LINE
  5
1B1
330
A
100
AcDbEntity
  8
1
  6
solid
 62
     0
100
AcDbLine
 10
6.600290294205269
 20
-0.6006749966974416
 30
0.0
 11
6.617447156950366
 21
-0.6006749966974416
 31
0.0
  0
LINE
  5
1B2
330
A
100
AcDbEntity
  8
1
  6
solid
 62
     0
100
AcDbLine
 10
7.205682451068013
 20
-0.3753144197743645
 30
0.0
 11
7.205682451068013
 21
-0.4564442274666723
 31
0.0
  0
LINE
  5
1B3
330
A
100
AcDbEntity
  8
1
  6
solid
 62
     0
100
AcDbLine
 10
7.205682451068013
 20
-0.4564442274666723
 30
0.0
 11
7.249800098126836
 21
-0.4564442274666723
 31
0.0
  0
LINE
  5
1B4
330
A
100
AcDbEntity
  8
1
  6
solid
 62
     0
100
AcDbLine
 10
7.249800098126836
 20
-0.4564442274666723
 30
0.0
 11
7.331907941264091
 21
-0.6818048043897491
 31
0.0
  0
LINE
  5
1B5
330
A
100
AcDbEntity
  8
1
  6
solid
 62
     0
100
AcDbLine
 10
7.331907941264091
 20
-0.6818048043897491
 30
0.0
 11
7.241221666754287
 21
-0.9191846120820567
 31
0.0
  0
LINE
  5
1B6
330
A
100
AcDbEntity
  8
1
  6
solid
 62
     0
100
AcDbLine
 10
7.241221666754287
 20
-0.9191846120820567
 30
0.0
 11
7.200780490283699
 21
-0.9191846120820567
 31
0.0
  0
LINE
  5
1B7
330
A
100
AcDbEntity
  8
1
  6
solid
 62
     0
100
AcDbLine
 10
7.200780490283699
 20
-0.9191846120820567
 30
0.0
 11
7.200780490283699
 21
-1.000314419774364
 31
0.0
  0
LINE
  5
1B8
330
A
100
AcDbEntity
  8
1
  6
solid
 62
     0
100
AcDbLine
 10
7.200780490283699
 20
-1.000314419774364
 30
0.0
 11
7.331907941264091
 21
-1.000314419774364
 31
0.0
  0
LINE
  5
1B9
330
A
100
AcDbEntity
  8
1
  6
solid
 62
     0
100
AcDbLine
 10
7.331907941264091
 20
-1.000314419774364
 30
0.0
 11
7.331907941264091
 21
-0.9191846120820567
 31
0.0
  0
LINE
  5
1BA
330
A
100
AcDbEntity
  8
1
  6
solid
 62
     0
100
AcDbLine
 10
7.331907941264091
 20
-0.9191846120820567
 30
0.0
 11
7.297594215773895
 21
-0.9191846120820567
 31
0.0
  0
LINE
  5
1BB
330
A
100
AcDbEntity
  8
1
  6
solid
 62
     0
100
AcDbLine
 10
7.297594215773895
 20
-0.9191846120820567
 30
0.0
 11
7.357643235381739
 21
-0.7539201890051338
 31
0.0
  0
LINE
  5
1BC
330
A
100
AcDbEntity
  8
1
  6
solid
 62
     0
100
AcDbLine
 10
7.357643235381739
 20
-0.7539201890051338
 30
0.0
 11
7.416466764793503
 21
-0.9191846120820567
 31
0.0
  0
LINE
  5
1BD
330
A
100
AcDbEntity
  8
1
  6
solid
 62
     0
100
AcDbLine
 10
7.416466764793503
 20
-0.9191846120820567
 30
0.0
 11
7.384604019695464
 21
-0.9191846120820567
 31
0.0
  0
LINE
  5
1BE
330
A
100
AcDbEntity
  8
1
  6
solid
 62
     0
100
AcDbLine
 10
7.384604019695464
 20
-0.9191846120820567
 30
0.0
 11
7.384604019695464
 21
-1.000314419774364
 31
0.0
  0
LINE
  5
1BF
330
A
100
AcDbEntity
  8
1
  6
solid
 62
     0
100
AcDbLine
 10
7.384604019695464
 20
-1.000314419774364
 30
0.0
 11
7.513280490283699
 21
-1.000314419774364
 31
0.0
  0
LINE
  5
1C0
330
A
100
AcDbEntity
  8
1
  6
solid
 62
     0
100
AcDbLine
 10
7.513280490283699
 20
-1.000314419774364
 30
0.0
 11
7.513280490283699
 21
-0.9191846120820567
 31
0.0
  0
LINE
  5
1C1
330
A
100
AcDbEntity
  8
1
  6
solid
 62
     0
100
AcDbLine
 10
7.513280490283699
 20
-0.9191846120820567
 30
0.0
 11
7.472839313813111
 21
-0.9191846120820567
 31
0.0
  0
LINE
  5
1C2
330
A
100
AcDbEntity
  8
1
  6
solid
 62
     0
100
AcDbLine
 10
7.472839313813111
 20
-0.9191846120820567
 30
0.0
 11
7.384604019695464
 21
-0.6818048043897491
 31
0.0
  0
LINE
  5
1C3
330
A
100
AcDbEntity
  8
1
  6
solid
 62
     0
100
AcDbLine
 10
7.384604019695464
 20
-0.6818048043897491
 30
0.0
 11
7.464260882440562
 21
-0.4564442274666723
 31
0.0
  0
LINE
  5
1C4
330
A
100
AcDbEntity
  8
1
  6
solid
 62
     0
100
AcDbLine
 10
7.464260882440562
 20
-0.4564442274666723
 30
0.0
 11
7.508378529499386
 21
-0.4564442274666723
 31
0.0
  0
LINE
  5
1C5
330
A
100
AcDbEntity
  8
1
  6
solid
 62
     0
100
AcDbLine
 10
7.508378529499386
 20
-0.4564442274666723
 30
0.0
 11
7.508378529499386
 21
-0.3753144197743645
 31
0.0
  0
LINE
  5
1C6
330
A
100
AcDbEntity
  8
1
  6
solid
 62
     0
100
AcDbLine
 10
7.508378529499386
 20
-0.3753144197743645
 30
0.0
 11
7.377251078518994
 21
-0.3753144197743645
 31
0.0
  0
LINE
  5
1C7
330
A
100
AcDbEntity
  8
1
  6
solid
 62
     0
100
AcDbLine
 10
7.377251078518994
 20
-0.3753144197743645
 30
0.0
 11
7.377251078518994
 21
-0.4564442274666723
 31
0.0
  0
LINE
  5
1C8
330
A
100
AcDbEntity
  8
1
  6
solid
 62
     0
100
AcDbLine
 10
7.377251078518994
 20
-0.4564442274666723
 30
0.0
 11
7.410339313813111
 21
-0.4564442274666723
 31
0.0
  0
LINE
  5
1C9
330
A
100
AcDbEntity
  8
1
  6
solid
 62
     0
100
AcDbLine
 10
7.410339313813111
 20
-0.4564442274666723
 30
0.0
 11
7.357643235381739
 21
-0.6036798043897491
 31
0.0
  0
LINE
  5
1CA
330
A
100
AcDbEntity
  8
1
  6
solid
 62
     0
100
AcDbLine
 10
7.357643235381739
 20
-0.6036798043897491
 30
0.0
 11
7.303721666754287
 21
-0.4564442274666723
 31
0.0
  0
LINE
  5
1CB
330
A
100
AcDbEntity
  8
1
  6
solid
 62
     0
100
AcDbLine
 10
7.303721666754287
 20
-0.4564442274666723
 30
0.0
 11
7.336809902048405
 21
-0.4564442274666723
 31
0.0
  0
LINE
  5
1CC
330
A
100
AcDbEntity
  8
1
  6
solid
 62
     0
100
AcDbLine
 10
7.336809902048405
 20
-0.4564442274666723
 30
0.0
 11
7.336809902048405
 21
-0.3753144197743645
 31
0.0
  0
LINE
  5
1CD
330
A
100
AcDbEntity
  8
1
  6
solid
 62
     0
100
AcDbLine
 10
7.336809902048405
 20
-0.3753144197743645
 30
0.0
 11
7.205682451068013
 21
-0.3753144197743645
 31
0.0
  0
LINE
  5
1CE
330
A
100
AcDbEntity
  8
1
  6
solid
 62
     0
100
AcDbLine
 10
8.025535392244483
 20
-0.6307230736205184
 30
0.0
 11
8.008378529499385
 21
-0.6487519197743646
 31
0.0
  0
LINE
  5
1CF
330
A
100
AcDbEntity
  8
1
  6
solid
 62
     0
100
AcDbLine
 10
8.008378529499385
 20
-0.6487519197743646
 30
0.0
 11
7.991221666754287
 21
-0.6697855736205183
 31
0.0
  0
LINE
  5
1D0
330
A
100
AcDbEntity
  8
1
  6
solid
 62
     0
100
AcDbLine
 10
7.991221666754287
 20
-0.6697855736205183
 30
0.0
 11
7.977741274597424
 21
-0.6908192274666723
 31
0.0
  0
LINE
  5
1D1
330
A
100
AcDbEntity
  8
1
  6
solid
 62
     0
100
AcDbLine
 10
7.977741274597424
 20
-0.6908192274666723
 30
0.0
 11
7.967937353028797
 21
-0.7148576890051337
 31
0.0
  0
LINE
  5
1D2
330
A
100
AcDbEntity
  8
1
  6
solid
 62
     0
100
AcDbLine
 10
7.967937353028797
 20
-0.7148576890051337
 30
0.0
 11
7.960584411852327
 21
-0.7358913428512876
 31
0.0
  0
LINE
  5
1D3
330
A
100
AcDbEntity
  8
1
  6
solid
 62
     0
100
AcDbLine
 10
7.960584411852327
 20
-0.7358913428512876
 30
0.0
 11
7.954456960871935
 21
-0.7659394197743646
 31
0.0
  0
LINE
  5
1D4
330
A
100
AcDbEntity
  8
1
  6
solid
 62
     0
100
AcDbLine
 10
7.954456960871935
 20
-0.7659394197743646
 30
0.0
 11
7.950780490283699
 21
-0.7869730736205184
 31
0.0
  0
LINE
  5
1D5
330
A
100
AcDbEntity
  8
1
  6
solid
 62
     0
100
AcDbLine
 10
7.950780490283699
 20
-0.7869730736205184
 30
0.0
 11
7.950780490283699
 21
-0.8019971120820567
 31
0.0
  0
LINE
  5
1D6
330
A
100
AcDbEntity
  8
1
  6
solid
 62
     0
100
AcDbLine
 10
7.950780490283699
 20
-0.8019971120820567
 30
0.0
 11
7.954456960871935
 21
-0.8260355736205184
 31
0.0
  0
LINE
  5
1D7
330
A
100
AcDbEntity
  8
1
  6
solid
 62
     0
100
AcDbLine
 10
7.954456960871935
 20
-0.8260355736205184
 30
0.0
 11
7.958133431460169
 21
-0.8530788428512876
 31
0.0
  0
LINE
  5
1D8
330
A
100
AcDbEntity
  8
1
  6
solid
 62
     0
100
AcDbLine
 10
7.958133431460169
 20
-0.8530788428512876
 30
0.0
 11
7.964260882440562
 21
-0.8801221120820567
 31
0.0
  0
LINE
  5
1D9
330
A
100
AcDbEntity
  8
1
  6
solid
 62
     0
100
AcDbLine
 10
7.964260882440562
 20
-0.8801221120820567
 30
0.0
 11
7.977741274597424
 21
-0.9131749966974414
 31
0.0
  0
LINE
  5
1DA
330
A
100
AcDbEntity
  8
1
  6
solid
 62
     0
100
AcDbLine
 10
7.977741274597424
 20
-0.9131749966974414
 30
0.0
 11
7.998574607930758
 21
-0.9402182659282106
 31
0.0
  0
LINE
  5
1DB
330
A
100
AcDbEntity
  8
1
  6
solid
 62
     0
100
AcDbLine
 10
7.998574607930758
 20
-0.9402182659282106
 30
0.0
 11
8.015731470675856
 21
-0.9612519197743644
 31
0.0
  0
LINE
  5
1DC
330
A
100
AcDbEntity
  8
1
  6
solid
 62
     0
100
AcDbLine
 10
8.015731470675856
 20
-0.9612519197743644
 30
0.0
 11
8.046368725577817
 21
-0.9822855736205184
 31
0.0
  0
LINE
  5
1DD
330
A
100
AcDbEntity
  8
1
  6
solid
 62
     0
100
AcDbLine
 10
8.046368725577817
 20
-0.9822855736205184
 30
0.0
 11
8.077005980479778
 21
-0.9973096120820567
 31
0.0
  0
LINE
  5
1DE
330
A
100
AcDbEntity
  8
1
  6
solid
 62
     0
100
AcDbLine
 10
8.077005980479778
 20
-0.9973096120820567
 30
0.0
 11
8.100290294205269
 21
-1.000314419774364
 31
0.0
  0
LINE
  5
1DF
330
A
100
AcDbEntity
  8
1
  6
solid
 62
     0
100
AcDbLine
 10
8.100290294205269
 20
-1.000314419774364
 30
0.0
 11
8.127251078518995
 21
-1.000314419774364
 31
0.0
  0
LINE
  5
1E0
330
A
100
AcDbEntity
  8
1
  6
solid
 62
     0
100
AcDbLine
 10
8.127251078518995
 20
-1.000314419774364
 30
0.0
 11
8.15421186283272
 21
-0.9912999966974414
 31
0.0
  0
LINE
  5
1E1
330
A
100
AcDbEntity
  8
1
  6
solid
 62
     0
100
AcDbLine
 10
8.15421186283272
 20
-0.9912999966974414
 30
0.0
 11
8.18484911773468
 21
-0.9702663428512876
 31
0.0
  0
LINE
  5
1E2
330
A
100
AcDbEntity
  8
1
  6
solid
 62
     0
100
AcDbLine
 10
8.18484911773468
 20
-0.9702663428512876
 30
0.0
 11
8.21548637263664
 21
-0.9432230736205184
 31
0.0
  0
LINE
  5
1E3
330
A
100
AcDbEntity
  8
1
  6
solid
 62
     0
100
AcDbLine
 10
8.21548637263664
 20
-0.9432230736205184
 30
0.0
 11
8.236319705969975
 21
-0.9101701890051337
 31
0.0
  0
LINE
  5
1E4
330
A
100
AcDbEntity
  8
1
  6
solid
 62
     0
100
AcDbLine
 10
8.236319705969975
 20
-0.9101701890051337
 30
0.0
 11
8.249800098126836
 21
-0.8741124966974414
 31
0.0
  0
LINE
  5
1E5
330
A
100
AcDbEntity
  8
1
  6
solid
 62
     0
100
AcDbLine
 10
8.249800098126836
 20
-0.8741124966974414
 30
0.0
 11
8.25592754910723
 21
-0.8560836505435952
 31
0.0
  0
LINE
  5
1E6
330
A
100
AcDbEntity
  8
1
  6
solid
 62
     0
100
AcDbLine
 10
8.25592754910723
 20
-0.8560836505435952
 30
0.0
 11
8.263280490283699
 21
-0.8170211505435954
 31
0.0
  0
LINE
  5
1E7
330
A
100
AcDbEntity
  8
1
  6
solid
 62
     0
100
AcDbLine
 10
8.263280490283699
 20
-0.8170211505435954
 30
0.0
 11
8.263280490283699
 21
-0.7839682659282107
 31
0.0
  0
LINE
  5
1E8
330
A
100
AcDbEntity
  8
1
  6
solid
 62
     0
100
AcDbLine
 10
8.263280490283699
 20
-0.7839682659282107
 30
0.0
 11
8.25592754910723
 21
-0.7449057659282108
 31
0.0
  0
LINE
  5
1E9
330
A
100
AcDbEntity
  8
1
  6
solid
 62
     0
100
AcDbLine
 10
8.25592754910723
 20
-0.7449057659282108
 30
0.0
 11
8.246123627538601
 21
-0.7148576890051337
 31
0.0
  0
LINE
  5
1EA
330
A
100
AcDbEntity
  8
1
  6
solid
 62
     0
100
AcDbLine
 10
8.246123627538601
 20
-0.7148576890051337
 30
0.0
 11
8.23264323538174
 21
-0.6787999966974415
 31
0.0
  0
LINE
  5
1EB
330
A
100
AcDbEntity
  8
1
  6
solid
 62
     0
100
AcDbLine
 10
8.23264323538174
 20
-0.6787999966974415
 30
0.0
 11
8.21548637263664
 21
-0.6577663428512876
 31
0.0
  0
LINE
  5
1EC
330
A
100
AcDbEntity
  8
1
  6
solid
 62
     0
100
AcDbLine
 10
8.21548637263664
 20
-0.6577663428512876
 30
0.0
 11
8.198329509891543
 21
-0.6397374966974415
 31
0.0
  0
LINE
  5
1ED
330
A
100
AcDbEntity
  8
1
  6
solid
 62
     0
100
AcDbLine
 10
8.198329509891543
 20
-0.6397374966974415
 30
0.0
 11
8.188525588322915
 21
-0.6307230736205184
 31
0.0
  0
LINE
  5
1EE
330
A
100
AcDbEntity
  8
1
  6
solid
 62
     0
100
AcDbLine
 10
8.188525588322915
 20
-0.6307230736205184
 30
0.0
 11
8.205682451068014
 21
-0.6096894197743646
 31
0.0
  0
LINE
  5
1EF
330
A
100
AcDbEntity
  8
1
  6
solid
 62
     0
100
AcDbLine
 10
8.205682451068014
 20
-0.6096894197743646
 30
0.0
 11
8.21548637263664
 21
-0.5886557659282107
 31
0.0
  0
LINE
  5
1F0
330
A
100
AcDbEntity
  8
1
  6
solid
 62
     0
100
AcDbLine
 10
8.21548637263664
 20
-0.5886557659282107
 30
0.0
 11
8.222839313813111
 21
-0.5676221120820568
 31
0.0
  0
LINE
  5
1F1
330
A
100
AcDbEntity
  8
1
  6
solid
 62
     0
100
AcDbLine
 10
8.222839313813111
 20
-0.5676221120820568
 30
0.0
 11
8.226515784401346
 21
-0.5345692274666723
 31
0.0
  0
LINE
  5
1F2
330
A
100
AcDbEntity
  8
1
  6
solid
 62
     0
100
AcDbLine
 10
8.226515784401346
 20
-0.5345692274666723
 30
0.0
 11
8.226515784401346
 21
-0.5105307659282108
 31
0.0
  0
LINE
  5
1F3
330
A
100
AcDbEntity
  8
1
  6
solid
 62
     0
100
AcDbLine
 10
8.226515784401346
 20
-0.5105307659282108
 30
0.0
 11
8.222839313813111
 21
-0.4894971120820568
 31
0.0
  0
LINE
  5
1F4
330
A
100
AcDbEntity
  8
1
  6
solid
 62
     0
100
AcDbLine
 10
8.222839313813111
 20
-0.4894971120820568
 30
0.0
 11
8.21548637263664
 21
-0.4654586505435953
 31
0.0
  0
LINE
  5
1F5
330
A
100
AcDbEntity
  8
1
  6
solid
 62
     0
100
AcDbLine
 10
8.21548637263664
 20
-0.4654586505435953
 30
0.0
 11
8.205682451068014
 21
-0.4414201890051338
 31
0.0
  0
LINE
  5
1F6
330
A
100
AcDbEntity
  8
1
  6
solid
 62
     0
100
AcDbLine
 10
8.205682451068014
 20
-0.4414201890051338
 30
0.0
 11
8.195878529499385
 21
-0.4233913428512876
 31
0.0
  0
LINE
  5
1F7
330
A
100
AcDbEntity
  8
1
  6
solid
 62
     0
100
AcDbLine
 10
8.195878529499385
 20
-0.4233913428512876
 30
0.0
 11
8.178721666754288
 21
-0.4053624966974415
 31
0.0
  0
LINE
  5
1F8
330
A
100
AcDbEntity
  8
1
  6
solid
 62
     0
100
AcDbLine
 10
8.178721666754288
 20
-0.4053624966974415
 30
0.0
 11
8.165241274597425
 21
-0.3933432659282107
 31
0.0
  0
LINE
  5
1F9
330
A
100
AcDbEntity
  8
1
  6
solid
 62
     0
100
AcDbLine
 10
8.165241274597425
 20
-0.3933432659282107
 30
0.0
 11
8.148084411852327
 21
-0.3843288428512875
 31
0.0
  0
LINE
  5
1FA
330
A
100
AcDbEntity
  8
1
  6
solid
 62
     0
100
AcDbLine
 10
8.148084411852327
 20
-0.3843288428512875
 30
0.0
 11
8.123574607930759
 21
-0.3753144197743645
 31
0.0
  0
LINE
  5
1FB
330
A
100
AcDbEntity
  8
1
  6
solid
 62
     0
100
AcDbLine
 10
8.123574607930759
 20
-0.3753144197743645
 30
0.0
 11
8.096613823617033
 21
-0.3753144197743645
 31
0.0
  0
LINE
  5
1FC
330
A
100
AcDbEntity
  8
1
  6
solid
 62
     0
100
AcDbLine
 10
8.096613823617033
 20
-0.3753144197743645
 30
0.0
 11
8.065976568715072
 21
-0.3843288428512875
 31
0.0
  0
LINE
  5
1FD
330
A
100
AcDbEntity
  8
1
  6
solid
 62
     0
100
AcDbLine
 10
8.065976568715072
 20
-0.3843288428512875
 30
0.0
 11
8.039015784401346
 21
-0.4023576890051337
 31
0.0
  0
LINE
  5
1FE
330
A
100
AcDbEntity
  8
1
  6
solid
 62
     0
100
AcDbLine
 10
8.039015784401346
 20
-0.4023576890051337
 30
0.0
 11
8.021858921656249
 21
-0.4173817274666723
 31
0.0
  0
LINE
  5
1FF
330
A
100
AcDbEntity
  8
1
  6
solid
 62
     0
100
AcDbLine
 10
8.021858921656249
 20
-0.4173817274666723
 30
0.0
 11
8.008378529499385
 21
-0.4414201890051338
 31
0.0
  0
LINE
  5
200
330
A
100
AcDbEntity
  8
1
  6
solid
 62
     0
100
AcDbLine
 10
8.008378529499385
 20
-0.4414201890051338
 30
0.0
 11
7.998574607930758
 21
-0.4654586505435953
 31
0.0
  0
LINE
  5
201
330
A
100
AcDbEntity
  8
1
  6
solid
 62
     0
100
AcDbLine
 10
7.998574607930758
 20
-0.4654586505435953
 30
0.0
 11
7.991221666754287
 21
-0.4925019197743646
 31
0.0
  0
LINE
  5
202
330
A
100
AcDbEntity
  8
1
  6
solid
 62
     0
100
AcDbLine
 10
7.991221666754287
 20
-0.4925019197743646
 30
0.0
 11
7.987545196166052
 21
-0.5105307659282108
 31
0.0
  0
LINE
  5
203
330
A
100
AcDbEntity
  8
1
  6
solid
 62
     0
100
AcDbLine
 10
7.987545196166052
 20
-0.5105307659282108
 30
0.0
 11
7.987545196166052
 21
-0.5315644197743646
 31
0.0
  0
LINE
  5
204
330
A
100
AcDbEntity
  8
1
  6
solid
 62
     0
100
AcDbLine
 10
7.987545196166052
 20
-0.5315644197743646
 30
0.0
 11
7.991221666754287
 21
-0.5586076890051338
 31
0.0
  0
LINE
  5
205
330
A
100
AcDbEntity
  8
1
  6
solid
 62
     0
100
AcDbLine
 10
7.991221666754287
 20
-0.5586076890051338
 30
0.0
 11
7.998574607930758
 21
-0.5886557659282107
 31
0.0
  0
LINE
  5
206
330
A
100
AcDbEntity
  8
1
  6
solid
 62
     0
100
AcDbLine
 10
7.998574607930758
 20
-0.5886557659282107
 30
0.0
 11
8.008378529499385
 21
-0.6096894197743646
 31
0.0
  0
LINE
  5
207
330
A
100
AcDbEntity
  8
1
  6
solid
 62
     0
100
AcDbLine
 10
8.008378529499385
 20
-0.6096894197743646
 30
0.0
 11
8.018182451068014
 21
-0.6217086505435953
 31
0.0
  0
LINE
  5
208
330
A
100
AcDbEntity
  8
1
  6
solid
 62
     0
100
AcDbLine
 10
8.018182451068014
 20
-0.6217086505435953
 30
0.0
 11
8.025535392244483
 21
-0.6307230736205184
 31
0.0
  0
LINE
  5
209
330
A
100
AcDbEntity
  8
1
  6
solid
 62
     0
100
AcDbLine
 10
8.123574607930759
 20
-0.9221894197743644
 30
0.0
 11
8.148084411852327
 21
-0.9131749966974414
 31
0.0
  0
LINE
  5
20A
330
A
100
AcDbEntity
  8
1
  6
solid
 62
     0
100
AcDbLine
 10
8.148084411852327
 20
-0.9131749966974414
 30
0.0
 11
8.165241274597425
 21
-0.9011557659282106
 31
0.0
  0
LINE
  5
20B
330
A
100
AcDbEntity
  8
1
  6
solid
 62
     0
100
AcDbLine
 10
8.165241274597425
 20
-0.9011557659282106
 30
0.0
 11
8.181172647146444
 21
-0.8831269197743644
 31
0.0
  0
LINE
  5
20C
330
A
100
AcDbEntity
  8
1
  6
solid
 62
     0
100
AcDbLine
 10
8.181172647146444
 20
-0.8831269197743644
 30
0.0
 11
8.195878529499385
 21
-0.8560836505435952
 31
0.0
  0
LINE
  5
20D
330
A
100
AcDbEntity
  8
1
  6
solid
 62
     0
100
AcDbLine
 10
8.195878529499385
 20
-0.8560836505435952
 30
0.0
 11
8.202005980479778
 21
-0.8320451890051337
 31
0.0
  0
LINE
  5
20E
330
A
100
AcDbEntity
  8
1
  6
solid
 62
     0
100
AcDbLine
 10
8.202005980479778
 20
-0.8320451890051337
 30
0.0
 11
8.205682451068014
 21
-0.8050019197743644
 31
0.0
  0
LINE
  5
20F
330
A
100
AcDbEntity
  8
1
  6
solid
 62
     0
100
AcDbLine
 10
8.205682451068014
 20
-0.8050019197743644
 30
0.0
 11
8.205682451068014
 21
-0.7869730736205184
 31
0.0
  0
LINE
  5
210
330
A
100
AcDbEntity
  8
1
  6
solid
 62
     0
100
AcDbLine
 10
8.205682451068014
 20
-0.7869730736205184
 30
0.0
 11
8.195878529499385
 21
-0.7479105736205185
 31
0.0
  0
LINE
  5
211
330
A
100
AcDbEntity
  8
1
  6
solid
 62
     0
100
AcDbLine
 10
8.195878529499385
 20
-0.7479105736205185
 30
0.0
 11
8.18484911773468
 21
-0.7268769197743646
 31
0.0
  0
LINE
  5
212
330
A
100
AcDbEntity
  8
1
  6
solid
 62
     0
100
AcDbLine
 10
8.18484911773468
 20
-0.7268769197743646
 30
0.0
 11
8.171368725577817
 21
-0.7088480736205184
 31
0.0
  0
LINE
  5
213
330
A
100
AcDbEntity
  8
1
  6
solid
 62
     0
100
AcDbLine
 10
8.171368725577817
 20
-0.7088480736205184
 30
0.0
 11
8.15421186283272
 21
-0.6908192274666723
 31
0.0
  0
LINE
  5
214
330
A
100
AcDbEntity
  8
1
  6
solid
 62
     0
100
AcDbLine
 10
8.15421186283272
 20
-0.6908192274666723
 30
0.0
 11
8.140731470675856
 21
-0.6848096120820568
 31
0.0
  0
LINE
  5
215
330
A
100
AcDbEntity
  8
1
  6
solid
 62
     0
100
AcDbLine
 10
8.140731470675856
 20
-0.6848096120820568
 30
0.0
 11
8.121123627538601
 21
-0.6787999966974415
 31
0.0
  0
LINE
  5
216
330
A
100
AcDbEntity
  8
1
  6
solid
 62
     0
100
AcDbLine
 10
8.121123627538601
 20
-0.6787999966974415
 30
0.0
 11
8.096613823617033
 21
-0.6787999966974415
 31
0.0
  0
LINE
  5
217
330
A
100
AcDbEntity
  8
1
  6
solid
 62
     0
100
AcDbLine
 10
8.096613823617033
 20
-0.6787999966974415
 30
0.0
 11
8.069653039303307
 21
-0.6878144197743646
 31
0.0
  0
LINE
  5
218
330
A
100
AcDbEntity
  8
1
  6
solid
 62
     0
100
AcDbLine
 10
8.069653039303307
 20
-0.6878144197743646
 30
0.0
 11
8.052496176558209
 21
-0.6998336505435954
 31
0.0
  0
LINE
  5
219
330
A
100
AcDbEntity
  8
1
  6
solid
 62
     0
100
AcDbLine
 10
8.052496176558209
 20
-0.6998336505435954
 30
0.0
 11
8.035339313813111
 21
-0.7178624966974415
 31
0.0
  0
LINE
  5
21A
330
A
100
AcDbEntity
  8
1
  6
solid
 62
     0
100
AcDbLine
 10
8.035339313813111
 20
-0.7178624966974415
 30
0.0
 11
8.021858921656249
 21
-0.7449057659282108
 31
0.0
  0
LINE
  5
21B
330
A
100
AcDbEntity
  8
1
  6
solid
 62
     0
100
AcDbLine
 10
8.021858921656249
 20
-0.7449057659282108
 30
0.0
 11
8.015731470675856
 21
-0.7659394197743646
 31
0.0
  0
LINE
  5
21C
330
A
100
AcDbEntity
  8
1
  6
solid
 62
     0
100
AcDbLine
 10
8.015731470675856
 20
-0.7659394197743646
 30
0.0
 11
8.01205500008762
 21
-0.7869730736205184
 31
0.0
  0
LINE
  5
21D
330
A
100
AcDbEntity
  8
1
  6
solid
 62
     0
100
AcDbLine
 10
8.01205500008762
 20
-0.7869730736205184
 30
0.0
 11
8.01205500008762
 21
-0.8140163428512876
 31
0.0
  0
LINE
  5
21E
330
A
100
AcDbEntity
  8
1
  6
solid
 62
     0
100
AcDbLine
 10
8.01205500008762
 20
-0.8140163428512876
 30
0.0
 11
8.015731470675856
 21
-0.8410596120820567
 31
0.0
  0
LINE
  5
21F
330
A
100
AcDbEntity
  8
1
  6
solid
 62
     0
100
AcDbLine
 10
8.015731470675856
 20
-0.8410596120820567
 30
0.0
 11
8.025535392244483
 21
-0.8711076890051337
 31
0.0
  0
LINE
  5
220
330
A
100
AcDbEntity
  8
1
  6
solid
 62
     0
100
AcDbLine
 10
8.025535392244483
 20
-0.8711076890051337
 30
0.0
 11
8.042692254989582
 21
-0.8921413428512876
 31
0.0
  0
LINE
  5
221
330
A
100
AcDbEntity
  8
1
  6
solid
 62
     0
100
AcDbLine
 10
8.042692254989582
 20
-0.8921413428512876
 30
0.0
 11
8.059849117734678
 21
-0.9101701890051337
 31
0.0
  0
LINE
  5
222
330
A
100
AcDbEntity
  8
1
  6
solid
 62
     0
100
AcDbLine
 10
8.059849117734678
 20
-0.9101701890051337
 30
0.0
 11
8.083133431460169
 21
-0.9221894197743644
 31
0.0
  0
LINE
  5
223
330
A
100
AcDbEntity
  8
1
  6
solid
 62
     0
100
AcDbLine
 10
8.083133431460169
 20
-0.9221894197743644
 30
0.0
 11
8.123574607930759
 21
-0.9221894197743644
 31
0.0
  0
LINE
  5
224
330
A
100
AcDbEntity
  8
1
  6
solid
 62
     0
100
AcDbLine
 10
8.117447156950365
 20
-0.6006749966974416
 30
0.0
 11
8.13092754910723
 21
-0.5976701890051337
 31
0.0
  0
LINE
  5
225
330
A
100
AcDbEntity
  8
1
  6
solid
 62
     0
100
AcDbLine
 10
8.13092754910723
 20
-0.5976701890051337
 30
0.0
 11
8.148084411852327
 21
-0.5826461505435954
 31
0.0
  0
LINE
  5
226
330
A
100
AcDbEntity
  8
1
  6
solid
 62
     0
100
AcDbLine
 10
8.148084411852327
 20
-0.5826461505435954
 30
0.0
 11
8.157888333420956
 21
-0.5676221120820568
 31
0.0
  0
LINE
  5
227
330
A
100
AcDbEntity
  8
1
  6
solid
 62
     0
100
AcDbLine
 10
8.157888333420956
 20
-0.5676221120820568
 30
0.0
 11
8.165241274597425
 21
-0.5495932659282107
 31
0.0
  0
LINE
  5
228
330
A
100
AcDbEntity
  8
1
  6
solid
 62
     0
100
AcDbLine
 10
8.165241274597425
 20
-0.5495932659282107
 30
0.0
 11
8.167692254989582
 21
-0.5315644197743646
 31
0.0
  0
LINE
  5
229
330
A
100
AcDbEntity
  8
1
  6
solid
 62
     0
100
AcDbLine
 10
8.167692254989582
 20
-0.5315644197743646
 30
0.0
 11
8.167692254989582
 21
-0.5195451890051337
 31
0.0
  0
LINE
  5
22A
330
A
100
AcDbEntity
  8
1
  6
solid
 62
     0
100
AcDbLine
 10
8.167692254989582
 20
-0.5195451890051337
 30
0.0
 11
8.16156480400919
 21
-0.4925019197743646
 31
0.0
  0
LINE
  5
22B
330
A
100
AcDbEntity
  8
1
  6
solid
 62
     0
100
AcDbLine
 10
8.16156480400919
 20
-0.4925019197743646
 30
0.0
 11
8.151760882440562
 21
-0.4744730736205184
 31
0.0
  0
LINE
  5
22C
330
A
100
AcDbEntity
  8
1
  6
solid
 62
     0
100
AcDbLine
 10
8.151760882440562
 20
-0.4744730736205184
 30
0.0
 11
8.140731470675856
 21
-0.4624538428512876
 31
0.0
  0
LINE
  5
22D
330
A
100
AcDbEntity
  8
1
  6
solid
 62
     0
100
AcDbLine
 10
8.140731470675856
 20
-0.4624538428512876
 30
0.0
 11
8.127251078518995
 21
-0.4534394197743646
 31
0.0
  0
LINE
  5
22E
330
A
100
AcDbEntity
  8
1
  6
solid
 62
     0
100
AcDbLine
 10
8.127251078518995
 20
-0.4534394197743646
 30
0.0
 11
8.11377068636213
 21
-0.4504346120820568
 31
0.0
  0
LINE
  5
22F
330
A
100
AcDbEntity
  8
1
  6
solid
 62
     0
100
AcDbLine
 10
8.11377068636213
 20
-0.4504346120820568
 30
0.0
 11
8.103966764793502
 21
-0.4504346120820568
 31
0.0
  0
LINE
  5
230
330
A
100
AcDbEntity
  8
1
  6
solid
 62
     0
100
AcDbLine
 10
8.103966764793502
 20
-0.4504346120820568
 30
0.0
 11
8.086809902048404
 21
-0.4534394197743646
 31
0.0
  0
LINE
  5
231
330
A
100
AcDbEntity
  8
1
  6
solid
 62
     0
100
AcDbLine
 10
8.086809902048404
 20
-0.4534394197743646
 30
0.0
 11
8.073329509891543
 21
-0.4624538428512876
 31
0.0
  0
LINE
  5
232
330
A
100
AcDbEntity
  8
1
  6
solid
 62
     0
100
AcDbLine
 10
8.073329509891543
 20
-0.4624538428512876
 30
0.0
 11
8.062300098126836
 21
-0.4744730736205184
 31
0.0
  0
LINE
  5
233
330
A
100
AcDbEntity
  8
1
  6
solid
 62
     0
100
AcDbLine
 10
8.062300098126836
 20
-0.4744730736205184
 30
0.0
 11
8.052496176558209
 21
-0.4925019197743646
 31
0.0
  0
LINE
  5
234
330
A
100
AcDbEntity
  8
1
  6
solid
 62
     0
100
AcDbLine
 10
8.052496176558209
 20
-0.4925019197743646
 30
0.0
 11
8.048819705969973
 21
-0.5105307659282108
 31
0.0
  0
LINE
  5
235
330
A
100
AcDbEntity
  8
1
  6
solid
 62
     0
100
AcDbLine
 10
8.048819705969973
 20
-0.5105307659282108
 30
0.0
 11
8.046368725577817
 21
-0.5225499966974415
 31
0.0
  0
LINE
  5
236
330
A
100
AcDbEntity
  8
1
  6
solid
 62
     0
100
AcDbLine
 10
8.046368725577817
 20
-0.5225499966974415
 30
0.0
 11
8.046368725577817
 21
-0.5315644197743646
 31
0.0
  0
LINE
  5
237
330
A
100
AcDbEntity
  8
1
  6
solid
 62
     0
100
AcDbLine
 10
8.046368725577817
 20
-0.5315644197743646
 30
0.0
 11
8.052496176558209
 21
-0.5586076890051338
 31
0.0
  0
LINE
  5
238
330
A
100
AcDbEntity
  8
1
  6
solid
 62
     0
100
AcDbLine
 10
8.052496176558209
 20
-0.5586076890051338
 30
0.0
 11
8.059849117734678
 21
-0.5706269197743646
 31
0.0
  0
LINE
  5
239
330
A
100
AcDbEntity
  8
1
  6
solid
 62
     0
100
AcDbLine
 10
8.059849117734678
 20
-0.5706269197743646
 30
0.0
 11
8.069653039303307
 21
-0.5886557659282107
 31
0.0
  0
LINE
  5
23A
330
A
100
AcDbEntity
  8
1
  6
solid
 62
     0
100
AcDbLine
 10
8.069653039303307
 20
-0.5886557659282107
 30
0.0
 11
8.083133431460169
 21
-0.5976701890051337
 31
0.0
  0
LINE
  5
23B
330
A
100
AcDbEntity
  8
1
  6
solid
 62
     0
100
AcDbLine
 10
8.083133431460169
 20
-0.5976701890051337
 30
0.0
 11
8.100290294205269
 21
-0.6006749966974416
 31
0.0
  0
LINE
  5
23C
330
A
100
AcDbEntity
  8
1
  6
solid
 62
     0
100
AcDbLine
 10
8.100290294205269
 20
-0.6006749966974416
 30
0.0
 11
8.117447156950365
 21
-0.6006749966974416
 31
0.0
  0
LINE
  5
23D
330
A
100
AcDbEntity
  8
1
  6
solid
 62
     0
100
AcDbLine
 10
8.434849117734678
 20
-0.3753144197743645
 30
0.0
 11
8.434849117734678
 21
-0.4654586505435953
 31
0.0
  0
LINE
  5
23E
330
A
100
AcDbEntity
  8
1
  6
solid
 62
     0
100
AcDbLine
 10
8.434849117734678
 20
-0.4654586505435953
 30
0.0
 11
8.450780490283698
 21
-0.4654586505435953
 31
0.0
  0
LINE
  5
23F
330
A
100
AcDbEntity
  8
1
  6
solid
 62
     0
100
AcDbLine
 10
8.450780490283698
 20
-0.4654586505435953
 30
0.0
 11
8.450780490283698
 21
-0.5616124966974415
 31
0.0
  0
LINE
  5
240
330
A
100
AcDbEntity
  8
1
  6
solid
 62
     0
100
AcDbLine
 10
8.450780490283698
 20
-0.5616124966974415
 30
0.0
 11
8.513280490283699
 21
-0.5616124966974415
 31
0.0
  0
LINE
  5
241
330
A
100
AcDbEntity
  8
1
  6
solid
 62
     0
100
AcDbLine
 10
8.513280490283699
 20
-0.5616124966974415
 30
0.0
 11
8.513280490283699
 21
-0.4654586505435953
 31
0.0
  0
LINE
  5
242
330
A
100
AcDbEntity
  8
1
  6
solid
 62
     0
100
AcDbLine
 10
8.513280490283699
 20
-0.4654586505435953
 30
0.0
 11
8.52921186283272
 21
-0.4654586505435953
 31
0.0
  0
LINE
  5
243
330
A
100
AcDbEntity
  8
1
  6
solid
 62
     0
100
AcDbLine
 10
8.52921186283272
 20
-0.4654586505435953
 30
0.0
 11
8.52921186283272
 21
-0.3753144197743645
 31
0.0
  0
LINE
  5
244
330
A
100
AcDbEntity
  8
1
  6
solid
 62
     0
100
AcDbLine
 10
8.52921186283272
 20
-0.3753144197743645
 30
0.0
 11
8.434849117734678
 21
-0.3753144197743645
 31
0.0
  0
VIEWPORT
  5
2A3
102
{ACAD_XDICTIONARY
360
2A4
102
}
330
B
100
AcDbEntity
 67
     1
  8
0
  6
Continuous
370
     0
100
AcDbViewport
 10
5.171905305196538
 20
3.9681931355475
 30
0.0
 40
16.99659283974028
 41
8.992999745766949
 68
     1
 69
     1
 12
5.171905305196538
 22
3.9681931355475
 13
0.0
 23
0.0
 14
0.5
 24
0.5
 15
0.5
 25
0.5
 16
0.0
 26
0.0
 36
1.0
 17
0.0
 27
0.0
 37
0.0
 42
50.0
 43
0.0
 44
0.0
 45
8.992999745766949
 50
0.0
 51
0.0
 72
   100
 90
   819232
  1

281
     0
 71
     1
 74
     0
110
0.0
120
0.0
130
0.0
111
1.0
121
0.0
131
0.0
112
0.0
122
1.0
132
0.0
 79
     0
146
0.0
170
     0
  0
VIEWPORT
  5
2A8
102
{ACAD_XDICTIONARY
360
2A9
102
}
330
B
100
AcDbEntity
 67
     1
  8
0
  6
Continuous
370
     0
100
AcDbViewport
 10
5.163080497687843
 20
3.968193127045585
 30
0.0
 40
10.43093081102508
 41
7.987899792369393
 68
     2
 69
     2
 12
6.036577597708157
 22
1.312751850833613
 13
0.0
 23
0.0
 14
1.0
 24
1.0
 15
0.0
 25
0.0
 16
0.0
 26
0.0
 36
1.0
 17
0.0
 27
0.0
 37
0.0
 42
50.0
 43
0.0
 44
0.0
 45
11.82915822788775
 50
0.0
 51
0.0
 72
   100
 90
   819232
  1

281
     0
 71
     1
 74
     0
110
0.0
120
0.0
130
0.0
111
1.0
121
0.0
131
0.0
112
0.0
122
1.0
132
0.0
 79
     0
146
0.0
170
     0
  0
ENDSEC
  0
SECTION
  2
OBJECTS
  0
DICTIONARY
  5
19
330
0
100
AcDbDictionary
281
     1
  3
ACAD_COLOR
350
247
  3
ACAD_GROUP
350
1A
  3
ACAD_LAYOUT
350
1E
  3
ACAD_MATERIAL
350
246
  3
ACAD_MLEADERSTYLE
350
29B
  3
ACAD_MLINESTYLE
350
1B
  3
ACAD_PLOTSETTINGS
350
22
  3
ACAD_PLOTSTYLENAME
350
1F
  3
ACAD_SCALELIST
350
279
  3
ACAD_TABLESTYLE
350
248
  3
ACAD_VISUALSTYLE
350
268
  3
ACAD_WIPEOUT_VARS
350
23
  3
ACDB_RECOMPOSE_DATA
350
2C8
  3
AcDbVariableDictionary
350
24D
  0
DICTIONARY
  5
2AB
330
14
100
AcDbDictionary
280
     1
281
     1
  3
ADSK_XREC_LAYER_RECONCILED
360
2AC
  0
DICTIONARY
  5
2AD
330
27
100
AcDbDictionary
280
     1
281
     1
  3
ADSK_XREC_LAYER_RECONCILED
360
2AE
  0
DICTIONARY
  5
2A4
330
2A3
100
AcDbDictionary
280
     1
281
     1
  3
ASDK_XREC_ANNOTATION_SCALE_INFO
360
2A5
  0
DICTIONARY
  5
2A9
330
2A8
100
AcDbDictionary
280
     1
281
     1
  3
ASDK_XREC_ANNOTATION_SCALE_INFO
360
2AA
  0
DICTIONARY
  5
247
102
{ACAD_REACTORS
330
19
102
}
330
19
100
AcDbDictionary
281
     1
  0
DICTIONARY
  5
1A
102
{ACAD_REACTORS
330
19
102
}
330
19
100
AcDbDictionary
281
     1
  0
DICTIONARY
  5
1E
102
{ACAD_REACTORS
330
19
102
}
330
19
100
AcDbDictionary
281
     1
  3
Layout1
350
21
  3
Model
350
20
  0
DICTIONARY
  5
246
102
{ACAD_REACTORS
330
19
102
}
330
19
100
AcDbDictionary
281
     1
  3
ByBlock
350
258
  3
ByLayer
350
250
  3
Global
350
260
  0
DICTIONARY
  5
29B
102
{ACAD_REACTORS
330
19
102
}
330
19
100
AcDbDictionary
281
     1
  3
Standard
350
29C
  0
DICTIONARY
  5
1B
102
{ACAD_REACTORS
330
19
102
}
330
19
100
AcDbDictionary
281
     1
  3
Standard
350
1C
  0
DICTIONARY
  5
22
102
{ACAD_REACTORS
330
19
102
}
330
19
100
AcDbDictionary
281
     1
  0
ACDBDICTIONARYWDFLT
  5
1F
102
{ACAD_REACTORS
330
19
102
}
330
19
100
AcDbDictionary
281
     1
  3
Normal
350
1D
100
AcDbDictionaryWithDefault
340
1D
  0
DICTIONARY
  5
279
102
{ACAD_REACTORS
330
19
102
}
330
19
100
AcDbDictionary
281
     1
  3
A0
350
27A
  3
A1
350
27B
  3
A2
350
27C
  3
A3
350
27D
  3
A4
350
27E
  3
A5
350
27F
  3
A6
350
280
  3
A7
350
281
  3
A8
350
282
  3
A9
350
283
  3
B0
350
284
  3
B1
350
285
  3
B2
350
286
  3
B3
350
287
  3
B4
350
288
  3
B5
350
289
  3
B6
350
28A
  3
B7
350
28B
  3
B8
350
28C
  3
B9
350
28D
  3
C0
350
28E
  3
C1
350
28F
  3
C2
350
290
  3
C3
350
291
  3
C4
350
292
  3
C5
350
293
  3
C6
350
294
  3
C7
350
295
  3
C8
350
296
  3
C9
350
297
  3
D0
350
298
  3
D1
350
299
  3
D2
350
29A
  0
DICTIONARY
  5
248
102
{ACAD_REACTORS
330
19
102
}
330
19
100
AcDbDictionary
281
     1
  3
Standard
350
249
  0
DICTIONARY
  5
268
102
{ACAD_REACTORS
330
19
102
}
330
19
100
AcDbDictionary
281
     1
  3
2dWireframe
350
26E
  3
3D Hidden
350
270
  3
3dWireframe
350
26F
  3
Basic
350
26D
  3
Brighten
350
274
  3
ColorChange
350
278
  3
Conceptual
350
271
  3
Dim
350
273
  3
Facepattern
350
277
  3
Flat
350
269
  3
FlatWithEdges
350
26A
  3
Gouraud
350
26B
  3
GouraudWithEdges
350
26C
  3
Linepattern
350
276
  3
Realistic
350
272
  3
Thicken
350
275
  0
WIPEOUTVARIABLES
  5
23
330
19
100
AcDbWipeoutVariables
 70
     1
  0
XRECORD
  5
2C8
102
{ACAD_REACTORS
330
19
102
}
330
19
100
AcDbXrecord
280
     1
 90
        1
330
249
  0
DICTIONARY
  5
24D
102
{ACAD_REACTORS
330
19
102
}
330
19
100
AcDbDictionary
281
     1
  3
CANNOSCALE
350
2C5
  3
CMLEADERSTYLE
350
2C4
  3
CTABLESTYLE
350
24E
  0
XRECORD
  5
2AC
102
{ACAD_REACTORS
330
2AB
102
}
330
2AB
100
AcDbXrecord
280
     1
290
     1
  0
XRECORD
  5
2AE
102
{ACAD_REACTORS
330
2AD
102
}
330
2AD
100
AcDbXrecord
280
     1
290
     1
  0
XRECORD
  5
2A5
102
{ACAD_REACTORS
330
2A4
102
}
330
2A4
100
AcDbXrecord
280
     1
 90
        1
340
27A
  0
XRECORD
  5
2AA
102
{ACAD_REACTORS
330
2A9
102
}
330
2A9
100
AcDbXrecord
280
     1
 90
        1
340
27A
  0
LAYOUT
  5
21
102
{ACAD_REACTORS
330
1E
102
}
330
1E
100
AcDbPlotSettings
  1

  2
Foxit PDF Printer
  4
Letter
  6

 40
3.174999952316284
 41
3.174999952316284
 42
3.17498779296875
 43
3.175003051757812
 44
279.3999938964844
 45
215.8999938964844
 46
31.4267670466818
 47
24.13747564896765
 48
0.0
 49
0.0
140
0.0
141
0.0
142
1.0
143
1.0
 70
     4
 72
     0
 73
     0
 74
     1
  7

 75
    16
147
1.0
 76
     1
 77
     2
 78
   300
148
-26.26816480274797
149
-20.15458429594825
100
AcDbLayout
  1
Layout1
 70
     0
 71
     1
 10
-0.3280945746555161
 20
-0.2818067443045545
 11
10.67190518504859
 21
8.218193015399554
 12
0.0
 22
0.0
 32
0.0
 14
-0.0523849078246954
 24
-0.025756769139111
 34
-0.0015258207003583
 15
10.37854590320038
 25
7.962143023230282
 35
0.0000000349246037
146
0.0
 13
0.0
 23
0.0
 33
0.0
 16
1.0
 26
0.0
 36
0.0
 17
0.0
 27
1.0
 37
0.0
 76
     0
330
B
331
2A3
1001
ACAD_PSEXT
1000
Foxit PDF Printer
1000
Foxit PDF Printer Driver
1000
FOXIT_PDF
1000

1070
     0
  0
LAYOUT
  5
20
102
{ACAD_REACTORS
330
1E
102
}
330
1E
100
AcDbPlotSettings
  1

  2

  4

  6

 40
0.0
 41
0.0
 42
0.0
 43
0.0
 44
0.0
 45
0.0
 46
0.0
 47
0.0
 48
0.0
 49
0.0
140
0.0
141
0.0
142
1.0
143
1.0
 70
  1024
 72
     0
 73
     0
 74
     0
  7

 75
     0
147
1.0
 76
     0
 77
     2
 78
   300
148
0.0
149
0.0
100
AcDbLayout
  1
Model
 70
     0
 71
     0
 10
0.0
 20
0.0
 11
0.0
 21
0.0
 12
0.0
 22
0.0
 32
0.0
 14
0.0
 24
0.0
 34
0.0
 15
0.0
 25
0.0
 35
0.0
146
0.0
 13
0.0
 23
0.0
 33
0.0
 16
0.0
 26
0.0
 36
0.0
 17
0.0
 27
0.0
 37
0.0
 76
     0
330
A
  0
MATERIAL
  5
258
102
{ACAD_XDICTIONARY
360
259
102
}
102
{ACAD_REACTORS
330
246
102
}
330
246
100
AcDbMaterial
  1
ByBlock
 72
     0
 43
0.0208333333333333
 43
0.0
 43
0.0
 43
0.0
 43
0.0
 43
0.0208333333333333
 43
0.0
 43
0.0
 43
0.0
 43
0.0
 43
1.0
 43
0.0
 43
0.0
 43
0.0
 43
0.0
 43
1.0
 77
     0
 47
0.0208333333333333
 47
0.0
 47
0.0
 47
0.0
 47
0.0
 47
0.0208333333333333
 47
0.0
 47
0.0
 47
0.0
 47
0.0
 47
1.0
 47
0.0
 47
0.0
 47
0.0
 47
0.0
 47
1.0
171
     0
 49
0.0208333333333333
 49
0.0
 49
0.0
 49
0.0
 49
0.0
 49
0.0208333333333333
 49
0.0
 49
0.0
 49
0.0
 49
0.0
 49
1.0
 49
0.0
 49
0.0
 49
0.0
 49
0.0
 49
1.0
175
     0
142
0.0208333333333333
142
0.0
142
0.0
142
0.0
142
0.0
142
0.0208333333333333
142
0.0
142
0.0
142
0.0
142
0.0
142
1.0
142
0.0
142
0.0
142
0.0
142
0.0
142
1.0
179
     0
144
0.0208333333333333
144
0.0
144
0.0
144
0.0
144
0.0
144
0.0208333333333333
144
0.0
144
0.0
144
0.0
144
0.0
144
1.0
144
0.0
144
0.0
144
0.0
144
0.0
144
1.0
147
0.0208333333333333
147
0.0
147
0.0
147
0.0
147
0.0
147
0.0208333333333333
147
0.0
147
0.0
147
0.0
147
0.0
147
1.0
147
0.0
147
0.0
147
0.0
147
0.0
147
1.0
  0
MATERIAL
  5
250
102
{ACAD_XDICTIONARY
360
251
102
}
102
{ACAD_REACTORS
330
246
102
}
330
246
100
AcDbMaterial
  1
ByLayer
 72
     0
 43
0.0208333333333333
 43
0.0
 43
0.0
 43
0.0
 43
0.0
 43
0.0208333333333333
 43
0.0
 43
0.0
 43
0.0
 43
0.0
 43
1.0
 43
0.0
 43
0.0
 43
0.0
 43
0.0
 43
1.0
 77
     0
 47
0.0208333333333333
 47
0.0
 47
0.0
 47
0.0
 47
0.0
 47
0.0208333333333333
 47
0.0
 47
0.0
 47
0.0
 47
0.0
 47
1.0
 47
0.0
 47
0.0
 47
0.0
 47
0.0
 47
1.0
171
     0
 49
0.0208333333333333
 49
0.0
 49
0.0
 49
0.0
 49
0.0
 49
0.0208333333333333
 49
0.0
 49
0.0
 49
0.0
 49
0.0
 49
1.0
 49
0.0
 49
0.0
 49
0.0
 49
0.0
 49
1.0
175
     0
142
0.0208333333333333
142
0.0
142
0.0
142
0.0
142
0.0
142
0.0208333333333333
142
0.0
142
0.0
142
0.0
142
0.0
142
1.0
142
0.0
142
0.0
142
0.0
142
0.0
142
1.0
179
     0
144
0.0208333333333333
144
0.0
144
0.0
144
0.0
144
0.0
144
0.0208333333333333
144
0.0
144
0.0
144
0.0
144
0.0
144
1.0
144
0.0
144
0.0
144
0.0
144
0.0
144
1.0
147
0.0208333333333333
147
0.0
147
0.0
147
0.0
147
0.0
147
0.0208333333333333
147
0.0
147
0.0
147
0.0
147
0.0
147
1.0
147
0.0
147
0.0
147
0.0
147
0.0
147
1.0
  0
MATERIAL
  5
260
102
{ACAD_XDICTIONARY
360
261
102
}
102
{ACAD_REACTORS
330
246
102
}
330
246
100
AcDbMaterial
  1
Global
 72
     0
 43
0.0208333333333333
 43
0.0
 43
0.0
 43
0.0
 43
0.0
 43
0.0208333333333333
 43
0.0
 43
0.0
 43
0.0
 43
0.0
 43
1.0
 43
0.0
 43
0.0
 43
0.0
 43
0.0
 43
1.0
 77
     0
 47
0.0208333333333333
 47
0.0
 47
0.0
 47
0.0
 47
0.0
 47
0.0208333333333333
 47
0.0
 47
0.0
 47
0.0
 47
0.0
 47
1.0
 47
0.0
 47
0.0
 47
0.0
 47
0.0
 47
1.0
171
     0
 49
0.0208333333333333
 49
0.0
 49
0.0
 49
0.0
 49
0.0
 49
0.0208333333333333
 49
0.0
 49
0.0
 49
0.0
 49
0.0
 49
1.0
 49
0.0
 49
0.0
 49
0.0
 49
0.0
 49
1.0
175
     0
142
0.0208333333333333
142
0.0
142
0.0
142
0.0
142
0.0
142
0.0208333333333333
142
0.0
142
0.0
142
0.0
142
0.0
142
1.0
142
0.0
142
0.0
142
0.0
142
0.0
142
1.0
179
     0
144
0.0208333333333333
144
0.0
144
0.0
144
0.0
144
0.0
144
0.0208333333333333
144
0.0
144
0.0
144
0.0
144
0.0
144
1.0
144
0.0
144
0.0
144
0.0
144
0.0
144
1.0
147
0.0208333333333333
147
0.0
147
0.0
147
0.0
147
0.0
147
0.0208333333333333
147
0.0
147
0.0
147
0.0
147
0.0
147
1.0
147
0.0
147
0.0
147
0.0
147
0.0
147
1.0
  0
MLEADERSTYLE
  5
29C
102
{ACAD_REACTORS
330
29B
102
}
330
29B
100
AcDbMLeaderStyle
170
     2
171
     1
172
     0
 90
        2
 40
0.0
 41
0.0
173
     1
 91
-1056964608
340
11
 92
       -2
290
     1
 42
0.09
291
     1
 43
0.36
  3
Standard
 44
0.18
300

342
17
174
     1
178
     6
175
     1
176
     0
 93
-1056964608
 45
0.18
292
     0
297
     0
 46
0.18
 94
-1056964608
 47
1.0
 49
1.0
140
1.0
293
     1
141
0.0
294
     1
177
     0
142
1.0
295
     0
296
     0
143
0.125
1001
ACAD_MLEADERVER
1070
     2
  0
MLINESTYLE
  5
1C
102
{ACAD_REACTORS
330
1B
102
}
330
1B
100
AcDbMlineStyle
  2
STANDARD
 70
     0
  3

 62
     0
 51
90.0
 52
90.0
 71
     2
 49
0.5
 62
   256
  6
BYLAYER
 49
-0.5
 62
   256
  6
BYLAYER
  0
ACDBPLACEHOLDER
  5
1D
102
{ACAD_REACTORS
330
1F
102
}
330
1F
  0
SCALE
  5
27A
102
{ACAD_REACTORS
330
279
102
}
330
279
100
AcDbScale
 70
     0
300
1:1
140
1.0
141
1.0
290
     1
  0
SCALE
  5
27B
102
{ACAD_REACTORS
330
279
102
}
330
279
100
AcDbScale
 70
     0
300
1:2
140
1.0
141
2.0
290
     0
  0
SCALE
  5
27C
102
{ACAD_REACTORS
330
279
102
}
330
279
100
AcDbScale
 70
     0
300
1:4
140
1.0
141
4.0
290
     0
  0
SCALE
  5
27D
102
{ACAD_REACTORS
330
279
102
}
330
279
100
AcDbScale
 70
     0
300
1:5
140
1.0
141
5.0
290
     0
  0
SCALE
  5
27E
102
{ACAD_REACTORS
330
279
102
}
330
279
100
AcDbScale
 70
     0
300
1:8
140
1.0
141
8.0
290
     0
  0
SCALE
  5
27F
102
{ACAD_REACTORS
330
279
102
}
330
279
100
AcDbScale
 70
     0
300
1:10
140
1.0
141
10.0
290
     0
  0
SCALE
  5
280
102
{ACAD_REACTORS
330
279
102
}
330
279
100
AcDbScale
 70
     0
300
1:16
140
1.0
141
16.0
290
     0
  0
SCALE
  5
281
102
{ACAD_REACTORS
330
279
102
}
330
279
100
AcDbScale
 70
     0
300
1:20
140
1.0
141
20.0
290
     0
  0
SCALE
  5
282
102
{ACAD_REACTORS
330
279
102
}
330
279
100
AcDbScale
 70
     0
300
1:30
140
1.0
141
30.0
290
     0
  0
SCALE
  5
283
102
{ACAD_REACTORS
330
279
102
}
330
279
100
AcDbScale
 70
     0
300
1:40
140
1.0
141
40.0
290
     0
  0
SCALE
  5
284
102
{ACAD_REACTORS
330
279
102
}
330
279
100
AcDbScale
 70
     0
300
1:50
140
1.0
141
50.0
290
     0
  0
SCALE
  5
285
102
{ACAD_REACTORS
330
279
102
}
330
279
100
AcDbScale
 70
     0
300
1:100
140
1.0
141
100.0
290
     0
  0
SCALE
  5
286
102
{ACAD_REACTORS
330
279
102
}
330
279
100
AcDbScale
 70
     0
300
2:1
140
2.0
141
1.0
290
     0
  0
SCALE
  5
287
102
{ACAD_REACTORS
330
279
102
}
330
279
100
AcDbScale
 70
     0
300
4:1
140
4.0
141
1.0
290
     0
  0
SCALE
  5
288
102
{ACAD_REACTORS
330
279
102
}
330
279
100
AcDbScale
 70
     0
300
8:1
140
8.0
141
1.0
290
     0
  0
SCALE
  5
289
102
{ACAD_REACTORS
330
279
102
}
330
279
100
AcDbScale
 70
     0
300
10:1
140
10.0
141
1.0
290
     0
  0
SCALE
  5
28A
102
{ACAD_REACTORS
330
279
102
}
330
279
100
AcDbScale
 70
     0
300
100:1
140
100.0
141
1.0
290
     0
  0
SCALE
  5
28B
102
{ACAD_REACTORS
330
279
102
}
330
279
100
AcDbScale
 70
     0
300
1/128" = 1'-0"
140
0.0078125
141
12.0
290
     0
  0
SCALE
  5
28C
102
{ACAD_REACTORS
330
279
102
}
330
279
100
AcDbScale
 70
     0
300
1/64" = 1'-0"
140
0.015625
141
12.0
290
     0
  0
SCALE
  5
28D
102
{ACAD_REACTORS
330
279
102
}
330
279
100
AcDbScale
 70
     0
300
1/32" = 1'-0"
140
0.03125
141
12.0
290
     0
  0
SCALE
  5
28E
102
{ACAD_REACTORS
330
279
102
}
330
279
100
AcDbScale
 70
     0
300
1/16" = 1'-0"
140
0.0625
141
12.0
290
     0
  0
SCALE
  5
28F
102
{ACAD_REACTORS
330
279
102
}
330
279
100
AcDbScale
 70
     0
300
3/32" = 1'-0"
140
0.09375
141
12.0
290
     0
  0
SCALE
  5
290
102
{ACAD_REACTORS
330
279
102
}
330
279
100
AcDbScale
 70
     0
300
1/8" = 1'-0"
140
0.125
141
12.0
290
     0
  0
SCALE
  5
291
102
{ACAD_REACTORS
330
279
102
}
330
279
100
AcDbScale
 70
     0
300
3/16" = 1'-0"
140
0.1875
141
12.0
290
     0
  0
SCALE
  5
292
102
{ACAD_REACTORS
330
279
102
}
330
279
100
AcDbScale
 70
     0
300
1/4" = 1'-0"
140
0.25
141
12.0
290
     0
  0
SCALE
  5
293
102
{ACAD_REACTORS
330
279
102
}
330
279
100
AcDbScale
 70
     0
300
3/8" = 1'-0"
140
0.375
141
12.0
290
     0
  0
SCALE
  5
294
102
{ACAD_REACTORS
330
279
102
}
330
279
100
AcDbScale
 70
     0
300
1/2" = 1'-0"
140
0.5
141
12.0
290
     0
  0
SCALE
  5
295
102
{ACAD_REACTORS
330
279
102
}
330
279
100
AcDbScale
 70
     0
300
3/4" = 1'-0"
140
0.75
141
12.0
290
     0
  0
SCALE
  5
296
102
{ACAD_REACTORS
330
279
102
}
330
279
100
AcDbScale
 70
     0
300
1" = 1'-0"
140
1.0
141
12.0
290
     0
  0
SCALE
  5
297
102
{ACAD_REACTORS
330
279
102
}
330
279
100
AcDbScale
 70
     0
300
1-1/2" = 1'-0"
140
1.5
141
12.0
290
     0
  0
SCALE
  5
298
102
{ACAD_REACTORS
330
279
102
}
330
279
100
AcDbScale
 70
     0
300
3" = 1'-0"
140
3.0
141
12.0
290
     0
  0
SCALE
  5
299
102
{ACAD_REACTORS
330
279
102
}
330
279
100
AcDbScale
 70
     0
300
6" = 1'-0"
140
6.0
141
12.0
290
     0
  0
SCALE
  5
29A
102
{ACAD_REACTORS
330
279
102
}
330
279
100
AcDbScale
 70
     0
300
1'-0" = 1'-0"
140
12.0
141
12.0
290
     0
  0
TABLESTYLE
  5
249
102
{ACAD_XDICTIONARY
360
2C6
102
}
102
{ACAD_REACTORS
330
248
102
}
330
248
100
AcDbTableStyle
  3
Standard
 70
     0
 71
     0
 40
0.06
 41
0.06
280
     0
281
     0
  7
Standard
140
0.18
170
     2
 62
     0
 63
     7
283
     0
274
    -2
284
     1
 64
     0
275
    -2
285
     1
 65
     0
276
    -2
286
     1
 66
     0
277
    -2
287
     1
 67
     0
278
    -2
288
     1
 68
     0
279
    -2
289
     1
 69
     0
  7
Standard
140
0.25
170
     5
 62
     0
 63
     7
283
     0
274
    -2
284
     1
 64
     0
275
    -2
285
     1
 65
     0
276
    -2
286
     1
 66
     0
277
    -2
287
     1
 67
     0
278
    -2
288
     1
 68
     0
279
    -2
289
     1
 69
     0
  7
Standard
140
0.18
170
     5
 62
     0
 63
     7
283
     0
274
    -2
284
     1
 64
     0
275
    -2
285
     1
 65
     0
276
    -2
286
     1
 66
     0
277
    -2
287
     1
 67
     0
278
    -2
288
     1
 68
     0
279
    -2
289
     1
 69
     0
  0
VISUALSTYLE
  5
26E
102
{ACAD_REACTORS
330
268
102
}
330
268
100
AcDbVisualStyle
  2
2dWireframe
 70
     4
 71
     0
 72
     2
 73
     0
 90
        0
 40
-0.6
 41
-30.0
 62
     5
 63
     7
421
 16777215
 74
     1
 91
        4
 64
     7
 65
   257
 75
     1
175
     1
 42
1.0
 92
        0
 66
   257
 43
1.0
 76
     1
 77
     6
 78
     2
 67
     7
 79
     5
170
     0
171
     0
290
     0
174
     0
 93
        1
 44
0.0
173
     0
291
     0
 45
0.0
1001
ACAD
1000
AcDbSavedByObjectVersion
1070
     0
  0
VISUALSTYLE
  5
270
102
{ACAD_REACTORS
330
268
102
}
330
268
100
AcDbVisualStyle
  2
3D Hidden
 70
     6
 71
     1
 72
     2
 73
     2
 90
        0
 40
-0.6
 41
-30.0
 62
     5
 63
     7
421
 16777215
 74
     2
 91
        2
 64
     7
 65
   257
 75
     2
175
     1
 42
40.0
 92
        0
 66
   257
 43
1.0
 76
     1
 77
     6
 78
     2
 67
     7
 79
     3
170
     0
171
     0
290
     0
174
     0
 93
        1
 44
0.0
173
     0
291
     0
 45
0.0
1001
ACAD
1000
AcDbSavedByObjectVersion
1070
     0
  0
VISUALSTYLE
  5
26F
102
{ACAD_REACTORS
330
268
102
}
330
268
100
AcDbVisualStyle
  2
3dWireframe
 70
     5
 71
     0
 72
     2
 73
     0
 90
        0
 40
-0.6
 41
-30.0
 62
     5
 63
     7
421
 16777215
 74
     1
 91
        4
 64
     7
 65
   257
 75
     1
175
     1
 42
1.0
 92
        0
 66
   257
 43
1.0
 76
     1
 77
     6
 78
     2
 67
     7
 79
     5
170
     0
171
     0
290
     0
174
     0
 93
        1
 44
0.0
173
     0
291
     0
 45
0.0
1001
ACAD
1000
AcDbSavedByObjectVersion
1070
     0
  0
VISUALSTYLE
  5
26D
102
{ACAD_REACTORS
330
268
102
}
330
268
100
AcDbVisualStyle
  2
Basic
 70
     7
 71
     1
 72
     0
 73
     1
 90
        0
 40
-0.6
 41
-30.0
 62
     5
 63
     7
421
 16777215
 74
     0
 91
        4
 64
     7
 65
   257
 75
     1
175
     1
 42
1.0
 92
        8
 66
     7
 43
1.0
 76
     1
 77
     6
 78
     2
 67
     7
 79
     5
170
     0
171
     0
290
     0
174
     0
 93
        1
 44
0.0
173
     0
291
     1
 45
0.0
1001
ACAD
1000
AcDbSavedByObjectVersion
1070
     0
  0
VISUALSTYLE
  5
274
102
{ACAD_REACTORS
330
268
102
}
330
268
100
AcDbVisualStyle
  2
Brighten
 70
    12
 71
     2
 72
     2
 73
     0
 90
        0
 40
-0.6
 41
-30.0
 62
     5
 63
     7
421
 16777215
 74
     1
 91
        4
 64
     7
 65
   257
 75
     1
175
     1
 42
1.0
 92
        8
 66
     7
 43
1.0
 76
     1
 77
     6
 78
     2
 67
     7
 79
     5
170
     0
171
     0
290
     0
174
     0
 93
        1
 44
50.0
173
     0
291
     1
 45
0.0
1001
ACAD
1000
AcDbSavedByObjectVersion
1070
     0
  0
VISUALSTYLE
  5
278
102
{ACAD_REACTORS
330
268
102
}
330
268
100
AcDbVisualStyle
  2
ColorChange
 70
    16
 71
     2
 72
     2
 73
     3
 90
        0
 40
-0.6
 41
-30.0
 62
     5
 63
     8
421
  8421504
 74
     1
 91
        4
 64
     7
 65
   257
 75
     1
175
     1
 42
1.0
 92
        8
 66
     8
424
  8421504
 43
1.0
 76
     1
 77
     6
 78
     2
 67
     7
 79
     5
170
     0
171
     0
290
     0
174
     0
 93
        1
 44
0.0
173
     0
291
     1
 45
0.0
1001
ACAD
1000
AcDbSavedByObjectVersion
1070
     0
  0
VISUALSTYLE
  5
271
102
{ACAD_REACTORS
330
268
102
}
330
268
100
AcDbVisualStyle
  2
Conceptual
 70
     9
 71
     3
 72
     2
 73
     0
 90
        0
 40
-0.6
 41
-30.0
 62
     5
 63
     7
421
 16777215
 74
     2
 91
        2
 64
     7
 65
   257
 75
     1
175
     1
 42
40.0
 92
        8
 66
     7
 43
1.0
 76
     1
 77
     6
 78
     2
 67
     7
 79
     3
170
     0
171
     0
290
     0
174
     0
 93
        1
 44
0.0
173
     0
291
     0
 45
0.0
1001
ACAD
1000
AcDbSavedByObjectVersion
1070
     0
  0
VISUALSTYLE
  5
273
102
{ACAD_REACTORS
330
268
102
}
330
268
100
AcDbVisualStyle
  2
Dim
 70
    11
 71
     2
 72
     2
 73
     0
 90
        0
 40
-0.6
 41
-30.0
 62
     5
 63
     7
421
 16777215
 74
     1
 91
        4
 64
     7
 65
   257
 75
     1
175
     1
 42
1.0
 92
        8
 66
     7
 43
1.0
 76
     1
 77
     6
 78
     2
 67
     7
 79
     5
170
     0
171
     0
290
     0
174
     0
 93
        1
 44
-50.0
173
     0
291
     1
 45
0.0
1001
ACAD
1000
AcDbSavedByObjectVersion
1070
     0
  0
VISUALSTYLE
  5
277
102
{ACAD_REACTORS
330
268
102
}
330
268
100
AcDbVisualStyle
  2
Facepattern
 70
    15
 71
     2
 72
     2
 73
     0
 90
        0
 40
-0.6
 41
-30.0
 62
     5
 63
     7
421
 16777215
 74
     1
 91
        4
 64
     7
 65
   257
 75
     1
175
     1
 42
1.0
 92
        8
 66
     7
 43
1.0
 76
     1
 77
     6
 78
     2
 67
     7
 79
     5
170
     0
171
     0
290
     0
174
     0
 93
        1
 44
0.0
173
     0
291
     1
 45
0.0
1001
ACAD
1000
AcDbSavedByObjectVersion
1070
     0
  0
VISUALSTYLE
  5
269
102
{ACAD_REACTORS
330
268
102
}
330
268
100
AcDbVisualStyle
  2
Flat
 70
     0
 71
     2
 72
     1
 73
     1
 90
        2
 40
-0.6
 41
30.0
 62
     5
 63
     7
421
 16777215
 74
     0
 91
        4
 64
     7
 65
   257
 75
     1
175
     1
 42
1.0
 92
        8
 66
     7
 43
1.0
 76
     1
 77
     6
 78
     2
 67
     7
 79
     5
170
     0
171
     0
290
     0
174
     0
 93
       13
 44
0.0
173
     0
291
     1
 45
0.0
1001
ACAD
1000
AcDbSavedByObjectVersion
1070
     0
  0
VISUALSTYLE
  5
26A
102
{ACAD_REACTORS
330
268
102
}
330
268
100
AcDbVisualStyle
  2
FlatWithEdges
 70
     1
 71
     2
 72
     1
 73
     1
 90
        2
 40
-0.6
 41
30.0
 62
     5
 63
     7
421
 16777215
 74
     1
 91
        4
 64
     7
 65
   257
 75
     1
175
     1
 42
1.0
 92
        0
 66
   257
 43
1.0
 76
     1
 77
     6
 78
     2
 67
     7
 79
     5
170
     0
171
     0
290
     0
174
     0
 93
       13
 44
0.0
173
     0
291
     1
 45
0.0
1001
ACAD
1000
AcDbSavedByObjectVersion
1070
     0
  0
VISUALSTYLE
  5
26B
102
{ACAD_REACTORS
330
268
102
}
330
268
100
AcDbVisualStyle
  2
Gouraud
 70
     2
 71
     2
 72
     2
 73
     1
 90
        2
 40
-0.6
 41
30.0
 62
     5
 63
     7
421
 16777215
 74
     0
 91
        4
 64
     7
 65
   257
 75
     1
175
     1
 42
1.0
 92
        0
 66
     7
 43
1.0
 76
     1
 77
     6
 78
     2
 67
     7
 79
     5
170
     0
171
     0
290
     0
174
     0
 93
       13
 44
0.0
173
     0
291
     1
 45
0.0
1001
ACAD
1000
AcDbSavedByObjectVersion
1070
     0
  0
VISUALSTYLE
  5
26C
102
{ACAD_REACTORS
330
268
102
}
330
268
100
AcDbVisualStyle
  2
GouraudWithEdges
 70
     3
 71
     2
 72
     2
 73
     1
 90
        2
 40
-0.6
 41
30.0
 62
     5
 63
     7
421
 16777215
 74
     1
 91
        4
 64
     7
 65
   257
 75
     1
175
     1
 42
1.0
 92
        0
 66
   257
 43
1.0
 76
     1
 77
     6
 78
     2
 67
     7
 79
     5
170
     0
171
     0
290
     0
174
     0
 93
       13
 44
0.0
173
     0
291
     1
 45
0.0
1001
ACAD
1000
AcDbSavedByObjectVersion
1070
     0
  0
VISUALSTYLE
  5
276
102
{ACAD_REACTORS
330
268
102
}
330
268
100
AcDbVisualStyle
  2
Linepattern
 70
    14
 71
     2
 72
     2
 73
     0
 90
        0
 40
-0.6
 41
-30.0
 62
     5
 63
     7
421
 16777215
 74
     1
 91
        4
 64
     7
 65
   257
 75
     7
175
     7
 42
1.0
 92
        8
 66
     7
 43
1.0
 76
     1
 77
     6
 78
     2
 67
     7
 79
     5
170
     0
171
     0
290
     0
174
     0
 93
        1
 44
0.0
173
     0
291
     1
 45
0.0
1001
ACAD
1000
AcDbSavedByObjectVersion
1070
     0
  0
VISUALSTYLE
  5
272
102
{ACAD_REACTORS
330
268
102
}
330
268
100
AcDbVisualStyle
  2
Realistic
 70
     8
 71
     2
 72
     2
 73
     0
 90
        0
 40
-0.6
 41
-30.0
 62
     5
 63
     7
421
 16777215
 74
     1
 91
        0
 64
     7
 65
   257
 75
     1
175
     1
 42
1.0
 92
        8
 66
     8
424
  7895160
 43
1.0
 76
     1
 77
     6
 78
     2
 67
     7
 79
     5
170
     0
171
     0
290
     0
174
     0
 93
       13
 44
0.0
173
     0
291
     0
 45
0.0
1001
ACAD
1000
AcDbSavedByObjectVersion
1070
     0
  0
VISUALSTYLE
  5
275
102
{ACAD_REACTORS
330
268
102
}
330
268
100
AcDbVisualStyle
  2
Thicken
 70
    13
 71
     2
 72
     2
 73
     0
 90
        0
 40
-0.6
 41
-30.0
 62
     5
 63
     7
421
 16777215
 74
     1
 91
        4
 64
     7
 65
   257
 75
     1
175
     1
 42
1.0
 92
       12
 66
     7
 43
1.0
 76
     1
 77
     6
 78
     2
 67
     7
 79
     5
170
     0
171
     0
290
     0
174
     0
 93
        1
 44
0.0
173
     0
291
     1
 45
0.0
1001
ACAD
1000
AcDbSavedByObjectVersion
1070
     0
  0
DICTIONARYVAR
  5
2C5
102
{ACAD_REACTORS
330
24D
102
}
330
24D
100
DictionaryVariables
280
     0
  1
1:1
  0
DICTIONARYVAR
  5
2C4
102
{ACAD_REACTORS
330
24D
102
}
330
24D
100
DictionaryVariables
280
     0
  1
STANDARD
  0
DICTIONARYVAR
  5
24E
102
{ACAD_REACTORS
330
24D
102
}
330
24D
100
DictionaryVariables
280
     0
  1
STANDARD
  0
DICTIONARY
  5
259
330
258
100
AcDbDictionary
280
     1
281
     1
  3
ACAD_XREC_ROUNDTRIP
360
2CB
  3
BUMPTILE
360
25B
  3
DIFFUSETILE
360
25A
  3
OPACITYTILE
360
25E
  3
REFLECTIONTILE
360
25D
  3
REFRACTIONTILE
360
25F
  3
SPECULARTILE
360
25C
  0
DICTIONARY
  5
251
330
250
100
AcDbDictionary
280
     1
281
     1
  3
ACAD_XREC_ROUNDTRIP
360
2CA
  3
BUMPTILE
360
253
  3
DIFFUSETILE
360
252
  3
OPACITYTILE
360
256
  3
REFLECTIONTILE
360
255
  3
REFRACTIONTILE
360
257
  3
SPECULARTILE
360
254
  0
DICTIONARY
  5
261
330
260
100
AcDbDictionary
280
     1
281
     1
  3
ACAD_XREC_ROUNDTRIP
360
2CC
  3
BUMPTILE
360
263
  3
DIFFUSETILE
360
262
  3
OPACITYTILE
360
266
  3
REFLECTIONTILE
360
265
  3
REFRACTIONTILE
360
267
  3
SPECULARTILE
360
264
  0
DICTIONARY
  5
2C6
330
249
100
AcDbDictionary
280
     1
281
     1
  3
ACAD_ROUNDTRIP_2008_TABLESTYLE_CELLSTYLEMAP
360
2C7
  3
ACAD_XREC_ROUNDTRIP
360
2C9
  0
XRECORD
  5
2CB
102
{ACAD_REACTORS
330
259
102
}
330
259
100
AcDbXrecord
280
     1
102
MATERIAL
148
0.0
149
0.0
149
0.0
 93
        0
 94
      127
282
     0
 72
     0
 77
     0
171
     0
175
     0
179
     0
273
     0
  0
XRECORD
  5
25B
102
{ACAD_REACTORS
330
259
102
}
330
259
100
AcDbXrecord
280
     1
270
     1
271
     1
  0
XRECORD
  5
25A
102
{ACAD_REACTORS
330
259
102
}
330
259
100
AcDbXrecord
280
     1
270
     1
271
     1
  0
XRECORD
  5
25E
102
{ACAD_REACTORS
330
259
102
}
330
259
100
AcDbXrecord
280
     1
270
     1
271
     1
  0
XRECORD
  5
25D
102
{ACAD_REACTORS
330
259
102
}
330
259
100
AcDbXrecord
280
     1
270
     1
271
     1
  0
XRECORD
  5
25F
102
{ACAD_REACTORS
330
259
102
}
330
259
100
AcDbXrecord
280
     1
270
     1
271
     1
  0
XRECORD
  5
25C
102
{ACAD_REACTORS
330
259
102
}
330
259
100
AcDbXrecord
280
     1
270
     1
271
     1
  0
XRECORD
  5
2CA
102
{ACAD_REACTORS
330
251
102
}
330
251
100
AcDbXrecord
280
     1
102
MATERIAL
148
0.0
149
0.0
149
0.0
 93
        0
 94
      127
282
     0
 72
     0
 77
     0
171
     0
175
     0
179
     0
273
     0
  0
XRECORD
  5
253
102
{ACAD_REACTORS
330
251
102
}
330
251
100
AcDbXrecord
280
     1
270
     1
271
     1
  0
XRECORD
  5
252
102
{ACAD_REACTORS
330
251
102
}
330
251
100
AcDbXrecord
280
     1
270
     1
271
     1
  0
XRECORD
  5
256
102
{ACAD_REACTORS
330
251
102
}
330
251
100
AcDbXrecord
280
     1
270
     1
271
     1
  0
XRECORD
  5
255
102
{ACAD_REACTORS
330
251
102
}
330
251
100
AcDbXrecord
280
     1
270
     1
271
     1
  0
XRECORD
  5
257
102
{ACAD_REACTORS
330
251
102
}
330
251
100
AcDbXrecord
280
     1
270
     1
271
     1
  0
XRECORD
  5
254
102
{ACAD_REACTORS
330
251
102
}
330
251
100
AcDbXrecord
280
     1
270
     1
271
     1
  0
XRECORD
  5
2CC
102
{ACAD_REACTORS
330
261
102
}
330
261
100
AcDbXrecord
280
     1
102
MATERIAL
148
0.0
149
0.0
149
0.0
 93
        0
 94
      127
282
     0
 72
     0
 77
     0
171
     0
175
     0
179
     0
273
     0
  0
XRECORD
  5
263
102
{ACAD_REACTORS
330
261
102
}
330
261
100
AcDbXrecord
280
     1
270
     1
271
     1
  0
XRECORD
  5
262
102
{ACAD_REACTORS
330
261
102
}
330
261
100
AcDbXrecord
280
     1
270
     1
271
     1
  0
XRECORD
  5
266
102
{ACAD_REACTORS
330
261
102
}
330
261
100
AcDbXrecord
280
     1
270
     1
271
     1
  0
XRECORD
  5
265
102
{ACAD_REACTORS
330
261
102
}
330
261
100
AcDbXrecord
280
     1
270
     1
271
     1
  0
XRECORD
  5
267
102
{ACAD_REACTORS
330
261
102
}
330
261
100
AcDbXrecord
280
     1
270
     1
271
     1
  0
XRECORD
  5
264
102
{ACAD_REACTORS
330
261
102
}
330
261
100
AcDbXrecord
280
     1
270
     1
271
     1
  0
CELLSTYLEMAP
  5
2C7
102
{ACAD_REACTORS
330
2C6
102
}
330
2C6
100
AcDbCellStyleMap
 90
        3
300
CELLSTYLE
  1
TABLEFORMAT_BEGIN
 90
        5
170
     1
 91
        0
 92
    32768
 62
   257
 93
        1
300
CONTENTFORMAT
  1
CONTENTFORMAT_BEGIN
 90
        0
 91
        0
 92
        4
 93
        0
300

 40
0.0
140
1.0
 94
        5
 62
     0
340
17
144
0.25
309
CONTENTFORMAT_END
171
     0
 94
        6
 95
        1
302
GRIDFORMAT
  1
GRIDFORMAT_BEGIN
 90
        0
 91
        1
 62
     0
 92
       -2
340
0
 93
        0
 40
0.045
309
GRIDFORMAT_END
 95
        2
302
GRIDFORMAT
  1
GRIDFORMAT_BEGIN
 90
        0
 91
        1
 62
     0
 92
       -2
340
0
 93
        0
 40
0.045
309
GRIDFORMAT_END
 95
        4
302
GRIDFORMAT
  1
GRIDFORMAT_BEGIN
 90
        0
 91
        1
 62
     0
 92
       -2
340
0
 93
        0
 40
0.045
309
GRIDFORMAT_END
 95
        8
302
GRIDFORMAT
  1
GRIDFORMAT_BEGIN
 90
        0
 91
        1
 62
     0
 92
       -2
340
0
 93
        0
 40
0.045
309
GRIDFORMAT_END
 95
       16
302
GRIDFORMAT
  1
GRIDFORMAT_BEGIN
 90
        0
 91
        1
 62
     0
 92
       -2
340
0
 93
        0
 40
0.045
309
GRIDFORMAT_END
 95
       32
302
GRIDFORMAT
  1
GRIDFORMAT_BEGIN
 90
        0
 91
        1
 62
     0
 92
       -2
340
0
 93
        0
 40
0.045
309
GRIDFORMAT_END
309
TABLEFORMAT_END
  1
CELLSTYLE_BEGIN
 90
        1
 91
        1
300
_TITLE
309
CELLSTYLE_END
300
CELLSTYLE
  1
TABLEFORMAT_BEGIN
 90
        5
170
     1
 91
        0
 92
        0
 62
   257
 93
        1
300
CONTENTFORMAT
  1
CONTENTFORMAT_BEGIN
 90
        0
 91
        0
 92
        4
 93
        0
300

 40
0.0
140
1.0
 94
        5
 62
     0
340
17
144
0.18
309
CONTENTFORMAT_END
171
     0
 94
        6
 95
        1
302
GRIDFORMAT
  1
GRIDFORMAT_BEGIN
 90
        0
 91
        1
 62
     0
 92
       -2
340
0
 93
        0
 40
0.045
309
GRIDFORMAT_END
 95
        2
302
GRIDFORMAT
  1
GRIDFORMAT_BEGIN
 90
        0
 91
        1
 62
     0
 92
       -2
340
0
 93
        0
 40
0.045
309
GRIDFORMAT_END
 95
        4
302
GRIDFORMAT
  1
GRIDFORMAT_BEGIN
 90
        0
 91
        1
 62
     0
 92
       -2
340
0
 93
        0
 40
0.045
309
GRIDFORMAT_END
 95
        8
302
GRIDFORMAT
  1
GRIDFORMAT_BEGIN
 90
        0
 91
        1
 62
     0
 92
       -2
340
0
 93
        0
 40
0.045
309
GRIDFORMAT_END
 95
       16
302
GRIDFORMAT
  1
GRIDFORMAT_BEGIN
 90
        0
 91
        1
 62
     0
 92
       -2
340
0
 93
        0
 40
0.045
309
GRIDFORMAT_END
 95
       32
302
GRIDFORMAT
  1
GRIDFORMAT_BEGIN
 90
        0
 91
        1
 62
     0
 92
       -2
340
0
 93
        0
 40
0.045
309
GRIDFORMAT_END
309
TABLEFORMAT_END
  1
CELLSTYLE_BEGIN
 90
        2
 91
        1
300
_HEADER
309
CELLSTYLE_END
300
CELLSTYLE
  1
TABLEFORMAT_BEGIN
 90
        5
170
     1
 91
        0
 92
        0
 62
   257
 93
        1
300
CONTENTFORMAT
  1
CONTENTFORMAT_BEGIN
 90
        0
 91
        0
 92
        4
 93
        0
300

 40
0.0
140
1.0
 94
        2
 62
     0
340
17
144
0.18
309
CONTENTFORMAT_END
171
     0
 94
        6
 95
        1
302
GRIDFORMAT
  1
GRIDFORMAT_BEGIN
 90
        0
 91
        1
 62
     0
 92
       -2
340
0
 93
        0
 40
0.045
309
GRIDFORMAT_END
 95
        2
302
GRIDFORMAT
  1
GRIDFORMAT_BEGIN
 90
        0
 91
        1
 62
     0
 92
       -2
340
0
 93
        0
 40
0.045
309
GRIDFORMAT_END
 95
        4
302
GRIDFORMAT
  1
GRIDFORMAT_BEGIN
 90
        0
 91
        1
 62
     0
 92
       -2
340
0
 93
        0
 40
0.045
309
GRIDFORMAT_END
 95
        8
302
GRIDFORMAT
  1
GRIDFORMAT_BEGIN
 90
        0
 91
        1
 62
     0
 92
       -2
340
0
 93
        0
 40
0.045
309
GRIDFORMAT_END
 95
       16
302
GRIDFORMAT
  1
GRIDFORMAT_BEGIN
 90
        0
 91
        1
 62
     0
 92
       -2
340
0
 93
        0
 40
0.045
309
GRIDFORMAT_END
 95
       32
302
GRIDFORMAT
  1
GRIDFORMAT_BEGIN
 90
        0
 91
        1
 62
     0
 92
       -2
340
0
 93
        0
 40
0.045
309
GRIDFORMAT_END
309
TABLEFORMAT_END
  1
CELLSTYLE_BEGIN
 90
        3
 91
        2
300
_DATA
309
CELLSTYLE_END
  0
XRECORD
  5
2C9
102
{ACAD_REACTORS
330
2C6
102
}
330
2C6
100
AcDbXrecord
280
     1
102
ACAD_ROUNDTRIP_PRE2007_TABLESTYLE
 90
        4
 91
        0
  1

 92
        4
 93
        0
  2

 94
        4
 95
        0
  3

  0
ENDSEC
  0
EOF
