  0
SECTION
  2
HEADER
  9
$ACADVER
  1
AC1018
  9
$ACADMAINTVER
 70
   104
  9
$DWGCODEPAGE
  3
ANSI_1252
  9
$LASTSAVEDBY
  1
EARL
  9
$INSBASE
 10
0.0
 20
0.0
 30
0.0
  9
$EXTMIN
 10
-0.3427780709449264
 20
0.1241039567033648
 30
0.0
  9
$EXTMAX
 10
7.930371761322021
 20
2.483304339171437
 30
0.0
  9
$LIMMIN
 10
0.0
 20
0.0
  9
$LIMMAX
 10
0.0
 20
0.0
  9
$ORTHOMODE
 70
     0
  9
$REGENMODE
 70
     1
  9
$FILLMODE
 70
     1
  9
$QTEXTMODE
 70
     0
  9
$MIRRTEXT
 70
     1
  9
$LTSCALE
 40
1.0
  9
$ATTMODE
 70
     1
  9
$TEXTSIZE
 40
0.0
  9
$TRACEWID
 40
0.05
  9
$TEXTSTYLE
  7
Standard
  9
$CLAYER
  8
0
  9
$CELTYPE
  6
Continuous
  9
$CECOLOR
 62
   256
  9
$CELTSCALE
 40
1.0
  9
$DISPSILH
 70
     0
  9
$DIMSCALE
 40
1.0
  9
$DIMASZ
 40
0.18
  9
$DIMEXO
 40
0.0625
  9
$DIMDLI
 40
0.38
  9
$DIMRND
 40
0.0
  9
$DIMDLE
 40
0.0
  9
$DIMEXE
 40
0.18
  9
$DIMTP
 40
0.0
  9
$DIMTM
 40
0.0
  9
$DIMTXT
 40
0.18
  9
$DIMCEN
 40
0.09
  9
$DIMTSZ
 40
0.0
  9
$DIMTOL
 70
     0
  9
$DIMLIM
 70
     0
  9
$DIMTIH
 70
     1
  9
$DIMTOH
 70
     1
  9
$DIMSE1
 70
     0
  9
$DIMSE2
 70
     0
  9
$DIMTAD
 70
     0
  9
$DIMZIN
 70
     0
  9
$DIMBLK
  1

  9
$DIMASO
 70
     1
  9
$DIMSHO
 70
     1
  9
$DIMPOST
  1

  9
$DIMAPOST
  1

  9
$DIMALT
 70
     0
  9
$DIMALTD
 70
     2
  9
$DIMALTF
 40
25.4
  9
$DIMLFAC
 40
1.0
  9
$DIMTOFL
 70
     0
  9
$DIMTVP
 40
0.0
  9
$DIMTIX
 70
     0
  9
$DIMSOXD
 70
     0
  9
$DIMSAH
 70
     0
  9
$DIMBLK1
  1

  9
$DIMBLK2
  1

  9
$DIMSTYLE
  2
Standard
  9
$DIMCLRD
 70
     0
  9
$DIMCLRE
 70
     0
  9
$DIMCLRT
 70
     0
  9
$DIMTFAC
 40
1.0
  9
$DIMGAP
 40
0.09
  9
$DIMJUST
 70
     0
  9
$DIMSD1
 70
     0
  9
$DIMSD2
 70
     0
  9
$DIMTOLJ
 70
     1
  9
$DIMTZIN
 70
     0
  9
$DIMALTZ
 70
     0
  9
$DIMALTTZ
 70
     0
  9
$DIMUPT
 70
     0
  9
$DIMDEC
 70
     4
  9
$DIMTDEC
 70
     4
  9
$DIMALTU
 70
     2
  9
$DIMALTTD
 70
     2
  9
$DIMTXSTY
  7
Standard
  9
$DIMAUNIT
 70
     0
  9
$DIMADEC
 70
     0
  9
$DIMALTRND
 40
0.0
  9
$DIMAZIN
 70
     0
  9
$DIMDSEP
 70
    46
  9
$DIMATFIT
 70
     0
  9
$DIMFRAC
 70
     0
  9
$DIMLDRBLK
  1

  9
$DIMLUNIT
 70
     2
  9
$DIMLWD
 70
    -2
  9
$DIMLWE
 70
    -2
  9
$DIMTMOVE
 70
     0
  9
$LUNITS
 70
     2
  9
$LUPREC
 70
     4
  9
$SKETCHINC
 40
0.1
  9
$FILLETRAD
 40
0.0
  9
$AUNITS
 70
     0
  9
$AUPREC
 70
     0
  9
$MENU
  1
acad
  9
$ELEVATION
 40
0.0
  9
$PELEVATION
 40
0.0
  9
$THICKNESS
 40
0.0
  9
$LIMCHECK
 70
     0
  9
$CHAMFERA
 40
0.0
  9
$CHAMFERB
 40
0.0
  9
$CHAMFERC
 40
0.0
  9
$CHAMFERD
 40
0.0
  9
$SKPOLY
 70
     0
  9
$TDCREATE
 40
2454510.336400463
  9
$TDUCREATE
 40
2454510.503067130
  9
$TDUPDATE
 40
2455105.504911204
  9
$TDUUPDATE
 40
2455105.671577871
  9
$TDINDWG
 40
0.0021064815
  9
$TDUSRTIMER
 40
0.0021064815
  9
$USRTIMER
 70
     1
  9
$ANGBASE
 50
0.0
  9
$ANGDIR
 70
     0
  9
$PDMODE
 70
     0
  9
$PDSIZE
 40
0.0
  9
$PLINEWID
 40
0.0
  9
$SPLFRAME
 70
     0
  9
$SPLINETYPE
 70
     6
  9
$SPLINESEGS
 70
     8
  9
$HANDSEED
  5
2E6
  9
$SURFTAB1
 70
     6
  9
$SURFTAB2
 70
     6
  9
$SURFTYPE
 70
     6
  9
$SURFU
 70
     6
  9
$SURFV
 70
     6
  9
$UCSBASE
  2

  9
$UCSNAME
  2

  9
$UCSORG
 10
0.0
 20
0.0
 30
0.0
  9
$UCSXDIR
 10
1.0
 20
0.0
 30
0.0
  9
$UCSYDIR
 10
0.0
 20
1.0
 30
0.0
  9
$UCSORTHOREF
  2

  9
$UCSORTHOVIEW
 70
     0
  9
$UCSORGTOP
 10
0.0
 20
0.0
 30
0.0
  9
$UCSORGBOTTOM
 10
0.0
 20
0.0
 30
0.0
  9
$UCSORGLEFT
 10
0.0
 20
0.0
 30
0.0
  9
$UCSORGRIGHT
 10
0.0
 20
0.0
 30
0.0
  9
$UCSORGFRONT
 10
0.0
 20
0.0
 30
0.0
  9
$UCSORGBACK
 10
0.0
 20
0.0
 30
0.0
  9
$PUCSBASE
  2

  9
$PUCSNAME
  2

  9
$PUCSORG
 10
0.0
 20
0.0
 30
0.0
  9
$PUCSXDIR
 10
1.0
 20
0.0
 30
0.0
  9
$PUCSYDIR
 10
0.0
 20
1.0
 30
0.0
  9
$PUCSORTHOREF
  2

  9
$PUCSORTHOVIEW
 70
     0
  9
$PUCSORGTOP
 10
0.0
 20
0.0
 30
0.0
  9
$PUCSORGBOTTOM
 10
0.0
 20
0.0
 30
0.0
  9
$PUCSORGLEFT
 10
0.0
 20
0.0
 30
0.0
  9
$PUCSORGRIGHT
 10
0.0
 20
0.0
 30
0.0
  9
$PUCSORGFRONT
 10
0.0
 20
0.0
 30
0.0
  9
$PUCSORGBACK
 10
0.0
 20
0.0
 30
0.0
  9
$USERI1
 70
     0
  9
$USERI2
 70
     0
  9
$USERI3
 70
     0
  9
$USERI4
 70
     0
  9
$USERI5
 70
     0
  9
$USERR1
 40
0.0
  9
$USERR2
 40
0.0
  9
$USERR3
 40
0.0
  9
$USERR4
 40
0.0
  9
$USERR5
 40
0.0
  9
$WORLDVIEW
 70
     1
  9
$SHADEDGE
 70
     3
  9
$SHADEDIF
 70
    70
  9
$TILEMODE
 70
     0
  9
$MAXACTVP
 70
    16
  9
$PINSBASE
 10
0.0
 20
0.0
 30
0.0
  9
$PLIMCHECK
 70
     0
  9
$PEXTMIN
 10
-0.0523849078246954
 20
0.0271432239349245
 30
-0.0015258207003583
  9
$PEXTMAX
 10
10.23734887974113
 20
7.979776347270039
 30
0.0000000349246037
  9
$PLIMMIN
 10
-0.3280945746555161
 20
-0.2818067443045545
  9
$PLIMMAX
 10
10.67190518504859
 20
8.218193015399554
  9
$UNITMODE
 70
     0
  9
$VISRETAIN
 70
     0
  9
$PLINEGEN
 70
     1
  9
$PSLTSCALE
 70
     0
  9
$TREEDEPTH
 70
  3020
  9
$CMLSTYLE
  2
Standard
  9
$CMLJUST
 70
     0
  9
$CMLSCALE
 40
1.0
  9
$PROXYGRAPHICS
 70
     0
  9
$MEASUREMENT
 70
     0
  9
$CELWEIGHT
370
     0
  9
$ENDCAPS
280
     0
  9
$JOINSTYLE
280
     0
  9
$LWDISPLAY
290
     0
  9
$INSUNITS
 70
     0
  9
$HYPERLINKBASE
  1

  9
$STYLESHEET
  1

  9
$XEDIT
290
     1
  9
$CEPSNTYPE
380
     0
  9
$PSTYLEMODE
290
     1
  9
$FINGERPRINTGUID
  2

  9
$VERSIONGUID
  2
{1981CCDB-46B4-40FB-B455-FA605DB7BE37}
  9
$EXTNAMES
290
     1
  9
$PSVPSCALE
 40
0.0
  9
$OLESTARTUP
290
     0
  9
$SORTENTS
280
   127
  9
$INDEXCTL
280
     0
  9
$HIDETEXT
280
     0
  9
$XCLIPFRAME
290
     0
  9
$HALOGAP
280
     0
  9
$OBSCOLOR
 70
   257
  9
$OBSLTYPE
280
     0
  9
$INTERSECTIONDISPLAY
280
     0
  9
$INTERSECTIONCOLOR
 70
   257
  9
$DIMASSOC
280
     1
  9
$PROJECTNAME
  1

  0
ENDSEC
  0
SECTION
  2
CLASSES
  0
CLASS
  1
IMAGE
  2
AcDbRasterImage
  3
ISM
 90
     2175
 91
        0
280
     0
281
     1
  0
CLASS
  1
DICTIONARYVAR
  2
AcDbDictionaryVar
  3
ObjectDBX Classes
 90
        0
 91
        5
280
     0
281
     0
  0
CLASS
  1
RASTERVARIABLES
  2
AcDbRasterVariables
  3
ISM
 90
        0
 91
        0
280
     0
281
     0
  0
CLASS
  1
IMAGEDEF
  2
AcDbRasterImageDef
  3
ISM
 90
        0
 91
        0
280
     0
281
     0
  0
CLASS
  1
IMAGEDEF_REACTOR
  2
AcDbRasterImageDefReactor
  3
ISM
 90
        1
 91
        0
280
     0
281
     0
  0
CLASS
  1
IDBUFFER
  2
AcDbIdBuffer
  3
ObjectDBX Classes
 90
        0
 91
        0
280
     0
281
     0
  0
CLASS
  1
SPATIAL_FILTER
  2
AcDbSpatialFilter
  3
ObjectDBX Classes
 90
        0
 91
        0
280
     0
281
     0
  0
CLASS
  1
SORTENTSTABLE
  2
AcDbSortentsTable
  3
ObjectDBX Classes
 90
        0
 91
        0
280
     0
281
     0
  0
CLASS
  1
LAYER_INDEX
  2
AcDbLayerIndex
  3
ObjectDBX Classes
 90
        0
 91
        0
280
     0
281
     0
  0
CLASS
  1
SPATIAL_INDEX
  2
AcDbSpatialIndex
  3
ObjectDBX Classes
 90
        0
 91
        0
280
     0
281
     0
  0
CLASS
  1
OBJECT_PTR
  2
CAseDLPNTableRecord
  3
"ASE-LPNTableRecord"
 90
        1
 91
        0
280
     0
281
     0
  0
CLASS
  1
PLOTSETTINGS
  2
AcDbPlotSettings
  3
ObjectDBX Classes
 90
        0
 91
        0
280
     0
281
     0
  0
CLASS
  1
ACDBDICTIONARYWDFLT
  2
AcDbDictionaryWithDefault
  3
ObjectDBX Classes
 90
        0
 91
        1
280
     0
281
     0
  0
CLASS
  1
WIPEOUT
  2
AcDbWipeout
  3
"WipeOut|Product Desc: Object Enabler for WipeOut entity                        |Company: Autodesk, Inc.                        |WEB Address: www.autodesk.com"
 90
     2175
 91
        0
280
     0
281
     1
  0
CLASS
  1
WIPEOUTVARIABLES
  2
AcDbWipeoutVariables
  3
"WipeOut|Product Desc:     WipeOut Dbx Application|Company:          Autodesk, Inc.|WEB Address:      www.autodesk.com"
 90
        0
 91
        1
280
     0
281
     0
  0
CLASS
  1
RTEXT
  2
RText
  3
RText|AutoCAD Express Tool|expresstools@autodesk.com
 90
        0
 91
        0
280
     0
281
     1
  0
CLASS
  1
ARCALIGNEDTEXT
  2
AcDbArcAlignedText
  3
ATEXT|AutoCAD Express Tool|expresstools@autodesk.com
 90
        0
 91
        0
280
     0
281
     1
  0
CLASS
  1
TABLESTYLE
  2
AcDbTableStyle
  3
ObjectDBX Classes
 90
     4095
 91
        1
280
     0
281
     0
  0
CLASS
  1
MATERIAL
  2
AcDbMaterial
  3
ObjectDBX Classes
 90
     1153
 91
        3
280
     0
281
     0
  0
CLASS
  1
VISUALSTYLE
  2
AcDbVisualStyle
  3
ObjectDBX Classes
 90
     4095
 91
       16
280
     0
281
     0
  0
CLASS
  1
SCALE
  2
AcDbScale
  3
ObjectDBX Classes
 90
     1153
 91
       33
280
     0
281
     0
  0
CLASS
  1
MLEADERSTYLE
  2
AcDbMLeaderStyle
  3
ACDB_MLEADERSTYLE_CLASS
 90
     4095
 91
        1
280
     0
281
     0
  0
CLASS
  1
CELLSTYLEMAP
  2
AcDbCellStyleMap
  3
ObjectDBX Classes
 90
     1152
 91
        2
280
     0
281
     0
  0
ENDSEC
  0
SECTION
  2
TABLES
  0
TABLE
  2
VPORT
  5
7
330
0
100
AcDbSymbolTable
 70
     1
  0
VPORT
  5
265
330
7
100
AcDbSymbolTableRecord
100
AcDbViewportTableRecord
  2
*Active
 70
     0
 10
0.0
 20
0.0
 11
1.0
 21
1.0
 12
3.992584083239949
 22
1.761853301637156
 13
0.0
 23
0.0
 14
1.0
 24
1.0
 15
0.0
 25
0.0
 16
0.0
 26
0.0
 36
1.0
 17
0.0
 27
0.0
 37
0.0
 40
5.173659732461245
 41
1.889980353634577
 42
50.0
 43
0.0
 44
0.0
 50
0.0
 51
0.0
 71
     0
 72
   100
 73
     1
 74
     1
 75
     0
 76
     0
 77
     0
 78
     0
281
     0
 65
     0
110
0.0
120
0.0
130
0.0
111
1.0
121
0.0
131
0.0
112
0.0
122
1.0
132
0.0
 79
     0
146
0.0
  0
ENDTAB
  0
TABLE
  2
LTYPE
  5
4
330
0
100
AcDbSymbolTable
 70
     4
  0
LTYPE
  5
11
330
4
100
AcDbSymbolTableRecord
100
AcDbLinetypeTableRecord
  2
ByBlock
 70
     0
  3

 72
    65
 73
     0
 40
0.0
  0
LTYPE
  5
12
330
4
100
AcDbSymbolTableRecord
100
AcDbLinetypeTableRecord
  2
ByLayer
 70
     0
  3

 72
    65
 73
     0
 40
0.0
  0
LTYPE
  5
13
330
4
100
AcDbSymbolTableRecord
100
AcDbLinetypeTableRecord
  2
Continuous
 70
     0
  3
Solid line
 72
    65
 73
     0
 40
0.0
  0
LTYPE
  5
24
330
4
100
AcDbSymbolTableRecord
100
AcDbLinetypeTableRecord
  2
solid
 70
     0
  3

 72
    65
 73
     0
 40
0.0
  0
LTYPE
  5
25
330
4
100
AcDbSymbolTableRecord
100
AcDbLinetypeTableRecord
  2
dashed
 70
     0
  3

 72
    65
 73
     0
 40
0.0
  0
LTYPE
  5
26
330
4
100
AcDbSymbolTableRecord
100
AcDbLinetypeTableRecord
  2
center
 70
     0
  3

 72
    65
 73
     0
 40
0.0
  0
ENDTAB
  0
TABLE
  2
LAYER
  5
2
330
0
100
AcDbSymbolTable
 70
     2
  0
LAYER
  5
14
102
{ACAD_XDICTIONARY
360
2C4
102
}
330
2
100
AcDbSymbolTableRecord
100
AcDbLayerTableRecord
  2
0
 70
     0
 62
     7
  6
Continuous
370
    -3
390
1D
  0
LAYER
  5
27
102
{ACAD_XDICTIONARY
360
2C6
102
}
330
2
100
AcDbSymbolTableRecord
100
AcDbLayerTableRecord
  2
1
 70
     0
 62
     1
  6
solid
370
    -3
390
1D
  0
ENDTAB
  0
TABLE
  2
STYLE
  5
3
330
0
100
AcDbSymbolTable
 70
     2
  0
STYLE
  5
17
330
3
100
AcDbSymbolTableRecord
100
AcDbTextStyleTableRecord
  2
Standard
 70
     0
 40
0.0
 41
1.0
 50
0.0
 71
     0
 42
0.0
  3
txt
  4

  0
ENDTAB
  0
TABLE
  2
VIEW
  5
5
330
0
100
AcDbSymbolTable
 70
     0
  0
ENDTAB
  0
TABLE
  2
UCS
  5
6
330
0
100
AcDbSymbolTable
 70
     0
  0
ENDTAB
  0
TABLE
  2
APPID
  5
8
330
0
100
AcDbSymbolTable
 70
     3
  0
APPID
  5
16
330
8
100
AcDbSymbolTableRecord
100
AcDbRegAppTableRecord
  2
ACAD
 70
     0
  0
APPID
  5
2B6
330
8
100
AcDbSymbolTableRecord
100
AcDbRegAppTableRecord
  2
ACAD_MLEADERVER
 70
     0
  0
APPID
  5
2BF
330
8
100
AcDbSymbolTableRecord
100
AcDbRegAppTableRecord
  2
ACAD_PSEXT
 70
     0
  0
ENDTAB
  0
TABLE
  2
DIMSTYLE
  5
9
330
0
100
AcDbSymbolTable
 70
     2
100
AcDbDimStyleTable
 71
     1
340
18
  0
DIMSTYLE
105
18
102
{ACAD_REACTORS
330
CF
102
}
330
9
100
AcDbSymbolTableRecord
100
AcDbDimStyleTableRecord
  2
Standard
 70
     0
289
     0
340
17
  0
ENDTAB
  0
TABLE
  2
BLOCK_RECORD
  5
1
330
0
100
AcDbSymbolTable
 70
     2
  0
BLOCK_RECORD
  5
A
330
1
100
AcDbSymbolTableRecord
100
AcDbBlockTableRecord
  2
*MODEL_SPACE
340
20
  0
BLOCK_RECORD
  5
B
330
1
100
AcDbSymbolTableRecord
100
AcDbBlockTableRecord
  2
*PAPER_SPACE
340
21
  0
BLOCK_RECORD
  5
C5
330
1
100
AcDbSymbolTableRecord
100
AcDbBlockTableRecord
  2
*D0
340
0
  0
ENDTAB
  0
ENDSEC
  0
SECTION
  2
BLOCKS
  0
BLOCK
  5
D
330
A
100
AcDbEntity
  8
0
100
AcDbBlockBegin
  2
*MODEL_SPACE
 70
     0
 10
0.0
 20
0.0
 30
0.0
  3
*MODEL_SPACE
  1

  0
ENDBLK
  5
E
330
A
100
AcDbEntity
  8
0
100
AcDbBlockEnd
  0
BLOCK
  5
F
330
B
100
AcDbEntity
 67
     1
  8
0
100
AcDbBlockBegin
  2
*PAPER_SPACE
 70
     0
 10
0.0
 20
0.0
 30
0.0
  3
*PAPER_SPACE
  1

  0
ENDBLK
  5
10
330
B
100
AcDbEntity
 67
     1
  8
0
100
AcDbBlockEnd
  0
BLOCK
  5
C6
330
C5
100
AcDbEntity
  8
1
  6
solid
 62
     0
100
AcDbBlockBegin
  2
*D0
 70
     0
 10
0.0
 20
0.0
 30
0.0
  3
*D0
  1

  0
LINE
  5
C7
330
C5
100
AcDbEntity
  8
1
  6
solid
 62
     0
100
AcDbLine
 10
5.027735710144042
 20
0.8461160063743591
 30
0.0
 11
5.027735710144042
 21
0.8461160063743591
 31
0.0
  0
LINE
  5
C8
330
C5
100
AcDbEntity
  8
1
  6
solid
 62
     0
100
AcDbLine
 10
5.479395382839253
 20
2.483304339171437
 30
0.0
 11
5.479395382839253
 21
2.483304339171437
 31
0.0
  0
LINE
  5
C9
330
C5
100
AcDbEntity
  8
1
  6
solid
 62
     0
100
AcDbLine
 10
5.24947368396664
 20
0.8461160063743591
 30
0.0
 11
5.249473683966641
 21
1.404897672772895
 31
0.0
  0
LINE
  5
CA
330
C5
100
AcDbEntity
  8
1
  6
solid
 62
     0
100
AcDbLine
 10
5.249473683966642
 20
2.483304339171432
 30
0.0
 11
5.249473683966641
 21
1.924522672772896
 31
0.0
  0
MTEXT
  5
CB
330
C5
100
AcDbEntity
  8
1
  6
solid
 62
     0
100
AcDbMText
 10
5.249473683966641
 20
1.664710172772895
 30
0.0
 40
0.25
 41
0.0
 71
     5
 72
     1
  1
{\H0.250000;1 5/8}
 73
     1
 44
1.0
  0
SOLID
  5
CC
330
C5
100
AcDbEntity
  8
1
  6
solid
 62
     0
100
AcDbTrace
 10
5.207848683966641
 20
1.096116006374359
 30
0.0
 11
5.291098683966642
 21
1.096116006374358
 31
0.0
 12
5.24947368396664
 22
0.8461160063743591
 32
0.0
 13
5.24947368396664
 23
0.8461160063743591
 33
0.0
  0
SOLID
  5
CD
330
C5
100
AcDbEntity
  8
1
  6
solid
 62
     0
100
AcDbTrace
 10
5.291098683966642
 20
2.233304339171432
 30
0.0
 11
5.207848683966642
 21
2.233304339171432
 31
0.0
 12
5.249473683966642
 22
2.483304339171432
 32
0.0
 13
5.249473683966642
 23
2.483304339171432
 33
0.0
  0
ENDBLK
  5
CE
330
C5
100
AcDbEntity
  8
1
  6
solid
 62
     0
100
AcDbBlockEnd
  0
ENDSEC
  0
SECTION
  2
ENTITIES
  0
LINE
  5
28
330
A
100
AcDbEntity
  8
1
  6
solid
 62
     0
100
AcDbLine
 10
7.930371626395364
 20
2.474531934435495
 30
0.0
 11
7.930371626395364
 21
0.9921663633015619
 31
0.0
  0
ARC
  5
29
330
A
100
AcDbEntity
  8
1
  6
solid
 62
     0
100
AcDbCircle
 10
5.218235393856883
 20
2.499007733387808
 30
0.0
 40
1.653962309100555
100
AcDbArc
 50
210.5452588986222
 51
333.5779897077919
  0
ARC
  5
2A
330
A
100
AcDbEntity
  8
1
  6
solid
 62
     0
100
AcDbCircle
 10
8.757929208521408
 20
3.68188871777342
 30
0.0
 40
2.814153140090272
100
AcDbArc
 50
222.9892004388525
 51
252.898230311408
  0
ARC
  5
2B
330
A
100
AcDbEntity
  8
1
  6
solid
 62
     0
100
AcDbCircle
 10
2.369358161593556
 20
2.499007733387808
 30
0.0
 40
1.653962309100555
100
AcDbArc
 50
206.4220102922081
 51
329.4547411013777
  0
LINE
  5
2C
330
A
100
AcDbEntity
  8
1
  6
solid
 62
     0
100
AcDbLine
 10
-0.3427780709449255
 20
2.474531934435495
 30
0.0
 11
-0.3427780709449255
 21
0.9921663633015619
 31
0.0
  0
ARC
  5
2D
330
A
100
AcDbEntity
  8
1
  6
solid
 62
     0
100
AcDbCircle
 10
-1.170335653070969
 20
3.68188871777342
 30
0.0
 40
2.814153140090272
100
AcDbArc
 50
287.1017696885919
 51
317.0107995611474
  0
LINE
  5
2E
330
A
100
AcDbEntity
  8
1
  6
solid
 62
     0
100
AcDbLine
 10
-0.3427780568599701
 20
2.474531888961791
 30
0.0
 11
7.930371761322021
 21
2.474531888961791
 31
0.0
  0
LINE
  5
2F
330
A
100
AcDbEntity
  8
1
  6
solid
 62
     0
100
AcDbLine
 10
3.148840564304221
 20
1.931221516685174
 30
0.0
 11
3.148840564304221
 21
1.963673439762097
 31
0.0
  0
LINE
  5
30
330
A
100
AcDbEntity
  8
1
  6
solid
 62
     0
100
AcDbLine
 10
3.148840564304221
 20
1.963673439762097
 30
0.0
 11
3.172369976068927
 21
1.963673439762097
 31
0.0
  0
LINE
  5
31
330
A
100
AcDbEntity
  8
1
  6
solid
 62
     0
100
AcDbLine
 10
3.172369976068927
 20
1.963673439762097
 30
0.0
 11
3.172369976068927
 21
2.148769593608251
 31
0.0
  0
LINE
  5
32
330
A
100
AcDbEntity
  8
1
  6
solid
 62
     0
100
AcDbLine
 10
3.172369976068927
 20
2.148769593608251
 30
0.0
 11
3.148840564304221
 21
2.148769593608251
 31
0.0
  0
LINE
  5
33
330
A
100
AcDbEntity
  8
1
  6
solid
 62
     0
100
AcDbLine
 10
3.148840564304221
 20
2.148769593608251
 30
0.0
 11
3.148840564304221
 21
2.181221516685174
 31
0.0
  0
LINE
  5
34
330
A
100
AcDbEntity
  8
1
  6
solid
 62
     0
100
AcDbLine
 10
3.148840564304221
 20
2.181221516685174
 30
0.0
 11
3.220409191755202
 21
2.181221516685174
 31
0.0
  0
LINE
  5
35
330
A
100
AcDbEntity
  8
1
  6
solid
 62
     0
100
AcDbLine
 10
3.220409191755202
 20
2.181221516685174
 30
0.0
 11
3.220409191755202
 21
2.148769593608251
 31
0.0
  0
LINE
  5
36
330
A
100
AcDbEntity
  8
1
  6
solid
 62
     0
100
AcDbLine
 10
3.220409191755202
 20
2.148769593608251
 30
0.0
 11
3.199820956461084
 21
2.148769593608251
 31
0.0
  0
LINE
  5
37
330
A
100
AcDbEntity
  8
1
  6
solid
 62
     0
100
AcDbLine
 10
3.199820956461084
 20
2.148769593608251
 30
0.0
 11
3.199820956461084
 21
1.963673439762097
 31
0.0
  0
LINE
  5
38
330
A
100
AcDbEntity
  8
1
  6
solid
 62
     0
100
AcDbLine
 10
3.199820956461084
 20
1.963673439762097
 30
0.0
 11
3.250311152539516
 21
1.963673439762097
 31
0.0
  0
LINE
  5
39
330
A
100
AcDbEntity
  8
1
  6
solid
 62
     0
100
AcDbLine
 10
3.250311152539516
 20
1.963673439762097
 30
0.0
 11
3.250311152539516
 21
2.009346516685174
 31
0.0
  0
LINE
  5
3A
330
A
100
AcDbEntity
  8
1
  6
solid
 62
     0
100
AcDbLine
 10
3.250311152539516
 20
2.009346516685174
 30
0.0
 11
3.273840564304221
 21
2.009346516685174
 31
0.0
  0
LINE
  5
3B
330
A
100
AcDbEntity
  8
1
  6
solid
 62
     0
100
AcDbLine
 10
3.273840564304221
 20
2.009346516685174
 30
0.0
 11
3.273840564304221
 21
1.931221516685174
 31
0.0
  0
LINE
  5
3C
330
A
100
AcDbEntity
  8
1
  6
solid
 62
     0
100
AcDbLine
 10
3.273840564304221
 20
1.931221516685174
 30
0.0
 11
3.148840564304221
 21
1.931221516685174
 31
0.0
  0
LINE
  5
3D
330
A
100
AcDbEntity
  8
1
  6
solid
 62
     0
100
AcDbLine
 10
3.315997427049319
 20
1.931221516685174
 30
0.0
 11
3.315997427049319
 21
1.963673439762097
 31
0.0
  0
LINE
  5
3E
330
A
100
AcDbEntity
  8
1
  6
solid
 62
     0
100
AcDbLine
 10
3.315997427049319
 20
1.963673439762097
 30
0.0
 11
3.342958211363045
 21
1.963673439762097
 31
0.0
  0
LINE
  5
3F
330
A
100
AcDbEntity
  8
1
  6
solid
 62
     0
100
AcDbLine
 10
3.342958211363045
 20
1.963673439762097
 30
0.0
 11
3.342958211363045
 21
2.148769593608251
 31
0.0
  0
LINE
  5
40
330
A
100
AcDbEntity
  8
1
  6
solid
 62
     0
100
AcDbLine
 10
3.342958211363045
 20
2.148769593608251
 30
0.0
 11
3.314526838814025
 21
2.148769593608251
 31
0.0
  0
LINE
  5
41
330
A
100
AcDbEntity
  8
1
  6
solid
 62
     0
100
AcDbLine
 10
3.314526838814025
 20
2.148769593608251
 30
0.0
 11
3.314526838814025
 21
2.181221516685174
 31
0.0
  0
LINE
  5
42
330
A
100
AcDbEntity
  8
1
  6
solid
 62
     0
100
AcDbLine
 10
3.314526838814025
 20
2.181221516685174
 30
0.0
 11
3.378252329010104
 21
2.181221516685174
 31
0.0
  0
LINE
  5
43
330
A
100
AcDbEntity
  8
1
  6
solid
 62
     0
100
AcDbLine
 10
3.378252329010104
 20
2.181221516685174
 30
0.0
 11
3.378252329010104
 21
1.963673439762097
 31
0.0
  0
LINE
  5
44
330
A
100
AcDbEntity
  8
1
  6
solid
 62
     0
100
AcDbLine
 10
3.378252329010104
 20
1.963673439762097
 30
0.0
 11
3.408154289794417
 21
1.963673439762097
 31
0.0
  0
LINE
  5
45
330
A
100
AcDbEntity
  8
1
  6
solid
 62
     0
100
AcDbLine
 10
3.408154289794417
 20
1.963673439762097
 30
0.0
 11
3.408154289794417
 21
1.931221516685174
 31
0.0
  0
LINE
  5
46
330
A
100
AcDbEntity
  8
1
  6
solid
 62
     0
100
AcDbLine
 10
3.408154289794417
 20
1.931221516685174
 30
0.0
 11
3.315997427049319
 21
1.931221516685174
 31
0.0
  0
LINE
  5
47
330
A
100
AcDbEntity
  8
1
  6
solid
 62
     0
100
AcDbLine
 10
3.517468015284614
 20
1.931221516685174
 30
0.0
 11
3.529722917245398
 21
1.934827285915943
 31
0.0
  0
LINE
  5
48
330
A
100
AcDbEntity
  8
1
  6
solid
 62
     0
100
AcDbLine
 10
3.529722917245398
 20
1.934827285915943
 30
0.0
 11
3.542468015284613
 21
1.942038824377482
 31
0.0
  0
LINE
  5
49
330
A
100
AcDbEntity
  8
1
  6
solid
 62
     0
100
AcDbLine
 10
3.542468015284613
 20
1.942038824377482
 30
0.0
 11
3.550311152539515
 21
1.948048439762097
 31
0.0
  0
LINE
  5
4A
330
A
100
AcDbEntity
  8
1
  6
solid
 62
     0
100
AcDbLine
 10
3.550311152539515
 20
1.948048439762097
 30
0.0
 11
3.558644485872849
 21
1.958865747454405
 31
0.0
  0
LINE
  5
4B
330
A
100
AcDbEntity
  8
1
  6
solid
 62
     0
100
AcDbLine
 10
3.558644485872849
 20
1.958865747454405
 30
0.0
 11
3.564036642735594
 21
1.967279208992867
 31
0.0
  0
LINE
  5
4C
330
A
100
AcDbEntity
  8
1
  6
solid
 62
     0
100
AcDbLine
 10
3.564036642735594
 20
1.967279208992867
 30
0.0
 11
3.56991899567677
 21
1.979298439762097
 31
0.0
  0
LINE
  5
4D
330
A
100
AcDbEntity
  8
1
  6
solid
 62
     0
100
AcDbLine
 10
3.56991899567677
 20
1.979298439762097
 30
0.0
 11
3.573840564304221
 21
2.000933055146713
 31
0.0
  0
LINE
  5
4E
330
A
100
AcDbEntity
  8
1
  6
solid
 62
     0
100
AcDbLine
 10
3.573840564304221
 20
2.000933055146713
 30
0.0
 11
3.573840564304221
 21
2.111509978223636
 31
0.0
  0
LINE
  5
4F
330
A
100
AcDbEntity
  8
1
  6
solid
 62
     0
100
AcDbLine
 10
3.573840564304221
 20
2.111509978223636
 30
0.0
 11
3.570899387833633
 21
2.129538824377482
 31
0.0
  0
LINE
  5
50
330
A
100
AcDbEntity
  8
1
  6
solid
 62
     0
100
AcDbLine
 10
3.570899387833633
 20
2.129538824377482
 30
0.0
 11
3.565507230970888
 21
2.142759978223636
 31
0.0
  0
LINE
  5
51
330
A
100
AcDbEntity
  8
1
  6
solid
 62
     0
100
AcDbLine
 10
3.565507230970888
 20
2.142759978223636
 30
0.0
 11
3.558644485872849
 21
2.153577285915944
 31
0.0
  0
LINE
  5
52
330
A
100
AcDbEntity
  8
1
  6
solid
 62
     0
100
AcDbLine
 10
3.558644485872849
 20
2.153577285915944
 30
0.0
 11
3.55178174077481
 21
2.164394593608251
 31
0.0
  0
LINE
  5
53
330
A
100
AcDbEntity
  8
1
  6
solid
 62
     0
100
AcDbLine
 10
3.55178174077481
 20
2.164394593608251
 30
0.0
 11
3.543448407441476
 21
2.170404208992867
 31
0.0
  0
LINE
  5
54
330
A
100
AcDbEntity
  8
1
  6
solid
 62
     0
100
AcDbLine
 10
3.543448407441476
 20
2.170404208992867
 30
0.0
 11
3.53413468195128
 21
2.176413824377482
 31
0.0
  0
LINE
  5
55
330
A
100
AcDbEntity
  8
1
  6
solid
 62
     0
100
AcDbLine
 10
3.53413468195128
 20
2.176413824377482
 30
0.0
 11
3.525801348617947
 21
2.180019593608251
 31
0.0
  0
LINE
  5
56
330
A
100
AcDbEntity
  8
1
  6
solid
 62
     0
100
AcDbLine
 10
3.525801348617947
 20
2.180019593608251
 30
0.0
 11
3.517468015284614
 21
2.181221516685174
 31
0.0
  0
LINE
  5
57
330
A
100
AcDbEntity
  8
1
  6
solid
 62
     0
100
AcDbLine
 10
3.517468015284614
 20
2.181221516685174
 30
0.0
 11
3.502271936853241
 21
2.181221516685174
 31
0.0
  0
LINE
  5
58
330
A
100
AcDbEntity
  8
1
  6
solid
 62
     0
100
AcDbLine
 10
3.502271936853241
 20
2.181221516685174
 30
0.0
 11
3.488546446657163
 21
2.176413824377482
 31
0.0
  0
LINE
  5
59
330
A
100
AcDbEntity
  8
1
  6
solid
 62
     0
100
AcDbLine
 10
3.488546446657163
 20
2.176413824377482
 30
0.0
 11
3.480213113323829
 21
2.170404208992867
 31
0.0
  0
LINE
  5
5A
330
A
100
AcDbEntity
  8
1
  6
solid
 62
     0
100
AcDbLine
 10
3.480213113323829
 20
2.170404208992867
 30
0.0
 11
3.472369976068927
 21
2.164394593608251
 31
0.0
  0
LINE
  5
5B
330
A
100
AcDbEntity
  8
1
  6
solid
 62
     0
100
AcDbLine
 10
3.472369976068927
 20
2.164394593608251
 30
0.0
 11
3.465507230970888
 21
2.154779208992867
 31
0.0
  0
LINE
  5
5C
330
A
100
AcDbEntity
  8
1
  6
solid
 62
     0
100
AcDbLine
 10
3.465507230970888
 20
2.154779208992867
 30
0.0
 11
3.458644485872849
 21
2.145163824377482
 31
0.0
  0
LINE
  5
5D
330
A
100
AcDbEntity
  8
1
  6
solid
 62
     0
100
AcDbLine
 10
3.458644485872849
 20
2.145163824377482
 30
0.0
 11
3.452762132931672
 21
2.133144593608251
 31
0.0
  0
LINE
  5
5E
330
A
100
AcDbEntity
  8
1
  6
solid
 62
     0
100
AcDbLine
 10
3.452762132931672
 20
2.133144593608251
 30
0.0
 11
3.450311152539515
 21
2.119923439762097
 31
0.0
  0
LINE
  5
5F
330
A
100
AcDbEntity
  8
1
  6
solid
 62
     0
100
AcDbLine
 10
3.450311152539515
 20
2.119923439762097
 30
0.0
 11
3.448840564304221
 21
2.103096516685174
 31
0.0
  0
LINE
  5
60
330
A
100
AcDbEntity
  8
1
  6
solid
 62
     0
100
AcDbLine
 10
3.448840564304221
 20
2.103096516685174
 30
0.0
 11
3.448840564304221
 21
2.010548439762097
 31
0.0
  0
LINE
  5
61
330
A
100
AcDbEntity
  8
1
  6
solid
 62
     0
100
AcDbLine
 10
3.448840564304221
 20
2.010548439762097
 30
0.0
 11
3.450311152539515
 21
1.992519593608251
 31
0.0
  0
LINE
  5
62
330
A
100
AcDbEntity
  8
1
  6
solid
 62
     0
100
AcDbLine
 10
3.450311152539515
 20
1.992519593608251
 30
0.0
 11
3.454232721166966
 21
1.978096516685174
 31
0.0
  0
LINE
  5
63
330
A
100
AcDbEntity
  8
1
  6
solid
 62
     0
100
AcDbLine
 10
3.454232721166966
 20
1.978096516685174
 30
0.0
 11
3.461095466265006
 21
1.963673439762097
 31
0.0
  0
LINE
  5
64
330
A
100
AcDbEntity
  8
1
  6
solid
 62
     0
100
AcDbLine
 10
3.461095466265006
 20
1.963673439762097
 30
0.0
 11
3.466487623127751
 21
1.954058055146713
 31
0.0
  0
LINE
  5
65
330
A
100
AcDbEntity
  8
1
  6
solid
 62
     0
100
AcDbLine
 10
3.466487623127751
 20
1.954058055146713
 30
0.0
 11
3.477762132931673
 21
1.943240747454405
 31
0.0
  0
LINE
  5
66
330
A
100
AcDbEntity
  8
1
  6
solid
 62
     0
100
AcDbLine
 10
3.477762132931673
 20
1.943240747454405
 30
0.0
 11
3.488546446657163
 21
1.936029208992867
 31
0.0
  0
LINE
  5
67
330
A
100
AcDbEntity
  8
1
  6
solid
 62
     0
100
AcDbLine
 10
3.488546446657163
 20
1.936029208992867
 30
0.0
 11
3.505213113323829
 21
1.931221516685174
 31
0.0
  0
LINE
  5
68
330
A
100
AcDbEntity
  8
1
  6
solid
 62
     0
100
AcDbLine
 10
3.505213113323829
 20
1.931221516685174
 30
0.0
 11
3.517468015284614
 21
1.931221516685174
 31
0.0
  0
LINE
  5
69
330
A
100
AcDbEntity
  8
1
  6
solid
 62
     0
100
AcDbLine
 10
3.550311152539515
 20
2.107904208992867
 30
0.0
 11
3.546389583912064
 21
2.123529208992867
 31
0.0
  0
LINE
  5
6A
330
A
100
AcDbEntity
  8
1
  6
solid
 62
     0
100
AcDbLine
 10
3.546389583912064
 20
2.123529208992867
 30
0.0
 11
3.542468015284613
 21
2.133144593608251
 31
0.0
  0
LINE
  5
6B
330
A
100
AcDbEntity
  8
1
  6
solid
 62
     0
100
AcDbLine
 10
3.542468015284613
 20
2.133144593608251
 30
0.0
 11
3.536585662343437
 21
2.139154208992867
 31
0.0
  0
LINE
  5
6C
330
A
100
AcDbEntity
  8
1
  6
solid
 62
     0
100
AcDbLine
 10
3.536585662343437
 20
2.139154208992867
 30
0.0
 11
3.529722917245398
 21
2.146365747454405
 31
0.0
  0
LINE
  5
6D
330
A
100
AcDbEntity
  8
1
  6
solid
 62
     0
100
AcDbLine
 10
3.529722917245398
 20
2.146365747454405
 30
0.0
 11
3.520409191755202
 21
2.149971516685174
 31
0.0
  0
LINE
  5
6E
330
A
100
AcDbEntity
  8
1
  6
solid
 62
     0
100
AcDbLine
 10
3.520409191755202
 20
2.149971516685174
 30
0.0
 11
3.512075858421868
 21
2.151173439762097
 31
0.0
  0
LINE
  5
6F
330
A
100
AcDbEntity
  8
1
  6
solid
 62
     0
100
AcDbLine
 10
3.512075858421868
 20
2.151173439762097
 30
0.0
 11
3.507664093715986
 21
2.151173439762097
 31
0.0
  0
LINE
  5
70
330
A
100
AcDbEntity
  8
1
  6
solid
 62
     0
100
AcDbLine
 10
3.507664093715986
 20
2.151173439762097
 30
0.0
 11
3.499820956461084
 21
2.149971516685174
 31
0.0
  0
LINE
  5
71
330
A
100
AcDbEntity
  8
1
  6
solid
 62
     0
100
AcDbLine
 10
3.499820956461084
 20
2.149971516685174
 30
0.0
 11
3.491487623127751
 21
2.145163824377482
 31
0.0
  0
LINE
  5
72
330
A
100
AcDbEntity
  8
1
  6
solid
 62
     0
100
AcDbLine
 10
3.491487623127751
 20
2.145163824377482
 30
0.0
 11
3.484624878029712
 21
2.137952285915944
 31
0.0
  0
LINE
  5
73
330
A
100
AcDbEntity
  8
1
  6
solid
 62
     0
100
AcDbLine
 10
3.484624878029712
 20
2.137952285915944
 30
0.0
 11
3.479232721166967
 21
2.129538824377482
 31
0.0
  0
LINE
  5
74
330
A
100
AcDbEntity
  8
1
  6
solid
 62
     0
100
AcDbLine
 10
3.479232721166967
 20
2.129538824377482
 30
0.0
 11
3.474820956461084
 21
2.119923439762097
 31
0.0
  0
LINE
  5
75
330
A
100
AcDbEntity
  8
1
  6
solid
 62
     0
100
AcDbLine
 10
3.474820956461084
 20
2.119923439762097
 30
0.0
 11
3.472369976068927
 21
2.104298439762097
 31
0.0
  0
LINE
  5
76
330
A
100
AcDbEntity
  8
1
  6
solid
 62
     0
100
AcDbLine
 10
3.472369976068927
 20
2.104298439762097
 30
0.0
 11
3.472369976068927
 21
2.012952285915944
 31
0.0
  0
LINE
  5
77
330
A
100
AcDbEntity
  8
1
  6
solid
 62
     0
100
AcDbLine
 10
3.472369976068927
 20
2.012952285915944
 30
0.0
 11
3.47335036822579
 21
1.997327285915943
 31
0.0
  0
LINE
  5
78
330
A
100
AcDbEntity
  8
1
  6
solid
 62
     0
100
AcDbLine
 10
3.47335036822579
 20
1.997327285915943
 30
0.0
 11
3.477762132931673
 21
1.985308055146713
 31
0.0
  0
LINE
  5
79
330
A
100
AcDbEntity
  8
1
  6
solid
 62
     0
100
AcDbLine
 10
3.477762132931673
 20
1.985308055146713
 30
0.0
 11
3.484624878029712
 21
1.974490747454405
 31
0.0
  0
LINE
  5
7A
330
A
100
AcDbEntity
  8
1
  6
solid
 62
     0
100
AcDbLine
 10
3.484624878029712
 20
1.974490747454405
 30
0.0
 11
3.492958211363045
 21
1.967279208992867
 31
0.0
  0
LINE
  5
7B
330
A
100
AcDbEntity
  8
1
  6
solid
 62
     0
100
AcDbLine
 10
3.492958211363045
 20
1.967279208992867
 30
0.0
 11
3.500801348617947
 21
1.962471516685174
 31
0.0
  0
LINE
  5
7C
330
A
100
AcDbEntity
  8
1
  6
solid
 62
     0
100
AcDbLine
 10
3.500801348617947
 20
1.962471516685174
 30
0.0
 11
3.507664093715986
 21
1.961269593608251
 31
0.0
  0
LINE
  5
7D
330
A
100
AcDbEntity
  8
1
  6
solid
 62
     0
100
AcDbLine
 10
3.507664093715986
 20
1.961269593608251
 30
0.0
 11
3.512075858421868
 21
1.961269593608251
 31
0.0
  0
LINE
  5
7E
330
A
100
AcDbEntity
  8
1
  6
solid
 62
     0
100
AcDbLine
 10
3.512075858421868
 20
1.961269593608251
 30
0.0
 11
3.522860172147359
 21
1.962471516685174
 31
0.0
  0
LINE
  5
7F
330
A
100
AcDbEntity
  8
1
  6
solid
 62
     0
100
AcDbLine
 10
3.522860172147359
 20
1.962471516685174
 30
0.0
 11
3.531193505480692
 21
1.967279208992867
 31
0.0
  0
LINE
  5
80
330
A
100
AcDbEntity
  8
1
  6
solid
 62
     0
100
AcDbLine
 10
3.531193505480692
 20
1.967279208992867
 30
0.0
 11
3.538056250578731
 21
1.974490747454405
 31
0.0
  0
LINE
  5
81
330
A
100
AcDbEntity
  8
1
  6
solid
 62
     0
100
AcDbLine
 10
3.538056250578731
 20
1.974490747454405
 30
0.0
 11
3.54491899567677
 21
1.985308055146713
 31
0.0
  0
LINE
  5
82
330
A
100
AcDbEntity
  8
1
  6
solid
 62
     0
100
AcDbLine
 10
3.54491899567677
 20
1.985308055146713
 30
0.0
 11
3.549330760382653
 21
1.994923439762097
 31
0.0
  0
LINE
  5
83
330
A
100
AcDbEntity
  8
1
  6
solid
 62
     0
100
AcDbLine
 10
3.549330760382653
 20
1.994923439762097
 30
0.0
 11
3.550311152539515
 21
2.010548439762097
 31
0.0
  0
LINE
  5
84
330
A
100
AcDbEntity
  8
1
  6
solid
 62
     0
100
AcDbLine
 10
3.550311152539515
 20
2.010548439762097
 30
0.0
 11
3.550311152539515
 21
2.107904208992867
 31
0.0
  0
LINE
  5
85
330
A
100
AcDbEntity
  8
1
  6
solid
 62
     0
100
AcDbLine
 10
3.663056250578731
 20
1.931221516685174
 30
0.0
 11
3.716487623127751
 21
2.051413824377482
 31
0.0
  0
LINE
  5
86
330
A
100
AcDbEntity
  8
1
  6
solid
 62
     0
100
AcDbLine
 10
3.716487623127751
 20
2.051413824377482
 30
0.0
 11
3.719918995676771
 21
2.065836901300559
 31
0.0
  0
LINE
  5
87
330
A
100
AcDbEntity
  8
1
  6
solid
 62
     0
100
AcDbLine
 10
3.719918995676771
 20
2.065836901300559
 30
0.0
 11
3.722369976068927
 21
2.083865747454405
 31
0.0
  0
LINE
  5
88
330
A
100
AcDbEntity
  8
1
  6
solid
 62
     0
100
AcDbLine
 10
3.722369976068927
 20
2.083865747454405
 30
0.0
 11
3.723840564304222
 21
2.095884978223636
 31
0.0
  0
LINE
  5
89
330
A
100
AcDbEntity
  8
1
  6
solid
 62
     0
100
AcDbLine
 10
3.723840564304222
 20
2.095884978223636
 30
0.0
 11
3.721389583912064
 21
2.111509978223636
 31
0.0
  0
LINE
  5
8A
330
A
100
AcDbEntity
  8
1
  6
solid
 62
     0
100
AcDbLine
 10
3.721389583912064
 20
2.111509978223636
 30
0.0
 11
3.717468015284613
 21
2.128336901300559
 31
0.0
  0
LINE
  5
8B
330
A
100
AcDbEntity
  8
1
  6
solid
 62
     0
100
AcDbLine
 10
3.717468015284613
 20
2.128336901300559
 30
0.0
 11
3.7125660545003
 21
2.142759978223636
 31
0.0
  0
LINE
  5
8C
330
A
100
AcDbEntity
  8
1
  6
solid
 62
     0
100
AcDbLine
 10
3.7125660545003
 20
2.142759978223636
 30
0.0
 11
3.705213113323829
 21
2.154779208992867
 31
0.0
  0
LINE
  5
8D
330
A
100
AcDbEntity
  8
1
  6
solid
 62
     0
100
AcDbLine
 10
3.705213113323829
 20
2.154779208992867
 30
0.0
 11
3.697860172147358
 21
2.163192670531328
 31
0.0
  0
LINE
  5
8E
330
A
100
AcDbEntity
  8
1
  6
solid
 62
     0
100
AcDbLine
 10
3.697860172147358
 20
2.163192670531328
 30
0.0
 11
3.690507230970888
 21
2.170404208992867
 31
0.0
  0
LINE
  5
8F
330
A
100
AcDbEntity
  8
1
  6
solid
 62
     0
100
AcDbLine
 10
3.690507230970888
 20
2.170404208992867
 30
0.0
 11
3.681683701559123
 21
2.176413824377482
 31
0.0
  0
LINE
  5
90
330
A
100
AcDbEntity
  8
1
  6
solid
 62
     0
100
AcDbLine
 10
3.681683701559123
 20
2.176413824377482
 30
0.0
 11
3.672860172147359
 21
2.180019593608251
 31
0.0
  0
LINE
  5
91
330
A
100
AcDbEntity
  8
1
  6
solid
 62
     0
100
AcDbLine
 10
3.672860172147359
 20
2.180019593608251
 30
0.0
 11
3.664526838814025
 21
2.181221516685174
 31
0.0
  0
LINE
  5
92
330
A
100
AcDbEntity
  8
1
  6
solid
 62
     0
100
AcDbLine
 10
3.664526838814025
 20
2.181221516685174
 30
0.0
 11
3.657173897637555
 21
2.181221516685174
 31
0.0
  0
LINE
  5
93
330
A
100
AcDbEntity
  8
1
  6
solid
 62
     0
100
AcDbLine
 10
3.657173897637555
 20
2.181221516685174
 30
0.0
 11
3.64835036822579
 21
2.180019593608251
 31
0.0
  0
LINE
  5
94
330
A
100
AcDbEntity
  8
1
  6
solid
 62
     0
100
AcDbLine
 10
3.64835036822579
 20
2.180019593608251
 30
0.0
 11
3.638546446657163
 21
2.174009978223636
 31
0.0
  0
LINE
  5
95
330
A
100
AcDbEntity
  8
1
  6
solid
 62
     0
100
AcDbLine
 10
3.638546446657163
 20
2.174009978223636
 30
0.0
 11
3.626291544696378
 21
2.165596516685174
 31
0.0
  0
LINE
  5
96
330
A
100
AcDbEntity
  8
1
  6
solid
 62
     0
100
AcDbLine
 10
3.626291544696378
 20
2.165596516685174
 30
0.0
 11
3.61599742704932
 21
2.15237536283902
 31
0.0
  0
LINE
  5
97
330
A
100
AcDbEntity
  8
1
  6
solid
 62
     0
100
AcDbLine
 10
3.61599742704932
 20
2.15237536283902
 30
0.0
 11
3.607664093715986
 21
2.13675036283902
 31
0.0
  0
LINE
  5
98
330
A
100
AcDbEntity
  8
1
  6
solid
 62
     0
100
AcDbLine
 10
3.607664093715986
 20
2.13675036283902
 30
0.0
 11
3.602762132931673
 21
2.122327285915944
 31
0.0
  0
LINE
  5
99
330
A
100
AcDbEntity
  8
1
  6
solid
 62
     0
100
AcDbLine
 10
3.602762132931673
 20
2.122327285915944
 30
0.0
 11
3.600311152539515
 21
2.109106132069789
 31
0.0
  0
LINE
  5
9A
330
A
100
AcDbEntity
  8
1
  6
solid
 62
     0
100
AcDbLine
 10
3.600311152539515
 20
2.109106132069789
 30
0.0
 11
3.598840564304222
 21
2.098288824377482
 31
0.0
  0
LINE
  5
9B
330
A
100
AcDbEntity
  8
1
  6
solid
 62
     0
100
AcDbLine
 10
3.598840564304222
 20
2.098288824377482
 30
0.0
 11
3.598840564304222
 21
2.085067670531328
 31
0.0
  0
LINE
  5
9C
330
A
100
AcDbEntity
  8
1
  6
solid
 62
     0
100
AcDbLine
 10
3.598840564304222
 20
2.085067670531328
 30
0.0
 11
3.602762132931673
 21
2.064634978223636
 31
0.0
  0
LINE
  5
9D
330
A
100
AcDbEntity
  8
1
  6
solid
 62
     0
100
AcDbLine
 10
3.602762132931673
 20
2.064634978223636
 30
0.0
 11
3.607664093715986
 21
2.046606132069789
 31
0.0
  0
LINE
  5
9E
330
A
100
AcDbEntity
  8
1
  6
solid
 62
     0
100
AcDbLine
 10
3.607664093715986
 20
2.046606132069789
 30
0.0
 11
3.61599742704932
 21
2.030981132069789
 31
0.0
  0
LINE
  5
9F
330
A
100
AcDbEntity
  8
1
  6
solid
 62
     0
100
AcDbLine
 10
3.61599742704932
 20
2.030981132069789
 30
0.0
 11
3.624820956461084
 21
2.020163824377482
 31
0.0
  0
LINE
  5
A0
330
A
100
AcDbEntity
  8
1
  6
solid
 62
     0
100
AcDbLine
 10
3.624820956461084
 20
2.020163824377482
 30
0.0
 11
3.634624878029712
 21
2.012952285915944
 31
0.0
  0
LINE
  5
A1
330
A
100
AcDbEntity
  8
1
  6
solid
 62
     0
100
AcDbLine
 10
3.634624878029712
 20
2.012952285915944
 30
0.0
 11
3.641977819206182
 21
2.006942670531328
 31
0.0
  0
LINE
  5
A2
330
A
100
AcDbEntity
  8
1
  6
solid
 62
     0
100
AcDbLine
 10
3.641977819206182
 20
2.006942670531328
 30
0.0
 11
3.649820956461084
 21
2.005740747454405
 31
0.0
  0
LINE
  5
A3
330
A
100
AcDbEntity
  8
1
  6
solid
 62
     0
100
AcDbLine
 10
3.649820956461084
 20
2.005740747454405
 30
0.0
 11
3.659624878029712
 21
2.003336901300559
 31
0.0
  0
LINE
  5
A4
330
A
100
AcDbEntity
  8
1
  6
solid
 62
     0
100
AcDbLine
 10
3.659624878029712
 20
2.003336901300559
 30
0.0
 11
3.666977819206182
 21
2.003336901300559
 31
0.0
  0
LINE
  5
A5
330
A
100
AcDbEntity
  8
1
  6
solid
 62
     0
100
AcDbLine
 10
3.666977819206182
 20
2.003336901300559
 30
0.0
 11
3.670409191755202
 21
2.005740747454405
 31
0.0
  0
LINE
  5
A6
330
A
100
AcDbEntity
  8
1
  6
solid
 62
     0
100
AcDbLine
 10
3.670409191755202
 20
2.005740747454405
 30
0.0
 11
3.637075858421868
 21
1.931221516685174
 31
0.0
  0
LINE
  5
A7
330
A
100
AcDbEntity
  8
1
  6
solid
 62
     0
100
AcDbLine
 10
3.637075858421868
 20
1.931221516685174
 30
0.0
 11
3.663056250578731
 21
1.931221516685174
 31
0.0
  0
LINE
  5
A8
330
A
100
AcDbEntity
  8
1
  6
solid
 62
     0
100
AcDbLine
 10
3.620899387833633
 20
2.085067670531328
 30
0.0
 11
3.622369976068927
 21
2.073048439762097
 31
0.0
  0
LINE
  5
A9
330
A
100
AcDbEntity
  8
1
  6
solid
 62
     0
100
AcDbLine
 10
3.622369976068927
 20
2.073048439762097
 30
0.0
 11
3.626291544696378
 21
2.062231132069789
 31
0.0
  0
LINE
  5
AA
330
A
100
AcDbEntity
  8
1
  6
solid
 62
     0
100
AcDbLine
 10
3.626291544696378
 20
2.062231132069789
 30
0.0
 11
3.629722917245398
 21
2.055019593608251
 31
0.0
  0
LINE
  5
AB
330
A
100
AcDbEntity
  8
1
  6
solid
 62
     0
100
AcDbLine
 10
3.629722917245398
 20
2.055019593608251
 30
0.0
 11
3.634624878029712
 21
2.047808055146713
 31
0.0
  0
LINE
  5
AC
330
A
100
AcDbEntity
  8
1
  6
solid
 62
     0
100
AcDbLine
 10
3.634624878029712
 20
2.047808055146713
 30
0.0
 11
3.641977819206182
 21
2.040596516685174
 31
0.0
  0
LINE
  5
AD
330
A
100
AcDbEntity
  8
1
  6
solid
 62
     0
100
AcDbLine
 10
3.641977819206182
 20
2.040596516685174
 30
0.0
 11
3.650801348617947
 21
2.035788824377482
 31
0.0
  0
LINE
  5
AE
330
A
100
AcDbEntity
  8
1
  6
solid
 62
     0
100
AcDbLine
 10
3.650801348617947
 20
2.035788824377482
 30
0.0
 11
3.659624878029712
 21
2.034586901300559
 31
0.0
  0
LINE
  5
AF
330
A
100
AcDbEntity
  8
1
  6
solid
 62
     0
100
AcDbLine
 10
3.659624878029712
 20
2.034586901300559
 30
0.0
 11
3.665507230970888
 21
2.034586901300559
 31
0.0
  0
LINE
  5
B0
330
A
100
AcDbEntity
  8
1
  6
solid
 62
     0
100
AcDbLine
 10
3.665507230970888
 20
2.034586901300559
 30
0.0
 11
3.675801348617947
 21
2.038192670531328
 31
0.0
  0
LINE
  5
B1
330
A
100
AcDbEntity
  8
1
  6
solid
 62
     0
100
AcDbLine
 10
3.675801348617947
 20
2.038192670531328
 30
0.0
 11
3.68413468195128
 21
2.04300036283902
 31
0.0
  0
LINE
  5
B2
330
A
100
AcDbEntity
  8
1
  6
solid
 62
     0
100
AcDbLine
 10
3.68413468195128
 20
2.04300036283902
 30
0.0
 11
3.690507230970888
 21
2.051413824377482
 31
0.0
  0
LINE
  5
B3
330
A
100
AcDbEntity
  8
1
  6
solid
 62
     0
100
AcDbLine
 10
3.690507230970888
 20
2.051413824377482
 30
0.0
 11
3.695409191755202
 21
2.061029208992867
 31
0.0
  0
LINE
  5
B4
330
A
100
AcDbEntity
  8
1
  6
solid
 62
     0
100
AcDbLine
 10
3.695409191755202
 20
2.061029208992867
 30
0.0
 11
3.699330760382653
 21
2.071846516685174
 31
0.0
  0
LINE
  5
B5
330
A
100
AcDbEntity
  8
1
  6
solid
 62
     0
100
AcDbLine
 10
3.699330760382653
 20
2.071846516685174
 30
0.0
 11
3.701781740774809
 21
2.083865747454405
 31
0.0
  0
LINE
  5
B6
330
A
100
AcDbEntity
  8
1
  6
solid
 62
     0
100
AcDbLine
 10
3.701781740774809
 20
2.083865747454405
 30
0.0
 11
3.701781740774809
 21
2.098288824377482
 31
0.0
  0
LINE
  5
B7
330
A
100
AcDbEntity
  8
1
  6
solid
 62
     0
100
AcDbLine
 10
3.701781740774809
 20
2.098288824377482
 30
0.0
 11
3.699330760382653
 21
2.111509978223636
 31
0.0
  0
LINE
  5
B8
330
A
100
AcDbEntity
  8
1
  6
solid
 62
     0
100
AcDbLine
 10
3.699330760382653
 20
2.111509978223636
 30
0.0
 11
3.695409191755202
 21
2.124731132069789
 31
0.0
  0
LINE
  5
B9
330
A
100
AcDbEntity
  8
1
  6
solid
 62
     0
100
AcDbLine
 10
3.695409191755202
 20
2.124731132069789
 30
0.0
 11
3.688056250578731
 21
2.135548439762097
 31
0.0
  0
LINE
  5
BA
330
A
100
AcDbEntity
  8
1
  6
solid
 62
     0
100
AcDbLine
 10
3.688056250578731
 20
2.135548439762097
 30
0.0
 11
3.68070330940226
 21
2.143961901300559
 31
0.0
  0
LINE
  5
BB
330
A
100
AcDbEntity
  8
1
  6
solid
 62
     0
100
AcDbLine
 10
3.68070330940226
 20
2.143961901300559
 30
0.0
 11
3.674330760382653
 21
2.147567670531328
 31
0.0
  0
LINE
  5
BC
330
A
100
AcDbEntity
  8
1
  6
solid
 62
     0
100
AcDbLine
 10
3.674330760382653
 20
2.147567670531328
 30
0.0
 11
3.664526838814025
 21
2.151173439762097
 31
0.0
  0
LINE
  5
BD
330
A
100
AcDbEntity
  8
1
  6
solid
 62
     0
100
AcDbLine
 10
3.664526838814025
 20
2.151173439762097
 30
0.0
 11
3.658154289794417
 21
2.151173439762097
 31
0.0
  0
LINE
  5
BE
330
A
100
AcDbEntity
  8
1
  6
solid
 62
     0
100
AcDbLine
 10
3.658154289794417
 20
2.151173439762097
 30
0.0
 11
3.64835036822579
 21
2.147567670531328
 31
0.0
  0
LINE
  5
BF
330
A
100
AcDbEntity
  8
1
  6
solid
 62
     0
100
AcDbLine
 10
3.64835036822579
 20
2.147567670531328
 30
0.0
 11
3.639526838814025
 21
2.142759978223636
 31
0.0
  0
LINE
  5
C0
330
A
100
AcDbEntity
  8
1
  6
solid
 62
     0
100
AcDbLine
 10
3.639526838814025
 20
2.142759978223636
 30
0.0
 11
3.632173897637555
 21
2.133144593608251
 31
0.0
  0
LINE
  5
C1
330
A
100
AcDbEntity
  8
1
  6
solid
 62
     0
100
AcDbLine
 10
3.632173897637555
 20
2.133144593608251
 30
0.0
 11
3.626291544696378
 21
2.122327285915944
 31
0.0
  0
LINE
  5
C2
330
A
100
AcDbEntity
  8
1
  6
solid
 62
     0
100
AcDbLine
 10
3.626291544696378
 20
2.122327285915944
 30
0.0
 11
3.622369976068927
 21
2.110308055146713
 31
0.0
  0
LINE
  5
C3
330
A
100
AcDbEntity
  8
1
  6
solid
 62
     0
100
AcDbLine
 10
3.622369976068927
 20
2.110308055146713
 30
0.0
 11
3.620899387833633
 21
2.099490747454405
 31
0.0
  0
LINE
  5
C4
330
A
100
AcDbEntity
  8
1
  6
solid
 62
     0
100
AcDbLine
 10
3.620899387833633
 20
2.099490747454405
 30
0.0
 11
3.620899387833633
 21
2.085067670531328
 31
0.0
  0
DIMENSION
  5
CF
330
A
100
AcDbEntity
  8
1
  6
solid
 62
     0
100
AcDbDimension
  2
*D0
 10
5.249473683966641
 20
1.664710172772895
 30
0.0
 11
5.249473683966641
 21
1.664710172772895
 31
0.0
 70
    32
 71
     5
 42
1.637188332797073
  3
Standard
100
AcDbAlignedDimension
 13
5.277735710144042
 23
0.8461160063743591
 33
0.0
 14
5.229395382839253
 24
2.483304339171432
 34
0.0
 50
89.99999999999996
100
AcDbRotatedDimension
1001
ACAD
1000
DSTYLE
1002
{
1070
    41
1040
0.25
1070
    42
1040
0.25
1070
    44
1040
0.125
1070
    47
1040
0.0005
1070
    48
1040
0.0005
1070
    75
1070
     1
1070
    76
1070
     1
1070
   140
1040
0.25
1070
   146
1040
0.5
1070
   174
1070
     1
1070
   270
1070
     5
1070
   271
1070
     3
1070
   272
1070
     3
1070
   277
1070
     5
1002
}
  0
LINE
  5
D0
330
A
100
AcDbEntity
  8
1
  6
solid
 62
     0
100
AcDbLine
 10
2.395433485495283
 20
0.1241039567033648
 30
0.0
 11
2.395433485495283
 21
0.1565558797802879
 31
0.0
  0
LINE
  5
D1
330
A
100
AcDbEntity
  8
1
  6
solid
 62
     0
100
AcDbLine
 10
2.395433485495283
 20
0.1565558797802879
 30
0.0
 11
2.422394269809008
 21
0.1565558797802879
 31
0.0
  0
LINE
  5
D2
330
A
100
AcDbEntity
  8
1
  6
solid
 62
     0
100
AcDbLine
 10
2.422394269809008
 20
0.1565558797802879
 30
0.0
 11
2.422394269809008
 21
0.3416520336264417
 31
0.0
  0
LINE
  5
D3
330
A
100
AcDbEntity
  8
1
  6
solid
 62
     0
100
AcDbLine
 10
2.422394269809008
 20
0.3416520336264417
 30
0.0
 11
2.393962897259989
 21
0.3416520336264417
 31
0.0
  0
LINE
  5
D4
330
A
100
AcDbEntity
  8
1
  6
solid
 62
     0
100
AcDbLine
 10
2.393962897259989
 20
0.3416520336264417
 30
0.0
 11
2.393962897259989
 21
0.3741039567033648
 31
0.0
  0
LINE
  5
D5
330
A
100
AcDbEntity
  8
1
  6
solid
 62
     0
100
AcDbLine
 10
2.393962897259989
 20
0.3741039567033648
 30
0.0
 11
2.457688387456067
 21
0.3741039567033648
 31
0.0
  0
LINE
  5
D6
330
A
100
AcDbEntity
  8
1
  6
solid
 62
     0
100
AcDbLine
 10
2.457688387456067
 20
0.3741039567033648
 30
0.0
 11
2.457688387456067
 21
0.1565558797802879
 31
0.0
  0
LINE
  5
D7
330
A
100
AcDbEntity
  8
1
  6
solid
 62
     0
100
AcDbLine
 10
2.457688387456067
 20
0.1565558797802879
 30
0.0
 11
2.487590348240381
 21
0.1565558797802879
 31
0.0
  0
LINE
  5
D8
330
A
100
AcDbEntity
  8
1
  6
solid
 62
     0
100
AcDbLine
 10
2.487590348240381
 20
0.1565558797802879
 30
0.0
 11
2.487590348240381
 21
0.1241039567033648
 31
0.0
  0
LINE
  5
D9
330
A
100
AcDbEntity
  8
1
  6
solid
 62
     0
100
AcDbLine
 10
2.487590348240381
 20
0.1241039567033648
 30
0.0
 11
2.395433485495283
 21
0.1241039567033648
 31
0.0
  0
LINE
  5
DA
330
A
100
AcDbEntity
  8
1
  6
solid
 62
     0
100
AcDbLine
 10
2.653276622750185
 20
0.3741039567033648
 30
0.0
 11
2.547394269809008
 21
0.1241039567033648
 31
0.0
  0
LINE
  5
DB
330
A
100
AcDbEntity
  8
1
  6
solid
 62
     0
100
AcDbLine
 10
2.547394269809008
 20
0.1241039567033648
 30
0.0
 11
2.528276622750185
 21
0.1241039567033648
 31
0.0
  0
LINE
  5
DC
330
A
100
AcDbEntity
  8
1
  6
solid
 62
     0
100
AcDbLine
 10
2.528276622750185
 20
0.1241039567033648
 30
0.0
 11
2.634158975691361
 21
0.3741039567033648
 31
0.0
  0
LINE
  5
DD
330
A
100
AcDbEntity
  8
1
  6
solid
 62
     0
100
AcDbLine
 10
2.634158975691361
 20
0.3741039567033648
 30
0.0
 11
2.653276622750185
 21
0.3741039567033648
 31
0.0
  0
LINE
  5
DE
330
A
100
AcDbEntity
  8
1
  6
solid
 62
     0
100
AcDbLine
 10
2.734649171769793
 20
0.1241039567033648
 30
0.0
 11
2.734649171769793
 21
0.1565558797802879
 31
0.0
  0
LINE
  5
DF
330
A
100
AcDbEntity
  8
1
  6
solid
 62
     0
100
AcDbLine
 10
2.734649171769793
 20
0.1565558797802879
 30
0.0
 11
2.755727603142342
 21
0.1565558797802879
 31
0.0
  0
LINE
  5
E0
330
A
100
AcDbEntity
  8
1
  6
solid
 62
     0
100
AcDbLine
 10
2.755727603142342
 20
0.1565558797802879
 30
0.0
 11
2.755727603142342
 21
0.1854020336264417
 31
0.0
  0
LINE
  5
E1
330
A
100
AcDbEntity
  8
1
  6
solid
 62
     0
100
AcDbLine
 10
2.755727603142342
 20
0.1854020336264417
 30
0.0
 11
2.678276622750185
 21
0.1854020336264417
 31
0.0
  0
LINE
  5
E2
330
A
100
AcDbEntity
  8
1
  6
solid
 62
     0
100
AcDbLine
 10
2.678276622750185
 20
0.1854020336264417
 30
0.0
 11
2.678276622750185
 21
0.2166520336264417
 31
0.0
  0
LINE
  5
E3
330
A
100
AcDbEntity
  8
1
  6
solid
 62
     0
100
AcDbLine
 10
2.678276622750185
 20
0.2166520336264417
 30
0.0
 11
2.755727603142342
 21
0.3741039567033648
 31
0.0
  0
LINE
  5
E4
330
A
100
AcDbEntity
  8
1
  6
solid
 62
     0
100
AcDbLine
 10
2.755727603142342
 20
0.3741039567033648
 30
0.0
 11
2.781217799220773
 21
0.3741039567033648
 31
0.0
  0
LINE
  5
E5
330
A
100
AcDbEntity
  8
1
  6
solid
 62
     0
100
AcDbLine
 10
2.781217799220773
 20
0.3741039567033648
 30
0.0
 11
2.781217799220773
 21
0.2178539567033648
 31
0.0
  0
LINE
  5
E6
330
A
100
AcDbEntity
  8
1
  6
solid
 62
     0
100
AcDbLine
 10
2.781217799220773
 20
0.2178539567033648
 30
0.0
 11
2.803276622750185
 21
0.2178539567033648
 31
0.0
  0
LINE
  5
E7
330
A
100
AcDbEntity
  8
1
  6
solid
 62
     0
100
AcDbLine
 10
2.803276622750185
 20
0.2178539567033648
 30
0.0
 11
2.803276622750185
 21
0.1854020336264417
 31
0.0
  0
LINE
  5
E8
330
A
100
AcDbEntity
  8
1
  6
solid
 62
     0
100
AcDbLine
 10
2.803276622750185
 20
0.1854020336264417
 30
0.0
 11
2.781217799220773
 21
0.1854020336264417
 31
0.0
  0
LINE
  5
E9
330
A
100
AcDbEntity
  8
1
  6
solid
 62
     0
100
AcDbLine
 10
2.781217799220773
 20
0.1854020336264417
 30
0.0
 11
2.781217799220773
 21
0.1565558797802879
 31
0.0
  0
LINE
  5
EA
330
A
100
AcDbEntity
  8
1
  6
solid
 62
     0
100
AcDbLine
 10
2.781217799220773
 20
0.1565558797802879
 30
0.0
 11
2.803276622750185
 21
0.1565558797802879
 31
0.0
  0
LINE
  5
EB
330
A
100
AcDbEntity
  8
1
  6
solid
 62
     0
100
AcDbLine
 10
2.803276622750185
 20
0.1565558797802879
 30
0.0
 11
2.803276622750185
 21
0.1241039567033648
 31
0.0
  0
LINE
  5
EC
330
A
100
AcDbEntity
  8
1
  6
solid
 62
     0
100
AcDbLine
 10
2.803276622750185
 20
0.1241039567033648
 30
0.0
 11
2.734649171769793
 21
0.1241039567033648
 31
0.0
  0
LINE
  5
ED
330
A
100
AcDbEntity
  8
1
  6
solid
 62
     0
100
AcDbLine
 10
2.70523740706391
 20
0.2178539567033648
 30
0.0
 11
2.755727603142342
 21
0.3212193413187494
 31
0.0
  0
LINE
  5
EE
330
A
100
AcDbEntity
  8
1
  6
solid
 62
     0
100
AcDbLine
 10
2.755727603142342
 20
0.3212193413187494
 30
0.0
 11
2.755727603142342
 21
0.2178539567033648
 31
0.0
  0
LINE
  5
EF
330
A
100
AcDbEntity
  8
1
  6
solid
 62
     0
100
AcDbLine
 10
2.755727603142342
 20
0.2178539567033648
 30
0.0
 11
2.70523740706391
 21
0.2178539567033648
 31
0.0
  0
LINE
  5
F0
330
A
100
AcDbEntity
  8
1
  6
solid
 62
     0
100
AcDbLine
 10
2.98023740706391
 20
0.3741039567033648
 30
0.0
 11
2.98023740706391
 21
0.3416520336264417
 31
0.0
  0
LINE
  5
F1
330
A
100
AcDbEntity
  8
1
  6
solid
 62
     0
100
AcDbLine
 10
2.98023740706391
 20
0.3416520336264417
 30
0.0
 11
2.99788446588744
 21
0.3416520336264417
 31
0.0
  0
LINE
  5
F2
330
A
100
AcDbEntity
  8
1
  6
solid
 62
     0
100
AcDbLine
 10
2.99788446588744
 20
0.3416520336264417
 30
0.0
 11
3.030727603142342
 21
0.251507802857211
 31
0.0
  0
LINE
  5
F3
330
A
100
AcDbEntity
  8
1
  6
solid
 62
     0
100
AcDbLine
 10
3.030727603142342
 20
0.251507802857211
 30
0.0
 11
2.99445309333842
 21
0.1565558797802879
 31
0.0
  0
LINE
  5
F4
330
A
100
AcDbEntity
  8
1
  6
solid
 62
     0
100
AcDbLine
 10
2.99445309333842
 20
0.1565558797802879
 30
0.0
 11
2.978276622750185
 21
0.1565558797802879
 31
0.0
  0
LINE
  5
F5
330
A
100
AcDbEntity
  8
1
  6
solid
 62
     0
100
AcDbLine
 10
2.978276622750185
 20
0.1565558797802879
 30
0.0
 11
2.978276622750185
 21
0.1241039567033648
 31
0.0
  0
LINE
  5
F6
330
A
100
AcDbEntity
  8
1
  6
solid
 62
     0
100
AcDbLine
 10
2.978276622750185
 20
0.1241039567033648
 30
0.0
 11
3.030727603142342
 21
0.1241039567033648
 31
0.0
  0
LINE
  5
F7
330
A
100
AcDbEntity
  8
1
  6
solid
 62
     0
100
AcDbLine
 10
3.030727603142342
 20
0.1241039567033648
 30
0.0
 11
3.030727603142342
 21
0.1565558797802879
 31
0.0
  0
LINE
  5
F8
330
A
100
AcDbEntity
  8
1
  6
solid
 62
     0
100
AcDbLine
 10
3.030727603142342
 20
0.1565558797802879
 30
0.0
 11
3.017002112946263
 21
0.1565558797802879
 31
0.0
  0
LINE
  5
F9
330
A
100
AcDbEntity
  8
1
  6
solid
 62
     0
100
AcDbLine
 10
3.017002112946263
 20
0.1565558797802879
 30
0.0
 11
3.0410217207894
 21
0.2226616490110571
 31
0.0
  0
LINE
  5
FA
330
A
100
AcDbEntity
  8
1
  6
solid
 62
     0
100
AcDbLine
 10
3.0410217207894
 20
0.2226616490110571
 30
0.0
 11
3.064551132554107
 21
0.1565558797802879
 31
0.0
  0
LINE
  5
FB
330
A
100
AcDbEntity
  8
1
  6
solid
 62
     0
100
AcDbLine
 10
3.064551132554107
 20
0.1565558797802879
 30
0.0
 11
3.05180603451489
 21
0.1565558797802879
 31
0.0
  0
LINE
  5
FC
330
A
100
AcDbEntity
  8
1
  6
solid
 62
     0
100
AcDbLine
 10
3.05180603451489
 20
0.1565558797802879
 30
0.0
 11
3.05180603451489
 21
0.1241039567033648
 31
0.0
  0
LINE
  5
FD
330
A
100
AcDbEntity
  8
1
  6
solid
 62
     0
100
AcDbLine
 10
3.05180603451489
 20
0.1241039567033648
 30
0.0
 11
3.103276622750185
 21
0.1241039567033648
 31
0.0
  0
LINE
  5
FE
330
A
100
AcDbEntity
  8
1
  6
solid
 62
     0
100
AcDbLine
 10
3.103276622750185
 20
0.1241039567033648
 30
0.0
 11
3.103276622750185
 21
0.1565558797802879
 31
0.0
  0
LINE
  5
FF
330
A
100
AcDbEntity
  8
1
  6
solid
 62
     0
100
AcDbLine
 10
3.103276622750185
 20
0.1565558797802879
 30
0.0
 11
3.08710015216195
 21
0.1565558797802879
 31
0.0
  0
LINE
  5
100
330
A
100
AcDbEntity
  8
1
  6
solid
 62
     0
100
AcDbLine
 10
3.08710015216195
 20
0.1565558797802879
 30
0.0
 11
3.05180603451489
 21
0.251507802857211
 31
0.0
  0
LINE
  5
101
330
A
100
AcDbEntity
  8
1
  6
solid
 62
     0
100
AcDbLine
 10
3.05180603451489
 20
0.251507802857211
 30
0.0
 11
3.08366877961293
 21
0.3416520336264417
 31
0.0
  0
LINE
  5
102
330
A
100
AcDbEntity
  8
1
  6
solid
 62
     0
100
AcDbLine
 10
3.08366877961293
 20
0.3416520336264417
 30
0.0
 11
3.101315838436459
 21
0.3416520336264417
 31
0.0
  0
LINE
  5
103
330
A
100
AcDbEntity
  8
1
  6
solid
 62
     0
100
AcDbLine
 10
3.101315838436459
 20
0.3416520336264417
 30
0.0
 11
3.101315838436459
 21
0.3741039567033648
 31
0.0
  0
LINE
  5
104
330
A
100
AcDbEntity
  8
1
  6
solid
 62
     0
100
AcDbLine
 10
3.101315838436459
 20
0.3741039567033648
 30
0.0
 11
3.048864858044302
 21
0.3741039567033648
 31
0.0
  0
LINE
  5
105
330
A
100
AcDbEntity
  8
1
  6
solid
 62
     0
100
AcDbLine
 10
3.048864858044302
 20
0.3741039567033648
 30
0.0
 11
3.048864858044302
 21
0.3416520336264417
 31
0.0
  0
LINE
  5
106
330
A
100
AcDbEntity
  8
1
  6
solid
 62
     0
100
AcDbLine
 10
3.048864858044302
 20
0.3416520336264417
 30
0.0
 11
3.062100152161949
 21
0.3416520336264417
 31
0.0
  0
LINE
  5
107
330
A
100
AcDbEntity
  8
1
  6
solid
 62
     0
100
AcDbLine
 10
3.062100152161949
 20
0.3416520336264417
 30
0.0
 11
3.0410217207894
 21
0.282757802857211
 31
0.0
  0
LINE
  5
108
330
A
100
AcDbEntity
  8
1
  6
solid
 62
     0
100
AcDbLine
 10
3.0410217207894
 20
0.282757802857211
 30
0.0
 11
3.01945309333842
 21
0.3416520336264417
 31
0.0
  0
LINE
  5
109
330
A
100
AcDbEntity
  8
1
  6
solid
 62
     0
100
AcDbLine
 10
3.01945309333842
 20
0.3416520336264417
 30
0.0
 11
3.032688387456067
 21
0.3416520336264417
 31
0.0
  0
LINE
  5
10A
330
A
100
AcDbEntity
  8
1
  6
solid
 62
     0
100
AcDbLine
 10
3.032688387456067
 20
0.3416520336264417
 30
0.0
 11
3.032688387456067
 21
0.3741039567033648
 31
0.0
  0
LINE
  5
10B
330
A
100
AcDbEntity
  8
1
  6
solid
 62
     0
100
AcDbLine
 10
3.032688387456067
 20
0.3741039567033648
 30
0.0
 11
2.98023740706391
 21
0.3741039567033648
 31
0.0
  0
LINE
  5
10C
330
A
100
AcDbEntity
  8
1
  6
solid
 62
     0
100
AcDbLine
 10
3.295433485495283
 20
0.1241039567033648
 30
0.0
 11
3.295433485495283
 21
0.1565558797802879
 31
0.0
  0
LINE
  5
10D
330
A
100
AcDbEntity
  8
1
  6
solid
 62
     0
100
AcDbLine
 10
3.295433485495283
 20
0.1565558797802879
 30
0.0
 11
3.322394269809008
 21
0.1565558797802879
 31
0.0
  0
LINE
  5
10E
330
A
100
AcDbEntity
  8
1
  6
solid
 62
     0
100
AcDbLine
 10
3.322394269809008
 20
0.1565558797802879
 30
0.0
 11
3.322394269809008
 21
0.3416520336264417
 31
0.0
  0
LINE
  5
10F
330
A
100
AcDbEntity
  8
1
  6
solid
 62
     0
100
AcDbLine
 10
3.322394269809008
 20
0.3416520336264417
 30
0.0
 11
3.293962897259989
 21
0.3416520336264417
 31
0.0
  0
LINE
  5
110
330
A
100
AcDbEntity
  8
1
  6
solid
 62
     0
100
AcDbLine
 10
3.293962897259989
 20
0.3416520336264417
 30
0.0
 11
3.293962897259989
 21
0.3741039567033648
 31
0.0
  0
LINE
  5
111
330
A
100
AcDbEntity
  8
1
  6
solid
 62
     0
100
AcDbLine
 10
3.293962897259989
 20
0.3741039567033648
 30
0.0
 11
3.357688387456067
 21
0.3741039567033648
 31
0.0
  0
LINE
  5
112
330
A
100
AcDbEntity
  8
1
  6
solid
 62
     0
100
AcDbLine
 10
3.357688387456067
 20
0.3741039567033648
 30
0.0
 11
3.357688387456067
 21
0.1565558797802879
 31
0.0
  0
LINE
  5
113
330
A
100
AcDbEntity
  8
1
  6
solid
 62
     0
100
AcDbLine
 10
3.357688387456067
 20
0.1565558797802879
 30
0.0
 11
3.387590348240381
 21
0.1565558797802879
 31
0.0
  0
LINE
  5
114
330
A
100
AcDbEntity
  8
1
  6
solid
 62
     0
100
AcDbLine
 10
3.387590348240381
 20
0.1565558797802879
 30
0.0
 11
3.387590348240381
 21
0.1241039567033648
 31
0.0
  0
LINE
  5
115
330
A
100
AcDbEntity
  8
1
  6
solid
 62
     0
100
AcDbLine
 10
3.387590348240381
 20
0.1241039567033648
 30
0.0
 11
3.295433485495283
 21
0.1241039567033648
 31
0.0
  0
LINE
  5
116
330
A
100
AcDbEntity
  8
1
  6
solid
 62
     0
100
AcDbLine
 10
3.428276622750185
 20
0.1793924182418264
 30
0.0
 11
3.553276622750185
 21
0.1793924182418264
 31
0.0
  0
LINE
  5
117
330
A
100
AcDbEntity
  8
1
  6
solid
 62
     0
100
AcDbLine
 10
3.553276622750185
 20
0.1793924182418264
 30
0.0
 11
3.553276622750185
 21
0.2322770336264417
 31
0.0
  0
LINE
  5
118
330
A
100
AcDbEntity
  8
1
  6
solid
 62
     0
100
AcDbLine
 10
3.553276622750185
 20
0.2322770336264417
 30
0.0
 11
3.428276622750185
 21
0.2322770336264417
 31
0.0
  0
LINE
  5
119
330
A
100
AcDbEntity
  8
1
  6
solid
 62
     0
100
AcDbLine
 10
3.428276622750185
 20
0.2322770336264417
 30
0.0
 11
3.428276622750185
 21
0.1793924182418264
 31
0.0
  0
LINE
  5
11A
330
A
100
AcDbEntity
  8
1
  6
solid
 62
     0
100
AcDbLine
 10
3.578276622750185
 20
0.1938154951649033
 30
0.0
 11
3.582198191377636
 21
0.1769885720879802
 31
0.0
  0
LINE
  5
11B
330
A
100
AcDbEntity
  8
1
  6
solid
 62
     0
100
AcDbLine
 10
3.582198191377636
 20
0.1769885720879802
 30
0.0
 11
3.588570740397243
 21
0.1625654951649033
 31
0.0
  0
LINE
  5
11C
330
A
100
AcDbEntity
  8
1
  6
solid
 62
     0
100
AcDbLine
 10
3.588570740397243
 20
0.1625654951649033
 30
0.0
 11
3.595923681573714
 21
0.1505462643956725
 31
0.0
  0
LINE
  5
11D
330
A
100
AcDbEntity
  8
1
  6
solid
 62
     0
100
AcDbLine
 10
3.595923681573714
 20
0.1505462643956725
 30
0.0
 11
3.603766818828616
 21
0.1397289567033648
 31
0.0
  0
LINE
  5
11E
330
A
100
AcDbEntity
  8
1
  6
solid
 62
     0
100
AcDbLine
 10
3.603766818828616
 20
0.1397289567033648
 30
0.0
 11
3.613570740397244
 21
0.1325174182418264
 31
0.0
  0
LINE
  5
11F
330
A
100
AcDbEntity
  8
1
  6
solid
 62
     0
100
AcDbLine
 10
3.613570740397244
 20
0.1325174182418264
 30
0.0
 11
3.624845250201165
 21
0.127709725934134
 31
0.0
  0
LINE
  5
120
330
A
100
AcDbEntity
  8
1
  6
solid
 62
     0
100
AcDbLine
 10
3.624845250201165
 20
0.127709725934134
 30
0.0
 11
3.637590348240381
 21
0.1241039567033648
 31
0.0
  0
LINE
  5
121
330
A
100
AcDbEntity
  8
1
  6
solid
 62
     0
100
AcDbLine
 10
3.637590348240381
 20
0.1241039567033648
 30
0.0
 11
3.645433485495283
 21
0.1241039567033648
 31
0.0
  0
LINE
  5
122
330
A
100
AcDbEntity
  8
1
  6
solid
 62
     0
100
AcDbLine
 10
3.645433485495283
 20
0.1241039567033648
 30
0.0
 11
3.661609956083518
 21
0.1289116490110571
 31
0.0
  0
LINE
  5
123
330
A
100
AcDbEntity
  8
1
  6
solid
 62
     0
100
AcDbLine
 10
3.661609956083518
 20
0.1289116490110571
 30
0.0
 11
3.674355054122734
 21
0.1385270336264417
 31
0.0
  0
LINE
  5
124
330
A
100
AcDbEntity
  8
1
  6
solid
 62
     0
100
AcDbLine
 10
3.674355054122734
 20
0.1385270336264417
 30
0.0
 11
3.684158975691361
 21
0.1493443413187494
 31
0.0
  0
LINE
  5
125
330
A
100
AcDbEntity
  8
1
  6
solid
 62
     0
100
AcDbLine
 10
3.684158975691361
 20
0.1493443413187494
 30
0.0
 11
3.692982505103126
 21
0.1625654951649033
 31
0.0
  0
LINE
  5
126
330
A
100
AcDbEntity
  8
1
  6
solid
 62
     0
100
AcDbLine
 10
3.692982505103126
 20
0.1625654951649033
 30
0.0
 11
3.699355054122734
 21
0.1805943413187494
 31
0.0
  0
LINE
  5
127
330
A
100
AcDbEntity
  8
1
  6
solid
 62
     0
100
AcDbLine
 10
3.699355054122734
 20
0.1805943413187494
 30
0.0
 11
3.70180603451489
 21
0.1950174182418264
 31
0.0
  0
LINE
  5
128
330
A
100
AcDbEntity
  8
1
  6
solid
 62
     0
100
AcDbLine
 10
3.70180603451489
 20
0.1950174182418264
 30
0.0
 11
3.703276622750185
 21
0.2070366490110571
 31
0.0
  0
LINE
  5
129
330
A
100
AcDbEntity
  8
1
  6
solid
 62
     0
100
AcDbLine
 10
3.703276622750185
 20
0.2070366490110571
 30
0.0
 11
3.703276622750185
 21
0.220257802857211
 31
0.0
  0
LINE
  5
12A
330
A
100
AcDbEntity
  8
1
  6
solid
 62
     0
100
AcDbLine
 10
3.703276622750185
 20
0.220257802857211
 30
0.0
 11
3.700825642358028
 21
0.2406904951649033
 31
0.0
  0
LINE
  5
12B
330
A
100
AcDbEntity
  8
1
  6
solid
 62
     0
100
AcDbLine
 10
3.700825642358028
 20
0.2406904951649033
 30
0.0
 11
3.69445309333842
 21
0.2587193413187494
 31
0.0
  0
LINE
  5
12C
330
A
100
AcDbEntity
  8
1
  6
solid
 62
     0
100
AcDbLine
 10
3.69445309333842
 20
0.2587193413187494
 30
0.0
 11
3.689551132554107
 21
0.2695366490110571
 31
0.0
  0
LINE
  5
12D
330
A
100
AcDbEntity
  8
1
  6
solid
 62
     0
100
AcDbLine
 10
3.689551132554107
 20
0.2695366490110571
 30
0.0
 11
3.681707995299205
 21
0.2803539567033648
 31
0.0
  0
LINE
  5
12E
330
A
100
AcDbEntity
  8
1
  6
solid
 62
     0
100
AcDbLine
 10
3.681707995299205
 20
0.2803539567033648
 30
0.0
 11
3.672884465887439
 21
0.2887674182418264
 31
0.0
  0
LINE
  5
12F
330
A
100
AcDbEntity
  8
1
  6
solid
 62
     0
100
AcDbLine
 10
3.672884465887439
 20
0.2887674182418264
 30
0.0
 11
3.664060936475675
 21
0.2959789567033648
 31
0.0
  0
LINE
  5
130
330
A
100
AcDbEntity
  8
1
  6
solid
 62
     0
100
AcDbLine
 10
3.664060936475675
 20
0.2959789567033648
 30
0.0
 11
3.65523740706391
 21
0.2995847259341341
 31
0.0
  0
LINE
  5
131
330
A
100
AcDbEntity
  8
1
  6
solid
 62
     0
100
AcDbLine
 10
3.65523740706391
 20
0.2995847259341341
 30
0.0
 11
3.642492309024695
 21
0.3019885720879802
 31
0.0
  0
LINE
  5
132
330
A
100
AcDbEntity
  8
1
  6
solid
 62
     0
100
AcDbLine
 10
3.642492309024695
 20
0.3019885720879802
 30
0.0
 11
3.635139367848224
 21
0.3019885720879802
 31
0.0
  0
LINE
  5
133
330
A
100
AcDbEntity
  8
1
  6
solid
 62
     0
100
AcDbLine
 10
3.635139367848224
 20
0.3019885720879802
 30
0.0
 11
3.624845250201165
 21
0.2995847259341341
 31
0.0
  0
LINE
  5
134
330
A
100
AcDbEntity
  8
1
  6
solid
 62
     0
100
AcDbLine
 10
3.624845250201165
 20
0.2995847259341341
 30
0.0
 11
3.6160217207894
 21
0.2959789567033648
 31
0.0
  0
LINE
  5
135
330
A
100
AcDbEntity
  8
1
  6
solid
 62
     0
100
AcDbLine
 10
3.6160217207894
 20
0.2959789567033648
 30
0.0
 11
3.611119760005087
 21
0.2923731874725956
 31
0.0
  0
LINE
  5
136
330
A
100
AcDbEntity
  8
1
  6
solid
 62
     0
100
AcDbLine
 10
3.611119760005087
 20
0.2923731874725956
 30
0.0
 11
3.619943289416851
 21
0.3440558797802879
 31
0.0
  0
LINE
  5
137
330
A
100
AcDbEntity
  8
1
  6
solid
 62
     0
100
AcDbLine
 10
3.619943289416851
 20
0.3440558797802879
 30
0.0
 11
3.681707995299205
 21
0.3440558797802879
 31
0.0
  0
LINE
  5
138
330
A
100
AcDbEntity
  8
1
  6
solid
 62
     0
100
AcDbLine
 10
3.681707995299205
 20
0.3440558797802879
 30
0.0
 11
3.681707995299205
 21
0.3741039567033648
 31
0.0
  0
LINE
  5
139
330
A
100
AcDbEntity
  8
1
  6
solid
 62
     0
100
AcDbLine
 10
3.681707995299205
 20
0.3741039567033648
 30
0.0
 11
3.603766818828616
 21
0.3741039567033648
 31
0.0
  0
LINE
  5
13A
330
A
100
AcDbEntity
  8
1
  6
solid
 62
     0
100
AcDbLine
 10
3.603766818828616
 20
0.3741039567033648
 30
0.0
 11
3.578276622750185
 21
0.2334789567033648
 31
0.0
  0
LINE
  5
13B
330
A
100
AcDbEntity
  8
1
  6
solid
 62
     0
100
AcDbLine
 10
3.578276622750185
 20
0.2334789567033648
 30
0.0
 11
3.599845250201165
 21
0.2274693413187494
 31
0.0
  0
LINE
  5
13C
330
A
100
AcDbEntity
  8
1
  6
solid
 62
     0
100
AcDbLine
 10
3.599845250201165
 20
0.2274693413187494
 30
0.0
 11
3.602296230593322
 21
0.2370847259341341
 31
0.0
  0
LINE
  5
13D
330
A
100
AcDbEntity
  8
1
  6
solid
 62
     0
100
AcDbLine
 10
3.602296230593322
 20
0.2370847259341341
 30
0.0
 11
3.606217799220773
 21
0.2467001105495187
 31
0.0
  0
LINE
  5
13E
330
A
100
AcDbEntity
  8
1
  6
solid
 62
     0
100
AcDbLine
 10
3.606217799220773
 20
0.2467001105495187
 30
0.0
 11
3.611119760005087
 21
0.2551135720879802
 31
0.0
  0
LINE
  5
13F
330
A
100
AcDbEntity
  8
1
  6
solid
 62
     0
100
AcDbLine
 10
3.611119760005087
 20
0.2551135720879802
 30
0.0
 11
3.617492309024695
 21
0.2623251105495187
 31
0.0
  0
LINE
  5
140
330
A
100
AcDbEntity
  8
1
  6
solid
 62
     0
100
AcDbLine
 10
3.617492309024695
 20
0.2623251105495187
 30
0.0
 11
3.624845250201165
 21
0.267132802857211
 31
0.0
  0
LINE
  5
141
330
A
100
AcDbEntity
  8
1
  6
solid
 62
     0
100
AcDbLine
 10
3.624845250201165
 20
0.267132802857211
 30
0.0
 11
3.63366877961293
 21
0.2707385720879802
 31
0.0
  0
LINE
  5
142
330
A
100
AcDbEntity
  8
1
  6
solid
 62
     0
100
AcDbLine
 10
3.63366877961293
 20
0.2707385720879802
 30
0.0
 11
3.642492309024695
 21
0.2707385720879802
 31
0.0
  0
LINE
  5
143
330
A
100
AcDbEntity
  8
1
  6
solid
 62
     0
100
AcDbLine
 10
3.642492309024695
 20
0.2707385720879802
 30
0.0
 11
3.652786426671753
 21
0.2695366490110571
 31
0.0
  0
LINE
  5
144
330
A
100
AcDbEntity
  8
1
  6
solid
 62
     0
100
AcDbLine
 10
3.652786426671753
 20
0.2695366490110571
 30
0.0
 11
3.660139367848224
 21
0.2647289567033648
 31
0.0
  0
LINE
  5
145
330
A
100
AcDbEntity
  8
1
  6
solid
 62
     0
100
AcDbLine
 10
3.660139367848224
 20
0.2647289567033648
 30
0.0
 11
3.666511916867832
 21
0.2587193413187494
 31
0.0
  0
LINE
  5
146
330
A
100
AcDbEntity
  8
1
  6
solid
 62
     0
100
AcDbLine
 10
3.666511916867832
 20
0.2587193413187494
 30
0.0
 11
3.672884465887439
 21
0.2503058797802879
 31
0.0
  0
LINE
  5
147
330
A
100
AcDbEntity
  8
1
  6
solid
 62
     0
100
AcDbLine
 10
3.672884465887439
 20
0.2503058797802879
 30
0.0
 11
3.677786426671754
 21
0.2394885720879802
 31
0.0
  0
LINE
  5
148
330
A
100
AcDbEntity
  8
1
  6
solid
 62
     0
100
AcDbLine
 10
3.677786426671754
 20
0.2394885720879802
 30
0.0
 11
3.680727603142342
 21
0.2286712643956725
 31
0.0
  0
LINE
  5
149
330
A
100
AcDbEntity
  8
1
  6
solid
 62
     0
100
AcDbLine
 10
3.680727603142342
 20
0.2286712643956725
 30
0.0
 11
3.681707995299205
 21
0.2178539567033648
 31
0.0
  0
LINE
  5
14A
330
A
100
AcDbEntity
  8
1
  6
solid
 62
     0
100
AcDbLine
 10
3.681707995299205
 20
0.2178539567033648
 30
0.0
 11
3.681707995299205
 21
0.2094404951649033
 31
0.0
  0
LINE
  5
14B
330
A
100
AcDbEntity
  8
1
  6
solid
 62
     0
100
AcDbLine
 10
3.681707995299205
 20
0.2094404951649033
 30
0.0
 11
3.679257014907047
 21
0.1950174182418264
 31
0.0
  0
LINE
  5
14C
330
A
100
AcDbEntity
  8
1
  6
solid
 62
     0
100
AcDbLine
 10
3.679257014907047
 20
0.1950174182418264
 30
0.0
 11
3.675335446279596
 21
0.1829981874725956
 31
0.0
  0
LINE
  5
14D
330
A
100
AcDbEntity
  8
1
  6
solid
 62
     0
100
AcDbLine
 10
3.675335446279596
 20
0.1829981874725956
 30
0.0
 11
3.668962897259989
 21
0.1721808797802879
 31
0.0
  0
LINE
  5
14E
330
A
100
AcDbEntity
  8
1
  6
solid
 62
     0
100
AcDbLine
 10
3.668962897259989
 20
0.1721808797802879
 30
0.0
 11
3.663080544318812
 21
0.1649693413187494
 31
0.0
  0
LINE
  5
14F
330
A
100
AcDbEntity
  8
1
  6
solid
 62
     0
100
AcDbLine
 10
3.663080544318812
 20
0.1649693413187494
 30
0.0
 11
3.65523740706391
 21
0.1601616490110571
 31
0.0
  0
LINE
  5
150
330
A
100
AcDbEntity
  8
1
  6
solid
 62
     0
100
AcDbLine
 10
3.65523740706391
 20
0.1601616490110571
 30
0.0
 11
3.646413877652145
 21
0.1565558797802879
 31
0.0
  0
LINE
  5
151
330
A
100
AcDbEntity
  8
1
  6
solid
 62
     0
100
AcDbLine
 10
3.646413877652145
 20
0.1565558797802879
 30
0.0
 11
3.637590348240381
 21
0.1565558797802879
 31
0.0
  0
LINE
  5
152
330
A
100
AcDbEntity
  8
1
  6
solid
 62
     0
100
AcDbLine
 10
3.637590348240381
 20
0.1565558797802879
 30
0.0
 11
3.627296230593322
 21
0.157757802857211
 31
0.0
  0
LINE
  5
153
330
A
100
AcDbEntity
  8
1
  6
solid
 62
     0
100
AcDbLine
 10
3.627296230593322
 20
0.157757802857211
 30
0.0
 11
3.617492309024695
 21
0.1649693413187494
 31
0.0
  0
LINE
  5
154
330
A
100
AcDbEntity
  8
1
  6
solid
 62
     0
100
AcDbLine
 10
3.617492309024695
 20
0.1649693413187494
 30
0.0
 11
3.611119760005087
 21
0.1721808797802879
 31
0.0
  0
LINE
  5
155
330
A
100
AcDbEntity
  8
1
  6
solid
 62
     0
100
AcDbLine
 10
3.611119760005087
 20
0.1721808797802879
 30
0.0
 11
3.604747210985479
 21
0.1829981874725956
 31
0.0
  0
LINE
  5
156
330
A
100
AcDbEntity
  8
1
  6
solid
 62
     0
100
AcDbLine
 10
3.604747210985479
 20
0.1829981874725956
 30
0.0
 11
3.600825642358028
 21
0.1938154951649033
 31
0.0
  0
LINE
  5
157
330
A
100
AcDbEntity
  8
1
  6
solid
 62
     0
100
AcDbLine
 10
3.600825642358028
 20
0.1938154951649033
 30
0.0
 11
3.578276622750185
 21
0.1938154951649033
 31
0.0
  0
LINE
  5
158
330
A
100
AcDbEntity
  8
1
  6
solid
 62
     0
100
AcDbLine
 10
3.853276622750184
 20
0.3741039567033648
 30
0.0
 11
3.747394269809008
 21
0.1241039567033648
 31
0.0
  0
LINE
  5
159
330
A
100
AcDbEntity
  8
1
  6
solid
 62
     0
100
AcDbLine
 10
3.747394269809008
 20
0.1241039567033648
 30
0.0
 11
3.728276622750184
 21
0.1241039567033648
 31
0.0
  0
LINE
  5
15A
330
A
100
AcDbEntity
  8
1
  6
solid
 62
     0
100
AcDbLine
 10
3.728276622750184
 20
0.1241039567033648
 30
0.0
 11
3.834158975691361
 21
0.3741039567033648
 31
0.0
  0
LINE
  5
15B
330
A
100
AcDbEntity
  8
1
  6
solid
 62
     0
100
AcDbLine
 10
3.834158975691361
 20
0.3741039567033648
 30
0.0
 11
3.853276622750184
 21
0.3741039567033648
 31
0.0
  0
LINE
  5
15C
330
A
100
AcDbEntity
  8
1
  6
solid
 62
     0
100
AcDbLine
 10
3.908178583534498
 20
0.2719404951649032
 30
0.0
 11
3.901315838436459
 21
0.2647289567033648
 31
0.0
  0
LINE
  5
15D
330
A
100
AcDbEntity
  8
1
  6
solid
 62
     0
100
AcDbLine
 10
3.901315838436459
 20
0.2647289567033648
 30
0.0
 11
3.89445309333842
 21
0.2563154951649032
 31
0.0
  0
LINE
  5
15E
330
A
100
AcDbEntity
  8
1
  6
solid
 62
     0
100
AcDbLine
 10
3.89445309333842
 20
0.2563154951649032
 30
0.0
 11
3.889060936475675
 21
0.2479020336264417
 31
0.0
  0
LINE
  5
15F
330
A
100
AcDbEntity
  8
1
  6
solid
 62
     0
100
AcDbLine
 10
3.889060936475675
 20
0.2479020336264417
 30
0.0
 11
3.885139367848224
 21
0.2382866490110572
 31
0.0
  0
LINE
  5
160
330
A
100
AcDbEntity
  8
1
  6
solid
 62
     0
100
AcDbLine
 10
3.885139367848224
 20
0.2382866490110572
 30
0.0
 11
3.882198191377636
 21
0.2298731874725956
 31
0.0
  0
LINE
  5
161
330
A
100
AcDbEntity
  8
1
  6
solid
 62
     0
100
AcDbLine
 10
3.882198191377636
 20
0.2298731874725956
 30
0.0
 11
3.879747210985478
 21
0.2178539567033648
 31
0.0
  0
LINE
  5
162
330
A
100
AcDbEntity
  8
1
  6
solid
 62
     0
100
AcDbLine
 10
3.879747210985478
 20
0.2178539567033648
 30
0.0
 11
3.878276622750185
 21
0.2094404951649033
 31
0.0
  0
LINE
  5
163
330
A
100
AcDbEntity
  8
1
  6
solid
 62
     0
100
AcDbLine
 10
3.878276622750185
 20
0.2094404951649033
 30
0.0
 11
3.878276622750185
 21
0.2034308797802879
 31
0.0
  0
LINE
  5
164
330
A
100
AcDbEntity
  8
1
  6
solid
 62
     0
100
AcDbLine
 10
3.878276622750185
 20
0.2034308797802879
 30
0.0
 11
3.879747210985478
 21
0.1938154951649033
 31
0.0
  0
LINE
  5
165
330
A
100
AcDbEntity
  8
1
  6
solid
 62
     0
100
AcDbLine
 10
3.879747210985478
 20
0.1938154951649033
 30
0.0
 11
3.881217799220773
 21
0.1829981874725956
 31
0.0
  0
LINE
  5
166
330
A
100
AcDbEntity
  8
1
  6
solid
 62
     0
100
AcDbLine
 10
3.881217799220773
 20
0.1829981874725956
 30
0.0
 11
3.883668779612929
 21
0.1721808797802879
 31
0.0
  0
LINE
  5
167
330
A
100
AcDbEntity
  8
1
  6
solid
 62
     0
100
AcDbLine
 10
3.883668779612929
 20
0.1721808797802879
 30
0.0
 11
3.889060936475675
 21
0.158959725934134
 31
0.0
  0
LINE
  5
168
330
A
100
AcDbEntity
  8
1
  6
solid
 62
     0
100
AcDbLine
 10
3.889060936475675
 20
0.158959725934134
 30
0.0
 11
3.897394269809008
 21
0.1481424182418264
 31
0.0
  0
LINE
  5
169
330
A
100
AcDbEntity
  8
1
  6
solid
 62
     0
100
AcDbLine
 10
3.897394269809008
 20
0.1481424182418264
 30
0.0
 11
3.904257014907047
 21
0.1397289567033648
 31
0.0
  0
LINE
  5
16A
330
A
100
AcDbEntity
  8
1
  6
solid
 62
     0
100
AcDbLine
 10
3.904257014907047
 20
0.1397289567033648
 30
0.0
 11
3.916511916867832
 21
0.1313154951649033
 31
0.0
  0
LINE
  5
16B
330
A
100
AcDbEntity
  8
1
  6
solid
 62
     0
100
AcDbLine
 10
3.916511916867832
 20
0.1313154951649033
 30
0.0
 11
3.928766818828616
 21
0.1253058797802879
 31
0.0
  0
LINE
  5
16C
330
A
100
AcDbEntity
  8
1
  6
solid
 62
     0
100
AcDbLine
 10
3.928766818828616
 20
0.1253058797802879
 30
0.0
 11
3.938080544318812
 21
0.1241039567033648
 31
0.0
  0
LINE
  5
16D
330
A
100
AcDbEntity
  8
1
  6
solid
 62
     0
100
AcDbLine
 10
3.938080544318812
 20
0.1241039567033648
 30
0.0
 11
3.948864858044302
 21
0.1241039567033648
 31
0.0
  0
LINE
  5
16E
330
A
100
AcDbEntity
  8
1
  6
solid
 62
     0
100
AcDbLine
 10
3.948864858044302
 20
0.1241039567033648
 30
0.0
 11
3.959649171769792
 21
0.127709725934134
 31
0.0
  0
LINE
  5
16F
330
A
100
AcDbEntity
  8
1
  6
solid
 62
     0
100
AcDbLine
 10
3.959649171769792
 20
0.127709725934134
 30
0.0
 11
3.971904073730577
 21
0.1361231874725956
 31
0.0
  0
LINE
  5
170
330
A
100
AcDbEntity
  8
1
  6
solid
 62
     0
100
AcDbLine
 10
3.971904073730577
 20
0.1361231874725956
 30
0.0
 11
3.984158975691361
 21
0.1469404951649033
 31
0.0
  0
LINE
  5
171
330
A
100
AcDbEntity
  8
1
  6
solid
 62
     0
100
AcDbLine
 10
3.984158975691361
 20
0.1469404951649033
 30
0.0
 11
3.992492309024695
 21
0.1601616490110571
 31
0.0
  0
LINE
  5
172
330
A
100
AcDbEntity
  8
1
  6
solid
 62
     0
100
AcDbLine
 10
3.992492309024695
 20
0.1601616490110571
 30
0.0
 11
3.997884465887439
 21
0.174584725934134
 31
0.0
  0
LINE
  5
173
330
A
100
AcDbEntity
  8
1
  6
solid
 62
     0
100
AcDbLine
 10
3.997884465887439
 20
0.174584725934134
 30
0.0
 11
4.000335446279597
 21
0.1817962643956725
 31
0.0
  0
LINE
  5
174
330
A
100
AcDbEntity
  8
1
  6
solid
 62
     0
100
AcDbLine
 10
4.000335446279597
 20
0.1817962643956725
 30
0.0
 11
4.003276622750185
 21
0.1974212643956725
 31
0.0
  0
LINE
  5
175
330
A
100
AcDbEntity
  8
1
  6
solid
 62
     0
100
AcDbLine
 10
4.003276622750185
 20
0.1974212643956725
 30
0.0
 11
4.003276622750185
 21
0.2106424182418264
 31
0.0
  0
LINE
  5
176
330
A
100
AcDbEntity
  8
1
  6
solid
 62
     0
100
AcDbLine
 10
4.003276622750185
 20
0.2106424182418264
 30
0.0
 11
4.000335446279597
 21
0.2262674182418263
 31
0.0
  0
LINE
  5
177
330
A
100
AcDbEntity
  8
1
  6
solid
 62
     0
100
AcDbLine
 10
4.000335446279597
 20
0.2262674182418263
 30
0.0
 11
3.996413877652146
 21
0.2382866490110572
 31
0.0
  0
LINE
  5
178
330
A
100
AcDbEntity
  8
1
  6
solid
 62
     0
100
AcDbLine
 10
3.996413877652146
 20
0.2382866490110572
 30
0.0
 11
3.9910217207894
 21
0.252709725934134
 31
0.0
  0
LINE
  5
179
330
A
100
AcDbEntity
  8
1
  6
solid
 62
     0
100
AcDbLine
 10
3.9910217207894
 20
0.252709725934134
 30
0.0
 11
3.984158975691361
 21
0.2611231874725956
 31
0.0
  0
LINE
  5
17A
330
A
100
AcDbEntity
  8
1
  6
solid
 62
     0
100
AcDbLine
 10
3.984158975691361
 20
0.2611231874725956
 30
0.0
 11
3.977296230593322
 21
0.2683347259341341
 31
0.0
  0
LINE
  5
17B
330
A
100
AcDbEntity
  8
1
  6
solid
 62
     0
100
AcDbLine
 10
3.977296230593322
 20
0.2683347259341341
 30
0.0
 11
3.973374661965871
 21
0.2719404951649032
 31
0.0
  0
LINE
  5
17C
330
A
100
AcDbEntity
  8
1
  6
solid
 62
     0
100
AcDbLine
 10
3.973374661965871
 20
0.2719404951649032
 30
0.0
 11
3.98023740706391
 21
0.2803539567033648
 31
0.0
  0
LINE
  5
17D
330
A
100
AcDbEntity
  8
1
  6
solid
 62
     0
100
AcDbLine
 10
3.98023740706391
 20
0.2803539567033648
 30
0.0
 11
3.984158975691361
 21
0.2887674182418264
 31
0.0
  0
LINE
  5
17E
330
A
100
AcDbEntity
  8
1
  6
solid
 62
     0
100
AcDbLine
 10
3.984158975691361
 20
0.2887674182418264
 30
0.0
 11
3.987100152161949
 21
0.2971808797802879
 31
0.0
  0
LINE
  5
17F
330
A
100
AcDbEntity
  8
1
  6
solid
 62
     0
100
AcDbLine
 10
3.987100152161949
 20
0.2971808797802879
 30
0.0
 11
3.988570740397244
 21
0.3104020336264417
 31
0.0
  0
LINE
  5
180
330
A
100
AcDbEntity
  8
1
  6
solid
 62
     0
100
AcDbLine
 10
3.988570740397244
 20
0.3104020336264417
 30
0.0
 11
3.988570740397244
 21
0.3200174182418264
 31
0.0
  0
LINE
  5
181
330
A
100
AcDbEntity
  8
1
  6
solid
 62
     0
100
AcDbLine
 10
3.988570740397244
 20
0.3200174182418264
 30
0.0
 11
3.987100152161949
 21
0.3284308797802879
 31
0.0
  0
LINE
  5
182
330
A
100
AcDbEntity
  8
1
  6
solid
 62
     0
100
AcDbLine
 10
3.987100152161949
 20
0.3284308797802879
 30
0.0
 11
3.984158975691361
 21
0.3380462643956725
 31
0.0
  0
LINE
  5
183
330
A
100
AcDbEntity
  8
1
  6
solid
 62
     0
100
AcDbLine
 10
3.984158975691361
 20
0.3380462643956725
 30
0.0
 11
3.98023740706391
 21
0.3476616490110571
 31
0.0
  0
LINE
  5
184
330
A
100
AcDbEntity
  8
1
  6
solid
 62
     0
100
AcDbLine
 10
3.98023740706391
 20
0.3476616490110571
 30
0.0
 11
3.976315838436459
 21
0.3548731874725956
 31
0.0
  0
LINE
  5
185
330
A
100
AcDbEntity
  8
1
  6
solid
 62
     0
100
AcDbLine
 10
3.976315838436459
 20
0.3548731874725956
 30
0.0
 11
3.96945309333842
 21
0.3620847259341341
 31
0.0
  0
LINE
  5
186
330
A
100
AcDbEntity
  8
1
  6
solid
 62
     0
100
AcDbLine
 10
3.96945309333842
 20
0.3620847259341341
 30
0.0
 11
3.964060936475675
 21
0.3668924182418264
 31
0.0
  0
LINE
  5
187
330
A
100
AcDbEntity
  8
1
  6
solid
 62
     0
100
AcDbLine
 10
3.964060936475675
 20
0.3668924182418264
 30
0.0
 11
3.957198191377635
 21
0.3704981874725956
 31
0.0
  0
LINE
  5
188
330
A
100
AcDbEntity
  8
1
  6
solid
 62
     0
100
AcDbLine
 10
3.957198191377635
 20
0.3704981874725956
 30
0.0
 11
3.947394269809008
 21
0.3741039567033648
 31
0.0
  0
LINE
  5
189
330
A
100
AcDbEntity
  8
1
  6
solid
 62
     0
100
AcDbLine
 10
3.947394269809008
 20
0.3741039567033648
 30
0.0
 11
3.936609956083518
 21
0.3741039567033648
 31
0.0
  0
LINE
  5
18A
330
A
100
AcDbEntity
  8
1
  6
solid
 62
     0
100
AcDbLine
 10
3.936609956083518
 20
0.3741039567033648
 30
0.0
 11
3.924355054122734
 21
0.3704981874725956
 31
0.0
  0
LINE
  5
18B
330
A
100
AcDbEntity
  8
1
  6
solid
 62
     0
100
AcDbLine
 10
3.924355054122734
 20
0.3704981874725956
 30
0.0
 11
3.913570740397243
 21
0.3632866490110571
 31
0.0
  0
LINE
  5
18C
330
A
100
AcDbEntity
  8
1
  6
solid
 62
     0
100
AcDbLine
 10
3.913570740397243
 20
0.3632866490110571
 30
0.0
 11
3.906707995299204
 21
0.3572770336264417
 31
0.0
  0
LINE
  5
18D
330
A
100
AcDbEntity
  8
1
  6
solid
 62
     0
100
AcDbLine
 10
3.906707995299204
 20
0.3572770336264417
 30
0.0
 11
3.901315838436459
 21
0.3476616490110571
 31
0.0
  0
LINE
  5
18E
330
A
100
AcDbEntity
  8
1
  6
solid
 62
     0
100
AcDbLine
 10
3.901315838436459
 20
0.3476616490110571
 30
0.0
 11
3.897394269809008
 21
0.3380462643956725
 31
0.0
  0
LINE
  5
18F
330
A
100
AcDbEntity
  8
1
  6
solid
 62
     0
100
AcDbLine
 10
3.897394269809008
 20
0.3380462643956725
 30
0.0
 11
3.89445309333842
 21
0.3272289567033648
 31
0.0
  0
LINE
  5
190
330
A
100
AcDbEntity
  8
1
  6
solid
 62
     0
100
AcDbLine
 10
3.89445309333842
 20
0.3272289567033648
 30
0.0
 11
3.892982505103126
 21
0.3200174182418264
 31
0.0
  0
LINE
  5
191
330
A
100
AcDbEntity
  8
1
  6
solid
 62
     0
100
AcDbLine
 10
3.892982505103126
 20
0.3200174182418264
 30
0.0
 11
3.892982505103126
 21
0.3116039567033648
 31
0.0
  0
LINE
  5
192
330
A
100
AcDbEntity
  8
1
  6
solid
 62
     0
100
AcDbLine
 10
3.892982505103126
 20
0.3116039567033648
 30
0.0
 11
3.89445309333842
 21
0.3007866490110571
 31
0.0
  0
LINE
  5
193
330
A
100
AcDbEntity
  8
1
  6
solid
 62
     0
100
AcDbLine
 10
3.89445309333842
 20
0.3007866490110571
 30
0.0
 11
3.897394269809008
 21
0.2887674182418264
 31
0.0
  0
LINE
  5
194
330
A
100
AcDbEntity
  8
1
  6
solid
 62
     0
100
AcDbLine
 10
3.897394269809008
 20
0.2887674182418264
 30
0.0
 11
3.901315838436459
 21
0.2803539567033648
 31
0.0
  0
LINE
  5
195
330
A
100
AcDbEntity
  8
1
  6
solid
 62
     0
100
AcDbLine
 10
3.901315838436459
 20
0.2803539567033648
 30
0.0
 11
3.90523740706391
 21
0.2755462643956725
 31
0.0
  0
LINE
  5
196
330
A
100
AcDbEntity
  8
1
  6
solid
 62
     0
100
AcDbLine
 10
3.90523740706391
 20
0.2755462643956725
 30
0.0
 11
3.908178583534498
 21
0.2719404951649032
 31
0.0
  0
LINE
  5
197
330
A
100
AcDbEntity
  8
1
  6
solid
 62
     0
100
AcDbLine
 10
3.947394269809008
 20
0.1553539567033648
 30
0.0
 11
3.957198191377635
 21
0.158959725934134
 31
0.0
  0
LINE
  5
198
330
A
100
AcDbEntity
  8
1
  6
solid
 62
     0
100
AcDbLine
 10
3.957198191377635
 20
0.158959725934134
 30
0.0
 11
3.964060936475675
 21
0.1637674182418264
 31
0.0
  0
LINE
  5
199
330
A
100
AcDbEntity
  8
1
  6
solid
 62
     0
100
AcDbLine
 10
3.964060936475675
 20
0.1637674182418264
 30
0.0
 11
3.970433485495282
 21
0.1709789567033648
 31
0.0
  0
LINE
  5
19A
330
A
100
AcDbEntity
  8
1
  6
solid
 62
     0
100
AcDbLine
 10
3.970433485495282
 20
0.1709789567033648
 30
0.0
 11
3.976315838436459
 21
0.1817962643956725
 31
0.0
  0
LINE
  5
19B
330
A
100
AcDbEntity
  8
1
  6
solid
 62
     0
100
AcDbLine
 10
3.976315838436459
 20
0.1817962643956725
 30
0.0
 11
3.978766818828616
 21
0.1914116490110571
 31
0.0
  0
LINE
  5
19C
330
A
100
AcDbEntity
  8
1
  6
solid
 62
     0
100
AcDbLine
 10
3.978766818828616
 20
0.1914116490110571
 30
0.0
 11
3.98023740706391
 21
0.2022289567033648
 31
0.0
  0
LINE
  5
19D
330
A
100
AcDbEntity
  8
1
  6
solid
 62
     0
100
AcDbLine
 10
3.98023740706391
 20
0.2022289567033648
 30
0.0
 11
3.98023740706391
 21
0.2094404951649033
 31
0.0
  0
LINE
  5
19E
330
A
100
AcDbEntity
  8
1
  6
solid
 62
     0
100
AcDbLine
 10
3.98023740706391
 20
0.2094404951649033
 30
0.0
 11
3.976315838436459
 21
0.2250654951649032
 31
0.0
  0
LINE
  5
19F
330
A
100
AcDbEntity
  8
1
  6
solid
 62
     0
100
AcDbLine
 10
3.976315838436459
 20
0.2250654951649032
 30
0.0
 11
3.971904073730577
 21
0.2334789567033648
 31
0.0
  0
LINE
  5
1A0
330
A
100
AcDbEntity
  8
1
  6
solid
 62
     0
100
AcDbLine
 10
3.971904073730577
 20
0.2334789567033648
 30
0.0
 11
3.966511916867831
 21
0.2406904951649033
 31
0.0
  0
LINE
  5
1A1
330
A
100
AcDbEntity
  8
1
  6
solid
 62
     0
100
AcDbLine
 10
3.966511916867831
 20
0.2406904951649033
 30
0.0
 11
3.959649171769792
 21
0.2479020336264417
 31
0.0
  0
LINE
  5
1A2
330
A
100
AcDbEntity
  8
1
  6
solid
 62
     0
100
AcDbLine
 10
3.959649171769792
 20
0.2479020336264417
 30
0.0
 11
3.954257014907047
 21
0.2503058797802879
 31
0.0
  0
LINE
  5
1A3
330
A
100
AcDbEntity
  8
1
  6
solid
 62
     0
100
AcDbLine
 10
3.954257014907047
 20
0.2503058797802879
 30
0.0
 11
3.946413877652145
 21
0.252709725934134
 31
0.0
  0
LINE
  5
1A4
330
A
100
AcDbEntity
  8
1
  6
solid
 62
     0
100
AcDbLine
 10
3.946413877652145
 20
0.252709725934134
 30
0.0
 11
3.936609956083518
 21
0.252709725934134
 31
0.0
  0
LINE
  5
1A5
330
A
100
AcDbEntity
  8
1
  6
solid
 62
     0
100
AcDbLine
 10
3.936609956083518
 20
0.252709725934134
 30
0.0
 11
3.925825642358028
 21
0.2491039567033648
 31
0.0
  0
LINE
  5
1A6
330
A
100
AcDbEntity
  8
1
  6
solid
 62
     0
100
AcDbLine
 10
3.925825642358028
 20
0.2491039567033648
 30
0.0
 11
3.918962897259989
 21
0.2442962643956725
 31
0.0
  0
LINE
  5
1A7
330
A
100
AcDbEntity
  8
1
  6
solid
 62
     0
100
AcDbLine
 10
3.918962897259989
 20
0.2442962643956725
 30
0.0
 11
3.912100152161949
 21
0.2370847259341341
 31
0.0
  0
LINE
  5
1A8
330
A
100
AcDbEntity
  8
1
  6
solid
 62
     0
100
AcDbLine
 10
3.912100152161949
 20
0.2370847259341341
 30
0.0
 11
3.906707995299204
 21
0.2262674182418263
 31
0.0
  0
LINE
  5
1A9
330
A
100
AcDbEntity
  8
1
  6
solid
 62
     0
100
AcDbLine
 10
3.906707995299204
 20
0.2262674182418263
 30
0.0
 11
3.904257014907047
 21
0.2178539567033648
 31
0.0
  0
LINE
  5
1AA
330
A
100
AcDbEntity
  8
1
  6
solid
 62
     0
100
AcDbLine
 10
3.904257014907047
 20
0.2178539567033648
 30
0.0
 11
3.902786426671753
 21
0.2094404951649033
 31
0.0
  0
LINE
  5
1AB
330
A
100
AcDbEntity
  8
1
  6
solid
 62
     0
100
AcDbLine
 10
3.902786426671753
 20
0.2094404951649033
 30
0.0
 11
3.902786426671753
 21
0.1986231874725956
 31
0.0
  0
LINE
  5
1AC
330
A
100
AcDbEntity
  8
1
  6
solid
 62
     0
100
AcDbLine
 10
3.902786426671753
 20
0.1986231874725956
 30
0.0
 11
3.904257014907047
 21
0.1878058797802879
 31
0.0
  0
LINE
  5
1AD
330
A
100
AcDbEntity
  8
1
  6
solid
 62
     0
100
AcDbLine
 10
3.904257014907047
 20
0.1878058797802879
 30
0.0
 11
3.908178583534498
 21
0.1757866490110571
 31
0.0
  0
LINE
  5
1AE
330
A
100
AcDbEntity
  8
1
  6
solid
 62
     0
100
AcDbLine
 10
3.908178583534498
 20
0.1757866490110571
 30
0.0
 11
3.915041328632538
 21
0.1673731874725956
 31
0.0
  0
LINE
  5
1AF
330
A
100
AcDbEntity
  8
1
  6
solid
 62
     0
100
AcDbLine
 10
3.915041328632538
 20
0.1673731874725956
 30
0.0
 11
3.921904073730577
 21
0.1601616490110571
 31
0.0
  0
LINE
  5
1B0
330
A
100
AcDbEntity
  8
1
  6
solid
 62
     0
100
AcDbLine
 10
3.921904073730577
 20
0.1601616490110571
 30
0.0
 11
3.931217799220773
 21
0.1553539567033648
 31
0.0
  0
LINE
  5
1B1
330
A
100
AcDbEntity
  8
1
  6
solid
 62
     0
100
AcDbLine
 10
3.931217799220773
 20
0.1553539567033648
 30
0.0
 11
3.947394269809008
 21
0.1553539567033648
 31
0.0
  0
LINE
  5
1B2
330
A
100
AcDbEntity
  8
1
  6
solid
 62
     0
100
AcDbLine
 10
3.944943289416851
 20
0.283959725934134
 30
0.0
 11
3.950335446279596
 21
0.2851616490110571
 31
0.0
  0
LINE
  5
1B3
330
A
100
AcDbEntity
  8
1
  6
solid
 62
     0
100
AcDbLine
 10
3.950335446279596
 20
0.2851616490110571
 30
0.0
 11
3.957198191377635
 21
0.2911712643956725
 31
0.0
  0
LINE
  5
1B4
330
A
100
AcDbEntity
  8
1
  6
solid
 62
     0
100
AcDbLine
 10
3.957198191377635
 20
0.2911712643956725
 30
0.0
 11
3.961119760005086
 21
0.2971808797802879
 31
0.0
  0
LINE
  5
1B5
330
A
100
AcDbEntity
  8
1
  6
solid
 62
     0
100
AcDbLine
 10
3.961119760005086
 20
0.2971808797802879
 30
0.0
 11
3.964060936475675
 21
0.3043924182418264
 31
0.0
  0
LINE
  5
1B6
330
A
100
AcDbEntity
  8
1
  6
solid
 62
     0
100
AcDbLine
 10
3.964060936475675
 20
0.3043924182418264
 30
0.0
 11
3.965041328632537
 21
0.3116039567033648
 31
0.0
  0
LINE
  5
1B7
330
A
100
AcDbEntity
  8
1
  6
solid
 62
     0
100
AcDbLine
 10
3.965041328632537
 20
0.3116039567033648
 30
0.0
 11
3.965041328632537
 21
0.3164116490110571
 31
0.0
  0
LINE
  5
1B8
330
A
100
AcDbEntity
  8
1
  6
solid
 62
     0
100
AcDbLine
 10
3.965041328632537
 20
0.3164116490110571
 30
0.0
 11
3.962590348240381
 21
0.3272289567033648
 31
0.0
  0
LINE
  5
1B9
330
A
100
AcDbEntity
  8
1
  6
solid
 62
     0
100
AcDbLine
 10
3.962590348240381
 20
0.3272289567033648
 30
0.0
 11
3.95866877961293
 21
0.3344404951649032
 31
0.0
  0
LINE
  5
1BA
330
A
100
AcDbEntity
  8
1
  6
solid
 62
     0
100
AcDbLine
 10
3.95866877961293
 20
0.3344404951649032
 30
0.0
 11
3.954257014907047
 21
0.3392481874725956
 31
0.0
  0
LINE
  5
1BB
330
A
100
AcDbEntity
  8
1
  6
solid
 62
     0
100
AcDbLine
 10
3.954257014907047
 20
0.3392481874725956
 30
0.0
 11
3.948864858044302
 21
0.3428539567033648
 31
0.0
  0
LINE
  5
1BC
330
A
100
AcDbEntity
  8
1
  6
solid
 62
     0
100
AcDbLine
 10
3.948864858044302
 20
0.3428539567033648
 30
0.0
 11
3.943472701181557
 21
0.3440558797802879
 31
0.0
  0
LINE
  5
1BD
330
A
100
AcDbEntity
  8
1
  6
solid
 62
     0
100
AcDbLine
 10
3.943472701181557
 20
0.3440558797802879
 30
0.0
 11
3.939551132554106
 21
0.3440558797802879
 31
0.0
  0
LINE
  5
1BE
330
A
100
AcDbEntity
  8
1
  6
solid
 62
     0
100
AcDbLine
 10
3.939551132554106
 20
0.3440558797802879
 30
0.0
 11
3.932688387456067
 21
0.3428539567033648
 31
0.0
  0
LINE
  5
1BF
330
A
100
AcDbEntity
  8
1
  6
solid
 62
     0
100
AcDbLine
 10
3.932688387456067
 20
0.3428539567033648
 30
0.0
 11
3.927296230593322
 21
0.3392481874725956
 31
0.0
  0
LINE
  5
1C0
330
A
100
AcDbEntity
  8
1
  6
solid
 62
     0
100
AcDbLine
 10
3.927296230593322
 20
0.3392481874725956
 30
0.0
 11
3.92288446588744
 21
0.3344404951649032
 31
0.0
  0
LINE
  5
1C1
330
A
100
AcDbEntity
  8
1
  6
solid
 62
     0
100
AcDbLine
 10
3.92288446588744
 20
0.3344404951649032
 30
0.0
 11
3.918962897259989
 21
0.3272289567033648
 31
0.0
  0
LINE
  5
1C2
330
A
100
AcDbEntity
  8
1
  6
solid
 62
     0
100
AcDbLine
 10
3.918962897259989
 20
0.3272289567033648
 30
0.0
 11
3.917492309024694
 21
0.3200174182418264
 31
0.0
  0
LINE
  5
1C3
330
A
100
AcDbEntity
  8
1
  6
solid
 62
     0
100
AcDbLine
 10
3.917492309024694
 20
0.3200174182418264
 30
0.0
 11
3.916511916867832
 21
0.3152097259341341
 31
0.0
  0
LINE
  5
1C4
330
A
100
AcDbEntity
  8
1
  6
solid
 62
     0
100
AcDbLine
 10
3.916511916867832
 20
0.3152097259341341
 30
0.0
 11
3.916511916867832
 21
0.3116039567033648
 31
0.0
  0
LINE
  5
1C5
330
A
100
AcDbEntity
  8
1
  6
solid
 62
     0
100
AcDbLine
 10
3.916511916867832
 20
0.3116039567033648
 30
0.0
 11
3.918962897259989
 21
0.3007866490110571
 31
0.0
  0
LINE
  5
1C6
330
A
100
AcDbEntity
  8
1
  6
solid
 62
     0
100
AcDbLine
 10
3.918962897259989
 20
0.3007866490110571
 30
0.0
 11
3.921904073730577
 21
0.2959789567033648
 31
0.0
  0
LINE
  5
1C7
330
A
100
AcDbEntity
  8
1
  6
solid
 62
     0
100
AcDbLine
 10
3.921904073730577
 20
0.2959789567033648
 30
0.0
 11
3.925825642358028
 21
0.2887674182418264
 31
0.0
  0
LINE
  5
1C8
330
A
100
AcDbEntity
  8
1
  6
solid
 62
     0
100
AcDbLine
 10
3.925825642358028
 20
0.2887674182418264
 30
0.0
 11
3.931217799220773
 21
0.2851616490110571
 31
0.0
  0
LINE
  5
1C9
330
A
100
AcDbEntity
  8
1
  6
solid
 62
     0
100
AcDbLine
 10
3.931217799220773
 20
0.2851616490110571
 30
0.0
 11
3.938080544318812
 21
0.283959725934134
 31
0.0
  0
LINE
  5
1CA
330
A
100
AcDbEntity
  8
1
  6
solid
 62
     0
100
AcDbLine
 10
3.938080544318812
 20
0.283959725934134
 30
0.0
 11
3.944943289416851
 21
0.283959725934134
 31
0.0
  0
LINE
  5
1CB
330
A
100
AcDbEntity
  8
1
  6
solid
 62
     0
100
AcDbLine
 10
4.18023740706391
 20
0.3741039567033648
 30
0.0
 11
4.18023740706391
 21
0.3416520336264417
 31
0.0
  0
LINE
  5
1CC
330
A
100
AcDbEntity
  8
1
  6
solid
 62
     0
100
AcDbLine
 10
4.18023740706391
 20
0.3416520336264417
 30
0.0
 11
4.197884465887439
 21
0.3416520336264417
 31
0.0
  0
LINE
  5
1CD
330
A
100
AcDbEntity
  8
1
  6
solid
 62
     0
100
AcDbLine
 10
4.197884465887439
 20
0.3416520336264417
 30
0.0
 11
4.230727603142341
 21
0.251507802857211
 31
0.0
  0
LINE
  5
1CE
330
A
100
AcDbEntity
  8
1
  6
solid
 62
     0
100
AcDbLine
 10
4.230727603142341
 20
0.251507802857211
 30
0.0
 11
4.194453093338419
 21
0.1565558797802879
 31
0.0
  0
LINE
  5
1CF
330
A
100
AcDbEntity
  8
1
  6
solid
 62
     0
100
AcDbLine
 10
4.194453093338419
 20
0.1565558797802879
 30
0.0
 11
4.178276622750185
 21
0.1565558797802879
 31
0.0
  0
LINE
  5
1D0
330
A
100
AcDbEntity
  8
1
  6
solid
 62
     0
100
AcDbLine
 10
4.178276622750185
 20
0.1565558797802879
 30
0.0
 11
4.178276622750185
 21
0.1241039567033648
 31
0.0
  0
LINE
  5
1D1
330
A
100
AcDbEntity
  8
1
  6
solid
 62
     0
100
AcDbLine
 10
4.178276622750185
 20
0.1241039567033648
 30
0.0
 11
4.230727603142341
 21
0.1241039567033648
 31
0.0
  0
LINE
  5
1D2
330
A
100
AcDbEntity
  8
1
  6
solid
 62
     0
100
AcDbLine
 10
4.230727603142341
 20
0.1241039567033648
 30
0.0
 11
4.230727603142341
 21
0.1565558797802879
 31
0.0
  0
LINE
  5
1D3
330
A
100
AcDbEntity
  8
1
  6
solid
 62
     0
100
AcDbLine
 10
4.230727603142341
 20
0.1565558797802879
 30
0.0
 11
4.217002112946262
 21
0.1565558797802879
 31
0.0
  0
LINE
  5
1D4
330
A
100
AcDbEntity
  8
1
  6
solid
 62
     0
100
AcDbLine
 10
4.217002112946262
 20
0.1565558797802879
 30
0.0
 11
4.2410217207894
 21
0.2226616490110571
 31
0.0
  0
LINE
  5
1D5
330
A
100
AcDbEntity
  8
1
  6
solid
 62
     0
100
AcDbLine
 10
4.2410217207894
 20
0.2226616490110571
 30
0.0
 11
4.264551132554106
 21
0.1565558797802879
 31
0.0
  0
LINE
  5
1D6
330
A
100
AcDbEntity
  8
1
  6
solid
 62
     0
100
AcDbLine
 10
4.264551132554106
 20
0.1565558797802879
 30
0.0
 11
4.25180603451489
 21
0.1565558797802879
 31
0.0
  0
LINE
  5
1D7
330
A
100
AcDbEntity
  8
1
  6
solid
 62
     0
100
AcDbLine
 10
4.25180603451489
 20
0.1565558797802879
 30
0.0
 11
4.25180603451489
 21
0.1241039567033648
 31
0.0
  0
LINE
  5
1D8
330
A
100
AcDbEntity
  8
1
  6
solid
 62
     0
100
AcDbLine
 10
4.25180603451489
 20
0.1241039567033648
 30
0.0
 11
4.303276622750185
 21
0.1241039567033648
 31
0.0
  0
LINE
  5
1D9
330
A
100
AcDbEntity
  8
1
  6
solid
 62
     0
100
AcDbLine
 10
4.303276622750185
 20
0.1241039567033648
 30
0.0
 11
4.303276622750185
 21
0.1565558797802879
 31
0.0
  0
LINE
  5
1DA
330
A
100
AcDbEntity
  8
1
  6
solid
 62
     0
100
AcDbLine
 10
4.303276622750185
 20
0.1565558797802879
 30
0.0
 11
4.287100152161949
 21
0.1565558797802879
 31
0.0
  0
LINE
  5
1DB
330
A
100
AcDbEntity
  8
1
  6
solid
 62
     0
100
AcDbLine
 10
4.287100152161949
 20
0.1565558797802879
 30
0.0
 11
4.25180603451489
 21
0.251507802857211
 31
0.0
  0
LINE
  5
1DC
330
A
100
AcDbEntity
  8
1
  6
solid
 62
     0
100
AcDbLine
 10
4.25180603451489
 20
0.251507802857211
 30
0.0
 11
4.28366877961293
 21
0.3416520336264417
 31
0.0
  0
LINE
  5
1DD
330
A
100
AcDbEntity
  8
1
  6
solid
 62
     0
100
AcDbLine
 10
4.28366877961293
 20
0.3416520336264417
 30
0.0
 11
4.301315838436459
 21
0.3416520336264417
 31
0.0
  0
LINE
  5
1DE
330
A
100
AcDbEntity
  8
1
  6
solid
 62
     0
100
AcDbLine
 10
4.301315838436459
 20
0.3416520336264417
 30
0.0
 11
4.301315838436459
 21
0.3741039567033648
 31
0.0
  0
LINE
  5
1DF
330
A
100
AcDbEntity
  8
1
  6
solid
 62
     0
100
AcDbLine
 10
4.301315838436459
 20
0.3741039567033648
 30
0.0
 11
4.248864858044302
 21
0.3741039567033648
 31
0.0
  0
LINE
  5
1E0
330
A
100
AcDbEntity
  8
1
  6
solid
 62
     0
100
AcDbLine
 10
4.248864858044302
 20
0.3741039567033648
 30
0.0
 11
4.248864858044302
 21
0.3416520336264417
 31
0.0
  0
LINE
  5
1E1
330
A
100
AcDbEntity
  8
1
  6
solid
 62
     0
100
AcDbLine
 10
4.248864858044302
 20
0.3416520336264417
 30
0.0
 11
4.262100152161949
 21
0.3416520336264417
 31
0.0
  0
LINE
  5
1E2
330
A
100
AcDbEntity
  8
1
  6
solid
 62
     0
100
AcDbLine
 10
4.262100152161949
 20
0.3416520336264417
 30
0.0
 11
4.2410217207894
 21
0.282757802857211
 31
0.0
  0
LINE
  5
1E3
330
A
100
AcDbEntity
  8
1
  6
solid
 62
     0
100
AcDbLine
 10
4.2410217207894
 20
0.282757802857211
 30
0.0
 11
4.21945309333842
 21
0.3416520336264417
 31
0.0
  0
LINE
  5
1E4
330
A
100
AcDbEntity
  8
1
  6
solid
 62
     0
100
AcDbLine
 10
4.21945309333842
 20
0.3416520336264417
 30
0.0
 11
4.232688387456066
 21
0.3416520336264417
 31
0.0
  0
LINE
  5
1E5
330
A
100
AcDbEntity
  8
1
  6
solid
 62
     0
100
AcDbLine
 10
4.232688387456066
 20
0.3416520336264417
 30
0.0
 11
4.232688387456066
 21
0.3741039567033648
 31
0.0
  0
LINE
  5
1E6
330
A
100
AcDbEntity
  8
1
  6
solid
 62
     0
100
AcDbLine
 10
4.232688387456066
 20
0.3741039567033648
 30
0.0
 11
4.18023740706391
 21
0.3741039567033648
 31
0.0
  0
LINE
  5
1E7
330
A
100
AcDbEntity
  8
1
  6
solid
 62
     0
100
AcDbLine
 10
4.508178583534498
 20
0.2719404951649032
 30
0.0
 11
4.501315838436459
 21
0.2647289567033648
 31
0.0
  0
LINE
  5
1E8
330
A
100
AcDbEntity
  8
1
  6
solid
 62
     0
100
AcDbLine
 10
4.501315838436459
 20
0.2647289567033648
 30
0.0
 11
4.494453093338419
 21
0.2563154951649032
 31
0.0
  0
LINE
  5
1E9
330
A
100
AcDbEntity
  8
1
  6
solid
 62
     0
100
AcDbLine
 10
4.494453093338419
 20
0.2563154951649032
 30
0.0
 11
4.489060936475675
 21
0.2479020336264417
 31
0.0
  0
LINE
  5
1EA
330
A
100
AcDbEntity
  8
1
  6
solid
 62
     0
100
AcDbLine
 10
4.489060936475675
 20
0.2479020336264417
 30
0.0
 11
4.485139367848224
 21
0.2382866490110572
 31
0.0
  0
LINE
  5
1EB
330
A
100
AcDbEntity
  8
1
  6
solid
 62
     0
100
AcDbLine
 10
4.485139367848224
 20
0.2382866490110572
 30
0.0
 11
4.482198191377635
 21
0.2298731874725956
 31
0.0
  0
LINE
  5
1EC
330
A
100
AcDbEntity
  8
1
  6
solid
 62
     0
100
AcDbLine
 10
4.482198191377635
 20
0.2298731874725956
 30
0.0
 11
4.479747210985479
 21
0.2178539567033648
 31
0.0
  0
LINE
  5
1ED
330
A
100
AcDbEntity
  8
1
  6
solid
 62
     0
100
AcDbLine
 10
4.479747210985479
 20
0.2178539567033648
 30
0.0
 11
4.478276622750184
 21
0.2094404951649033
 31
0.0
  0
LINE
  5
1EE
330
A
100
AcDbEntity
  8
1
  6
solid
 62
     0
100
AcDbLine
 10
4.478276622750184
 20
0.2094404951649033
 30
0.0
 11
4.478276622750184
 21
0.2034308797802879
 31
0.0
  0
LINE
  5
1EF
330
A
100
AcDbEntity
  8
1
  6
solid
 62
     0
100
AcDbLine
 10
4.478276622750184
 20
0.2034308797802879
 30
0.0
 11
4.479747210985479
 21
0.1938154951649033
 31
0.0
  0
LINE
  5
1F0
330
A
100
AcDbEntity
  8
1
  6
solid
 62
     0
100
AcDbLine
 10
4.479747210985479
 20
0.1938154951649033
 30
0.0
 11
4.481217799220773
 21
0.1829981874725956
 31
0.0
  0
LINE
  5
1F1
330
A
100
AcDbEntity
  8
1
  6
solid
 62
     0
100
AcDbLine
 10
4.481217799220773
 20
0.1829981874725956
 30
0.0
 11
4.48366877961293
 21
0.1721808797802879
 31
0.0
  0
LINE
  5
1F2
330
A
100
AcDbEntity
  8
1
  6
solid
 62
     0
100
AcDbLine
 10
4.48366877961293
 20
0.1721808797802879
 30
0.0
 11
4.489060936475675
 21
0.158959725934134
 31
0.0
  0
LINE
  5
1F3
330
A
100
AcDbEntity
  8
1
  6
solid
 62
     0
100
AcDbLine
 10
4.489060936475675
 20
0.158959725934134
 30
0.0
 11
4.497394269809008
 21
0.1481424182418264
 31
0.0
  0
LINE
  5
1F4
330
A
100
AcDbEntity
  8
1
  6
solid
 62
     0
100
AcDbLine
 10
4.497394269809008
 20
0.1481424182418264
 30
0.0
 11
4.504257014907047
 21
0.1397289567033648
 31
0.0
  0
LINE
  5
1F5
330
A
100
AcDbEntity
  8
1
  6
solid
 62
     0
100
AcDbLine
 10
4.504257014907047
 20
0.1397289567033648
 30
0.0
 11
4.516511916867831
 21
0.1313154951649033
 31
0.0
  0
LINE
  5
1F6
330
A
100
AcDbEntity
  8
1
  6
solid
 62
     0
100
AcDbLine
 10
4.516511916867831
 20
0.1313154951649033
 30
0.0
 11
4.528766818828616
 21
0.1253058797802879
 31
0.0
  0
LINE
  5
1F7
330
A
100
AcDbEntity
  8
1
  6
solid
 62
     0
100
AcDbLine
 10
4.528766818828616
 20
0.1253058797802879
 30
0.0
 11
4.538080544318812
 21
0.1241039567033648
 31
0.0
  0
LINE
  5
1F8
330
A
100
AcDbEntity
  8
1
  6
solid
 62
     0
100
AcDbLine
 10
4.538080544318812
 20
0.1241039567033648
 30
0.0
 11
4.548864858044302
 21
0.1241039567033648
 31
0.0
  0
LINE
  5
1F9
330
A
100
AcDbEntity
  8
1
  6
solid
 62
     0
100
AcDbLine
 10
4.548864858044302
 20
0.1241039567033648
 30
0.0
 11
4.559649171769793
 21
0.127709725934134
 31
0.0
  0
LINE
  5
1FA
330
A
100
AcDbEntity
  8
1
  6
solid
 62
     0
100
AcDbLine
 10
4.559649171769793
 20
0.127709725934134
 30
0.0
 11
4.571904073730577
 21
0.1361231874725956
 31
0.0
  0
LINE
  5
1FB
330
A
100
AcDbEntity
  8
1
  6
solid
 62
     0
100
AcDbLine
 10
4.571904073730577
 20
0.1361231874725956
 30
0.0
 11
4.58415897569136
 21
0.1469404951649033
 31
0.0
  0
LINE
  5
1FC
330
A
100
AcDbEntity
  8
1
  6
solid
 62
     0
100
AcDbLine
 10
4.58415897569136
 20
0.1469404951649033
 30
0.0
 11
4.592492309024694
 21
0.1601616490110571
 31
0.0
  0
LINE
  5
1FD
330
A
100
AcDbEntity
  8
1
  6
solid
 62
     0
100
AcDbLine
 10
4.592492309024694
 20
0.1601616490110571
 30
0.0
 11
4.597884465887439
 21
0.174584725934134
 31
0.0
  0
LINE
  5
1FE
330
A
100
AcDbEntity
  8
1
  6
solid
 62
     0
100
AcDbLine
 10
4.597884465887439
 20
0.174584725934134
 30
0.0
 11
4.600335446279596
 21
0.1817962643956725
 31
0.0
  0
LINE
  5
1FF
330
A
100
AcDbEntity
  8
1
  6
solid
 62
     0
100
AcDbLine
 10
4.600335446279596
 20
0.1817962643956725
 30
0.0
 11
4.603276622750184
 21
0.1974212643956725
 31
0.0
  0
LINE
  5
200
330
A
100
AcDbEntity
  8
1
  6
solid
 62
     0
100
AcDbLine
 10
4.603276622750184
 20
0.1974212643956725
 30
0.0
 11
4.603276622750184
 21
0.2106424182418264
 31
0.0
  0
LINE
  5
201
330
A
100
AcDbEntity
  8
1
  6
solid
 62
     0
100
AcDbLine
 10
4.603276622750184
 20
0.2106424182418264
 30
0.0
 11
4.600335446279596
 21
0.2262674182418263
 31
0.0
  0
LINE
  5
202
330
A
100
AcDbEntity
  8
1
  6
solid
 62
     0
100
AcDbLine
 10
4.600335446279596
 20
0.2262674182418263
 30
0.0
 11
4.596413877652145
 21
0.2382866490110572
 31
0.0
  0
LINE
  5
203
330
A
100
AcDbEntity
  8
1
  6
solid
 62
     0
100
AcDbLine
 10
4.596413877652145
 20
0.2382866490110572
 30
0.0
 11
4.591021720789401
 21
0.252709725934134
 31
0.0
  0
LINE
  5
204
330
A
100
AcDbEntity
  8
1
  6
solid
 62
     0
100
AcDbLine
 10
4.591021720789401
 20
0.252709725934134
 30
0.0
 11
4.58415897569136
 21
0.2611231874725956
 31
0.0
  0
LINE
  5
205
330
A
100
AcDbEntity
  8
1
  6
solid
 62
     0
100
AcDbLine
 10
4.58415897569136
 20
0.2611231874725956
 30
0.0
 11
4.577296230593322
 21
0.2683347259341341
 31
0.0
  0
LINE
  5
206
330
A
100
AcDbEntity
  8
1
  6
solid
 62
     0
100
AcDbLine
 10
4.577296230593322
 20
0.2683347259341341
 30
0.0
 11
4.573374661965871
 21
0.2719404951649032
 31
0.0
  0
LINE
  5
207
330
A
100
AcDbEntity
  8
1
  6
solid
 62
     0
100
AcDbLine
 10
4.573374661965871
 20
0.2719404951649032
 30
0.0
 11
4.58023740706391
 21
0.2803539567033648
 31
0.0
  0
LINE
  5
208
330
A
100
AcDbEntity
  8
1
  6
solid
 62
     0
100
AcDbLine
 10
4.58023740706391
 20
0.2803539567033648
 30
0.0
 11
4.58415897569136
 21
0.2887674182418264
 31
0.0
  0
LINE
  5
209
330
A
100
AcDbEntity
  8
1
  6
solid
 62
     0
100
AcDbLine
 10
4.58415897569136
 20
0.2887674182418264
 30
0.0
 11
4.58710015216195
 21
0.2971808797802879
 31
0.0
  0
LINE
  5
20A
330
A
100
AcDbEntity
  8
1
  6
solid
 62
     0
100
AcDbLine
 10
4.58710015216195
 20
0.2971808797802879
 30
0.0
 11
4.588570740397243
 21
0.3104020336264417
 31
0.0
  0
LINE
  5
20B
330
A
100
AcDbEntity
  8
1
  6
solid
 62
     0
100
AcDbLine
 10
4.588570740397243
 20
0.3104020336264417
 30
0.0
 11
4.588570740397243
 21
0.3200174182418264
 31
0.0
  0
LINE
  5
20C
330
A
100
AcDbEntity
  8
1
  6
solid
 62
     0
100
AcDbLine
 10
4.588570740397243
 20
0.3200174182418264
 30
0.0
 11
4.58710015216195
 21
0.3284308797802879
 31
0.0
  0
LINE
  5
20D
330
A
100
AcDbEntity
  8
1
  6
solid
 62
     0
100
AcDbLine
 10
4.58710015216195
 20
0.3284308797802879
 30
0.0
 11
4.58415897569136
 21
0.3380462643956725
 31
0.0
  0
LINE
  5
20E
330
A
100
AcDbEntity
  8
1
  6
solid
 62
     0
100
AcDbLine
 10
4.58415897569136
 20
0.3380462643956725
 30
0.0
 11
4.58023740706391
 21
0.3476616490110571
 31
0.0
  0
LINE
  5
20F
330
A
100
AcDbEntity
  8
1
  6
solid
 62
     0
100
AcDbLine
 10
4.58023740706391
 20
0.3476616490110571
 30
0.0
 11
4.576315838436459
 21
0.3548731874725956
 31
0.0
  0
LINE
  5
210
330
A
100
AcDbEntity
  8
1
  6
solid
 62
     0
100
AcDbLine
 10
4.576315838436459
 20
0.3548731874725956
 30
0.0
 11
4.56945309333842
 21
0.3620847259341341
 31
0.0
  0
LINE
  5
211
330
A
100
AcDbEntity
  8
1
  6
solid
 62
     0
100
AcDbLine
 10
4.56945309333842
 20
0.3620847259341341
 30
0.0
 11
4.564060936475675
 21
0.3668924182418264
 31
0.0
  0
LINE
  5
212
330
A
100
AcDbEntity
  8
1
  6
solid
 62
     0
100
AcDbLine
 10
4.564060936475675
 20
0.3668924182418264
 30
0.0
 11
4.557198191377636
 21
0.3704981874725956
 31
0.0
  0
LINE
  5
213
330
A
100
AcDbEntity
  8
1
  6
solid
 62
     0
100
AcDbLine
 10
4.557198191377636
 20
0.3704981874725956
 30
0.0
 11
4.547394269809008
 21
0.3741039567033648
 31
0.0
  0
LINE
  5
214
330
A
100
AcDbEntity
  8
1
  6
solid
 62
     0
100
AcDbLine
 10
4.547394269809008
 20
0.3741039567033648
 30
0.0
 11
4.536609956083518
 21
0.3741039567033648
 31
0.0
  0
LINE
  5
215
330
A
100
AcDbEntity
  8
1
  6
solid
 62
     0
100
AcDbLine
 10
4.536609956083518
 20
0.3741039567033648
 30
0.0
 11
4.524355054122733
 21
0.3704981874725956
 31
0.0
  0
LINE
  5
216
330
A
100
AcDbEntity
  8
1
  6
solid
 62
     0
100
AcDbLine
 10
4.524355054122733
 20
0.3704981874725956
 30
0.0
 11
4.513570740397243
 21
0.3632866490110571
 31
0.0
  0
LINE
  5
217
330
A
100
AcDbEntity
  8
1
  6
solid
 62
     0
100
AcDbLine
 10
4.513570740397243
 20
0.3632866490110571
 30
0.0
 11
4.506707995299204
 21
0.3572770336264417
 31
0.0
  0
LINE
  5
218
330
A
100
AcDbEntity
  8
1
  6
solid
 62
     0
100
AcDbLine
 10
4.506707995299204
 20
0.3572770336264417
 30
0.0
 11
4.501315838436459
 21
0.3476616490110571
 31
0.0
  0
LINE
  5
219
330
A
100
AcDbEntity
  8
1
  6
solid
 62
     0
100
AcDbLine
 10
4.501315838436459
 20
0.3476616490110571
 30
0.0
 11
4.497394269809008
 21
0.3380462643956725
 31
0.0
  0
LINE
  5
21A
330
A
100
AcDbEntity
  8
1
  6
solid
 62
     0
100
AcDbLine
 10
4.497394269809008
 20
0.3380462643956725
 30
0.0
 11
4.494453093338419
 21
0.3272289567033648
 31
0.0
  0
LINE
  5
21B
330
A
100
AcDbEntity
  8
1
  6
solid
 62
     0
100
AcDbLine
 10
4.494453093338419
 20
0.3272289567033648
 30
0.0
 11
4.492982505103126
 21
0.3200174182418264
 31
0.0
  0
LINE
  5
21C
330
A
100
AcDbEntity
  8
1
  6
solid
 62
     0
100
AcDbLine
 10
4.492982505103126
 20
0.3200174182418264
 30
0.0
 11
4.492982505103126
 21
0.3116039567033648
 31
0.0
  0
LINE
  5
21D
330
A
100
AcDbEntity
  8
1
  6
solid
 62
     0
100
AcDbLine
 10
4.492982505103126
 20
0.3116039567033648
 30
0.0
 11
4.494453093338419
 21
0.3007866490110571
 31
0.0
  0
LINE
  5
21E
330
A
100
AcDbEntity
  8
1
  6
solid
 62
     0
100
AcDbLine
 10
4.494453093338419
 20
0.3007866490110571
 30
0.0
 11
4.497394269809008
 21
0.2887674182418264
 31
0.0
  0
LINE
  5
21F
330
A
100
AcDbEntity
  8
1
  6
solid
 62
     0
100
AcDbLine
 10
4.497394269809008
 20
0.2887674182418264
 30
0.0
 11
4.501315838436459
 21
0.2803539567033648
 31
0.0
  0
LINE
  5
220
330
A
100
AcDbEntity
  8
1
  6
solid
 62
     0
100
AcDbLine
 10
4.501315838436459
 20
0.2803539567033648
 30
0.0
 11
4.50523740706391
 21
0.2755462643956725
 31
0.0
  0
LINE
  5
221
330
A
100
AcDbEntity
  8
1
  6
solid
 62
     0
100
AcDbLine
 10
4.50523740706391
 20
0.2755462643956725
 30
0.0
 11
4.508178583534498
 21
0.2719404951649032
 31
0.0
  0
LINE
  5
222
330
A
100
AcDbEntity
  8
1
  6
solid
 62
     0
100
AcDbLine
 10
4.547394269809008
 20
0.1553539567033648
 30
0.0
 11
4.557198191377636
 21
0.158959725934134
 31
0.0
  0
LINE
  5
223
330
A
100
AcDbEntity
  8
1
  6
solid
 62
     0
100
AcDbLine
 10
4.557198191377636
 20
0.158959725934134
 30
0.0
 11
4.564060936475675
 21
0.1637674182418264
 31
0.0
  0
LINE
  5
224
330
A
100
AcDbEntity
  8
1
  6
solid
 62
     0
100
AcDbLine
 10
4.564060936475675
 20
0.1637674182418264
 30
0.0
 11
4.570433485495282
 21
0.1709789567033648
 31
0.0
  0
LINE
  5
225
330
A
100
AcDbEntity
  8
1
  6
solid
 62
     0
100
AcDbLine
 10
4.570433485495282
 20
0.1709789567033648
 30
0.0
 11
4.576315838436459
 21
0.1817962643956725
 31
0.0
  0
LINE
  5
226
330
A
100
AcDbEntity
  8
1
  6
solid
 62
     0
100
AcDbLine
 10
4.576315838436459
 20
0.1817962643956725
 30
0.0
 11
4.578766818828616
 21
0.1914116490110571
 31
0.0
  0
LINE
  5
227
330
A
100
AcDbEntity
  8
1
  6
solid
 62
     0
100
AcDbLine
 10
4.578766818828616
 20
0.1914116490110571
 30
0.0
 11
4.58023740706391
 21
0.2022289567033648
 31
0.0
  0
LINE
  5
228
330
A
100
AcDbEntity
  8
1
  6
solid
 62
     0
100
AcDbLine
 10
4.58023740706391
 20
0.2022289567033648
 30
0.0
 11
4.58023740706391
 21
0.2094404951649033
 31
0.0
  0
LINE
  5
229
330
A
100
AcDbEntity
  8
1
  6
solid
 62
     0
100
AcDbLine
 10
4.58023740706391
 20
0.2094404951649033
 30
0.0
 11
4.576315838436459
 21
0.2250654951649032
 31
0.0
  0
LINE
  5
22A
330
A
100
AcDbEntity
  8
1
  6
solid
 62
     0
100
AcDbLine
 10
4.576315838436459
 20
0.2250654951649032
 30
0.0
 11
4.571904073730577
 21
0.2334789567033648
 31
0.0
  0
LINE
  5
22B
330
A
100
AcDbEntity
  8
1
  6
solid
 62
     0
100
AcDbLine
 10
4.571904073730577
 20
0.2334789567033648
 30
0.0
 11
4.566511916867831
 21
0.2406904951649033
 31
0.0
  0
LINE
  5
22C
330
A
100
AcDbEntity
  8
1
  6
solid
 62
     0
100
AcDbLine
 10
4.566511916867831
 20
0.2406904951649033
 30
0.0
 11
4.559649171769793
 21
0.2479020336264417
 31
0.0
  0
LINE
  5
22D
330
A
100
AcDbEntity
  8
1
  6
solid
 62
     0
100
AcDbLine
 10
4.559649171769793
 20
0.2479020336264417
 30
0.0
 11
4.554257014907047
 21
0.2503058797802879
 31
0.0
  0
LINE
  5
22E
330
A
100
AcDbEntity
  8
1
  6
solid
 62
     0
100
AcDbLine
 10
4.554257014907047
 20
0.2503058797802879
 30
0.0
 11
4.546413877652145
 21
0.252709725934134
 31
0.0
  0
LINE
  5
22F
330
A
100
AcDbEntity
  8
1
  6
solid
 62
     0
100
AcDbLine
 10
4.546413877652145
 20
0.252709725934134
 30
0.0
 11
4.536609956083518
 21
0.252709725934134
 31
0.0
  0
LINE
  5
230
330
A
100
AcDbEntity
  8
1
  6
solid
 62
     0
100
AcDbLine
 10
4.536609956083518
 20
0.252709725934134
 30
0.0
 11
4.525825642358027
 21
0.2491039567033648
 31
0.0
  0
LINE
  5
231
330
A
100
AcDbEntity
  8
1
  6
solid
 62
     0
100
AcDbLine
 10
4.525825642358027
 20
0.2491039567033648
 30
0.0
 11
4.518962897259989
 21
0.2442962643956725
 31
0.0
  0
LINE
  5
232
330
A
100
AcDbEntity
  8
1
  6
solid
 62
     0
100
AcDbLine
 10
4.518962897259989
 20
0.2442962643956725
 30
0.0
 11
4.512100152161949
 21
0.2370847259341341
 31
0.0
  0
LINE
  5
233
330
A
100
AcDbEntity
  8
1
  6
solid
 62
     0
100
AcDbLine
 10
4.512100152161949
 20
0.2370847259341341
 30
0.0
 11
4.506707995299204
 21
0.2262674182418263
 31
0.0
  0
LINE
  5
234
330
A
100
AcDbEntity
  8
1
  6
solid
 62
     0
100
AcDbLine
 10
4.506707995299204
 20
0.2262674182418263
 30
0.0
 11
4.504257014907047
 21
0.2178539567033648
 31
0.0
  0
LINE
  5
235
330
A
100
AcDbEntity
  8
1
  6
solid
 62
     0
100
AcDbLine
 10
4.504257014907047
 20
0.2178539567033648
 30
0.0
 11
4.502786426671753
 21
0.2094404951649033
 31
0.0
  0
LINE
  5
236
330
A
100
AcDbEntity
  8
1
  6
solid
 62
     0
100
AcDbLine
 10
4.502786426671753
 20
0.2094404951649033
 30
0.0
 11
4.502786426671753
 21
0.1986231874725956
 31
0.0
  0
LINE
  5
237
330
A
100
AcDbEntity
  8
1
  6
solid
 62
     0
100
AcDbLine
 10
4.502786426671753
 20
0.1986231874725956
 30
0.0
 11
4.504257014907047
 21
0.1878058797802879
 31
0.0
  0
LINE
  5
238
330
A
100
AcDbEntity
  8
1
  6
solid
 62
     0
100
AcDbLine
 10
4.504257014907047
 20
0.1878058797802879
 30
0.0
 11
4.508178583534498
 21
0.1757866490110571
 31
0.0
  0
LINE
  5
239
330
A
100
AcDbEntity
  8
1
  6
solid
 62
     0
100
AcDbLine
 10
4.508178583534498
 20
0.1757866490110571
 30
0.0
 11
4.515041328632538
 21
0.1673731874725956
 31
0.0
  0
LINE
  5
23A
330
A
100
AcDbEntity
  8
1
  6
solid
 62
     0
100
AcDbLine
 10
4.515041328632538
 20
0.1673731874725956
 30
0.0
 11
4.521904073730576
 21
0.1601616490110571
 31
0.0
  0
LINE
  5
23B
330
A
100
AcDbEntity
  8
1
  6
solid
 62
     0
100
AcDbLine
 10
4.521904073730576
 20
0.1601616490110571
 30
0.0
 11
4.531217799220772
 21
0.1553539567033648
 31
0.0
  0
LINE
  5
23C
330
A
100
AcDbEntity
  8
1
  6
solid
 62
     0
100
AcDbLine
 10
4.531217799220772
 20
0.1553539567033648
 30
0.0
 11
4.547394269809008
 21
0.1553539567033648
 31
0.0
  0
LINE
  5
23D
330
A
100
AcDbEntity
  8
1
  6
solid
 62
     0
100
AcDbLine
 10
4.544943289416851
 20
0.283959725934134
 30
0.0
 11
4.550335446279596
 21
0.2851616490110571
 31
0.0
  0
LINE
  5
23E
330
A
100
AcDbEntity
  8
1
  6
solid
 62
     0
100
AcDbLine
 10
4.550335446279596
 20
0.2851616490110571
 30
0.0
 11
4.557198191377636
 21
0.2911712643956725
 31
0.0
  0
LINE
  5
23F
330
A
100
AcDbEntity
  8
1
  6
solid
 62
     0
100
AcDbLine
 10
4.557198191377636
 20
0.2911712643956725
 30
0.0
 11
4.561119760005087
 21
0.2971808797802879
 31
0.0
  0
LINE
  5
240
330
A
100
AcDbEntity
  8
1
  6
solid
 62
     0
100
AcDbLine
 10
4.561119760005087
 20
0.2971808797802879
 30
0.0
 11
4.564060936475675
 21
0.3043924182418264
 31
0.0
  0
LINE
  5
241
330
A
100
AcDbEntity
  8
1
  6
solid
 62
     0
100
AcDbLine
 10
4.564060936475675
 20
0.3043924182418264
 30
0.0
 11
4.565041328632537
 21
0.3116039567033648
 31
0.0
  0
LINE
  5
242
330
A
100
AcDbEntity
  8
1
  6
solid
 62
     0
100
AcDbLine
 10
4.565041328632537
 20
0.3116039567033648
 30
0.0
 11
4.565041328632537
 21
0.3164116490110571
 31
0.0
  0
LINE
  5
243
330
A
100
AcDbEntity
  8
1
  6
solid
 62
     0
100
AcDbLine
 10
4.565041328632537
 20
0.3164116490110571
 30
0.0
 11
4.56259034824038
 21
0.3272289567033648
 31
0.0
  0
LINE
  5
244
330
A
100
AcDbEntity
  8
1
  6
solid
 62
     0
100
AcDbLine
 10
4.56259034824038
 20
0.3272289567033648
 30
0.0
 11
4.558668779612929
 21
0.3344404951649032
 31
0.0
  0
LINE
  5
245
330
A
100
AcDbEntity
  8
1
  6
solid
 62
     0
100
AcDbLine
 10
4.558668779612929
 20
0.3344404951649032
 30
0.0
 11
4.554257014907047
 21
0.3392481874725956
 31
0.0
  0
LINE
  5
246
330
A
100
AcDbEntity
  8
1
  6
solid
 62
     0
100
AcDbLine
 10
4.554257014907047
 20
0.3392481874725956
 30
0.0
 11
4.548864858044302
 21
0.3428539567033648
 31
0.0
  0
LINE
  5
247
330
A
100
AcDbEntity
  8
1
  6
solid
 62
     0
100
AcDbLine
 10
4.548864858044302
 20
0.3428539567033648
 30
0.0
 11
4.543472701181557
 21
0.3440558797802879
 31
0.0
  0
LINE
  5
248
330
A
100
AcDbEntity
  8
1
  6
solid
 62
     0
100
AcDbLine
 10
4.543472701181557
 20
0.3440558797802879
 30
0.0
 11
4.539551132554105
 21
0.3440558797802879
 31
0.0
  0
LINE
  5
249
330
A
100
AcDbEntity
  8
1
  6
solid
 62
     0
100
AcDbLine
 10
4.539551132554105
 20
0.3440558797802879
 30
0.0
 11
4.532688387456067
 21
0.3428539567033648
 31
0.0
  0
LINE
  5
24A
330
A
100
AcDbEntity
  8
1
  6
solid
 62
     0
100
AcDbLine
 10
4.532688387456067
 20
0.3428539567033648
 30
0.0
 11
4.527296230593321
 21
0.3392481874725956
 31
0.0
  0
LINE
  5
24B
330
A
100
AcDbEntity
  8
1
  6
solid
 62
     0
100
AcDbLine
 10
4.527296230593321
 20
0.3392481874725956
 30
0.0
 11
4.52288446588744
 21
0.3344404951649032
 31
0.0
  0
LINE
  5
24C
330
A
100
AcDbEntity
  8
1
  6
solid
 62
     0
100
AcDbLine
 10
4.52288446588744
 20
0.3344404951649032
 30
0.0
 11
4.518962897259989
 21
0.3272289567033648
 31
0.0
  0
LINE
  5
24D
330
A
100
AcDbEntity
  8
1
  6
solid
 62
     0
100
AcDbLine
 10
4.518962897259989
 20
0.3272289567033648
 30
0.0
 11
4.517492309024694
 21
0.3200174182418264
 31
0.0
  0
LINE
  5
24E
330
A
100
AcDbEntity
  8
1
  6
solid
 62
     0
100
AcDbLine
 10
4.517492309024694
 20
0.3200174182418264
 30
0.0
 11
4.516511916867831
 21
0.3152097259341341
 31
0.0
  0
LINE
  5
24F
330
A
100
AcDbEntity
  8
1
  6
solid
 62
     0
100
AcDbLine
 10
4.516511916867831
 20
0.3152097259341341
 30
0.0
 11
4.516511916867831
 21
0.3116039567033648
 31
0.0
  0
LINE
  5
250
330
A
100
AcDbEntity
  8
1
  6
solid
 62
     0
100
AcDbLine
 10
4.516511916867831
 20
0.3116039567033648
 30
0.0
 11
4.518962897259989
 21
0.3007866490110571
 31
0.0
  0
LINE
  5
251
330
A
100
AcDbEntity
  8
1
  6
solid
 62
     0
100
AcDbLine
 10
4.518962897259989
 20
0.3007866490110571
 30
0.0
 11
4.521904073730576
 21
0.2959789567033648
 31
0.0
  0
LINE
  5
252
330
A
100
AcDbEntity
  8
1
  6
solid
 62
     0
100
AcDbLine
 10
4.521904073730576
 20
0.2959789567033648
 30
0.0
 11
4.525825642358027
 21
0.2887674182418264
 31
0.0
  0
LINE
  5
253
330
A
100
AcDbEntity
  8
1
  6
solid
 62
     0
100
AcDbLine
 10
4.525825642358027
 20
0.2887674182418264
 30
0.0
 11
4.531217799220772
 21
0.2851616490110571
 31
0.0
  0
LINE
  5
254
330
A
100
AcDbEntity
  8
1
  6
solid
 62
     0
100
AcDbLine
 10
4.531217799220772
 20
0.2851616490110571
 30
0.0
 11
4.538080544318812
 21
0.283959725934134
 31
0.0
  0
LINE
  5
255
330
A
100
AcDbEntity
  8
1
  6
solid
 62
     0
100
AcDbLine
 10
4.538080544318812
 20
0.283959725934134
 30
0.0
 11
4.544943289416851
 21
0.283959725934134
 31
0.0
  0
LINE
  5
256
330
A
100
AcDbEntity
  8
1
  6
solid
 62
     0
100
AcDbLine
 10
4.671904073730576
 20
0.3741039567033648
 30
0.0
 11
4.671904073730576
 21
0.3380462643956725
 31
0.0
  0
LINE
  5
257
330
A
100
AcDbEntity
  8
1
  6
solid
 62
     0
100
AcDbLine
 10
4.671904073730576
 20
0.3380462643956725
 30
0.0
 11
4.678276622750184
 21
0.3380462643956725
 31
0.0
  0
LINE
  5
258
330
A
100
AcDbEntity
  8
1
  6
solid
 62
     0
100
AcDbLine
 10
4.678276622750184
 20
0.3380462643956725
 30
0.0
 11
4.678276622750184
 21
0.2995847259341341
 31
0.0
  0
LINE
  5
259
330
A
100
AcDbEntity
  8
1
  6
solid
 62
     0
100
AcDbLine
 10
4.678276622750184
 20
0.2995847259341341
 30
0.0
 11
4.703276622750184
 21
0.2995847259341341
 31
0.0
  0
LINE
  5
25A
330
A
100
AcDbEntity
  8
1
  6
solid
 62
     0
100
AcDbLine
 10
4.703276622750184
 20
0.2995847259341341
 30
0.0
 11
4.703276622750184
 21
0.3380462643956725
 31
0.0
  0
LINE
  5
25B
330
A
100
AcDbEntity
  8
1
  6
solid
 62
     0
100
AcDbLine
 10
4.703276622750184
 20
0.3380462643956725
 30
0.0
 11
4.709649171769792
 21
0.3380462643956725
 31
0.0
  0
LINE
  5
25C
330
A
100
AcDbEntity
  8
1
  6
solid
 62
     0
100
AcDbLine
 10
4.709649171769792
 20
0.3380462643956725
 30
0.0
 11
4.709649171769792
 21
0.3741039567033648
 31
0.0
  0
LINE
  5
25D
330
A
100
AcDbEntity
  8
1
  6
solid
 62
     0
100
AcDbLine
 10
4.709649171769792
 20
0.3741039567033648
 30
0.0
 11
4.671904073730576
 21
0.3741039567033648
 31
0.0
  0
VIEWPORT
  5
2BC
102
{ACAD_XDICTIONARY
360
2BD
102
}
330
B
100
AcDbEntity
 67
     1
  8
0
  6
Continuous
370
     0
100
AcDbViewport
 10
5.171905305196538
 20
3.9681931355475
 30
0.0
 40
16.99659283974028
 41
8.992999745766949
 68
     1
 69
     1
 12
5.171905305196538
 22
3.9681931355475
 13
0.0
 23
0.0
 14
0.5
 24
0.5
 15
0.5
 25
0.5
 16
0.0
 26
0.0
 36
1.0
 17
0.0
 27
0.0
 37
0.0
 42
50.0
 43
0.0
 44
0.0
 45
8.992999745766949
 50
0.0
 51
0.0
 72
   100
 90
   819232
  1

281
     0
 71
     1
 74
     0
110
0.0
120
0.0
130
0.0
111
1.0
121
0.0
131
0.0
112
0.0
122
1.0
132
0.0
 79
     0
146
0.0
170
     0
  0
VIEWPORT
  5
2C1
102
{ACAD_XDICTIONARY
360
2C2
102
}
330
B
100
AcDbEntity
 67
     1
  8
0
  6
Continuous
370
     0
100
AcDbViewport
 10
5.092481985958215
 20
4.003459785602482
 30
0.0
 40
10.28973378756582
 41
7.952633123335115
 68
     2
 69
     2
 12
3.713403860830406
 22
1.339694662410499
 13
0.0
 23
0.0
 14
1.0
 24
1.0
 15
0.0
 25
0.0
 16
0.0
 26
0.0
 36
1.0
 17
0.0
 27
0.0
 37
0.0
 42
50.0
 43
0.0
 44
0.0
 45
8.052788930639401
 50
0.0
 51
0.0
 72
   100
 90
   819232
  1

281
     0
 71
     1
 74
     0
110
0.0
120
0.0
130
0.0
111
1.0
121
0.0
131
0.0
112
0.0
122
1.0
132
0.0
 79
     0
146
0.0
170
     0
  0
ENDSEC
  0
SECTION
  2
OBJECTS
  0
DICTIONARY
  5
19
330
0
100
AcDbDictionary
281
     1
  3
ACAD_COLOR
350
260
  3
ACAD_GROUP
350
1A
  3
ACAD_LAYOUT
350
1E
  3
ACAD_MATERIAL
350
25F
  3
ACAD_MLEADERSTYLE
350
2B4
  3
ACAD_MLINESTYLE
350
1B
  3
ACAD_PLOTSETTINGS
350
22
  3
ACAD_PLOTSTYLENAME
350
1F
  3
ACAD_SCALELIST
350
292
  3
ACAD_TABLESTYLE
350
261
  3
ACAD_VISUALSTYLE
350
281
  3
ACAD_WIPEOUT_VARS
350
23
  3
ACDB_RECOMPOSE_DATA
350
2E1
  3
AcDbVariableDictionary
350
266
  0
DICTIONARY
  5
2C4
330
14
100
AcDbDictionary
280
     1
281
     1
  3
ADSK_XREC_LAYER_RECONCILED
360
2C5
  0
DICTIONARY
  5
2C6
330
27
100
AcDbDictionary
280
     1
281
     1
  3
ADSK_XREC_LAYER_RECONCILED
360
2C7
  0
DICTIONARY
  5
2BD
330
2BC
100
AcDbDictionary
280
     1
281
     1
  3
ASDK_XREC_ANNOTATION_SCALE_INFO
360
2BE
  0
DICTIONARY
  5
2C2
330
2C1
100
AcDbDictionary
280
     1
281
     1
  3
ASDK_XREC_ANNOTATION_SCALE_INFO
360
2C3
  0
DICTIONARY
  5
260
102
{ACAD_REACTORS
330
19
102
}
330
19
100
AcDbDictionary
281
     1
  0
DICTIONARY
  5
1A
102
{ACAD_REACTORS
330
19
102
}
330
19
100
AcDbDictionary
281
     1
  0
DICTIONARY
  5
1E
102
{ACAD_REACTORS
330
19
102
}
330
19
100
AcDbDictionary
281
     1
  3
Layout1
350
21
  3
Model
350
20
  0
DICTIONARY
  5
25F
102
{ACAD_REACTORS
330
19
102
}
330
19
100
AcDbDictionary
281
     1
  3
ByBlock
350
271
  3
ByLayer
350
269
  3
Global
350
279
  0
DICTIONARY
  5
2B4
102
{ACAD_REACTORS
330
19
102
}
330
19
100
AcDbDictionary
281
     1
  3
Standard
350
2B5
  0
DICTIONARY
  5
1B
102
{ACAD_REACTORS
330
19
102
}
330
19
100
AcDbDictionary
281
     1
  3
Standard
350
1C
  0
DICTIONARY
  5
22
102
{ACAD_REACTORS
330
19
102
}
330
19
100
AcDbDictionary
281
     1
  0
ACDBDICTIONARYWDFLT
  5
1F
102
{ACAD_REACTORS
330
19
102
}
330
19
100
AcDbDictionary
281
     1
  3
Normal
350
1D
100
AcDbDictionaryWithDefault
340
1D
  0
DICTIONARY
  5
292
102
{ACAD_REACTORS
330
19
102
}
330
19
100
AcDbDictionary
281
     1
  3
A0
350
293
  3
A1
350
294
  3
A2
350
295
  3
A3
350
296
  3
A4
350
297
  3
A5
350
298
  3
A6
350
299
  3
A7
350
29A
  3
A8
350
29B
  3
A9
350
29C
  3
B0
350
29D
  3
B1
350
29E
  3
B2
350
29F
  3
B3
350
2A0
  3
B4
350
2A1
  3
B5
350
2A2
  3
B6
350
2A3
  3
B7
350
2A4
  3
B8
350
2A5
  3
B9
350
2A6
  3
C0
350
2A7
  3
C1
350
2A8
  3
C2
350
2A9
  3
C3
350
2AA
  3
C4
350
2AB
  3
C5
350
2AC
  3
C6
350
2AD
  3
C7
350
2AE
  3
C8
350
2AF
  3
C9
350
2B0
  3
D0
350
2B1
  3
D1
350
2B2
  3
D2
350
2B3
  0
DICTIONARY
  5
261
102
{ACAD_REACTORS
330
19
102
}
330
19
100
AcDbDictionary
281
     1
  3
Standard
350
262
  0
DICTIONARY
  5
281
102
{ACAD_REACTORS
330
19
102
}
330
19
100
AcDbDictionary
281
     1
  3
2dWireframe
350
287
  3
3D Hidden
350
289
  3
3dWireframe
350
288
  3
Basic
350
286
  3
Brighten
350
28D
  3
ColorChange
350
291
  3
Conceptual
350
28A
  3
Dim
350
28C
  3
Facepattern
350
290
  3
Flat
350
282
  3
FlatWithEdges
350
283
  3
Gouraud
350
284
  3
GouraudWithEdges
350
285
  3
Linepattern
350
28F
  3
Realistic
350
28B
  3
Thicken
350
28E
  0
WIPEOUTVARIABLES
  5
23
330
19
100
AcDbWipeoutVariables
 70
     1
  0
XRECORD
  5
2E1
102
{ACAD_REACTORS
330
19
102
}
330
19
100
AcDbXrecord
280
     1
 90
        1
330
262
  0
DICTIONARY
  5
266
102
{ACAD_REACTORS
330
19
102
}
330
19
100
AcDbDictionary
281
     1
  3
CANNOSCALE
350
2DE
  3
CMLEADERSTYLE
350
2DD
  3
CTABLESTYLE
350
267
  0
XRECORD
  5
2C5
102
{ACAD_REACTORS
330
2C4
102
}
330
2C4
100
AcDbXrecord
280
     1
290
     1
  0
XRECORD
  5
2C7
102
{ACAD_REACTORS
330
2C6
102
}
330
2C6
100
AcDbXrecord
280
     1
290
     1
  0
XRECORD
  5
2BE
102
{ACAD_REACTORS
330
2BD
102
}
330
2BD
100
AcDbXrecord
280
     1
 90
        1
340
293
  0
XRECORD
  5
2C3
102
{ACAD_REACTORS
330
2C2
102
}
330
2C2
100
AcDbXrecord
280
     1
 90
        1
340
293
  0
LAYOUT
  5
21
102
{ACAD_REACTORS
330
1E
102
}
330
1E
100
AcDbPlotSettings
  1

  2
Foxit PDF Printer
  4
Letter
  6

 40
3.174999952316284
 41
3.174999952316284
 42
3.17498779296875
 43
3.175003051757812
 44
279.3999938964844
 45
215.8999938964844
 46
31.4267670466818
 47
24.13747564896765
 48
0.0
 49
0.0
140
0.0
141
0.0
142
1.0
143
1.0
 70
     4
 72
     0
 73
     0
 74
     1
  7

 75
    16
147
1.0
 76
     1
 77
     2
 78
   300
148
-26.26816480274797
149
-20.15458429594825
100
AcDbLayout
  1
Layout1
 70
     0
 71
     1
 10
-0.3280945746555161
 20
-0.2818067443045545
 11
10.67190518504859
 21
8.218193015399554
 12
0.0
 22
0.0
 32
0.0
 14
-0.0523849078246954
 24
0.0271432239349245
 34
-0.0015258207003583
 15
10.23734887974113
 25
7.979776347270039
 35
0.0000000349246037
146
0.0
 13
0.0
 23
0.0
 33
0.0
 16
1.0
 26
0.0
 36
0.0
 17
0.0
 27
1.0
 37
0.0
 76
     0
330
B
331
2BC
1001
ACAD_PSEXT
1000
Foxit PDF Printer
1000
Foxit PDF Printer Driver
1000
FOXIT_PDF
1000

1070
     0
  0
LAYOUT
  5
20
102
{ACAD_REACTORS
330
1E
102
}
330
1E
100
AcDbPlotSettings
  1

  2

  4

  6

 40
0.0
 41
0.0
 42
0.0
 43
0.0
 44
0.0
 45
0.0
 46
0.0
 47
0.0
 48
0.0
 49
0.0
140
0.0
141
0.0
142
1.0
143
1.0
 70
  1024
 72
     0
 73
     0
 74
     0
  7

 75
     0
147
1.0
 76
     0
 77
     2
 78
   300
148
0.0
149
0.0
100
AcDbLayout
  1
Model
 70
     0
 71
     0
 10
0.0
 20
0.0
 11
0.0
 21
0.0
 12
0.0
 22
0.0
 32
0.0
 14
0.0
 24
0.0
 34
0.0
 15
0.0
 25
0.0
 35
0.0
146
0.0
 13
0.0
 23
0.0
 33
0.0
 16
0.0
 26
0.0
 36
0.0
 17
0.0
 27
0.0
 37
0.0
 76
     0
330
A
  0
MATERIAL
  5
271
102
{ACAD_XDICTIONARY
360
272
102
}
102
{ACAD_REACTORS
330
25F
102
}
330
25F
100
AcDbMaterial
  1
ByBlock
 72
     0
 43
0.0208333333333333
 43
0.0
 43
0.0
 43
0.0
 43
0.0
 43
0.0208333333333333
 43
0.0
 43
0.0
 43
0.0
 43
0.0
 43
1.0
 43
0.0
 43
0.0
 43
0.0
 43
0.0
 43
1.0
 77
     0
 47
0.0208333333333333
 47
0.0
 47
0.0
 47
0.0
 47
0.0
 47
0.0208333333333333
 47
0.0
 47
0.0
 47
0.0
 47
0.0
 47
1.0
 47
0.0
 47
0.0
 47
0.0
 47
0.0
 47
1.0
171
     0
 49
0.0208333333333333
 49
0.0
 49
0.0
 49
0.0
 49
0.0
 49
0.0208333333333333
 49
0.0
 49
0.0
 49
0.0
 49
0.0
 49
1.0
 49
0.0
 49
0.0
 49
0.0
 49
0.0
 49
1.0
175
     0
142
0.0208333333333333
142
0.0
142
0.0
142
0.0
142
0.0
142
0.0208333333333333
142
0.0
142
0.0
142
0.0
142
0.0
142
1.0
142
0.0
142
0.0
142
0.0
142
0.0
142
1.0
179
     0
144
0.0208333333333333
144
0.0
144
0.0
144
0.0
144
0.0
144
0.0208333333333333
144
0.0
144
0.0
144
0.0
144
0.0
144
1.0
144
0.0
144
0.0
144
0.0
144
0.0
144
1.0
147
0.0208333333333333
147
0.0
147
0.0
147
0.0
147
0.0
147
0.0208333333333333
147
0.0
147
0.0
147
0.0
147
0.0
147
1.0
147
0.0
147
0.0
147
0.0
147
0.0
147
1.0
  0
MATERIAL
  5
269
102
{ACAD_XDICTIONARY
360
26A
102
}
102
{ACAD_REACTORS
330
25F
102
}
330
25F
100
AcDbMaterial
  1
ByLayer
 72
     0
 43
0.0208333333333333
 43
0.0
 43
0.0
 43
0.0
 43
0.0
 43
0.0208333333333333
 43
0.0
 43
0.0
 43
0.0
 43
0.0
 43
1.0
 43
0.0
 43
0.0
 43
0.0
 43
0.0
 43
1.0
 77
     0
 47
0.0208333333333333
 47
0.0
 47
0.0
 47
0.0
 47
0.0
 47
0.0208333333333333
 47
0.0
 47
0.0
 47
0.0
 47
0.0
 47
1.0
 47
0.0
 47
0.0
 47
0.0
 47
0.0
 47
1.0
171
     0
 49
0.0208333333333333
 49
0.0
 49
0.0
 49
0.0
 49
0.0
 49
0.0208333333333333
 49
0.0
 49
0.0
 49
0.0
 49
0.0
 49
1.0
 49
0.0
 49
0.0
 49
0.0
 49
0.0
 49
1.0
175
     0
142
0.0208333333333333
142
0.0
142
0.0
142
0.0
142
0.0
142
0.0208333333333333
142
0.0
142
0.0
142
0.0
142
0.0
142
1.0
142
0.0
142
0.0
142
0.0
142
0.0
142
1.0
179
     0
144
0.0208333333333333
144
0.0
144
0.0
144
0.0
144
0.0
144
0.0208333333333333
144
0.0
144
0.0
144
0.0
144
0.0
144
1.0
144
0.0
144
0.0
144
0.0
144
0.0
144
1.0
147
0.0208333333333333
147
0.0
147
0.0
147
0.0
147
0.0
147
0.0208333333333333
147
0.0
147
0.0
147
0.0
147
0.0
147
1.0
147
0.0
147
0.0
147
0.0
147
0.0
147
1.0
  0
MATERIAL
  5
279
102
{ACAD_XDICTIONARY
360
27A
102
}
102
{ACAD_REACTORS
330
25F
102
}
330
25F
100
AcDbMaterial
  1
Global
 72
     0
 43
0.0208333333333333
 43
0.0
 43
0.0
 43
0.0
 43
0.0
 43
0.0208333333333333
 43
0.0
 43
0.0
 43
0.0
 43
0.0
 43
1.0
 43
0.0
 43
0.0
 43
0.0
 43
0.0
 43
1.0
 77
     0
 47
0.0208333333333333
 47
0.0
 47
0.0
 47
0.0
 47
0.0
 47
0.0208333333333333
 47
0.0
 47
0.0
 47
0.0
 47
0.0
 47
1.0
 47
0.0
 47
0.0
 47
0.0
 47
0.0
 47
1.0
171
     0
 49
0.0208333333333333
 49
0.0
 49
0.0
 49
0.0
 49
0.0
 49
0.0208333333333333
 49
0.0
 49
0.0
 49
0.0
 49
0.0
 49
1.0
 49
0.0
 49
0.0
 49
0.0
 49
0.0
 49
1.0
175
     0
142
0.0208333333333333
142
0.0
142
0.0
142
0.0
142
0.0
142
0.0208333333333333
142
0.0
142
0.0
142
0.0
142
0.0
142
1.0
142
0.0
142
0.0
142
0.0
142
0.0
142
1.0
179
     0
144
0.0208333333333333
144
0.0
144
0.0
144
0.0
144
0.0
144
0.0208333333333333
144
0.0
144
0.0
144
0.0
144
0.0
144
1.0
144
0.0
144
0.0
144
0.0
144
0.0
144
1.0
147
0.0208333333333333
147
0.0
147
0.0
147
0.0
147
0.0
147
0.0208333333333333
147
0.0
147
0.0
147
0.0
147
0.0
147
1.0
147
0.0
147
0.0
147
0.0
147
0.0
147
1.0
  0
MLEADERSTYLE
  5
2B5
102
{ACAD_REACTORS
330
2B4
102
}
330
2B4
100
AcDbMLeaderStyle
170
     2
171
     1
172
     0
 90
        2
 40
0.0
 41
0.0
173
     1
 91
-1056964608
340
11
 92
       -2
290
     1
 42
0.09
291
     1
 43
0.36
  3
Standard
 44
0.18
300

342
17
174
     1
178
     6
175
     1
176
     0
 93
-1056964608
 45
0.18
292
     0
297
     0
 46
0.18
 94
-1056964608
 47
1.0
 49
1.0
140
1.0
293
     1
141
0.0
294
     1
177
     0
142
1.0
295
     0
296
     0
143
0.125
1001
ACAD_MLEADERVER
1070
     2
  0
MLINESTYLE
  5
1C
102
{ACAD_REACTORS
330
1B
102
}
330
1B
100
AcDbMlineStyle
  2
STANDARD
 70
     0
  3

 62
     0
 51
90.0
 52
90.0
 71
     2
 49
0.5
 62
   256
  6
BYLAYER
 49
-0.5
 62
   256
  6
BYLAYER
  0
ACDBPLACEHOLDER
  5
1D
102
{ACAD_REACTORS
330
1F
102
}
330
1F
  0
SCALE
  5
293
102
{ACAD_REACTORS
330
292
102
}
330
292
100
AcDbScale
 70
     0
300
1:1
140
1.0
141
1.0
290
     1
  0
SCALE
  5
294
102
{ACAD_REACTORS
330
292
102
}
330
292
100
AcDbScale
 70
     0
300
1:2
140
1.0
141
2.0
290
     0
  0
SCALE
  5
295
102
{ACAD_REACTORS
330
292
102
}
330
292
100
AcDbScale
 70
     0
300
1:4
140
1.0
141
4.0
290
     0
  0
SCALE
  5
296
102
{ACAD_REACTORS
330
292
102
}
330
292
100
AcDbScale
 70
     0
300
1:5
140
1.0
141
5.0
290
     0
  0
SCALE
  5
297
102
{ACAD_REACTORS
330
292
102
}
330
292
100
AcDbScale
 70
     0
300
1:8
140
1.0
141
8.0
290
     0
  0
SCALE
  5
298
102
{ACAD_REACTORS
330
292
102
}
330
292
100
AcDbScale
 70
     0
300
1:10
140
1.0
141
10.0
290
     0
  0
SCALE
  5
299
102
{ACAD_REACTORS
330
292
102
}
330
292
100
AcDbScale
 70
     0
300
1:16
140
1.0
141
16.0
290
     0
  0
SCALE
  5
29A
102
{ACAD_REACTORS
330
292
102
}
330
292
100
AcDbScale
 70
     0
300
1:20
140
1.0
141
20.0
290
     0
  0
SCALE
  5
29B
102
{ACAD_REACTORS
330
292
102
}
330
292
100
AcDbScale
 70
     0
300
1:30
140
1.0
141
30.0
290
     0
  0
SCALE
  5
29C
102
{ACAD_REACTORS
330
292
102
}
330
292
100
AcDbScale
 70
     0
300
1:40
140
1.0
141
40.0
290
     0
  0
SCALE
  5
29D
102
{ACAD_REACTORS
330
292
102
}
330
292
100
AcDbScale
 70
     0
300
1:50
140
1.0
141
50.0
290
     0
  0
SCALE
  5
29E
102
{ACAD_REACTORS
330
292
102
}
330
292
100
AcDbScale
 70
     0
300
1:100
140
1.0
141
100.0
290
     0
  0
SCALE
  5
29F
102
{ACAD_REACTORS
330
292
102
}
330
292
100
AcDbScale
 70
     0
300
2:1
140
2.0
141
1.0
290
     0
  0
SCALE
  5
2A0
102
{ACAD_REACTORS
330
292
102
}
330
292
100
AcDbScale
 70
     0
300
4:1
140
4.0
141
1.0
290
     0
  0
SCALE
  5
2A1
102
{ACAD_REACTORS
330
292
102
}
330
292
100
AcDbScale
 70
     0
300
8:1
140
8.0
141
1.0
290
     0
  0
SCALE
  5
2A2
102
{ACAD_REACTORS
330
292
102
}
330
292
100
AcDbScale
 70
     0
300
10:1
140
10.0
141
1.0
290
     0
  0
SCALE
  5
2A3
102
{ACAD_REACTORS
330
292
102
}
330
292
100
AcDbScale
 70
     0
300
100:1
140
100.0
141
1.0
290
     0
  0
SCALE
  5
2A4
102
{ACAD_REACTORS
330
292
102
}
330
292
100
AcDbScale
 70
     0
300
1/128" = 1'-0"
140
0.0078125
141
12.0
290
     0
  0
SCALE
  5
2A5
102
{ACAD_REACTORS
330
292
102
}
330
292
100
AcDbScale
 70
     0
300
1/64" = 1'-0"
140
0.015625
141
12.0
290
     0
  0
SCALE
  5
2A6
102
{ACAD_REACTORS
330
292
102
}
330
292
100
AcDbScale
 70
     0
300
1/32" = 1'-0"
140
0.03125
141
12.0
290
     0
  0
SCALE
  5
2A7
102
{ACAD_REACTORS
330
292
102
}
330
292
100
AcDbScale
 70
     0
300
1/16" = 1'-0"
140
0.0625
141
12.0
290
     0
  0
SCALE
  5
2A8
102
{ACAD_REACTORS
330
292
102
}
330
292
100
AcDbScale
 70
     0
300
3/32" = 1'-0"
140
0.09375
141
12.0
290
     0
  0
SCALE
  5
2A9
102
{ACAD_REACTORS
330
292
102
}
330
292
100
AcDbScale
 70
     0
300
1/8" = 1'-0"
140
0.125
141
12.0
290
     0
  0
SCALE
  5
2AA
102
{ACAD_REACTORS
330
292
102
}
330
292
100
AcDbScale
 70
     0
300
3/16" = 1'-0"
140
0.1875
141
12.0
290
     0
  0
SCALE
  5
2AB
102
{ACAD_REACTORS
330
292
102
}
330
292
100
AcDbScale
 70
     0
300
1/4" = 1'-0"
140
0.25
141
12.0
290
     0
  0
SCALE
  5
2AC
102
{ACAD_REACTORS
330
292
102
}
330
292
100
AcDbScale
 70
     0
300
3/8" = 1'-0"
140
0.375
141
12.0
290
     0
  0
SCALE
  5
2AD
102
{ACAD_REACTORS
330
292
102
}
330
292
100
AcDbScale
 70
     0
300
1/2" = 1'-0"
140
0.5
141
12.0
290
     0
  0
SCALE
  5
2AE
102
{ACAD_REACTORS
330
292
102
}
330
292
100
AcDbScale
 70
     0
300
3/4" = 1'-0"
140
0.75
141
12.0
290
     0
  0
SCALE
  5
2AF
102
{ACAD_REACTORS
330
292
102
}
330
292
100
AcDbScale
 70
     0
300
1" = 1'-0"
140
1.0
141
12.0
290
     0
  0
SCALE
  5
2B0
102
{ACAD_REACTORS
330
292
102
}
330
292
100
AcDbScale
 70
     0
300
1-1/2" = 1'-0"
140
1.5
141
12.0
290
     0
  0
SCALE
  5
2B1
102
{ACAD_REACTORS
330
292
102
}
330
292
100
AcDbScale
 70
     0
300
3" = 1'-0"
140
3.0
141
12.0
290
     0
  0
SCALE
  5
2B2
102
{ACAD_REACTORS
330
292
102
}
330
292
100
AcDbScale
 70
     0
300
6" = 1'-0"
140
6.0
141
12.0
290
     0
  0
SCALE
  5
2B3
102
{ACAD_REACTORS
330
292
102
}
330
292
100
AcDbScale
 70
     0
300
1'-0" = 1'-0"
140
12.0
141
12.0
290
     0
  0
TABLESTYLE
  5
262
102
{ACAD_XDICTIONARY
360
2DF
102
}
102
{ACAD_REACTORS
330
261
102
}
330
261
100
AcDbTableStyle
  3
Standard
 70
     0
 71
     0
 40
0.06
 41
0.06
280
     0
281
     0
  7
Standard
140
0.18
170
     2
 62
     0
 63
     7
283
     0
274
    -2
284
     1
 64
     0
275
    -2
285
     1
 65
     0
276
    -2
286
     1
 66
     0
277
    -2
287
     1
 67
     0
278
    -2
288
     1
 68
     0
279
    -2
289
     1
 69
     0
  7
Standard
140
0.25
170
     5
 62
     0
 63
     7
283
     0
274
    -2
284
     1
 64
     0
275
    -2
285
     1
 65
     0
276
    -2
286
     1
 66
     0
277
    -2
287
     1
 67
     0
278
    -2
288
     1
 68
     0
279
    -2
289
     1
 69
     0
  7
Standard
140
0.18
170
     5
 62
     0
 63
     7
283
     0
274
    -2
284
     1
 64
     0
275
    -2
285
     1
 65
     0
276
    -2
286
     1
 66
     0
277
    -2
287
     1
 67
     0
278
    -2
288
     1
 68
     0
279
    -2
289
     1
 69
     0
  0
VISUALSTYLE
  5
287
102
{ACAD_REACTORS
330
281
102
}
330
281
100
AcDbVisualStyle
  2
2dWireframe
 70
     4
 71
     0
 72
     2
 73
     0
 90
        0
 40
-0.6
 41
-30.0
 62
     5
 63
     7
421
 16777215
 74
     1
 91
        4
 64
     7
 65
   257
 75
     1
175
     1
 42
1.0
 92
        0
 66
   257
 43
1.0
 76
     1
 77
     6
 78
     2
 67
     7
 79
     5
170
     0
171
     0
290
     0
174
     0
 93
        1
 44
0.0
173
     0
291
     0
 45
0.0
1001
ACAD
1000
AcDbSavedByObjectVersion
1070
     0
  0
VISUALSTYLE
  5
289
102
{ACAD_REACTORS
330
281
102
}
330
281
100
AcDbVisualStyle
  2
3D Hidden
 70
     6
 71
     1
 72
     2
 73
     2
 90
        0
 40
-0.6
 41
-30.0
 62
     5
 63
     7
421
 16777215
 74
     2
 91
        2
 64
     7
 65
   257
 75
     2
175
     1
 42
40.0
 92
        0
 66
   257
 43
1.0
 76
     1
 77
     6
 78
     2
 67
     7
 79
     3
170
     0
171
     0
290
     0
174
     0
 93
        1
 44
0.0
173
     0
291
     0
 45
0.0
1001
ACAD
1000
AcDbSavedByObjectVersion
1070
     0
  0
VISUALSTYLE
  5
288
102
{ACAD_REACTORS
330
281
102
}
330
281
100
AcDbVisualStyle
  2
3dWireframe
 70
     5
 71
     0
 72
     2
 73
     0
 90
        0
 40
-0.6
 41
-30.0
 62
     5
 63
     7
421
 16777215
 74
     1
 91
        4
 64
     7
 65
   257
 75
     1
175
     1
 42
1.0
 92
        0
 66
   257
 43
1.0
 76
     1
 77
     6
 78
     2
 67
     7
 79
     5
170
     0
171
     0
290
     0
174
     0
 93
        1
 44
0.0
173
     0
291
     0
 45
0.0
1001
ACAD
1000
AcDbSavedByObjectVersion
1070
     0
  0
VISUALSTYLE
  5
286
102
{ACAD_REACTORS
330
281
102
}
330
281
100
AcDbVisualStyle
  2
Basic
 70
     7
 71
     1
 72
     0
 73
     1
 90
        0
 40
-0.6
 41
-30.0
 62
     5
 63
     7
421
 16777215
 74
     0
 91
        4
 64
     7
 65
   257
 75
     1
175
     1
 42
1.0
 92
        8
 66
     7
 43
1.0
 76
     1
 77
     6
 78
     2
 67
     7
 79
     5
170
     0
171
     0
290
     0
174
     0
 93
        1
 44
0.0
173
     0
291
     1
 45
0.0
1001
ACAD
1000
AcDbSavedByObjectVersion
1070
     0
  0
VISUALSTYLE
  5
28D
102
{ACAD_REACTORS
330
281
102
}
330
281
100
AcDbVisualStyle
  2
Brighten
 70
    12
 71
     2
 72
     2
 73
     0
 90
        0
 40
-0.6
 41
-30.0
 62
     5
 63
     7
421
 16777215
 74
     1
 91
        4
 64
     7
 65
   257
 75
     1
175
     1
 42
1.0
 92
        8
 66
     7
 43
1.0
 76
     1
 77
     6
 78
     2
 67
     7
 79
     5
170
     0
171
     0
290
     0
174
     0
 93
        1
 44
50.0
173
     0
291
     1
 45
0.0
1001
ACAD
1000
AcDbSavedByObjectVersion
1070
     0
  0
VISUALSTYLE
  5
291
102
{ACAD_REACTORS
330
281
102
}
330
281
100
AcDbVisualStyle
  2
ColorChange
 70
    16
 71
     2
 72
     2
 73
     3
 90
        0
 40
-0.6
 41
-30.0
 62
     5
 63
     8
421
  8421504
 74
     1
 91
        4
 64
     7
 65
   257
 75
     1
175
     1
 42
1.0
 92
        8
 66
     8
424
  8421504
 43
1.0
 76
     1
 77
     6
 78
     2
 67
     7
 79
     5
170
     0
171
     0
290
     0
174
     0
 93
        1
 44
0.0
173
     0
291
     1
 45
0.0
1001
ACAD
1000
AcDbSavedByObjectVersion
1070
     0
  0
VISUALSTYLE
  5
28A
102
{ACAD_REACTORS
330
281
102
}
330
281
100
AcDbVisualStyle
  2
Conceptual
 70
     9
 71
     3
 72
     2
 73
     0
 90
        0
 40
-0.6
 41
-30.0
 62
     5
 63
     7
421
 16777215
 74
     2
 91
        2
 64
     7
 65
   257
 75
     1
175
     1
 42
40.0
 92
        8
 66
     7
 43
1.0
 76
     1
 77
     6
 78
     2
 67
     7
 79
     3
170
     0
171
     0
290
     0
174
     0
 93
        1
 44
0.0
173
     0
291
     0
 45
0.0
1001
ACAD
1000
AcDbSavedByObjectVersion
1070
     0
  0
VISUALSTYLE
  5
28C
102
{ACAD_REACTORS
330
281
102
}
330
281
100
AcDbVisualStyle
  2
Dim
 70
    11
 71
     2
 72
     2
 73
     0
 90
        0
 40
-0.6
 41
-30.0
 62
     5
 63
     7
421
 16777215
 74
     1
 91
        4
 64
     7
 65
   257
 75
     1
175
     1
 42
1.0
 92
        8
 66
     7
 43
1.0
 76
     1
 77
     6
 78
     2
 67
     7
 79
     5
170
     0
171
     0
290
     0
174
     0
 93
        1
 44
-50.0
173
     0
291
     1
 45
0.0
1001
ACAD
1000
AcDbSavedByObjectVersion
1070
     0
  0
VISUALSTYLE
  5
290
102
{ACAD_REACTORS
330
281
102
}
330
281
100
AcDbVisualStyle
  2
Facepattern
 70
    15
 71
     2
 72
     2
 73
     0
 90
        0
 40
-0.6
 41
-30.0
 62
     5
 63
     7
421
 16777215
 74
     1
 91
        4
 64
     7
 65
   257
 75
     1
175
     1
 42
1.0
 92
        8
 66
     7
 43
1.0
 76
     1
 77
     6
 78
     2
 67
     7
 79
     5
170
     0
171
     0
290
     0
174
     0
 93
        1
 44
0.0
173
     0
291
     1
 45
0.0
1001
ACAD
1000
AcDbSavedByObjectVersion
1070
     0
  0
VISUALSTYLE
  5
282
102
{ACAD_REACTORS
330
281
102
}
330
281
100
AcDbVisualStyle
  2
Flat
 70
     0
 71
     2
 72
     1
 73
     1
 90
        2
 40
-0.6
 41
30.0
 62
     5
 63
     7
421
 16777215
 74
     0
 91
        4
 64
     7
 65
   257
 75
     1
175
     1
 42
1.0
 92
        8
 66
     7
 43
1.0
 76
     1
 77
     6
 78
     2
 67
     7
 79
     5
170
     0
171
     0
290
     0
174
     0
 93
       13
 44
0.0
173
     0
291
     1
 45
0.0
1001
ACAD
1000
AcDbSavedByObjectVersion
1070
     0
  0
VISUALSTYLE
  5
283
102
{ACAD_REACTORS
330
281
102
}
330
281
100
AcDbVisualStyle
  2
FlatWithEdges
 70
     1
 71
     2
 72
     1
 73
     1
 90
        2
 40
-0.6
 41
30.0
 62
     5
 63
     7
421
 16777215
 74
     1
 91
        4
 64
     7
 65
   257
 75
     1
175
     1
 42
1.0
 92
        0
 66
   257
 43
1.0
 76
     1
 77
     6
 78
     2
 67
     7
 79
     5
170
     0
171
     0
290
     0
174
     0
 93
       13
 44
0.0
173
     0
291
     1
 45
0.0
1001
ACAD
1000
AcDbSavedByObjectVersion
1070
     0
  0
VISUALSTYLE
  5
284
102
{ACAD_REACTORS
330
281
102
}
330
281
100
AcDbVisualStyle
  2
Gouraud
 70
     2
 71
     2
 72
     2
 73
     1
 90
        2
 40
-0.6
 41
30.0
 62
     5
 63
     7
421
 16777215
 74
     0
 91
        4
 64
     7
 65
   257
 75
     1
175
     1
 42
1.0
 92
        0
 66
     7
 43
1.0
 76
     1
 77
     6
 78
     2
 67
     7
 79
     5
170
     0
171
     0
290
     0
174
     0
 93
       13
 44
0.0
173
     0
291
     1
 45
0.0
1001
ACAD
1000
AcDbSavedByObjectVersion
1070
     0
  0
VISUALSTYLE
  5
285
102
{ACAD_REACTORS
330
281
102
}
330
281
100
AcDbVisualStyle
  2
GouraudWithEdges
 70
     3
 71
     2
 72
     2
 73
     1
 90
        2
 40
-0.6
 41
30.0
 62
     5
 63
     7
421
 16777215
 74
     1
 91
        4
 64
     7
 65
   257
 75
     1
175
     1
 42
1.0
 92
        0
 66
   257
 43
1.0
 76
     1
 77
     6
 78
     2
 67
     7
 79
     5
170
     0
171
     0
290
     0
174
     0
 93
       13
 44
0.0
173
     0
291
     1
 45
0.0
1001
ACAD
1000
AcDbSavedByObjectVersion
1070
     0
  0
VISUALSTYLE
  5
28F
102
{ACAD_REACTORS
330
281
102
}
330
281
100
AcDbVisualStyle
  2
Linepattern
 70
    14
 71
     2
 72
     2
 73
     0
 90
        0
 40
-0.6
 41
-30.0
 62
     5
 63
     7
421
 16777215
 74
     1
 91
        4
 64
     7
 65
   257
 75
     7
175
     7
 42
1.0
 92
        8
 66
     7
 43
1.0
 76
     1
 77
     6
 78
     2
 67
     7
 79
     5
170
     0
171
     0
290
     0
174
     0
 93
        1
 44
0.0
173
     0
291
     1
 45
0.0
1001
ACAD
1000
AcDbSavedByObjectVersion
1070
     0
  0
VISUALSTYLE
  5
28B
102
{ACAD_REACTORS
330
281
102
}
330
281
100
AcDbVisualStyle
  2
Realistic
 70
     8
 71
     2
 72
     2
 73
     0
 90
        0
 40
-0.6
 41
-30.0
 62
     5
 63
     7
421
 16777215
 74
     1
 91
        0
 64
     7
 65
   257
 75
     1
175
     1
 42
1.0
 92
        8
 66
     8
424
  7895160
 43
1.0
 76
     1
 77
     6
 78
     2
 67
     7
 79
     5
170
     0
171
     0
290
     0
174
     0
 93
       13
 44
0.0
173
     0
291
     0
 45
0.0
1001
ACAD
1000
AcDbSavedByObjectVersion
1070
     0
  0
VISUALSTYLE
  5
28E
102
{ACAD_REACTORS
330
281
102
}
330
281
100
AcDbVisualStyle
  2
Thicken
 70
    13
 71
     2
 72
     2
 73
     0
 90
        0
 40
-0.6
 41
-30.0
 62
     5
 63
     7
421
 16777215
 74
     1
 91
        4
 64
     7
 65
   257
 75
     1
175
     1
 42
1.0
 92
       12
 66
     7
 43
1.0
 76
     1
 77
     6
 78
     2
 67
     7
 79
     5
170
     0
171
     0
290
     0
174
     0
 93
        1
 44
0.0
173
     0
291
     1
 45
0.0
1001
ACAD
1000
AcDbSavedByObjectVersion
1070
     0
  0
DICTIONARYVAR
  5
2DE
102
{ACAD_REACTORS
330
266
102
}
330
266
100
DictionaryVariables
280
     0
  1
1:1
  0
DICTIONARYVAR
  5
2DD
102
{ACAD_REACTORS
330
266
102
}
330
266
100
DictionaryVariables
280
     0
  1
STANDARD
  0
DICTIONARYVAR
  5
267
102
{ACAD_REACTORS
330
266
102
}
330
266
100
DictionaryVariables
280
     0
  1
STANDARD
  0
DICTIONARY
  5
272
330
271
100
AcDbDictionary
280
     1
281
     1
  3
ACAD_XREC_ROUNDTRIP
360
2E4
  3
BUMPTILE
360
274
  3
DIFFUSETILE
360
273
  3
OPACITYTILE
360
277
  3
REFLECTIONTILE
360
276
  3
REFRACTIONTILE
360
278
  3
SPECULARTILE
360
275
  0
DICTIONARY
  5
26A
330
269
100
AcDbDictionary
280
     1
281
     1
  3
ACAD_XREC_ROUNDTRIP
360
2E3
  3
BUMPTILE
360
26C
  3
DIFFUSETILE
360
26B
  3
OPACITYTILE
360
26F
  3
REFLECTIONTILE
360
26E
  3
REFRACTIONTILE
360
270
  3
SPECULARTILE
360
26D
  0
DICTIONARY
  5
27A
330
279
100
AcDbDictionary
280
     1
281
     1
  3
ACAD_XREC_ROUNDTRIP
360
2E5
  3
BUMPTILE
360
27C
  3
DIFFUSETILE
360
27B
  3
OPACITYTILE
360
27F
  3
REFLECTIONTILE
360
27E
  3
REFRACTIONTILE
360
280
  3
SPECULARTILE
360
27D
  0
DICTIONARY
  5
2DF
330
262
100
AcDbDictionary
280
     1
281
     1
  3
ACAD_ROUNDTRIP_2008_TABLESTYLE_CELLSTYLEMAP
360
2E0
  3
ACAD_XREC_ROUNDTRIP
360
2E2
  0
XRECORD
  5
2E4
102
{ACAD_REACTORS
330
272
102
}
330
272
100
AcDbXrecord
280
     1
102
MATERIAL
148
0.0
149
0.0
149
0.0
 93
        0
 94
      127
282
     0
 72
     0
 77
     0
171
     0
175
     0
179
     0
273
     0
  0
XRECORD
  5
274
102
{ACAD_REACTORS
330
272
102
}
330
272
100
AcDbXrecord
280
     1
270
     1
271
     1
  0
XRECORD
  5
273
102
{ACAD_REACTORS
330
272
102
}
330
272
100
AcDbXrecord
280
     1
270
     1
271
     1
  0
XRECORD
  5
277
102
{ACAD_REACTORS
330
272
102
}
330
272
100
AcDbXrecord
280
     1
270
     1
271
     1
  0
XRECORD
  5
276
102
{ACAD_REACTORS
330
272
102
}
330
272
100
AcDbXrecord
280
     1
270
     1
271
     1
  0
XRECORD
  5
278
102
{ACAD_REACTORS
330
272
102
}
330
272
100
AcDbXrecord
280
     1
270
     1
271
     1
  0
XRECORD
  5
275
102
{ACAD_REACTORS
330
272
102
}
330
272
100
AcDbXrecord
280
     1
270
     1
271
     1
  0
XRECORD
  5
2E3
102
{ACAD_REACTORS
330
26A
102
}
330
26A
100
AcDbXrecord
280
     1
102
MATERIAL
148
0.0
149
0.0
149
0.0
 93
        0
 94
      127
282
     0
 72
     0
 77
     0
171
     0
175
     0
179
     0
273
     0
  0
XRECORD
  5
26C
102
{ACAD_REACTORS
330
26A
102
}
330
26A
100
AcDbXrecord
280
     1
270
     1
271
     1
  0
XRECORD
  5
26B
102
{ACAD_REACTORS
330
26A
102
}
330
26A
100
AcDbXrecord
280
     1
270
     1
271
     1
  0
XRECORD
  5
26F
102
{ACAD_REACTORS
330
26A
102
}
330
26A
100
AcDbXrecord
280
     1
270
     1
271
     1
  0
XRECORD
  5
26E
102
{ACAD_REACTORS
330
26A
102
}
330
26A
100
AcDbXrecord
280
     1
270
     1
271
     1
  0
XRECORD
  5
270
102
{ACAD_REACTORS
330
26A
102
}
330
26A
100
AcDbXrecord
280
     1
270
     1
271
     1
  0
XRECORD
  5
26D
102
{ACAD_REACTORS
330
26A
102
}
330
26A
100
AcDbXrecord
280
     1
270
     1
271
     1
  0
XRECORD
  5
2E5
102
{ACAD_REACTORS
330
27A
102
}
330
27A
100
AcDbXrecord
280
     1
102
MATERIAL
148
0.0
149
0.0
149
0.0
 93
        0
 94
      127
282
     0
 72
     0
 77
     0
171
     0
175
     0
179
     0
273
     0
  0
XRECORD
  5
27C
102
{ACAD_REACTORS
330
27A
102
}
330
27A
100
AcDbXrecord
280
     1
270
     1
271
     1
  0
XRECORD
  5
27B
102
{ACAD_REACTORS
330
27A
102
}
330
27A
100
AcDbXrecord
280
     1
270
     1
271
     1
  0
XRECORD
  5
27F
102
{ACAD_REACTORS
330
27A
102
}
330
27A
100
AcDbXrecord
280
     1
270
     1
271
     1
  0
XRECORD
  5
27E
102
{ACAD_REACTORS
330
27A
102
}
330
27A
100
AcDbXrecord
280
     1
270
     1
271
     1
  0
XRECORD
  5
280
102
{ACAD_REACTORS
330
27A
102
}
330
27A
100
AcDbXrecord
280
     1
270
     1
271
     1
  0
XRECORD
  5
27D
102
{ACAD_REACTORS
330
27A
102
}
330
27A
100
AcDbXrecord
280
     1
270
     1
271
     1
  0
CELLSTYLEMAP
  5
2E0
102
{ACAD_REACTORS
330
2DF
102
}
330
2DF
100
AcDbCellStyleMap
 90
        3
300
CELLSTYLE
  1
TABLEFORMAT_BEGIN
 90
        5
170
     1
 91
        0
 92
    32768
 62
   257
 93
        1
300
CONTENTFORMAT
  1
CONTENTFORMAT_BEGIN
 90
        0
 91
        0
 92
        4
 93
        0
300

 40
0.0
140
1.0
 94
        5
 62
     0
340
17
144
0.25
309
CONTENTFORMAT_END
171
     0
 94
        6
 95
        1
302
GRIDFORMAT
  1
GRIDFORMAT_BEGIN
 90
        0
 91
        1
 62
     0
 92
       -2
340
0
 93
        0
 40
0.045
309
GRIDFORMAT_END
 95
        2
302
GRIDFORMAT
  1
GRIDFORMAT_BEGIN
 90
        0
 91
        1
 62
     0
 92
       -2
340
0
 93
        0
 40
0.045
309
GRIDFORMAT_END
 95
        4
302
GRIDFORMAT
  1
GRIDFORMAT_BEGIN
 90
        0
 91
        1
 62
     0
 92
       -2
340
0
 93
        0
 40
0.045
309
GRIDFORMAT_END
 95
        8
302
GRIDFORMAT
  1
GRIDFORMAT_BEGIN
 90
        0
 91
        1
 62
     0
 92
       -2
340
0
 93
        0
 40
0.045
309
GRIDFORMAT_END
 95
       16
302
GRIDFORMAT
  1
GRIDFORMAT_BEGIN
 90
        0
 91
        1
 62
     0
 92
       -2
340
0
 93
        0
 40
0.045
309
GRIDFORMAT_END
 95
       32
302
GRIDFORMAT
  1
GRIDFORMAT_BEGIN
 90
        0
 91
        1
 62
     0
 92
       -2
340
0
 93
        0
 40
0.045
309
GRIDFORMAT_END
309
TABLEFORMAT_END
  1
CELLSTYLE_BEGIN
 90
        1
 91
        1
300
_TITLE
309
CELLSTYLE_END
300
CELLSTYLE
  1
TABLEFORMAT_BEGIN
 90
        5
170
     1
 91
        0
 92
        0
 62
   257
 93
        1
300
CONTENTFORMAT
  1
CONTENTFORMAT_BEGIN
 90
        0
 91
        0
 92
        4
 93
        0
300

 40
0.0
140
1.0
 94
        5
 62
     0
340
17
144
0.18
309
CONTENTFORMAT_END
171
     0
 94
        6
 95
        1
302
GRIDFORMAT
  1
GRIDFORMAT_BEGIN
 90
        0
 91
        1
 62
     0
 92
       -2
340
0
 93
        0
 40
0.045
309
GRIDFORMAT_END
 95
        2
302
GRIDFORMAT
  1
GRIDFORMAT_BEGIN
 90
        0
 91
        1
 62
     0
 92
       -2
340
0
 93
        0
 40
0.045
309
GRIDFORMAT_END
 95
        4
302
GRIDFORMAT
  1
GRIDFORMAT_BEGIN
 90
        0
 91
        1
 62
     0
 92
       -2
340
0
 93
        0
 40
0.045
309
GRIDFORMAT_END
 95
        8
302
GRIDFORMAT
  1
GRIDFORMAT_BEGIN
 90
        0
 91
        1
 62
     0
 92
       -2
340
0
 93
        0
 40
0.045
309
GRIDFORMAT_END
 95
       16
302
GRIDFORMAT
  1
GRIDFORMAT_BEGIN
 90
        0
 91
        1
 62
     0
 92
       -2
340
0
 93
        0
 40
0.045
309
GRIDFORMAT_END
 95
       32
302
GRIDFORMAT
  1
GRIDFORMAT_BEGIN
 90
        0
 91
        1
 62
     0
 92
       -2
340
0
 93
        0
 40
0.045
309
GRIDFORMAT_END
309
TABLEFORMAT_END
  1
CELLSTYLE_BEGIN
 90
        2
 91
        1
300
_HEADER
309
CELLSTYLE_END
300
CELLSTYLE
  1
TABLEFORMAT_BEGIN
 90
        5
170
     1
 91
        0
 92
        0
 62
   257
 93
        1
300
CONTENTFORMAT
  1
CONTENTFORMAT_BEGIN
 90
        0
 91
        0
 92
        4
 93
        0
300

 40
0.0
140
1.0
 94
        2
 62
     0
340
17
144
0.18
309
CONTENTFORMAT_END
171
     0
 94
        6
 95
        1
302
GRIDFORMAT
  1
GRIDFORMAT_BEGIN
 90
        0
 91
        1
 62
     0
 92
       -2
340
0
 93
        0
 40
0.045
309
GRIDFORMAT_END
 95
        2
302
GRIDFORMAT
  1
GRIDFORMAT_BEGIN
 90
        0
 91
        1
 62
     0
 92
       -2
340
0
 93
        0
 40
0.045
309
GRIDFORMAT_END
 95
        4
302
GRIDFORMAT
  1
GRIDFORMAT_BEGIN
 90
        0
 91
        1
 62
     0
 92
       -2
340
0
 93
        0
 40
0.045
309
GRIDFORMAT_END
 95
        8
302
GRIDFORMAT
  1
GRIDFORMAT_BEGIN
 90
        0
 91
        1
 62
     0
 92
       -2
340
0
 93
        0
 40
0.045
309
GRIDFORMAT_END
 95
       16
302
GRIDFORMAT
  1
GRIDFORMAT_BEGIN
 90
        0
 91
        1
 62
     0
 92
       -2
340
0
 93
        0
 40
0.045
309
GRIDFORMAT_END
 95
       32
302
GRIDFORMAT
  1
GRIDFORMAT_BEGIN
 90
        0
 91
        1
 62
     0
 92
       -2
340
0
 93
        0
 40
0.045
309
GRIDFORMAT_END
309
TABLEFORMAT_END
  1
CELLSTYLE_BEGIN
 90
        3
 91
        2
300
_DATA
309
CELLSTYLE_END
  0
XRECORD
  5
2E2
102
{ACAD_REACTORS
330
2DF
102
}
330
2DF
100
AcDbXrecord
280
     1
102
ACAD_ROUNDTRIP_PRE2007_TABLESTYLE
 90
        4
 91
        0
  1

 92
        4
 93
        0
  2

 94
        4
 95
        0
  3

  0
ENDSEC
  0
EOF
